<?xml version="1.0" standalone="no"?>
<!DOCTYPE svg PUBLIC "-//W3C//DTD SVG 1.1//EN" "http://www.w3.org/Graphics/SVG/1.1/DTD/svg11.dtd">
<svg xmlns="http://www.w3.org/2000/svg">
<defs >
<font id="Ubuntu" horiz-adv-x="584" ><font-face
    font-family="Ubuntu"
    units-per-em="1000"
    panose-1="2 11 5 4 3 6 2 10 2 4"
    ascent="932"
    descent="-189"
    alphabetic="0" />
<glyph unicode=" " glyph-name="space" horiz-adv-x="231" />
<glyph unicode="!" glyph-name="exclam" horiz-adv-x="250" d="M338 693L293 504Q287 480 277 442T254 362T228 282T203 216H146Q154 284 164 352T195 505L240 693H338ZM133 -13Q105 -13 89 2T73 46Q73 82 94 101T144 121Q172 121 188 106T205 60Q205 43 199 30T182
7T159 -8T133 -13Z" />
<glyph unicode="&quot;" glyph-name="quotedbl" horiz-adv-x="410" d="M348 760L336 710Q324 661 306 607T265 501H211Q215 555 222 607T241 711L253 760H348ZM521 760L509 710Q497 661 479 607T438 501H384Q388 555 395 607T414 711L426 760H521Z" />
<glyph unicode="#" glyph-name="numbersign" horiz-adv-x="654" d="M402 510H559L637 693H721L643 510H727L709 436H612L534 257H666L648 183H503L425 0H341L418 183H262L184 0H100L177 183H91L109 257H209L286 436H152L170 510H317L396 693H480L402 510ZM293
257H450L528 436H371L293 257Z" />
<glyph unicode="$" glyph-name="dollar" horiz-adv-x="564" d="M277 96Q306 96 335 101T387 120T424 154T438 208Q438 230 430 246T406 275T369 298T322 321Q300 331 279 344T240 375T213 419T202 481Q202 553 250 601T395 662L422 776H503L476 664Q519 660 553
647T606 621L564 552Q547 564 515 575T434 586Q405 586 380 581T335 563T304 533T293 489Q293 448 318 426T394 380Q421 368 446 354T489 321T519 277T530 216Q530 172 515 138T472 80T406 40T321 20L291 -109H210L241 21Q215 22 191 27T146 39T109 53T84 67L127
138Q145 127 182 112T277 96Z" />
<glyph unicode="%" glyph-name="percent" horiz-adv-x="836" d="M269 0H174L723 693H818L269 0ZM158 476Q158 518 171 559T209 634T270 687T351 708Q411 708 444 674T478 572Q478 530 465 489T427 414T366 361T285 340Q225 340 192 374T158 476ZM404 565Q404 599
393 620T346 642Q317 642 296 626T260 587T239 535T232 483Q232 449 243 428T290 406Q319 406 340 422T376 461T397 513T404 565ZM514 121Q514 163 527 204T565 279T626 332T707 353Q767 353 800 319T834 217Q834 175 821 134T783 59T722 6T641 -15Q581 -15 548
19T514 121ZM760 210Q760 244 749 265T702 287Q673 287 652 271T616 232T595 180T588 128Q588 94 599 73T646 51Q675 51 696 67T732 106T753 158T760 210Z" />
<glyph unicode="&amp;" glyph-name="ampersand" horiz-adv-x="640" d="M78 147Q78 192 92 228T132 292T193 343T269 384Q252 412 240 443T228 514Q228 559 243 595T285 656T352 695T440 709Q468 709 494 701T539 675T569 634T581 576Q581 537 567 506T528 448T467
400T390 359L506 198Q554 259 583 339L664 329Q650 287 623 236T553 135Q578 100 599 66T633 0H537Q529 18 518 36T492 75Q447 38 392 15T264 -9Q214 -9 179 2T122 35T89 84T78 147ZM270 68Q318 68 364 85T447 137L309 327Q283 316 258 301T214 265T182 220T169
163Q169 121 191 95T270 68ZM315 520Q315 493 325 467T352 415Q378 425 404 439T450 473T483 515T496 565Q496 599 478 617T427 635Q382 635 349 607T315 520Z" />
<glyph unicode="&apos;" glyph-name="quotesingle" horiz-adv-x="236" d="M348 760L336 710Q324 661 306 607T265 501H211Q215 555 222 607T241 711L253 760H348Z" />
<glyph unicode="(" glyph-name="parenleft" horiz-adv-x="317" d="M491 739Q428 676 377 606T291 460T236 305T216 143Q216 58 228 -10T269 -141L198 -181Q164 -121 145 -42T126 124Q126 314 202 478T429 783L491 739Z" />
<glyph unicode=")" glyph-name="parenright" horiz-adv-x="317" d="M-50 -141Q13 -78 64 -8T150 138T205 293T225 455Q225 540 213 608T172 739L243 779Q277 719 296 640T315 474Q315 284 239 120T12 -185L-50 -141Z" />
<glyph unicode="*" glyph-name="asterisk" horiz-adv-x="470" d="M396 685Q396 643 389 605T373 525Q409 545 443 564T520 597L526 599L554 515L546 512Q506 497 466 493T384 485Q417 457 446 431T500 369L505 362L432 311L428 317Q404 353 387 388T351 462Q333
424 316 389T274 317L270 311L197 362L202 369Q227 404 256 430T318 485Q276 488 236 492T156 512L148 515L176 599L182 597Q224 583 258 564T329 525Q321 567 314 605T306 685V693H396V685Z" />
<glyph unicode="+" glyph-name="plus" horiz-adv-x="564" d="M455 543L405 337H587L568 258H386L336 51H252L301 258H119L138 337H320L370 543H455Z" />
<glyph unicode="," glyph-name="comma" horiz-adv-x="246" d="M198 114Q193 78 181 41T152 -31T112 -99T66 -159L3 -133Q23 -106 39 -74T68 -9T88 55T99 114H198Z" />
<glyph unicode="-" glyph-name="hyphen" horiz-adv-x="293" d="M107 343H349L329 256H87L107 343Z" />
<glyph unicode="." glyph-name="period" horiz-adv-x="246" d="M128 -13Q100 -13 84 2T68 46Q68 82 89 101T139 121Q167 121 183 106T200 60Q200 43 194 30T177 7T154 -8T128 -13Z" />
<glyph unicode="/" glyph-name="slash" horiz-adv-x="376" d="M27 -185H-66L493 783H586L27 -185Z" />
<glyph unicode="0" glyph-name="zero" horiz-adv-x="564" d="M609 501Q609 452 600 395T574 280T529 169T466 75T383 10T282 -15Q197 -15 157 37T116 193Q116 242 125 299T151 414T196 525T259 619T341 684T443 709Q528 709 568 657T609 501ZM514 489Q514 564
496 596T432 628Q401 628 372 609T319 558T274 484T240 394T219 298T211 205Q211 130 229 98T293 66Q325 66 353 85T406 136T451 210T485 300T506 395T514 489Z" />
<glyph unicode="1" glyph-name="one" horiz-adv-x="564" d="M408 555Q394 544 375 533T333 510T286 490T240 473L225 550Q285 572 347 606T467 693H534L368 0H275L408 555Z" />
<glyph unicode="2" glyph-name="two" horiz-adv-x="564" d="M589 552Q589 499 572 459T526 386T459 323T378 261Q353 242 325 220T272 175T228 127T201 78H502L484 0H79Q87 53 107 96T156 175T219 241T291 299Q330 328 366 355T431 411T476 471T493 539Q493 581
471 604T397 628Q369 628 344 621T299 604T264 583T239 562L207 634Q221 647 242 660T289 684T346 702T409 709Q457 709 491 696T547 660T579 610T589 552Z" />
<glyph unicode="3" glyph-name="three" horiz-adv-x="564" d="M249 67Q289 67 323 76T383 105T423 152T437 219Q437 279 394 305T278 331H257L275 407H306Q339 407 370 415T427 441T468 484T484 544Q484 586 459 607T385 629Q342 629 308 616T248 586L226 658Q239
667 258 676T300 692T348 704T400 709Q447 709 480 697T536 664T568 615T578 554Q578 488 540 442T435 369Q452 362 469 350T500 319T522 276T531 221Q531 168 513 125T458 50T369 2T246 -15Q211 -15 182 -10T129 1T91 15T69 26L104 105Q111 101 123 95T154 82T195
72T249 67Z" />
<glyph unicode="4" glyph-name="four" horiz-adv-x="564" d="M481 177L439 0H349L391 177H87L102 240Q130 287 175 347T276 469T393 589T514 693H605L499 253H580L562 177H481ZM488 577Q452 547 413 510T336 430T263 343T200 253H410L488 577Z" />
<glyph unicode="5" glyph-name="five" horiz-adv-x="564" d="M368 615Q362 595 354 569T336 517T319 466T306 426Q420 411 477 364T535 230Q535 179 518 134T465 56T374 4T242 -15Q210 -15 182 -10T131 1T93 14T73 24L109 102Q123 94 157 81T247 67Q288 67 323
77T385 107T426 156T441 221Q441 267 416 293T354 333T274 351T195 357Q211 403 226 445T254 527T280 608T303 693H627L609 615H368Z" />
<glyph unicode="6" glyph-name="six" horiz-adv-x="564" d="M236 318Q226 286 221 253T216 193Q216 130 238 96T318 61Q357 61 387 77T437 121T468 181T479 250Q479 298 456 323T378 348Q343 348 308 342T236 318ZM124 185Q124 290 159 383T259 545T415 655T620
696H633L622 617H617Q546 617 489 599T386 550T310 478T260 392Q292 408 329 416T400 425Q445 425 477 412T531 376T561 323T571 260Q571 210 556 161T508 72T426 9T305 -15Q217 -15 171 38T124 185Z" />
<glyph unicode="7" glyph-name="seven" horiz-adv-x="564" d="M158 0Q173 53 197 110T253 226T319 340T392 446T466 539T538 612H209L228 693H663L644 613Q601 576 545 510T434 362T331 186T256 0H158Z" />
<glyph unicode="8" glyph-name="eight" horiz-adv-x="564" d="M469 349Q503 326 526 293T550 206Q550 162 534 122T484 52T401 3T285 -15Q235 -15 200 -1T143 35T111 85T101 141Q101 213 143 269T261 362Q200 410 200 486Q200 531 216 571T264 642T339 691T440
709Q486 709 519 696T574 661T605 612T615 555Q615 486 577 435T469 349ZM330 327Q303 315 278 297T234 257T204 210T193 157Q193 137 198 120T215 90T247 69T297 61Q330 61 359 71T411 99T445 142T458 197Q458 246 424 276T330 327ZM396 381Q421 393 444 409T484
445T512 490T523 545Q523 560 519 576T505 604T476 625T429 633Q399 633 374 623T331 594T302 551T291 495Q291 453 316 426T396 381Z" />
<glyph unicode="9" glyph-name="nine" horiz-adv-x="564" d="M326 272Q281 272 249 285T195 320T164 373T154 436Q154 486 169 535T217 622T299 684T414 708Q507 708 554 655T601 508Q601 401 568 308T471 146T317 38T111 -2Q106 -2 101 -2T85 -1L102 78Q105 77
111 77T120 77Q190 77 245 94T343 143T416 215T466 304Q434 288 397 280T326 272ZM348 349Q383 349 418 355T490 379Q499 409 504 442T509 509Q509 564 485 598T407 632Q368 632 338 616T288 573T257 514T246 446Q246 398 270 374T348 349Z" />
<glyph unicode=":" glyph-name="colon" horiz-adv-x="246" d="M223 386Q195 386 179 401T163 445Q163 481 184 500T234 520Q262 520 278 505T295 459Q295 442 289 429T272 406T249 391T223 386ZM128 -13Q100 -13 84 2T68 46Q68 82 89 101T139 121Q167 121 183
106T200 60Q200 43 194 30T177 7T154 -8T128 -13Z" />
<glyph unicode=";" glyph-name="semicolon" horiz-adv-x="246" d="M198 114Q193 78 181 41T152 -31T112 -99T66 -159L3 -133Q23 -106 39 -74T68 -9T88 55T99 114H198ZM223 386Q195 386 179 401T163 445Q163 481 184 500T234 520Q262 520 278 505T295 459Q295 442
289 429T272 406T249 391T223 386Z" />
<glyph unicode="&lt;" glyph-name="less" horiz-adv-x="564" d="M499 74L119 257L138 337L606 520L612 438L230 292L541 147L499 74Z" />
<glyph unicode="=" glyph-name="equal" horiz-adv-x="564" d="M164 443H613L594 364H145L164 443ZM113 230H562L543 151H94L113 230Z" />
<glyph unicode="&gt;" glyph-name="greater" horiz-adv-x="564" d="M207 520L587 337L568 257L100 74L94 156L476 302L165 447L207 520Z" />
<glyph unicode="?" glyph-name="question" horiz-adv-x="384" d="M488 567Q488 534 476 506T445 455T401 411T352 371Q315 342 285 311T243 235Q241 229 241 224T240 216H159Q160 228 161 238T164 258Q176 309 211 345T291 417Q311 433 330 449T363 482T386 518T395
561Q395 572 392 585T380 608T353 626T308 633Q260 633 228 622T178 602L168 674Q192 688 233 698T320 709Q367 709 399 698T451 668T479 623T488 567ZM176 -13Q148 -13 132 2T116 46Q116 82 137 101T187 121Q215 121 231 106T248 60Q248 43 242 30T225 7T202 -8T176
-13Z" />
<glyph unicode="@" glyph-name="at" horiz-adv-x="931" d="M694 43Q631 43 605 78Q582 64 551 56T485 47Q410 47 365 89T320 217Q320 274 339 327T396 421T486 486T607 511Q659 511 697 502T756 485L683 181Q678 166 678 152Q678 140 684 131T711 122Q753 122
783 146T833 209T862 294T872 383Q872 438 858 484T813 563T730 614T605 633Q518 633 443 596T313 496T227 351T196 178Q196 111 215 63T270 -16T354 -62T462 -77Q520 -77 559 -70T610 -58L603 -132Q594 -135 577 -138T539 -145T493 -151T444 -153Q372 -153 311
-133T206 -72T136 29T111 168Q111 268 144 365T243 539T402 662T618 709Q781 709 869 628T957 389Q957 342 947 283T907 170T827 80T694 43ZM498 122Q552 122 590 142Q590 159 592 170T597 193L654 428Q649 430 632 432T595 434Q552 434 518 417T460 371T423 304T410
225Q410 171 432 147T498 122Z" />
<glyph unicode="A" glyph-name="A" horiz-adv-x="636" d="M214 178L116 0H10Q122 202 228 372T439 693H534Q549 618 561 542T586 381T609 203T632 0H534Q529 45 525 90T516 178H214ZM507 256Q499 337 489 417T464 582Q429 531 377 451T259 256H507Z" />
<glyph unicode="B" glyph-name="B" horiz-adv-x="618" d="M263 -7Q243 -7 220 -6T172 -3T125 2T84 11L245 683Q287 693 338 696T431 700Q482 700 524 692T597 665T645 616T663 544Q663 483 627 437T526 367Q569 351 595 318T622 237Q622 168 594 121T518 46T404
5T263 -7ZM254 324L196 78Q207 76 229 75T285 73Q322 73 364 78T441 100T499 147T523 227Q523 276 488 300T375 324H254ZM273 400H368Q401 400 435 405T498 425T545 465T564 529Q564 580 526 600T410 620Q384 620 359 618T325 614L273 400Z" />
<glyph unicode="C" glyph-name="C" horiz-adv-x="600" d="M387 -15Q322 -15 273 4T190 58T141 142T124 254Q124 344 152 426T233 571T360 671T525 709Q603 709 649 693T716 663L676 583Q653 598 614 611T520 625Q451 625 396 593T303 509T245 393T225 265Q225
70 394 70Q430 70 458 75T509 86T548 101T578 115L590 31Q578 24 559 16T513 1T455 -10T387 -15Z" />
<glyph unicode="D" glyph-name="D" horiz-adv-x="691" d="M415 618Q340 618 325 614L197 80Q205 78 224 77T286 75Q365 75 428 101T536 175T604 288T628 432Q628 520 577 569T415 618ZM423 700Q577 700 653 628T729 432Q729 346 702 267T618 126T473 29T261 -7Q219
-7 170 -3T84 11L245 684Q287 694 334 697T423 700Z" />
<glyph unicode="E" glyph-name="E" horiz-adv-x="557" d="M81 0L247 693H656L637 612H324L274 403H552L533 324H256L197 81H533L514 0H81Z" />
<glyph unicode="F" glyph-name="F" horiz-adv-x="524" d="M81 0L247 693H652L633 612H324L273 400H547L528 321H255L178 0H81Z" />
<glyph unicode="G" glyph-name="G" horiz-adv-x="651" d="M380 -14Q254 -14 189 58T124 254Q124 344 152 426T234 571T361 671T529 709Q575 709 608 703T666 689T705 673T729 658L686 579Q678 584 664 592T630 607T584 620T525 625Q454 625 398 593T304 509T245
393T225 265Q225 166 267 118T400 69Q437 69 467 74T510 84L570 338H665L589 22Q577 15 556 9T507 -3T447 -11T380 -14Z" />
<glyph unicode="H" glyph-name="H" horiz-adv-x="681" d="M596 0H499L576 322H255L178 0H81L247 693H344L274 403H595L665 693H762L596 0Z" />
<glyph unicode="I" glyph-name="I" horiz-adv-x="263" d="M247 693H344L178 0H81L247 693Z" />
<glyph unicode="J" glyph-name="J" horiz-adv-x="482" d="M455 223Q443 175 428 132T386 56T314 4T199 -15Q164 -15 136 -9T85 8T48 28T24 48L72 121Q88 105 120 87T201 69Q237 69 262 78T305 106T335 157T359 232L470 693H567L455 223Z" />
<glyph unicode="K" glyph-name="K" horiz-adv-x="614" d="M750 693Q712 659 665 617T566 530T462 442T363 361Q394 332 428 289T496 197T560 97T614 0H506Q480 46 450 94T389 186T324 268T258 334L178 0H81L247 693H344L271 390Q315 423 366 465T466 549T557 629T628
693H750Z" />
<glyph unicode="L" glyph-name="L" horiz-adv-x="507" d="M504 81L485 0H81L247 693H344L197 81H504Z" />
<glyph unicode="M" glyph-name="M" horiz-adv-x="847" d="M783 544Q767 522 743 487T691 410T633 323T575 235T523 156T484 96H406Q402 120 396 156T381 235T365 323T348 411T332 487T320 544Q278 415 238 278T160 0H64Q88 90 114 181T168 361T223 534T277 693H372Q384
649 397 589T424 464T449 333T469 215Q505 269 548 334T636 464T721 589T796 693H889Q872 524 844 350T781 0H684Q714 144 739 279T783 544Z" />
<glyph unicode="N" glyph-name="N" horiz-adv-x="698" d="M528 0Q510 58 485 132T431 282T370 429T309 554L176 0H81L247 693H330Q362 639 395 571T459 430T516 289T559 165L683 693H778L613 0H528Z" />
<glyph unicode="O" glyph-name="O" horiz-adv-x="739" d="M525 709Q580 709 626 693T706 643T758 561T777 445Q777 362 752 280T676 133T551 26T376 -15Q320 -15 274 1T195 51T143 133T124 249Q124 331 149 413T224 561T350 668T525 709ZM386 69Q453 69 507 101T598
186T656 303T676 433Q676 522 638 573T515 625Q447 625 394 593T303 508T245 391T225 261Q225 172 263 121T386 69Z" />
<glyph unicode="P" glyph-name="P" horiz-adv-x="590" d="M423 700Q544 700 605 654T667 520Q667 452 642 403T569 321T456 274T309 258H240L178 0H81L245 684Q287 694 334 697T423 700ZM411 618Q340 618 325 614L259 339H322Q364 339 408 346T487 373T544 425T567
512Q567 569 525 593T411 618Z" />
<glyph unicode="Q" glyph-name="Q" horiz-adv-x="739" d="M433 -11Q432 -14 432 -18T432 -24Q432 -44 447 -58T488 -82T547 -98T617 -109L583 -185Q548 -181 505 -173T425 -148T362 -101T337 -26Q337 -24 337 -21T338 -13Q242 -3 183 63T124 249Q124 331 149 413T224
561T350 668T525 709Q580 709 626 693T706 643T758 561T777 445Q777 368 756 292T691 153T583 45T433 -11ZM386 69Q453 69 507 101T598 186T656 303T676 433Q676 522 638 573T515 625Q447 625 394 593T303 508T245 391T225 261Q225 172 263 121T386 69Z" />
<glyph unicode="R" glyph-name="R" horiz-adv-x="609" d="M423 700Q534 700 599 655T664 523Q664 435 613 376T468 290Q480 269 496 237T529 165T562 83T590 0H491Q477 38 462 77T432 152T401 219T372 275Q359 274 346 274T320 273H243L178 0H81L245 684Q287 694
334 697T423 700ZM411 618Q340 618 325 614L262 352H321Q362 352 405 358T483 381T541 430T564 514Q564 570 522 594T411 618Z" />
<glyph unicode="S" glyph-name="S" horiz-adv-x="517" d="M246 69Q277 69 307 75T362 97T401 136T416 197Q416 222 407 240T381 273T342 300T292 327Q269 339 246 353T204 387T174 436T162 503Q162 548 179 586T231 651T314 694T428 709Q458 709 485 705T534 693T574
679T599 665L554 589Q537 603 500 614T411 626Q379 626 352 620T304 599T272 564T260 512Q260 486 268 469T290 438T324 413T369 390Q399 375 425 360T472 323T503 274T515 206Q515 151 494 110T435 41T346 -1T234 -15Q194 -15 162 -10T105 4T63 20T37 36L82 115Q101
102 142 86T246 69Z" />
<glyph unicode="T" glyph-name="T" horiz-adv-x="555" d="M699 693L680 612H471L324 0H227L374 612H165L184 693H699Z" />
<glyph unicode="U" glyph-name="U" horiz-adv-x="666" d="M334 -15Q282 -15 244 0T181 42T144 105T132 184Q132 206 136 233T145 283L243 693H340L240 277Q235 258 232 235T229 192Q229 166 235 144T255 106T293 80T349 70Q434 70 481 117T552 269L654 693H751L647
258Q633 201 615 151T562 65T474 7T334 -15Z" />
<glyph unicode="V" glyph-name="V" horiz-adv-x="623" d="M331 115Q373 175 416 244T503 387T588 539T668 693H775Q720 589 668 496T564 317T461 153T355 0H260Q245 75 232 151T208 312T187 489T166 693H266Q282 515 296 374T331 115Z" />
<glyph unicode="W" glyph-name="W" horiz-adv-x="916" d="M637 609Q645 475 659 349T688 124Q718 180 750 247T815 387T880 538T943 693H1046Q966 495 887 324T719 0H621Q604 106 588 218T562 464Q494 340 429 228T289 0H191Q183 81 180 162T177 330Q177 417 180
505T189 693H285Q278 588 274 486T270 277Q270 200 273 124Q342 230 410 353T548 609H637Z" />
<glyph unicode="X" glyph-name="X" horiz-adv-x="605" d="M484 0Q461 70 434 142T372 290L127 0H13L332 370L191 693H298L403 438Q457 501 509 565T606 693H717Q657 611 585 527T443 364Q481 274 518 181T585 0H484Z" />
<glyph unicode="Y" glyph-name="Y" horiz-adv-x="572" d="M232 0L298 278Q259 383 226 488T164 693H269Q288 612 311 528T364 366Q430 443 497 528T617 693H728Q653 591 571 489T395 278L329 0H232Z" />
<glyph unicode="Z" glyph-name="Z" horiz-adv-x="561" d="M666 616Q638 591 600 554T518 473T428 379T335 278T247 176T171 81H545L526 0H35L50 65Q79 104 117 150T198 247T287 349T378 448T465 538T542 612H199L218 693H684L666 616Z" />
<glyph unicode="[" glyph-name="bracketleft" horiz-adv-x="322" d="M281 783H502L485 710H351L153 -112H287L269 -185H48L281 783Z" />
<glyph unicode="\" glyph-name="backslash" horiz-adv-x="376" d="M165 783H250L356 -185H269L165 783Z" />
<glyph unicode="]" glyph-name="bracketright" horiz-adv-x="322" d="M180 -185H-41L-24 -112H110L308 710H174L192 783H413L180 -185Z" />
<glyph unicode="^" glyph-name="asciicircum" horiz-adv-x="564" d="M421 600L198 321L130 362L398 696H477L586 353L510 320L421 600Z" />
<glyph unicode="_" glyph-name="underscore" horiz-adv-x="496" d="M-27 -106H473L454 -185H-46L-27 -106Z" />
<glyph unicode="`" glyph-name="grave" horiz-adv-x="376" d="M298 779L425 619L376 576L230 722L298 779Z" />
<glyph unicode="a" glyph-name="a" horiz-adv-x="544" d="M432 -6Q427 5 422 18T414 47Q392 27 355 7T264 -13Q220 -13 189 1T137 40T108 99T98 174Q98 241 120 305T188 419T301 500T460 531Q487 531 523 525T585 505L508 191Q503 168 500 147T496 103Q496 80
500 57T514 6L432 -6ZM283 66Q325 66 355 84T407 126Q408 143 410 161T417 199L477 447Q472 449 461 450T440 451Q383 451 337 429T259 371T209 286T191 184Q191 163 195 142T209 104T237 77T283 66Z" />
<glyph unicode="b" glyph-name="b" horiz-adv-x="555" d="M289 499Q312 513 342 523T406 533Q449 533 481 519T535 481T566 422T577 349Q577 280 555 216T488 101T376 20T217 -11Q202 -11 184 -10T148 -4T112 6T81 20L258 760L355 776L289 499ZM383 454Q353 454
324 444T268 414L187 75Q197 73 210 71T236 69Q293 69 339 91T417 151T466 237T484 339Q484 361 480 382T464 419T433 444T383 454Z" />
<glyph unicode="c" glyph-name="c" horiz-adv-x="451" d="M100 186Q100 254 120 317T181 428T279 504T412 533Q445 533 475 529T532 511L497 433Q481 442 460 447T404 452Q355 452 316 431T250 374T208 292T193 195Q193 169 198 146T218 106T255 78T315 68Q333
68 353 71T390 80T420 90T440 101L448 22Q429 10 389 -1T298 -13Q250 -13 213 1T151 42T113 105T100 186Z" />
<glyph unicode="d" glyph-name="d" horiz-adv-x="547" d="M499 103Q499 80 503 57T517 6L435 -6Q424 16 418 47Q396 27 359 7T268 -13Q224 -13 192 0T139 39T108 98T98 174Q98 241 120 305T187 419T299 499T455 530Q466 530 477 529T500 526L556 760L653 776L512
191Q507 168 503 147T499 103ZM287 66Q329 66 358 83T410 124Q411 140 413 158T421 199L481 449Q472 451 461 451T440 452Q383 452 337 430T259 371T209 286T191 184Q191 161 196 140T212 103T241 76T287 66Z" />
<glyph unicode="e" glyph-name="e" horiz-adv-x="518" d="M204 273Q262 275 310 280T393 299T447 336T467 396Q467 405 464 415T452 433T428 447T391 453Q356 453 326 438T271 399T230 342T204 273ZM299 -13Q248 -13 211 1T149 41T112 101T100 173Q100 243 121
308T181 423T276 502T403 532Q444 532 473 522T521 493T549 452T558 403Q558 356 541 324T496 269T431 235T353 216T271 207T192 202Q191 194 191 189T191 181Q191 158 196 138T217 102T258 77T328 68Q347 68 367 71T406 80T439 91T460 102L468 23Q448 12 404 0T299
-13Z" />
<glyph unicode="f" glyph-name="f" horiz-adv-x="368" d="M294 520H468L450 442H276L196 112Q184 61 175 21T154 -54T121 -121T65 -189L-17 -177Q13 -138 30 -111T58 -56T78 8T101 103L212 567Q224 617 242 656T289 721T357 762T450 776Q485 776 516 769T564 754L527
680Q519 684 500 690T442 696Q409 696 386 687T347 660T322 619T305 565L294 520Z" />
<glyph unicode="g" glyph-name="g" horiz-adv-x="550" d="M202 -108Q243 -108 274 -98T327 -69T364 -24T386 35L390 54Q370 43 336 32T266 21Q185 21 142 61T98 175Q98 242 120 306T187 420T299 500T456 531Q470 531 487 529T523 524T559 514T590 500L481 45Q468
-9 449 -52T397 -125T312 -171T182 -188Q139 -188 97 -177T26 -148L61 -70Q84 -87 122 -97T202 -108ZM286 99Q326 99 359 113T411 141L484 445Q474 447 461 449T436 451Q382 451 337 431T260 376T209 296T191 201Q191 147 214 123T286 99Z" />
<glyph unicode="h" glyph-name="h" horiz-adv-x="552" d="M76 0L259 760L356 776L292 513Q315 521 340 526T392 531Q437 531 469 519T522 485T551 433T561 366Q561 322 547 266L483 0H390L449 246Q456 274 462 303T469 358Q469 398 447 424T365 451Q341 451 316
447T273 434L169 0H76Z" />
<glyph unicode="i" glyph-name="i" horiz-adv-x="249" d="M169 0H76L201 520H294L169 0ZM277 614Q254 614 239 628T223 667Q223 699 243 717T288 736Q311 736 327 722T343 681Q343 651 322 633T277 614Z" />
<glyph unicode="j" glyph-name="j" horiz-adv-x="249" d="M174 20Q160 -36 144 -75T103 -140T44 -176T-39 -188Q-56 -188 -77 -183T-111 -170L-90 -93Q-79 -100 -62 -104T-25 -108Q20 -108 43 -73T81 19L201 520H294L174 20ZM278 614Q255 614 240 628T224 667Q224
699 244 717T289 736Q312 736 328 722T344 681Q344 651 323 633T278 614Z" />
<glyph unicode="k" glyph-name="k" horiz-adv-x="517" d="M76 0L259 760L356 776L244 313Q277 337 312 365T378 422T436 475T480 520H590Q569 494 537 462T468 398T396 335T330 284Q357 259 384 225T437 152T484 74T519 0H418Q383 81 335 149T232 260L169 0H76Z" />
<glyph unicode="l" glyph-name="l" horiz-adv-x="276" d="M215 229Q210 207 205 186T200 146Q200 112 216 92T278 67L257 -9Q216 -8 188 3T142 34T116 79T108 136Q108 159 112 184T123 236L249 760L346 776L215 229Z" />
<glyph unicode="m" glyph-name="m" horiz-adv-x="828" d="M678 531Q722 531 752 518T801 481T828 428T836 363Q836 341 833 316T823 266L759 0H666L725 246Q730 269 736 297T743 354Q743 373 739 391T724 422T694 443T647 451Q615 451 585 439T535 413Q537 399
538 386T540 359Q540 336 537 313T528 266L464 0H371L430 246Q435 269 441 298T447 356Q447 375 443 392T430 423T404 443T363 451Q338 451 315 448T275 440L169 0H76L196 500Q241 514 294 522T390 531Q432 531 461 517T507 478Q517 485 534 494T574 511T623 525T678
531Z" />
<glyph unicode="n" glyph-name="n" horiz-adv-x="551" d="M169 0H76L196 500Q242 514 295 522T391 531Q436 531 468 519T521 485T550 433T560 366Q560 343 556 318T546 266L482 0H389L448 246Q455 274 461 303T468 358Q468 398 446 424T364 451Q339 451 315 448T275
440L169 0Z" />
<glyph unicode="o" glyph-name="o" horiz-adv-x="555" d="M275 -13Q193 -13 147 35T100 169Q100 227 116 291T169 409T262 498T400 533Q482 533 528 485T575 351Q575 293 559 229T506 111T413 22T275 -13ZM291 66Q336 66 371 92T431 158T469 248T482 343Q482 394
460 424T384 454Q339 454 304 428T244 362T206 272T193 177Q193 126 215 96T291 66Z" />
<glyph unicode="p" glyph-name="p" horiz-adv-x="546" d="M379 533Q428 533 463 519T522 481T556 423T568 349Q568 280 547 216T483 101T373 21T215 -9Q204 -9 191 -8T168 -5L125 -185H32L196 498Q238 515 287 524T379 533ZM187 73Q197 71 208 71T231 70Q288 70
333 92T409 151T458 237T475 339Q475 361 470 382T452 419T415 444T356 454Q331 454 310 450T275 441L187 73Z" />
<glyph unicode="q" glyph-name="q" horiz-adv-x="551" d="M333 -185L381 16Q358 4 329 -4T268 -13Q224 -13 192 0T139 39T108 98T98 174Q98 241 120 305T188 419T301 500T460 531Q488 531 524 525T591 502L426 -185H333ZM291 66Q320 66 349 75T402 103L485 446Q457
451 440 451Q383 451 337 429T259 371T209 286T191 184Q191 161 195 140T211 103T241 76T291 66Z" />
<glyph unicode="r" glyph-name="r" horiz-adv-x="372" d="M374 531Q386 531 401 530T430 527T457 522T475 516L448 435Q428 443 402 447T352 451Q331 451 311 448T275 440L169 0H76L196 500Q236 514 282 522T374 531Z" />
<glyph unicode="s" glyph-name="s" horiz-adv-x="412" d="M206 65Q227 65 248 69T286 82T313 106T324 145Q324 160 319 171T303 193T276 212T236 234Q213 245 194 256T161 282T138 317T130 367Q130 442 184 487T341 533Q389 533 425 524T476 506L441 430Q427 438
396 447T327 456Q308 456 289 452T255 439T230 414T220 376Q220 349 241 332T304 295Q330 283 350 271T385 243T407 206T415 156Q415 114 399 82T355 29T287 -2T202 -13Q168 -13 141 -9T93 2T59 14T38 25L74 101Q81 97 93 91T123 79T162 69T206 65Z" />
<glyph unicode="t" glyph-name="t" horiz-adv-x="389" d="M254 -14Q179 -14 144 19T109 115Q109 156 123 220L230 665L327 681L288 520H465L446 442H269L214 212Q202 165 202 130Q202 97 220 83T280 68Q309 68 337 77T380 95L387 16Q372 7 336 -3T254 -14Z" />
<glyph unicode="u" glyph-name="u" horiz-adv-x="550" d="M266 -13Q222 -13 193 0T145 35T118 87T110 151Q110 177 114 202T125 254L189 520H282L223 274Q218 251 210 220T202 158Q202 140 205 124T218 95T244 75T284 67Q327 67 359 85T414 129Q415 145 417 162T424
199L501 520H594L515 191Q510 168 507 147T503 102Q503 79 507 56T521 6L439 -6Q434 5 429 19T421 49Q410 39 395 28T361 8T318 -7T266 -13Z" />
<glyph unicode="v" glyph-name="v" horiz-adv-x="481" d="M193 0Q181 51 170 112T150 239T135 377T127 520H221Q222 471 225 416T234 305T246 198T261 104Q291 142 323 193T386 301T441 415T481 520H575Q553 454 519 383T446 244T363 112T278 0H193Z" />
<glyph unicode="w" glyph-name="w" horiz-adv-x="787" d="M573 108Q598 139 629 189T690 297T746 413T786 520H881Q859 451 825 378T752 237T670 107T588 0H505Q494 87 486 175T475 354Q455 309 430 261T377 167T321 77T267 0H184Q163 103 150 234T135 520H228Q229
473 231 418T236 308T243 200T253 108Q284 151 314 203T372 309T423 417T464 520H548Q548 475 549 424T554 318T562 211T573 108Z" />
<glyph unicode="x" glyph-name="x" horiz-adv-x="473" d="M316 333Q358 384 393 431T455 520H556Q513 457 462 393T356 265Q388 202 420 135T475 0H378Q363 45 340 97T293 197L120 0H12L252 268L123 520H226L316 333Z" />
<glyph unicode="y" glyph-name="y" horiz-adv-x="478" d="M281 84Q319 144 350 208T404 332T444 440T467 520H564Q553 482 533 426T485 304T421 170T343 38Q311 -9 279 -50T211 -122T130 -170T31 -188Q3 -188 -21 -181T-56 -166L-24 -90Q-14 -98 3 -103T41 -109Q99
-109 139 -81T216 -7Q179 114 156 248T127 520H222Q223 475 227 422T238 311T256 195T281 84Z" />
<glyph unicode="z" glyph-name="z" horiz-adv-x="454" d="M524 453Q495 427 446 380T342 278T239 170T160 78H439L421 0H33L47 60Q77 104 123 157T218 264T316 364T400 442H151L169 520H540L524 453Z" />
<glyph unicode="{" glyph-name="braceleft" horiz-adv-x="326" d="M120 335Q142 335 161 343T194 365T218 396T232 432L275 612Q286 658 302 690T345 743T410 773T503 783H507L489 710Q462 710 441 707T405 692T378 662T360 611L323 457Q307 391 285 354T220 299Q241
282 249 259T258 209Q258 192 255 175T248 141L211 -13Q208 -27 206 -38T204 -58Q204 -90 225 -100T291 -112L272 -185H268Q196 -185 157 -160T118 -74Q118 -51 126 -14L169 166Q173 181 173 195Q173 223 157 242T102 263L120 335Z" />
<glyph unicode="|" glyph-name="bar" horiz-adv-x="275" d="M281 783H366L133 -185H48L281 783Z" />
<glyph unicode="}" glyph-name="braceright" horiz-adv-x="326" d="M345 263Q322 263 303 255T270 233T247 202T233 166L190 -14Q179 -60 163 -92T120 -145T55 -175T-38 -185H-42L-24 -112Q4 -112 24 -109T60 -94T86 -64T105 -13L142 141Q158 207 180 244T245
299Q224 316 216 339T207 389Q207 406 210 423T217 457L254 611Q257 625 259 636T261 656Q261 688 240 698T174 710L193 783H197Q269 783 308 758T347 672Q347 649 339 612L296 432Q292 417 292 403Q292 375 308 356T363 335L345 263Z" />
<glyph unicode="~" glyph-name="asciitilde" horiz-adv-x="564" d="M367 339Q390 323 408 310T453 296Q469 296 482 304T506 323T524 349T538 375L602 355Q594 333 581 309T547 263T501 229T440 215Q405 215 383 228T341 256Q318 272 300 285T255 299Q238 299
225 291T202 272T184 246T170 220L106 240Q114 262 127 286T161 332T207 366T268 380Q303 380 325 367T367 339Z" />
<glyph unicode="&#xa0;" glyph-name="uni00A0" horiz-adv-x="231" />
<glyph unicode="&#xa1;" glyph-name="exclamdown" horiz-adv-x="250" d="M29 -185L74 3Q80 27 90 65T113 145T139 225T164 291H221Q213 223 203 155T172 2L127 -185H29ZM222 386Q194 386 178 401T162 445Q162 481 183 500T233 520Q261 520 277 505T294 459Q294
442 288 429T271 406T248 391T222 386Z" />
<glyph unicode="&#xa2;" glyph-name="cent" horiz-adv-x="564" d="M458 475Q411 475 373 454T307 397T265 318T250 228Q250 204 255 183T274 145T310 120T368 110Q386 110 405 113T442 121T472 131T491 142L498 65Q482 54 447 44T366 31L333 -109H252L286 36Q159
64 159 225Q159 279 175 332T223 429T302 506T411 549L445 693H526L493 554Q517 552 540 547T584 530L550 456Q534 465 513 470T458 475Z" />
<glyph unicode="&#xa3;" glyph-name="sterling" horiz-adv-x="564" d="M337 373H526L508 298H319L317 290Q305 239 288 185T250 80H540L521 0H127Q155 72 180 141T222 283L226 298H133L151 373H244L264 456Q282 531 306 579T362 656T436 695T528 706Q580 706 609
697T661 674L619 599Q596 611 572 618T516 625Q487 625 463 617T420 590T385 538T357 458L337 373Z" />
<glyph unicode="&#xa4;" glyph-name="currency" horiz-adv-x="564" d="M166 347Q166 409 194 453L121 527L179 585L253 510Q300 539 359 539Q417 539 464 510L539 585L597 527L523 453Q552 409 552 347Q552 285 523 241L597 167L539 109L464 183Q417 155 359 155Q299
155 253 183L179 109L121 167L194 240Q166 284 166 347ZM477 347Q477 375 468 398T442 437T405 462T359 471Q335 471 314 463T276 438T251 398T241 347Q241 318 250 296T276 257T313 232T359 223Q383 223 404 231T442 256T467 295T477 347Z" />
<glyph unicode="&#xa5;" glyph-name="yen" horiz-adv-x="564" d="M514 106H351L326 0H236L261 106H99L116 177H278L302 279H141L158 350H294Q223 526 183 693H279Q286 658 296 619T317 540T342 461T371 386Q399 419 430 457T491 536T550 616T602 693H707Q647 606
576 517T436 350H572L555 279H392L368 177H531L514 106Z" />
<glyph unicode="&#xa6;" glyph-name="brokenbar" horiz-adv-x="275" d="M189 400L281 783H366L274 400H189ZM225 198L133 -185H48L140 198H225Z" />
<glyph unicode="&#xa7;" glyph-name="section" horiz-adv-x="486" d="M249 135Q221 145 197 156T154 183T124 224T113 285Q113 339 148 383T235 456Q206 485 206 537Q206 578 222 610T267 664T336 697T425 709Q476 709 512 699T572 677L537 605Q520 613 492 623T418
634Q365 634 331 615T297 551Q297 522 316 506T380 474Q408 463 432 452T475 425T503 385T514 324Q514 267 479 225T392 153Q406 140 418 119T431 59Q431 23 416 -8T372 -61T299 -96T200 -109Q146 -109 104 -100T32 -74L68 -1Q87 -12 123 -23T207 -34Q273 -34 306
-11T340 50Q340 69 334 82T316 104T287 120T249 135ZM335 191Q352 199 368 211T398 239T419 273T427 313Q427 332 418 346T394 372T357 392T311 410Q298 415 294 418Q277 410 261 398T231 370T209 336T200 296Q200 276 209 262T234 237T271 217T316 199Q322 197
326 195T335 191Z" />
<glyph unicode="&#xa8;" glyph-name="dieresis" horiz-adv-x="376" d="M249 616Q227 616 212 630T197 667Q197 697 217 715T260 734Q282 734 297 720T313 681Q313 652 293 634T249 616ZM439 616Q417 616 402 630T387 667Q387 697 407 715T450 734Q472 734 487
720T503 681Q503 652 483 634T439 616Z" />
<glyph unicode="&#xa9;" glyph-name="copyright" horiz-adv-x="814" d="M826 347Q826 261 798 194T723 81T614 10T484 -15Q416 -15 354 9T245 80T170 194T142 347Q142 432 170 499T245 613T354 684T484 709Q552 709 614 685T723 614T798 500T826 347ZM753 347Q753
413 733 467T678 561T593 621T484 642Q425 642 376 621T291 561T235 468T215 347Q215 281 235 227T290 133T375 73T484 52Q543 52 592 73T677 133T733 226T753 347ZM496 140Q453 140 418 154T358 194T318 258T304 347Q304 396 319 434T361 498T422 539T496 553Q522
553 543 549T581 540T607 529T622 520L599 460Q587 467 561 476T499 486Q448 486 414 451T380 347Q380 284 411 245T502 206Q541 206 566 214T606 230L625 170Q614 164 580 152T496 140Z" />
<glyph unicode="&#xaa;" glyph-name="ordfeminine" horiz-adv-x="415" d="M281 330Q216 330 187 366T158 462Q158 508 174 552T222 630T302 686T415 708Q433 708 459 704T508 690L453 487Q444 455 444 425Q444 400 449 383T462 344L393 332Q389 337 385 347T378
367Q364 353 340 342T281 330ZM422 644Q420 645 415 646T401 647Q363 647 332 633T278 593T243 536T231 469Q231 454 233 440T243 415T264 398T297 391Q319 391 338 402T372 429Q372 444 375 461T382 492L422 644Z" />
<glyph unicode="&#xab;" glyph-name="guillemotleft" horiz-adv-x="499" d="M276 92L214 63L96 290L299 505L357 470L200 280L276 92ZM484 92L422 63L304 290L507 505L565 470L408 280L484 92Z" />
<glyph unicode="&#xac;" glyph-name="logicalnot" horiz-adv-x="564" d="M600 392L518 51H434L497 313H132L151 392H600Z" />
<glyph unicode="&#xad;" glyph-name="uni00AD" horiz-adv-x="293" d="M107 343H349L329 256H87L107 343Z" />
<glyph unicode="&#xae;" glyph-name="registered" horiz-adv-x="814" d="M826 347Q826 261 798 194T723 81T614 10T484 -15Q416 -15 354 9T245 80T170 194T142 347Q142 432 170 499T245 613T354 684T484 709Q552 709 614 685T723 614T798 500T826 347ZM753 347Q753
413 733 467T678 561T593 621T484 642Q425 642 376 621T291 561T235 468T215 347Q215 281 235 227T290 133T375 73T484 52Q543 52 592 73T677 133T733 226T753 347ZM583 148Q560 193 532 233T482 298H415V148H344V536Q371 542 401 545T456 548Q543 548 587 517T632
419Q632 382 613 355T557 312Q567 300 580 282T607 243T635 197T660 148H583ZM415 356H453Q498 356 528 368T558 420Q558 457 530 471T461 486Q450 486 438 486T415 484V356Z" />
<glyph unicode="&#xaf;" glyph-name="overscore" horiz-adv-x="376" d="M218 711H498L481 639H201L218 711Z" />
<glyph unicode="&#xb0;" glyph-name="degree" horiz-adv-x="332" d="M432 637Q432 605 421 579T390 535T346 508T292 498Q264 498 239 507T194 535T164 579T152 637Q152 669 163 695T194 739T238 766T292 776Q320 776 345 767T390 739T420 695T432 637ZM365 637Q365
672 344 692T292 713Q262 713 241 693T219 637Q219 602 240 582T292 561Q322 561 343 581T365 637Z" />
<glyph unicode="&#xb1;" glyph-name="plusminus" horiz-adv-x="564" d="M472 620L422 414H604L585 335H403L356 139H272L318 335H136L155 414H337L387 620H472ZM523 79L504 0H55L74 79H523Z" />
<glyph unicode="&#xb2;" glyph-name="twosuperior" horiz-adv-x="359" d="M402 378L387 315H124Q128 351 140 377T170 425T211 463T260 496Q286 512 305 525T338 550T357 575T364 606Q364 627 350 637T315 647Q273 647 249 633T211 607L187 656Q207 675 242 692T323
709Q380 709 407 683T435 611Q435 582 422 558T387 514T341 478T293 447Q272 433 247 417T213 378H402Z" />
<glyph unicode="&#xb3;" glyph-name="threesuperior" horiz-adv-x="359" d="M232 368Q253 368 272 371T307 382T331 405T341 440Q341 468 315 480T246 492H225L239 548H264Q278 548 295 551T328 561T353 579T364 607Q364 630 351 639T308 648Q281 648 256 640T214
624L200 676Q209 682 223 687T255 698T291 706T325 709Q384 709 408 685T433 627Q433 587 413 563T356 522Q380 512 395 493T411 442Q411 376 361 342T230 307Q190 307 162 315T113 334L140 390Q157 382 181 375T232 368Z" />
<glyph unicode="&#xb4;" glyph-name="acute" horiz-adv-x="376" d="M471 708L302 580L262 629L420 780L471 708Z" />
<glyph unicode="&#xb5;" glyph-name="mu" horiz-adv-x="572" d="M427 115Q427 141 429 166T439 219L511 520H604L530 211Q525 188 521 168T517 131Q517 105 529 88T574 66L553 -9Q511 -8 486 5T446 44Q410 16 366 3T273 -10Q242 -10 215 2T174 38Q170 12 164 -19T149
-82L124 -185H32L201 520H294L235 274Q230 251 222 220T214 158Q214 140 217 124T231 95T257 75T299 67Q337 67 368 79T427 115Z" />
<glyph unicode="&#xb6;" glyph-name="paragraph" horiz-adv-x="650" d="M538 623Q530 623 521 623T505 622L311 -185H233L340 262Q239 269 196 311T153 424Q153 499 187 551T275 637T398 685T534 700Q576 700 623 697T708 683L500 -185H422L615 618Q590 623 538 623Z" />
<glyph unicode="&#xb7;" glyph-name="middot" horiz-adv-x="246" d="M185 227Q157 227 141 242T125 286Q125 322 146 341T196 361Q224 361 240 346T257 300Q257 283 251 270T234 247T211 232T185 227Z" />
<glyph unicode="&#xb8;" glyph-name="cedilla" horiz-adv-x="376" d="M189 -38Q209 -49 219 -62T229 -98Q229 -143 198 -166T113 -189Q84 -189 65 -185T32 -174L55 -119Q63 -123 76 -126T108 -130Q125 -130 136 -125T147 -105Q147 -93 139 -87T112 -72L106 -69Q112
-59 121 -46T139 -19T156 4T168 20H232Q224 9 211 -8T189 -38Z" />
<glyph unicode="&#xb9;" glyph-name="onesuperior" horiz-adv-x="359" d="M199 621Q245 635 285 655T357 701H407L314 315H243L313 605Q287 591 258 581T208 564L199 621Z" />
<glyph unicode="&#xba;" glyph-name="ordmasculine" horiz-adv-x="446" d="M386 709Q446 709 480 676T515 581Q515 541 503 497T465 415T396 353T292 328Q232 328 198 361T163 456Q163 496 175 540T213 622T282 684T386 709ZM305 390Q337 390 362 407T404 452T431
512T440 575Q440 607 424 627T373 647Q341 647 316 630T274 585T247 525T238 462Q238 430 254 410T305 390Z" />
<glyph unicode="&#xbb;" glyph-name="guillemotright" horiz-adv-x="499" d="M151 476L213 505L331 278L128 63L70 98L227 288L151 476ZM359 476L421 505L539 278L336 63L278 98L435 288L359 476Z" />
<glyph unicode="&#xbc;" glyph-name="onequarter" horiz-adv-x="874" d="M199 621Q245 635 285 655T357 701H407L314 315H243L313 605Q287 591 258 581T208 564L199 621ZM291 0H196L745 693H840L291 0ZM885 151L871 95H821L799 2H731L753 95H568L579 141Q595 168
622 200T684 267T755 332T827 388H892L835 151H885ZM767 151L805 309Q786 293 765 274T722 234T682 192T649 151H767Z" />
<glyph unicode="&#xbd;" glyph-name="onehalf" horiz-adv-x="874" d="M199 621Q245 635 285 655T357 701H407L314 315H243L313 605Q287 591 258 581T208 564L199 621ZM270 0H175L724 693H819L270 0ZM841 65L826 2H563Q567 38 579 64T609 112T650 150T699 183Q725
199 744 212T777 237T796 262T803 293Q803 314 789 324T754 334Q712 334 688 320T650 294L626 343Q646 362 681 379T762 396Q819 396 846 370T874 298Q874 269 861 245T826 201T780 165T732 134Q711 120 686 104T652 65H841Z" />
<glyph unicode="&#xbe;" glyph-name="threequarters" horiz-adv-x="874" d="M232 368Q253 368 272 371T307 382T331 405T341 440Q341 468 315 480T246 492H225L239 548H264Q278 548 295 551T328 561T353 579T364 607Q364 630 351 639T308 648Q281 648 256 640T214
624L200 676Q209 682 223 687T255 698T291 706T325 709Q384 709 408 685T433 627Q433 587 413 563T356 522Q380 512 395 493T411 442Q411 376 361 342T230 307Q190 307 162 315T113 334L140 390Q157 382 181 375T232 368ZM302 0H207L756 693H851L302 0ZM885 151L871
95H821L799 2H731L753 95H568L579 141Q595 168 622 200T684 267T755 332T827 388H892L835 151H885ZM767 151L805 309Q786 293 765 274T722 234T682 192T649 151H767Z" />
<glyph unicode="&#xbf;" glyph-name="questiondown" horiz-adv-x="384" d="M207 -188Q160 -188 128 -177T76 -148T48 -104T39 -52Q39 -19 48 7T75 56T115 99T165 141Q198 167 228 198T269 273Q271 279 271 284T272 291H353Q352 279 351 270T348 250Q336 199 302
163T229 97Q211 83 194 69T163 38T141 2T132 -40Q132 -51 135 -64T147 -87T174 -105T219 -112Q267 -112 299 -101T349 -81L359 -153Q335 -167 294 -177T207 -188ZM323 386Q295 386 279 401T263 445Q263 481 284 500T334 520Q362 520 378 505T395 459Q395 442 389
429T372 406T349 391T323 386Z" />
<glyph unicode="&#xc0;" glyph-name="Agrave" horiz-adv-x="636" d="M214 178L116 0H10Q122 202 228 372T439 693H534Q549 618 561 542T586 381T609 203T632 0H534Q529 45 525 90T516 178H214ZM507 256Q499 337 489 417T464 582Q429 531 377 451T259 256H507ZM458
935L585 775L536 732L390 878L458 935Z" />
<glyph unicode="&#xc1;" glyph-name="Aacute" horiz-adv-x="636" d="M214 178L116 0H10Q122 202 228 372T439 693H534Q549 618 561 542T586 381T609 203T632 0H534Q529 45 525 90T516 178H214ZM507 256Q499 337 489 417T464 582Q429 531 377 451T259 256H507ZM630
864L461 736L421 785L579 936L630 864Z" />
<glyph unicode="&#xc2;" glyph-name="Acircumflex" horiz-adv-x="636" d="M214 178L116 0H10Q122 202 228 372T439 693H534Q549 618 561 542T586 381T609 203T632 0H534Q529 45 525 90T516 178H214ZM507 256Q499 337 489 417T464 582Q429 531 377 451T259 256H507ZM515
823L403 741L370 786L532 925L638 777L594 736L515 823Z" />
<glyph unicode="&#xc3;" glyph-name="Atilde" horiz-adv-x="636" d="M214 178L116 0H10Q122 202 228 372T439 693H534Q549 618 561 542T586 381T609 203T632 0H534Q529 45 525 90T516 178H214ZM507 256Q499 337 489 417T464 582Q429 531 377 451T259 256H507ZM530
863Q545 855 557 850T581 845Q602 845 616 860T641 893L688 864Q668 822 641 800T568 777Q548 777 533 784T503 799Q488 807 476 812T452 817Q431 817 417 802T392 769L345 798Q365 840 392 862T465 885Q485 885 500 878T530 863Z" />
<glyph unicode="&#xc4;" glyph-name="Adieresis" horiz-adv-x="636" d="M214 178L116 0H10Q122 202 228 372T439 693H534Q549 618 561 542T586 381T609 203T632 0H534Q529 45 525 90T516 178H214ZM507 256Q499 337 489 417T464 582Q429 531 377 451T259 256H507ZM416
772Q394 772 379 786T364 823Q364 853 384 871T427 890Q449 890 464 876T480 837Q480 808 460 790T416 772ZM606 772Q584 772 569 786T554 823Q554 853 574 871T617 890Q639 890 654 876T670 837Q670 808 650 790T606 772Z" />
<glyph unicode="&#xc5;" glyph-name="Aring" horiz-adv-x="636" d="M534 0Q529 45 525 90T516 178H214L116 0H10Q116 191 217 354T417 662Q403 675 395 694T386 737Q386 761 394 779T417 811T449 832T489 839Q510 839 528 832T561 812T583 780T592 737Q592 706
579 684T543 648Q556 578 567 507T588 356T609 190T632 0H534ZM542 737Q542 763 527 777T489 792Q467 792 452 778T436 737Q436 711 451 697T489 682Q511 682 526 696T542 737ZM464 582Q429 531 377 451T259 256H507Q499 337 489 417T464 582Z" />
<glyph unicode="&#xc6;" glyph-name="AE" horiz-adv-x="928" d="M510 178H245Q211 133 179 89T114 0H3Q82 108 156 203T302 384T443 545T582 693H1027L1008 612H710L660 403H923L904 324H642L583 81H904L885 0H468L510 178ZM615 613Q537 531 459 442T306 256H529L615
613Z" />
<glyph unicode="&#xc7;" glyph-name="Ccedilla" horiz-adv-x="600" d="M382 -15Q377 -20 374 -26T366 -38Q386 -49 396 -62T406 -98Q406 -143 375 -166T290 -189Q261 -189 242 -185T209 -174L232 -119Q240 -123 253 -126T285 -130Q302 -130 313 -125T324 -105Q324
-93 316 -87T289 -72L283 -69Q290 -57 301 -40T323 -9Q223 8 174 76T124 254Q124 344 152 426T233 571T360 671T525 709Q603 709 649 693T716 663L676 583Q653 598 614 611T520 625Q451 625 396 593T303 509T245 393T225 265Q225 70 394 70Q430 70 458 75T509 86T548
101T578 115L590 31Q578 24 559 16T513 1T455 -10T387 -15H382Z" />
<glyph unicode="&#xc8;" glyph-name="Egrave" horiz-adv-x="557" d="M81 0L247 693H656L637 612H324L274 403H552L533 324H256L197 81H533L514 0H81ZM426 935L553 775L504 732L358 878L426 935Z" />
<glyph unicode="&#xc9;" glyph-name="Eacute" horiz-adv-x="557" d="M81 0L247 693H656L637 612H324L274 403H552L533 324H256L197 81H533L514 0H81ZM598 864L429 736L389 785L547 936L598 864Z" />
<glyph unicode="&#xca;" glyph-name="Ecircumflex" horiz-adv-x="557" d="M81 0L247 693H656L637 612H324L274 403H552L533 324H256L197 81H533L514 0H81ZM484 823L372 741L339 786L501 925L607 777L563 736L484 823Z" />
<glyph unicode="&#xcb;" glyph-name="Edieresis" horiz-adv-x="557" d="M81 0L247 693H656L637 612H324L274 403H552L533 324H256L197 81H533L514 0H81ZM384 772Q362 772 347 786T332 823Q332 853 352 871T395 890Q417 890 432 876T448 837Q448 808 428 790T384
772ZM574 772Q552 772 537 786T522 823Q522 853 542 871T585 890Q607 890 622 876T638 837Q638 808 618 790T574 772Z" />
<glyph unicode="&#xcc;" glyph-name="Igrave" horiz-adv-x="263" d="M247 693H344L178 0H81L247 693ZM272 935L399 775L350 732L204 878L272 935Z" />
<glyph unicode="&#xcd;" glyph-name="Iacute" horiz-adv-x="263" d="M247 693H344L178 0H81L247 693ZM444 864L275 736L235 785L393 936L444 864Z" />
<glyph unicode="&#xce;" glyph-name="Icircumflex" horiz-adv-x="263" d="M247 693H344L178 0H81L247 693ZM329 823L217 741L184 786L346 925L452 777L408 736L329 823Z" />
<glyph unicode="&#xcf;" glyph-name="Idieresis" horiz-adv-x="263" d="M247 693H344L178 0H81L247 693ZM230 772Q208 772 193 786T178 823Q178 853 198 871T241 890Q263 890 278 876T294 837Q294 808 274 790T230 772ZM420 772Q398 772 383 786T368 823Q368 853
388 871T431 890Q453 890 468 876T484 837Q484 808 464 790T420 772Z" />
<glyph unicode="&#xd0;" glyph-name="Eth" horiz-adv-x="710" d="M442 700Q596 700 672 628T748 432Q748 346 721 267T637 126T492 29T280 -7Q238 -7 189 -3T103 11L178 324H97L115 399H196L264 684Q306 694 353 697T442 700ZM434 618Q359 618 344 614L292 399H422L404
324H274L216 80Q224 78 243 77T305 75Q384 75 447 101T555 175T623 288T647 432Q647 520 596 569T434 618Z" />
<glyph unicode="&#xd1;" glyph-name="Ntilde" horiz-adv-x="698" d="M528 0Q510 58 485 132T431 282T370 429T309 554L176 0H81L247 693H330Q362 639 395 571T459 430T516 289T559 165L683 693H778L613 0H528ZM560 863Q575 855 587 850T611 845Q632 845 646 860T671
893L718 864Q698 822 671 800T598 777Q578 777 563 784T533 799Q518 807 506 812T482 817Q461 817 447 802T422 769L375 798Q395 840 422 862T495 885Q515 885 530 878T560 863Z" />
<glyph unicode="&#xd2;" glyph-name="Ograve" horiz-adv-x="739" d="M525 709Q580 709 626 693T706 643T758 561T777 445Q777 362 752 280T676 133T551 26T376 -15Q320 -15 274 1T195 51T143 133T124 249Q124 331 149 413T224 561T350 668T525 709ZM386 69Q453
69 507 101T598 186T656 303T676 433Q676 522 638 573T515 625Q447 625 394 593T303 508T245 391T225 261Q225 172 263 121T386 69ZM508 935L635 775L586 732L440 878L508 935Z" />
<glyph unicode="&#xd3;" glyph-name="Oacute" horiz-adv-x="739" d="M525 709Q580 709 626 693T706 643T758 561T777 445Q777 362 752 280T676 133T551 26T376 -15Q320 -15 274 1T195 51T143 133T124 249Q124 331 149 413T224 561T350 668T525 709ZM386 69Q453
69 507 101T598 186T656 303T676 433Q676 522 638 573T515 625Q447 625 394 593T303 508T245 391T225 261Q225 172 263 121T386 69ZM680 864L511 736L471 785L629 936L680 864Z" />
<glyph unicode="&#xd4;" glyph-name="Ocircumflex" horiz-adv-x="739" d="M525 709Q580 709 626 693T706 643T758 561T777 445Q777 362 752 280T676 133T551 26T376 -15Q320 -15 274 1T195 51T143 133T124 249Q124 331 149 413T224 561T350 668T525 709ZM386 69Q453
69 507 101T598 186T656 303T676 433Q676 522 638 573T515 625Q447 625 394 593T303 508T245 391T225 261Q225 172 263 121T386 69ZM565 823L453 741L420 786L582 925L688 777L644 736L565 823Z" />
<glyph unicode="&#xd5;" glyph-name="Otilde" horiz-adv-x="739" d="M525 709Q580 709 626 693T706 643T758 561T777 445Q777 362 752 280T676 133T551 26T376 -15Q320 -15 274 1T195 51T143 133T124 249Q124 331 149 413T224 561T350 668T525 709ZM386 69Q453
69 507 101T598 186T656 303T676 433Q676 522 638 573T515 625Q447 625 394 593T303 508T245 391T225 261Q225 172 263 121T386 69ZM580 863Q595 855 607 850T631 845Q652 845 666 860T691 893L738 864Q718 822 691 800T618 777Q598 777 583 784T553 799Q538 807
526 812T502 817Q481 817 467 802T442 769L395 798Q415 840 442 862T515 885Q535 885 550 878T580 863Z" />
<glyph unicode="&#xd6;" glyph-name="Odieresis" horiz-adv-x="739" d="M525 709Q580 709 626 693T706 643T758 561T777 445Q777 362 752 280T676 133T551 26T376 -15Q320 -15 274 1T195 51T143 133T124 249Q124 331 149 413T224 561T350 668T525 709ZM386 69Q453
69 507 101T598 186T656 303T676 433Q676 522 638 573T515 625Q447 625 394 593T303 508T245 391T225 261Q225 172 263 121T386 69ZM466 772Q444 772 429 786T414 823Q414 853 434 871T477 890Q499 890 514 876T530 837Q530 808 510 790T466 772ZM656 772Q634 772
619 786T604 823Q604 853 624 871T667 890Q689 890 704 876T720 837Q720 808 700 790T656 772Z" />
<glyph unicode="&#xd7;" glyph-name="multiply" horiz-adv-x="564" d="M343 242L163 95L116 155L298 302L189 446L252 497L361 353L541 500L588 440L406 293L515 149L452 98L343 242Z" />
<glyph unicode="&#xd8;" glyph-name="Oslash" horiz-adv-x="739" d="M525 709Q617 709 681 663L740 730L796 687L731 613Q753 581 765 540T777 445Q777 362 752 280T676 133T551 26T376 -15Q282 -15 219 30L161 -36L104 7L169 81Q124 145 124 249Q124 331 149
413T224 561T350 668T525 709ZM386 69Q453 69 507 101T598 186T656 303T676 433Q676 462 673 487T662 534L281 101Q300 84 326 77T386 69ZM225 261Q225 232 228 206T239 160L619 593Q581 625 515 625Q447 625 394 593T303 508T245 391T225 261Z" />
<glyph unicode="&#xd9;" glyph-name="Ugrave" horiz-adv-x="666" d="M334 -15Q282 -15 244 0T181 42T144 105T132 184Q132 206 136 233T145 283L243 693H340L240 277Q235 258 232 235T229 192Q229 166 235 144T255 106T293 80T349 70Q434 70 481 117T552 269L654
693H751L647 258Q633 201 615 151T562 65T474 7T334 -15ZM467 935L594 775L545 732L399 878L467 935Z" />
<glyph unicode="&#xda;" glyph-name="Uacute" horiz-adv-x="666" d="M334 -15Q282 -15 244 0T181 42T144 105T132 184Q132 206 136 233T145 283L243 693H340L240 277Q235 258 232 235T229 192Q229 166 235 144T255 106T293 80T349 70Q434 70 481 117T552 269L654
693H751L647 258Q633 201 615 151T562 65T474 7T334 -15ZM639 864L470 736L430 785L588 936L639 864Z" />
<glyph unicode="&#xdb;" glyph-name="Ucircumflex" horiz-adv-x="666" d="M334 -15Q282 -15 244 0T181 42T144 105T132 184Q132 206 136 233T145 283L243 693H340L240 277Q235 258 232 235T229 192Q229 166 235 144T255 106T293 80T349 70Q434 70 481 117T552
269L654 693H751L647 258Q633 201 615 151T562 65T474 7T334 -15ZM524 823L412 741L379 786L541 925L647 777L603 736L524 823Z" />
<glyph unicode="&#xdc;" glyph-name="Udieresis" horiz-adv-x="666" d="M334 -15Q282 -15 244 0T181 42T144 105T132 184Q132 206 136 233T145 283L243 693H340L240 277Q235 258 232 235T229 192Q229 166 235 144T255 106T293 80T349 70Q434 70 481 117T552 269L654
693H751L647 258Q633 201 615 151T562 65T474 7T334 -15ZM425 772Q403 772 388 786T373 823Q373 853 393 871T436 890Q458 890 473 876T489 837Q489 808 469 790T425 772ZM615 772Q593 772 578 786T563 823Q563 853 583 871T626 890Q648 890 663 876T679 837Q679
808 659 790T615 772Z" />
<glyph unicode="&#xdd;" glyph-name="Yacute" horiz-adv-x="572" d="M232 0L298 278Q259 383 226 488T164 693H269Q288 612 311 528T364 366Q430 443 497 528T617 693H728Q653 591 571 489T395 278L329 0H232ZM590 864L421 736L381 785L539 936L590 864Z" />
<glyph unicode="&#xde;" glyph-name="Thorn" horiz-adv-x="594" d="M344 693L317 579Q336 581 356 581T396 582Q517 582 577 537T638 404Q638 336 613 287T540 205T427 158T280 142H211L177 0H80L247 693H344ZM382 500Q345 500 324 499T296 496L231 223H293Q335
223 379 230T458 257T515 309T538 396Q538 453 496 476T382 500Z" />
<glyph unicode="&#xdf;" glyph-name="germandbls" horiz-adv-x="600" d="M194 112Q182 61 173 21T152 -54T119 -121T63 -189L-19 -177Q11 -138 28 -111T56 -56T76 8T99 103L207 554Q235 672 300 724T471 776Q511 776 541 765T591 736T621 693T631 641Q631 612
625 591T605 550T572 513T526 470Q509 455 497 444T476 423T464 402T460 375Q460 354 476 340T522 306Q541 293 557 280T585 251T604 215T611 168Q611 123 595 89T550 33T481 -1T395 -12Q338 -12 300 1T251 22L286 97Q297 90 326 78T402 66Q453 66 485 90T518 162Q518
192 502 212T443 259Q417 275 402 288T379 315T369 341T367 369Q367 412 394 445T460 510Q478 525 492 538T517 564T533 594T539 630Q539 660 519 678T459 696Q334 696 300 552L194 112Z" />
<glyph unicode="&#xe0;" glyph-name="agrave" horiz-adv-x="544" d="M432 -6Q427 5 422 18T414 47Q392 27 355 7T264 -13Q220 -13 189 1T137 40T108 99T98 174Q98 241 120 305T188 419T301 500T460 531Q487 531 523 525T585 505L508 191Q503 168 500 147T496 103Q496
80 500 57T514 6L432 -6ZM283 66Q325 66 355 84T407 126Q408 143 410 161T417 199L477 447Q472 449 461 450T440 451Q383 451 337 429T259 371T209 286T191 184Q191 163 195 142T209 104T237 77T283 66ZM383 779L510 619L461 576L315 722L383 779Z" />
<glyph unicode="&#xe1;" glyph-name="aacute" horiz-adv-x="544" d="M432 -6Q427 5 422 18T414 47Q392 27 355 7T264 -13Q220 -13 189 1T137 40T108 99T98 174Q98 241 120 305T188 419T301 500T460 531Q487 531 523 525T585 505L508 191Q503 168 500 147T496 103Q496
80 500 57T514 6L432 -6ZM283 66Q325 66 355 84T407 126Q408 143 410 161T417 199L477 447Q472 449 461 450T440 451Q383 451 337 429T259 371T209 286T191 184Q191 163 195 142T209 104T237 77T283 66ZM554 708L385 580L345 629L503 780L554 708Z" />
<glyph unicode="&#xe2;" glyph-name="acircumflex" horiz-adv-x="544" d="M432 -6Q427 5 422 18T414 47Q392 27 355 7T264 -13Q220 -13 189 1T137 40T108 99T98 174Q98 241 120 305T188 419T301 500T460 531Q487 531 523 525T585 505L508 191Q503 168 500 147T496
103Q496 80 500 57T514 6L432 -6ZM283 66Q325 66 355 84T407 126Q408 143 410 161T417 199L477 447Q472 449 461 450T440 451Q383 451 337 429T259 371T209 286T191 184Q191 163 195 142T209 104T237 77T283 66ZM440 667L328 585L295 630L457 769L563 621L519 580L440
667Z" />
<glyph unicode="&#xe3;" glyph-name="atilde" horiz-adv-x="544" d="M432 -6Q427 5 422 18T414 47Q392 27 355 7T264 -13Q220 -13 189 1T137 40T108 99T98 174Q98 241 120 305T188 419T301 500T460 531Q487 531 523 525T585 505L508 191Q503 168 500 147T496 103Q496
80 500 57T514 6L432 -6ZM283 66Q325 66 355 84T407 126Q408 143 410 161T417 199L477 447Q472 449 461 450T440 451Q383 451 337 429T259 371T209 286T191 184Q191 163 195 142T209 104T237 77T283 66ZM455 707Q470 699 482 694T506 689Q527 689 541 704T566 737L613
708Q593 666 566 644T493 621Q473 621 458 628T428 643Q413 651 401 656T377 661Q356 661 342 646T317 613L270 642Q290 684 317 706T390 729Q410 729 425 722T455 707Z" />
<glyph unicode="&#xe4;" glyph-name="adieresis" horiz-adv-x="544" d="M432 -6Q427 5 422 18T414 47Q392 27 355 7T264 -13Q220 -13 189 1T137 40T108 99T98 174Q98 241 120 305T188 419T301 500T460 531Q487 531 523 525T585 505L508 191Q503 168 500 147T496
103Q496 80 500 57T514 6L432 -6ZM283 66Q325 66 355 84T407 126Q408 143 410 161T417 199L477 447Q472 449 461 450T440 451Q383 451 337 429T259 371T209 286T191 184Q191 163 195 142T209 104T237 77T283 66ZM340 616Q318 616 303 630T288 667Q288 697 308 715T351
734Q373 734 388 720T404 681Q404 652 384 634T340 616ZM530 616Q508 616 493 630T478 667Q478 697 498 715T541 734Q563 734 578 720T594 681Q594 652 574 634T530 616Z" />
<glyph unicode="&#xe5;" glyph-name="aring" horiz-adv-x="544" d="M432 -6Q427 5 422 18T414 47Q392 27 355 7T264 -13Q220 -13 189 1T137 40T108 99T98 174Q98 241 120 305T188 419T301 500T460 531Q487 531 523 525T585 505L508 191Q503 168 500 147T496 103Q496
80 500 57T514 6L432 -6ZM283 66Q325 66 355 84T407 126Q408 143 410 161T417 199L477 447Q472 449 461 450T440 451Q383 451 337 429T259 371T209 286T191 184Q191 163 195 142T209 104T237 77T283 66ZM542 677Q542 653 534 635T511 603T479 582T439 575Q418 575
400 582T367 602T345 634T336 677Q336 701 344 719T367 751T399 772T439 779Q460 779 478 772T511 752T533 720T542 677ZM492 677Q492 703 477 717T439 732Q417 732 402 718T386 677Q386 651 401 637T439 622Q461 622 476 636T492 677Z" />
<glyph unicode="&#xe6;" glyph-name="ae" horiz-adv-x="836" d="M786 23Q760 9 717 -2T625 -13Q598 -13 572 -8T522 8T481 38T451 85Q416 39 362 13T245 -13Q216 -13 189 -6T142 17T110 57T98 114Q98 184 132 223T219 282T334 306T452 315Q453 323 453 330T454
346Q454 400 424 424T328 449Q308 449 288 445T250 436T218 425T196 415L188 494Q211 506 254 518T346 530Q372 530 398 525T447 509T490 479T523 431Q542 456 566 474T617 505T672 524T727 530Q757 530 784 523T832 501T864 461T876 403Q876 356 860 324T817 269T755
235T680 216T600 207T522 202Q521 194 521 187T520 172Q520 115 550 92T646 68Q665 68 685 71T724 80T757 91T778 102L786 23ZM441 244Q370 242 322 234T245 211T202 175T189 127Q189 95 210 80T265 64Q331 64 377 110T441 244ZM533 273Q603 274 651 282T729 306T772
342T785 390Q785 422 764 437T709 453Q643 453 597 407T533 273Z" />
<glyph unicode="&#xe7;" glyph-name="ccedilla" horiz-adv-x="451" d="M100 186Q100 254 120 317T181 428T279 504T412 533Q445 533 475 529T532 511L497 433Q481 442 460 447T404 452Q355 452 316 431T250 374T208 292T193 195Q193 169 198 146T218 106T255 78T315
68Q333 68 353 71T390 80T420 90T440 101L448 22Q429 10 389 -1T300 -13Q295 -20 291 -26T283 -38Q303 -49 313 -62T323 -98Q323 -143 292 -166T207 -189Q178 -189 159 -185T126 -174L149 -119Q157 -123 170 -126T202 -130Q219 -130 230 -125T241 -105Q241 -93
233 -87T206 -72L200 -69Q207 -56 219 -39T241 -7Q172 9 136 60T100 186Z" />
<glyph unicode="&#xe8;" glyph-name="egrave" horiz-adv-x="518" d="M204 273Q262 275 310 280T393 299T447 336T467 396Q467 405 464 415T452 433T428 447T391 453Q356 453 326 438T271 399T230 342T204 273ZM299 -13Q248 -13 211 1T149 41T112 101T100 173Q100
243 121 308T181 423T276 502T403 532Q444 532 473 522T521 493T549 452T558 403Q558 356 541 324T496 269T431 235T353 216T271 207T192 202Q191 194 191 189T191 181Q191 158 196 138T217 102T258 77T328 68Q347 68 367 71T406 80T439 91T460 102L468 23Q448
12 404 0T299 -13ZM374 779L501 619L452 576L306 722L374 779Z" />
<glyph unicode="&#xe9;" glyph-name="eacute" horiz-adv-x="518" d="M204 273Q262 275 310 280T393 299T447 336T467 396Q467 405 464 415T452 433T428 447T391 453Q356 453 326 438T271 399T230 342T204 273ZM299 -13Q248 -13 211 1T149 41T112 101T100 173Q100
243 121 308T181 423T276 502T403 532Q444 532 473 522T521 493T549 452T558 403Q558 356 541 324T496 269T431 235T353 216T271 207T192 202Q191 194 191 189T191 181Q191 158 196 138T217 102T258 77T328 68Q347 68 367 71T406 80T439 91T460 102L468 23Q448
12 404 0T299 -13ZM545 708L376 580L336 629L494 780L545 708Z" />
<glyph unicode="&#xea;" glyph-name="ecircumflex" horiz-adv-x="518" d="M204 273Q262 275 310 280T393 299T447 336T467 396Q467 405 464 415T452 433T428 447T391 453Q356 453 326 438T271 399T230 342T204 273ZM299 -13Q248 -13 211 1T149 41T112 101T100
173Q100 243 121 308T181 423T276 502T403 532Q444 532 473 522T521 493T549 452T558 403Q558 356 541 324T496 269T431 235T353 216T271 207T192 202Q191 194 191 189T191 181Q191 158 196 138T217 102T258 77T328 68Q347 68 367 71T406 80T439 91T460 102L468
23Q448 12 404 0T299 -13ZM430 667L318 585L285 630L447 769L553 621L509 580L430 667Z" />
<glyph unicode="&#xeb;" glyph-name="edieresis" horiz-adv-x="518" d="M204 273Q262 275 310 280T393 299T447 336T467 396Q467 405 464 415T452 433T428 447T391 453Q356 453 326 438T271 399T230 342T204 273ZM299 -13Q248 -13 211 1T149 41T112 101T100 173Q100
243 121 308T181 423T276 502T403 532Q444 532 473 522T521 493T549 452T558 403Q558 356 541 324T496 269T431 235T353 216T271 207T192 202Q191 194 191 189T191 181Q191 158 196 138T217 102T258 77T328 68Q347 68 367 71T406 80T439 91T460 102L468 23Q448
12 404 0T299 -13ZM331 616Q309 616 294 630T279 667Q279 697 299 715T342 734Q364 734 379 720T395 681Q395 652 375 634T331 616ZM521 616Q499 616 484 630T469 667Q469 697 489 715T532 734Q554 734 569 720T585 681Q585 652 565 634T521 616Z" />
<glyph unicode="&#xec;" glyph-name="igrave" horiz-adv-x="249" d="M169 0H76L201 520H294L169 0ZM485 779L612 619L563 576L417 722L485 779Z" />
<glyph unicode="&#xed;" glyph-name="iacute" horiz-adv-x="249" d="M169 0H76L201 520H294L169 0ZM657 708L488 580L448 629L606 780L657 708Z" />
<glyph unicode="&#xee;" glyph-name="icircumflex" horiz-adv-x="249" d="M169 0H76L201 520H294L169 0ZM542 667L430 585L397 630L559 769L665 621L621 580L542 667Z" />
<glyph unicode="&#xef;" glyph-name="idieresis" horiz-adv-x="249" d="M169 0H76L201 520H294L169 0ZM442 616Q420 616 405 630T390 667Q390 697 410 715T453 734Q475 734 490 720T506 681Q506 652 486 634T442 616ZM632 616Q610 616 595 630T580 667Q580 697
600 715T643 734Q665 734 680 720T696 681Q696 652 676 634T632 616Z" />
<glyph unicode="&#xf0;" glyph-name="eth" horiz-adv-x="569" d="M589 427Q589 397 585 353T569 260T536 162T480 75T398 12T282 -13Q243 -13 210 -1T152 35T114 92T100 168Q100 237 118 296T173 398T262 465T386 490Q422 490 450 481T496 460Q494 492 487 525T466
592L336 551L328 614L438 649Q422 675 405 692T367 729L437 776Q456 762 479 737T524 676L655 718L663 655L553 620Q569 581 579 533T589 427ZM295 67Q341 67 376 93T435 162T474 259T494 370Q468 392 438 400T379 409Q288 409 241 348T193 177Q193 123 219 95T295
67Z" />
<glyph unicode="&#xf1;" glyph-name="ntilde" horiz-adv-x="551" d="M169 0H76L196 500Q242 514 295 522T391 531Q436 531 468 519T521 485T550 433T560 366Q560 343 556 318T546 266L482 0H389L448 246Q455 274 461 303T468 358Q468 398 446 424T364 451Q339
451 315 448T275 440L169 0ZM454 707Q469 699 481 694T505 689Q526 689 540 704T565 737L612 708Q592 666 565 644T492 621Q472 621 457 628T427 643Q412 651 400 656T376 661Q355 661 341 646T316 613L269 642Q289 684 316 706T389 729Q409 729 424 722T454 707Z"
/>
<glyph unicode="&#xf2;" glyph-name="ograve" horiz-adv-x="555" d="M275 -13Q193 -13 147 35T100 169Q100 227 116 291T169 409T262 498T400 533Q482 533 528 485T575 351Q575 293 559 229T506 111T413 22T275 -13ZM291 66Q336 66 371 92T431 158T469 248T482
343Q482 394 460 424T384 454Q339 454 304 428T244 362T206 272T193 177Q193 126 215 96T291 66ZM379 779L506 619L457 576L311 722L379 779Z" />
<glyph unicode="&#xf3;" glyph-name="oacute" horiz-adv-x="555" d="M275 -13Q193 -13 147 35T100 169Q100 227 116 291T169 409T262 498T400 533Q482 533 528 485T575 351Q575 293 559 229T506 111T413 22T275 -13ZM291 66Q336 66 371 92T431 158T469 248T482
343Q482 394 460 424T384 454Q339 454 304 428T244 362T206 272T193 177Q193 126 215 96T291 66ZM551 708L382 580L342 629L500 780L551 708Z" />
<glyph unicode="&#xf4;" glyph-name="ocircumflex" horiz-adv-x="555" d="M275 -13Q193 -13 147 35T100 169Q100 227 116 291T169 409T262 498T400 533Q482 533 528 485T575 351Q575 293 559 229T506 111T413 22T275 -13ZM291 66Q336 66 371 92T431 158T469 248T482
343Q482 394 460 424T384 454Q339 454 304 428T244 362T206 272T193 177Q193 126 215 96T291 66ZM435 667L323 585L290 630L452 769L558 621L514 580L435 667Z" />
<glyph unicode="&#xf5;" glyph-name="otilde" horiz-adv-x="555" d="M275 -13Q193 -13 147 35T100 169Q100 227 116 291T169 409T262 498T400 533Q482 533 528 485T575 351Q575 293 559 229T506 111T413 22T275 -13ZM291 66Q336 66 371 92T431 158T469 248T482
343Q482 394 460 424T384 454Q339 454 304 428T244 362T206 272T193 177Q193 126 215 96T291 66ZM451 707Q466 699 478 694T502 689Q523 689 537 704T562 737L609 708Q589 666 562 644T489 621Q469 621 454 628T424 643Q409 651 397 656T373 661Q352 661 338 646T313
613L266 642Q286 684 313 706T386 729Q406 729 421 722T451 707Z" />
<glyph unicode="&#xf6;" glyph-name="odieresis" horiz-adv-x="555" d="M275 -13Q193 -13 147 35T100 169Q100 227 116 291T169 409T262 498T400 533Q482 533 528 485T575 351Q575 293 559 229T506 111T413 22T275 -13ZM291 66Q336 66 371 92T431 158T469 248T482
343Q482 394 460 424T384 454Q339 454 304 428T244 362T206 272T193 177Q193 126 215 96T291 66ZM336 616Q314 616 299 630T284 667Q284 697 304 715T347 734Q369 734 384 720T400 681Q400 652 380 634T336 616ZM526 616Q504 616 489 630T474 667Q474 697 494 715T537
734Q559 734 574 720T590 681Q590 652 570 634T526 616Z" />
<glyph unicode="&#xf7;" glyph-name="divide" horiz-adv-x="564" d="M368 120Q368 105 363 92T347 67T323 50T293 43Q271 43 258 56T244 90Q244 105 249 118T265 143T288 160T319 167Q341 167 354 154T368 120ZM460 504Q460 489 455 476T439 451T415 434T385 427Q363
427 350 440T336 474Q336 489 341 502T357 527T380 544T411 551Q433 551 446 538T460 504ZM584 337L565 258H116L135 337H584Z" />
<glyph unicode="&#xf8;" glyph-name="oslash" horiz-adv-x="555" d="M575 351Q575 293 559 229T506 111T413 22T275 -13Q209 -13 166 18L119 -36L69 1L124 64Q100 106 100 169Q100 227 116 291T169 409T263 498T401 533Q466 533 509 502L555 554L606 517L551 454Q562
433 568 408T575 351ZM191 176Q191 167 191 159T193 143L450 435Q424 455 384 455Q339 455 303 429T242 362T204 272T191 176ZM291 65Q336 65 372 91T433 158T471 248T484 344Q484 352 484 360T482 376L225 84Q247 65 291 65Z" />
<glyph unicode="&#xf9;" glyph-name="ugrave" horiz-adv-x="550" d="M266 -13Q222 -13 193 0T145 35T118 87T110 151Q110 177 114 202T125 254L189 520H282L223 274Q218 251 210 220T202 158Q202 140 205 124T218 95T244 75T284 67Q327 67 359 85T414 129Q415
145 417 162T424 199L501 520H594L515 191Q510 168 507 147T503 102Q503 79 507 56T521 6L439 -6Q434 5 429 19T421 49Q410 39 395 28T361 8T318 -7T266 -13ZM371 779L498 619L449 576L303 722L371 779Z" />
<glyph unicode="&#xfa;" glyph-name="uacute" horiz-adv-x="550" d="M266 -13Q222 -13 193 0T145 35T118 87T110 151Q110 177 114 202T125 254L189 520H282L223 274Q218 251 210 220T202 158Q202 140 205 124T218 95T244 75T284 67Q327 67 359 85T414 129Q415
145 417 162T424 199L501 520H594L515 191Q510 168 507 147T503 102Q503 79 507 56T521 6L439 -6Q434 5 429 19T421 49Q410 39 395 28T361 8T318 -7T266 -13ZM543 708L374 580L334 629L492 780L543 708Z" />
<glyph unicode="&#xfb;" glyph-name="ucircumflex" horiz-adv-x="550" d="M266 -13Q222 -13 193 0T145 35T118 87T110 151Q110 177 114 202T125 254L189 520H282L223 274Q218 251 210 220T202 158Q202 140 205 124T218 95T244 75T284 67Q327 67 359 85T414 129Q415
145 417 162T424 199L501 520H594L515 191Q510 168 507 147T503 102Q503 79 507 56T521 6L439 -6Q434 5 429 19T421 49Q410 39 395 28T361 8T318 -7T266 -13ZM427 667L315 585L282 630L444 769L550 621L506 580L427 667Z" />
<glyph unicode="&#xfc;" glyph-name="udieresis" horiz-adv-x="550" d="M266 -13Q222 -13 193 0T145 35T118 87T110 151Q110 177 114 202T125 254L189 520H282L223 274Q218 251 210 220T202 158Q202 140 205 124T218 95T244 75T284 67Q327 67 359 85T414 129Q415
145 417 162T424 199L501 520H594L515 191Q510 168 507 147T503 102Q503 79 507 56T521 6L439 -6Q434 5 429 19T421 49Q410 39 395 28T361 8T318 -7T266 -13ZM328 616Q306 616 291 630T276 667Q276 697 296 715T339 734Q361 734 376 720T392 681Q392 652 372 634T328
616ZM518 616Q496 616 481 630T466 667Q466 697 486 715T529 734Q551 734 566 720T582 681Q582 652 562 634T518 616Z" />
<glyph unicode="&#xfd;" glyph-name="yacute" horiz-adv-x="478" d="M281 84Q319 144 350 208T404 332T444 440T467 520H564Q553 482 533 426T485 304T421 170T343 38Q311 -9 279 -50T211 -122T130 -170T31 -188Q3 -188 -21 -181T-56 -166L-24 -90Q-14 -98 3 -103T41
-109Q99 -109 139 -81T216 -7Q179 114 156 248T127 520H222Q223 475 227 422T238 311T256 195T281 84ZM494 708L325 580L285 629L443 780L494 708Z" />
<glyph unicode="&#xfe;" glyph-name="thorn" horiz-adv-x="546" d="M379 533Q428 533 463 519T522 481T556 423T568 349Q568 280 547 216T483 101T373 21T215 -9Q204 -9 191 -8T168 -5L125 -185H32L259 760L356 776L295 521Q344 533 379 533ZM356 454Q331 454
310 450T275 441L187 73Q197 71 208 71T231 70Q288 70 333 92T409 151T458 237T475 339Q475 361 470 382T452 419T415 444T356 454Z" />
<glyph unicode="&#xff;" glyph-name="ydieresis" horiz-adv-x="478" d="M281 84Q319 144 350 208T404 332T444 440T467 520H564Q553 482 533 426T485 304T421 170T343 38Q311 -9 279 -50T211 -122T130 -170T31 -188Q3 -188 -21 -181T-56 -166L-24 -90Q-14 -98
3 -103T41 -109Q99 -109 139 -81T216 -7Q179 114 156 248T127 520H222Q223 475 227 422T238 311T256 195T281 84ZM279 616Q257 616 242 630T227 667Q227 697 247 715T290 734Q312 734 327 720T343 681Q343 652 323 634T279 616ZM469 616Q447 616 432 630T417 667Q417
697 437 715T480 734Q502 734 517 720T533 681Q533 652 513 634T469 616Z" />
<glyph unicode="&#x2013;" glyph-name="endash" horiz-adv-x="496" d="M80 339H580L561 260H61L80 339Z" />
<glyph unicode="&#x2014;" glyph-name="emdash" horiz-adv-x="996" d="M80 339H1080L1061 260H61L80 339Z" />
<glyph unicode="&#x2018;" glyph-name="quoteleft" horiz-adv-x="235" d="M182 520Q187 552 200 585T230 650T268 710T310 760L373 734Q338 680 315 629T284 520H182Z" />
<glyph unicode="&#x2019;" glyph-name="quoteright" horiz-adv-x="235" d="M355 750Q350 718 337 685T307 620T269 560T227 510L164 536Q199 590 222 641T253 750H355Z" />
<glyph unicode="&#x201a;" glyph-name="quotesinglbase" horiz-adv-x="235" d="M202 114Q197 82 184 49T154 -16T116 -76T74 -126L11 -100Q46 -46 69 5T100 114H202Z" />
<glyph unicode="&#x201c;" glyph-name="quotedblleft" horiz-adv-x="417" d="M182 520Q187 552 200 585T230 650T268 710T310 760L373 734Q338 680 315 629T284 520H182ZM364 520Q369 552 382 585T412 650T450 710T492 760L555 734Q520 680 497 629T466 520H364Z" />
<glyph unicode="&#x201d;" glyph-name="quotedblright" horiz-adv-x="417" d="M355 750Q350 718 337 685T307 620T269 560T227 510L164 536Q199 590 222 641T253 750H355ZM537 750Q532 718 519 685T489 620T451 560T409 510L346 536Q381 590 404 641T435 750H537Z" />
<glyph unicode="&#x201e;" glyph-name="quotedblbase" horiz-adv-x="417" d="M202 114Q197 82 184 49T154 -16T116 -76T74 -126L11 -100Q46 -46 69 5T100 114H202ZM384 114Q379 82 366 49T336 -16T298 -76T256 -126L193 -100Q228 -46 251 5T282 114H384Z" />
<glyph unicode="&#x2022;" glyph-name="bullet" horiz-adv-x="360" d="M390 353Q390 327 381 304T356 264T316 237T262 226Q232 226 209 236T169 264T143 304T134 353Q134 378 143 401T168 442T208 469T262 480Q292 480 315 470T355 442T381 402T390 353Z" />
<glyph unicode="&#x2039;" glyph-name="guilsinglleft" horiz-adv-x="291" d="M276 92L214 63L96 290L299 505L357 470L200 280L276 92Z" />
<glyph unicode="&#x203a;" glyph-name="guilsinglright" horiz-adv-x="291" d="M151 476L213 505L331 278L128 63L70 98L227 288L151 476Z" />
</font>
</defs>
</svg>
