<?xml version="1.0" standalone="no"?>
<!DOCTYPE svg PUBLIC "-//W3C//DTD SVG 1.1//EN" "http://www.w3.org/Graphics/SVG/1.1/DTD/svg11.dtd">
<svg xmlns="http://www.w3.org/2000/svg">
<defs >
<font id="Trispace" horiz-adv-x="1241" ><font-face
    font-family="Trispace Thin SemiBold"
    units-per-em="2000"
    panose-1="0 0 0 0 0 0 0 0 0 0"
    ascent="1830"
    descent="-430"
    alphabetic="0" />
<glyph unicode=" " horiz-adv-x="1000" />
<glyph unicode="!" horiz-adv-x="1000" d="M402 443L356 1400H679L633 443H402ZM366 275H664V0H366V275Z" />
<glyph unicode="&quot;" horiz-adv-x="1300" d="M596 901L538 1400H831L774 901H596ZM771 901L713 1400H1006L949 901H771Z" />
<glyph unicode="#" horiz-adv-x="1800" d="M1008 0L1170 1400H1423L1261 0H1008ZM128 346L153 554H1540L1513 346H128ZM335 0L497 1400H750L588 0H335ZM194 847L219 1055H1606L1579 847H194Z" />
<glyph unicode="$" horiz-adv-x="1300" d="M563 0V323H776V0H563ZM563 1117V1400H776V1117H563ZM671 184Q555 184 462 205T300 267T188 365L411 510Q429 483 455 462T516 425T592 403T681 396Q723 396 761 402T828 420T874 453T891 501Q891 535 855 557T753 596T594
625Q523 635 456 655T334 711T248 801T216 932Q216 996 242 1044T315 1128T421 1185T549 1219T684 1230Q798 1230 886 1204T1035 1137T1125 1055L910 915Q896 938 873 957T817 991T747 1013T667 1021Q634 1021 600 1017T538 1001T492 973T474 930Q474 899 505 879T591
845T719 821Q772 813 832 801T949 768T1054 716T1129 635T1158 519Q1158 449 1131 395T1057 300T948 235T815 197T671 184Z" />
<glyph unicode="%" horiz-adv-x="1300" d="M103 0L954 1400H1149L298 0H103ZM940 6Q872 6 813 32T719 118T683 274Q683 370 718 428T813 513T940 540Q1007 540 1065 514T1160 429T1197 274Q1197 177 1161 118T1066 33T940 6ZM940 145Q965 145 985 157T1018 197T1031
274Q1031 322 1019 349T986 389T940 401Q915 401 894 389T860 350T847 274Q847 225 859 197T893 157T940 145ZM317 846Q250 846 192 872T97 958T60 1114Q60 1210 96 1268T191 1353T317 1380Q385 1380 443 1354T538 1269T574 1114Q574 1017 538 958T444 873T317
846ZM317 985Q342 985 363 997T397 1037T410 1114Q410 1162 397 1189T363 1229T317 1241Q292 1241 272 1229T238 1190T225 1114Q225 1065 238 1037T271 997T317 985Z" />
<glyph unicode="&amp;" horiz-adv-x="1700" d="M734 -16Q578 -16 457 30T267 164T198 379Q198 472 237 542T344 665T500 762T684 848Q786 892 838 929T909 1004T928 1091Q928 1129 916 1153T884 1192T838 1212T787 1218Q760 1218 736 1211T691 1189T659 1150T647
1092Q647 1057 664 1018T707 940T757 870T796 820L1497 0H1208L625 673Q594 709 559 754T492 853T441 967T421 1092Q421 1173 451 1233T534 1332T652 1392T788 1412Q861 1412 928 1393T1047 1335T1130 1235T1161 1089Q1161 995 1119 920T996 785T795 672Q722 641
664 611T563 547T499 476T477 389Q477 347 493 311T543 248T628 207T748 192Q819 192 887 208T1015 256T1120 336T1192 449T1218 594H1468Q1468 488 1428 396T1317 228T1153 98T953 14T734 -16Z" />
<glyph unicode="&apos;" horiz-adv-x="1000" d="M422 901L364 1400H657L600 901H422Z" />
<glyph unicode="(" horiz-adv-x="1300" d="M846 -463Q821 -440 774 -388T671 -251T565 -47T482 231T449 588Q449 787 481 945T565 1222T671 1426T774 1562T847 1637L1061 1494Q1043 1478 1004 1433T919 1313T831 1133T762 892T735 588Q735 420 761 285T830 44T917
-135T1002 -256T1060 -320L846 -463Z" />
<glyph unicode=")" horiz-adv-x="1300" d="M457 -463L243 -320Q263 -302 301 -256T386 -136T473 44T542 284T569 588Q569 756 542 892T473 1133T385 1313T300 1433T242 1494L456 1637Q481 1614 529 1563T632 1427T739 1223T822 945T855 588Q855 389 823 231T740
-46T634 -251T530 -388T457 -463Z" />
<glyph unicode="*" horiz-adv-x="1300" d="M705 1009L563 1233L685 1330L855 1114L705 1009ZM491 1009L341 1114L513 1330L633 1233L491 1009ZM563 1233L276 1307L337 1486L598 1395L563 1233ZM598 1227Q559 1227 532 1251T505 1309Q505 1341 532 1368T598 1396Q636
1396 662 1369T689 1309Q689 1275 663 1251T598 1227ZM513 1330L500 1600H698L685 1330H513ZM633 1233L598 1395L860 1486L921 1307L633 1233Z" />
<glyph unicode="+" horiz-adv-x="1300" d="M491 203V1011H721V203H491ZM201 493V723H1009V493H201Z" />
<glyph unicode="," horiz-adv-x="1000" d="M427 -312L312 -169Q347 -152 374 -132T418 -80T434 5L627 0Q627 -91 595 -153T515 -254T427 -312ZM324 0V275H627V0H324Z" />
<glyph unicode="-" horiz-adv-x="1300" d="M335 493V723H966V493H335Z" />
<glyph unicode="." horiz-adv-x="1000" d="M351 275H649V0H351V275Z" />
<glyph unicode="/" horiz-adv-x="893" d="M70 -284L568 1600H829L331 -284H70Z" />
<glyph unicode="0" horiz-adv-x="1300" d="M643 -22Q542 -22 450 13T285 131T172 352T130 696Q130 900 171 1038T285 1259T449 1376T643 1412Q742 1412 833 1377T997 1259T1111 1039T1153 696Q1153 491 1112 353T998 132T834 14T643 -22ZM643 184Q686 184 725
208T794 291T840 448T857 696Q857 844 841 942T794 1099T725 1181T643 1206Q598 1206 559 1182T490 1099T443 943T426 696Q426 547 443 448T489 291T558 209T643 184Z" />
<glyph unicode="1" horiz-adv-x="1300" d="M201 0V211H499V1145L207 1057V1298L538 1400H785V211H1084V0H201Z" />
<glyph unicode="2" horiz-adv-x="1300" d="M129 0V207Q158 228 208 267T321 357T450 470T579 597T691 730T770 861T800 983Q800 1039 786 1079T746 1144T685 1181T609 1193Q545 1193 497 1159T416 1073T369 963L123 1072Q150 1179 221 1255T393 1371T610 1412Q713
1412 801 1390T954 1318T1057 1186T1094 985Q1094 905 1057 820T959 653T828 496T691 361T574 262T503 210H1081V0H129Z" />
<glyph unicode="3" horiz-adv-x="1300" d="M638 -22Q506 -22 404 15T232 119T133 271L377 395Q397 337 432 293T518 225T641 200Q709 200 763 229T847 315T878 455Q878 518 860 563T812 639T741 684T657 699Q634 699 610 695T564 682T521 663L365 833L755 1189H190V1400H1094V1189L695
838Q711 847 746 853T813 860Q871 860 931 837T1042 766T1124 641T1155 457Q1155 340 1116 251T1005 101T841 9T638 -22Z" />
<glyph unicode="4" horiz-adv-x="1300" d="M721 0V289H122V500L548 1400H1004V500H1201V289H1004V0H721ZM407 500H721V1213H733L407 500Z" />
<glyph unicode="5" horiz-adv-x="1300" d="M620 -22Q491 -22 392 17T226 122T129 266L370 387Q380 351 409 308T491 232T621 200Q696 200 749 230T829 321T857 466Q857 546 827 601T745 686T630 715Q568 715 519 695T436 640T383 565L265 633Q281 701 320 757T420
853T554 915T712 937Q826 937 922 887T1075 734T1133 472Q1133 343 1091 250T976 96T811 7T620 -22ZM383 565L149 647L251 1400H1041V1189H467L383 565Z" />
<glyph unicode="6" horiz-adv-x="1300" d="M616 -22Q509 -22 415 17T251 137T142 348T103 656Q103 842 149 983T278 1220T466 1364T692 1412Q801 1412 875 1384T994 1318T1056 1249L880 1093Q869 1112 847 1136T787 1179T690 1197Q621 1197 565 1162T467 1056T404
878T382 627Q382 500 400 416T451 284T527 217T619 197Q682 197 734 230T818 325T850 476Q850 565 821 620T741 701T629 727Q583 727 542 711T467 664T413 590T386 492L229 543Q244 632 287 705T394 832T536 914T699 943Q812 943 909 892T1066 740T1125 485Q1125
373 1088 280T983 119T822 15T616 -22Z" />
<glyph unicode="7" horiz-adv-x="1300" d="M488 0Q488 135 507 277T560 557T637 817T727 1035T820 1189H224V1400H1117V1189Q1061 1115 1012 1014T921 794T851 544T805 275T788 0H488Z" />
<glyph unicode="8" horiz-adv-x="1300" d="M646 -22Q496 -22 380 27T196 169T129 396Q129 513 177 593T304 722T472 794T646 816Q729 816 818 794T985 723T1111 593T1160 396Q1160 262 1094 169T911 27T646 -22ZM646 197Q702 197 754 218T841 287T875 415Q875
498 841 546T754 614T646 635Q590 635 537 614T448 545T413 415Q413 335 448 287T536 218T646 197ZM646 658Q570 658 490 683T340 757T229 876T186 1037Q186 1127 220 1197T317 1315T463 1389T646 1414Q743 1414 826 1389T972 1316T1069 1197T1104 1037Q1104 947
1062 877T951 757T802 683T646 658ZM646 839Q728 839 781 887T835 1021Q835 1067 819 1100T774 1155T713 1185T646 1195Q611 1195 577 1186T515 1155T471 1101T455 1021Q455 935 509 887T646 839Z" />
<glyph unicode="9" horiz-adv-x="1300" d="M562 -22Q453 -22 379 6T260 72T198 141L374 297Q385 278 407 254T467 211T564 193Q633 193 689 228T787 334T850 512T872 763Q872 888 854 971T803 1103T727 1172T635 1193Q572 1193 520 1160T436 1065T404 914Q404
825 433 770T513 689T625 663Q671 663 712 680T786 730T843 806T875 905L1025 847Q1010 758 967 685T860 558T718 476T555 447Q442 447 345 498T188 651T129 905Q129 1017 166 1110T271 1271T433 1375T638 1412Q745 1412 839 1373T1003 1253T1112 1042T1151 734Q1151
548 1105 407T976 170T788 26T562 -22Z" />
<glyph unicode=":" horiz-adv-x="1000" d="M317 1000H615V725H317V1000ZM573 275H871V0H573V275Z" />
<glyph unicode=";" horiz-adv-x="1000" d="M355 1000H653V725H355V1000ZM446 -312L331 -169Q366 -152 393 -132T437 -80T453 5L646 0Q646 -91 614 -153T534 -254T446 -312ZM343 0V275H646V0H343Z" />
<glyph unicode="&lt;" horiz-adv-x="1300" d="M970 1068L1075 892L363 458V584L1075 150L970 -26L248 429V613L970 1068Z" />
<glyph unicode="=" horiz-adv-x="1300" d="M193 677V907H1001V677H193ZM193 309V539H1001V309H193Z" />
<glyph unicode="&gt;" horiz-adv-x="1300" d="M287 -26L183 150L894 584V458L183 892L287 1068L1009 613V429L287 -26Z" />
<glyph unicode="?" horiz-adv-x="1300" d="M444 427V469Q444 537 464 592T518 692T591 775T670 847Q708 880 739 911T790 975T809 1043Q809 1082 795 1109T755 1152T696 1176T622 1184Q577 1184 532 1170T448 1129T379 1066T332 987L112 1113Q138 1188 209 1257T384
1369T615 1412Q713 1412 799 1393T949 1330T1051 1219T1088 1054Q1088 982 1057 926T978 822T878 732Q832 693 790 652T722 565T696 462V427H444ZM422 275H720V0H422V275Z" />
<glyph unicode="@" horiz-adv-x="1700" d="M720 -18Q647 -18 559 1T385 64T226 183T109 366T65 625Q65 784 110 910T237 1131T430 1288T672 1381T948 1412Q1086 1412 1209 1378T1427 1270T1576 1078T1631 790Q1631 680 1599 589T1509 430T1370 325T1195 288Q1135
288 1091 302T1020 346T987 421Q978 392 947 369T871 331T776 316Q726 316 675 333T581 388T511 489T485 645Q485 746 517 826T609 964T748 1051T925 1081Q976 1081 1022 1073T1104 1053T1162 1028Q1153 953 1144 870T1128 713T1117 586T1112 517Q1112 484 1120
463T1148 432T1196 422Q1261 422 1302 454T1366 539T1397 657T1406 790Q1406 899 1373 979T1278 1113T1128 1193T933 1219Q831 1219 736 1196T560 1126T419 1011T326 850T292 644Q292 535 324 449T418 303T567 210T763 177Q851 177 902 194T968 222L1075 47Q1061
38 1018 23T901 -5T720 -18ZM821 498Q850 498 874 512T915 554T938 618Q939 625 942 653T949 722T957 805T964 885Q957 888 936 892T883 896Q835 896 802 877T747 824T716 747T706 657Q706 605 717 573T745 525T783 504T821 498Z" />
<glyph unicode="A" horiz-adv-x="1300" d="M1216 0H925L855 318H449L379 0H88L425 1400H879L1216 0ZM640 1189L491 529H813L664 1189H640Z" />
<glyph unicode="B" horiz-adv-x="1300" d="M183 0V1400H678Q728 1400 789 1394T910 1368T1021 1310T1101 1211T1132 1058Q1132 955 1095 886T1005 779T907 736Q948 732 997 711T1091 650T1163 548T1192 397Q1192 267 1140 179T995 45T784 0H183ZM469 211H677Q742
211 793 231T874 296T904 417Q904 499 871 542T785 601T676 617H469V211ZM469 827H643Q703 827 750 846T825 907T853 1015Q853 1067 839 1100T796 1153T729 1181T639 1189H469V827Z" />
<glyph unicode="C" horiz-adv-x="1300" d="M694 -22Q609 -22 523 0T360 74T224 208T130 412T95 696Q95 859 129 979T224 1183T362 1316T525 1389T697 1412Q786 1412 863 1389T1003 1320T1114 1212T1192 1067L942 942Q930 983 910 1027T860 1110T791 1173T696 1197Q638
1197 583 1170T483 1082T413 927T387 696Q387 561 413 465T482 309T581 221T694 193Q748 193 789 217T859 279T908 362T942 445L1192 319Q1162 241 1114 178T1003 70T862 2T694 -22Z" />
<glyph unicode="D" horiz-adv-x="1300" d="M151 0V1400H571Q643 1400 716 1389T859 1351T988 1274T1094 1147T1165 959T1190 700Q1190 551 1165 441T1094 254T989 127T860 50T717 11T571 0H151ZM437 211H548Q627 211 691 236T802 317T872 468T897 700Q897 838
873 932T802 1082T692 1164T548 1189H437V211Z" />
<glyph unicode="E" horiz-adv-x="1300" d="M202 0V1400H1129V1189H488V793H1055V583H488V211H1129V0H202Z" />
<glyph unicode="F" horiz-adv-x="1300" d="M256 0V1400H1120V1189H542V705H1024V494H542V0H256Z" />
<glyph unicode="G" horiz-adv-x="1300" d="M682 -22Q598 -22 514 1T353 75T217 210T123 414T89 696Q89 856 122 975T215 1178T349 1313T509 1388T678 1412Q776 1412 859 1389T1007 1321T1114 1216T1173 1078L910 976Q901 1019 883 1058T835 1129T765 1179T673
1197Q628 1197 585 1180T503 1125T436 1029T391 887T374 696Q374 560 400 464T470 308T569 221T685 193Q742 193 787 213T863 274T912 376T929 517H663V733H1199V595Q1199 465 1172 365T1097 191T983 71T842 1T682 -22Z" />
<glyph unicode="H" horiz-adv-x="1300" d="M133 0V1400H419V833H881V1400H1167V0H881V623H419V0H133Z" />
<glyph unicode="I" horiz-adv-x="1300" d="M224 0V211H506V1189H224V1400H1076V1189H792V211H1076V0H224Z" />
<glyph unicode="J" horiz-adv-x="1300" d="M610 -22Q505 -22 414 9T254 110T147 292T108 563H396Q396 441 421 360T495 240T610 200Q677 200 725 239T798 360T823 563V1189H302V1400H1109V537Q1109 387 1071 281T966 108T808 10T610 -22Z" />
<glyph unicode="K" horiz-adv-x="1300" d="M152 0V1400H438V823H512L874 1400H1183L704 667V771L1203 0H891L512 613H438V0H152Z" />
<glyph unicode="L" horiz-adv-x="1000" d="M129 0V1400H416V211H918V0H129Z" />
<glyph unicode="M" horiz-adv-x="1700" d="M799 169L868 541L1107 1400H1264L1265 1159L970 169H799ZM99 0L219 1400H483L391 0H99ZM728 169L432 1159L435 1400H590L835 541L897 169H728ZM1306 0L1214 1400H1478L1599 0H1306Z" />
<glyph unicode="N" horiz-adv-x="1300" d="M116 0V1400H539L947 239H895V1400H1181V0H817L390 1157H402V0H116Z" />
<glyph unicode="O" horiz-adv-x="1300" d="M647 -22Q558 -22 473 3T313 82T183 220T94 423T61 696Q61 850 93 968T182 1170T313 1308T472 1386T647 1412Q736 1412 820 1387T979 1308T1110 1171T1199 968T1231 696Q1231 541 1199 423T1111 221T980 83T821 4T647
-22ZM647 193Q704 193 756 221T851 309T917 465T941 696Q941 830 917 925T851 1081T757 1169T647 1197Q590 1197 537 1169T442 1081T376 926T351 696Q351 561 375 466T441 310T536 221T647 193Z" />
<glyph unicode="P" horiz-adv-x="1300" d="M189 0V1400H650Q706 1400 774 1389T910 1347T1033 1263T1123 1125T1157 919Q1157 797 1124 712T1034 572T910 486T775 443T650 430H477V0H189ZM477 641H624Q668 641 710 654T788 698T845 783T866 918Q866 1000 845 1052T789
1134T711 1177T624 1189H477V641Z" />
<glyph unicode="Q" horiz-adv-x="1300" d="M534 -337V0H769V-160L739 -130H1131V-337H534ZM647 -22Q558 -22 473 3T313 82T183 220T94 423T61 696Q61 850 93 968T182 1170T313 1308T472 1386T647 1412Q736 1412 820 1387T979 1308T1110 1171T1199 968T1231 696Q1231
541 1199 423T1111 221T980 83T821 4T647 -22ZM647 193Q704 193 756 221T851 309T917 465T941 696Q941 830 917 925T851 1081T757 1169T647 1197Q590 1197 537 1169T442 1081T376 926T351 696Q351 561 375 466T441 310T536 221T647 193Z" />
<glyph unicode="R" horiz-adv-x="1300" d="M174 0V1400H718Q773 1400 835 1390T957 1353T1064 1282T1140 1167T1169 999Q1169 895 1138 822T1056 703T943 631T820 596T707 586H460V0H174ZM890 0L639 662L920 691L1194 0H890ZM460 788H659Q723 788 774 808T854
872T884 992Q884 1070 854 1112T772 1172T656 1189H460V788Z" />
<glyph unicode="S" horiz-adv-x="1300" d="M646 -22Q513 -22 401 17T210 129T101 301L375 415Q393 358 433 308T532 228T666 197Q736 197 786 217T863 277T890 373Q890 415 865 450T795 512T695 562T576 603Q484 631 405 666T267 751T175 870T142 1034Q142 1112
171 1173T251 1279T369 1353T511 1397T663 1412Q788 1412 892 1375T1069 1274T1165 1131L896 1014Q879 1068 845 1108T762 1171T652 1193Q609 1193 571 1184T504 1156T457 1109T440 1043Q440 991 471 953T559 886T695 834Q760 815 829 790T962 730T1077 649T1158
539T1188 394Q1188 304 1158 235T1074 117T952 38T805 -7T646 -22Z" />
<glyph unicode="T" horiz-adv-x="1300" d="M506 0V1189H124V1400H1176V1189H792V0H506Z" />
<glyph unicode="U" horiz-adv-x="1300" d="M652 -22Q547 -22 454 7T288 100T175 270T133 528V1400H419V541Q419 418 446 343T526 234T652 200Q726 200 777 234T856 343T883 541V1400H1169V528Q1169 376 1128 271T1016 101T851 7T652 -22Z" />
<glyph unicode="V" horiz-adv-x="1300" d="M409 0L73 1400H364L634 211H645L914 1400H1207L868 0H409Z" />
<glyph unicode="W" horiz-adv-x="1700" d="M1050 0L848 1021L814 1395H973L1231 179L1190 0H1050ZM288 0L60 1400H361L496 188L523 0H288ZM499 0L465 179L725 1395H886L860 1021L649 0H499ZM1166 0L1199 188L1339 1400H1640L1411 0H1166Z" />
<glyph unicode="X" horiz-adv-x="1300" d="M71 0L371 690L71 1400H384L624 797H656L901 1400H1214L909 690L1214 0H901L656 587H624L384 0H71Z" />
<glyph unicode="Y" horiz-adv-x="1300" d="M498 0V472L83 1400H379L640 735L901 1400H1197L784 472V0H498Z" />
<glyph unicode="Z" horiz-adv-x="1300" d="M191 0V211L802 1189H207V1400H1088V1189L475 211H1107V0H191Z" />
<glyph unicode="[" horiz-adv-x="1300" d="M440 -419V1619H997V1389H726V-189H997V-419H440Z" />
<glyph unicode="\" horiz-adv-x="895" d="M568 -284L70 1600H333L831 -284H568Z" />
<glyph unicode="]" horiz-adv-x="1300" d="M852 -419H295V-189H566V1389H295V1619H852V-419Z" />
<glyph unicode="^" horiz-adv-x="1300" d="M290 1120L493 1600H799L1002 1120H770L653 1406H639L522 1120H290Z" />
<glyph unicode="_" horiz-adv-x="1300" d="M-6 -313V-83H1306V-313H-6Z" />
<glyph unicode="`" horiz-adv-x="1300" d="M613 1121L264 1420H559L869 1121H613Z" />
<glyph unicode="a" horiz-adv-x="1300" d="M521 -22Q438 -22 367 -1T243 63T161 167T131 310Q131 379 156 431T224 521T321 582T435 617T554 628Q620 628 673 616T764 585T817 549V650Q817 690 800 719T752 767T683 795T599 804Q549 804 504 796T419 775T347 748T293
719L173 928Q210 951 278 973T433 1009T614 1024Q682 1024 750 1014T882 981T994 919T1072 823T1101 684V211H1236V0H878L846 124Q830 92 788 58T679 1T521 -22ZM602 188Q658 188 702 204T775 245T817 290V372Q804 392 772 411T697 444T608 457Q560 457 515 445T440
403T411 324Q411 274 435 245T503 202T602 188Z" />
<glyph unicode="b" horiz-adv-x="1300" d="M178 0V1500H466V213L429 0H178ZM748 -22Q653 -22 580 20T456 127T381 264T356 397L461 433Q464 388 480 346T524 271T588 219T669 200Q734 200 785 234T866 336T896 502Q896 600 868 666T789 766T675 800Q631 800 595
783T531 735T484 668T456 591L359 628Q359 688 385 756T462 884T587 983T758 1022Q869 1022 966 967T1122 796T1182 502Q1182 368 1146 269T1048 106T909 10T748 -22Z" />
<glyph unicode="c" horiz-adv-x="1300" d="M701 -22Q626 -22 551 -3T410 55T292 157T212 304T182 502Q182 615 211 701T292 848T409 948T551 1005T701 1024Q785 1024 856 1005T987 952T1089 869T1156 762L906 647Q896 684 872 722T808 787T709 814Q666 814 625
797T551 743T498 647T478 502Q478 418 497 359T550 262T625 206T709 188Q768 188 808 212T872 272T905 344L1155 228Q1130 174 1088 129T987 49T858 -3T701 -22Z" />
<glyph unicode="d" horiz-adv-x="1300" d="M525 -22Q441 -22 364 9T225 105T127 269T91 502Q91 681 151 796T307 966T515 1022Q611 1022 685 984T810 885T887 756T914 628L817 591Q808 630 789 667T742 735T678 782T597 800Q533 800 484 766T406 666T377 502Q377
404 406 337T487 235T604 200Q648 200 684 219T748 270T792 345T812 433L917 397Q917 336 892 264T817 127T694 20T525 -22ZM1095 1500V83L966 211H1239V0H844L807 206V1500H1095Z" />
<glyph unicode="e" horiz-adv-x="1300" d="M653 -22Q553 -22 460 11T293 109T176 273T133 502Q133 632 175 730T292 893T460 991T656 1024Q761 1024 855 994T1021 903T1135 750T1177 533Q1177 511 1175 485T1169 439H362V609H881Q881 612 881 614T881 619Q881
674 853 718T775 789T662 815Q616 815 573 797T497 742T443 646T423 504Q423 403 455 333T543 225T670 188Q733 188 775 209T843 260T880 316L1137 191Q1109 144 1065 106T961 38T824 -6T653 -22Z" />
<glyph unicode="f" horiz-adv-x="1000" d="M290 0V1124Q290 1240 331 1316T439 1437T586 1499T745 1518Q814 1518 866 1507T944 1481V1267Q919 1282 882 1294T785 1307Q744 1307 707 1299T640 1267T593 1199T576 1086V0H290ZM53 789V1000H927V789H53Z" />
<glyph unicode="g" horiz-adv-x="1300" d="M638 -427Q540 -427 455 -402T307 -332T208 -222T172 -78H458Q458 -99 469 -122T504 -166T562 -200T645 -213Q709 -213 755 -183T828 -93T854 53V798L868 1000H1140V61Q1140 -36 1115 -114T1044 -251T936 -349T798 -407T638
-427ZM573 -22Q489 -22 412 9T273 105T175 269T139 502Q139 681 199 796T355 966T563 1022Q659 1022 733 984T858 885T935 756T962 628L865 591Q856 630 837 667T790 735T726 782T645 800Q581 800 532 766T454 666T425 502Q425 404 454 337T535 235T652 200Q696
200 732 219T796 270T840 345T860 433L965 397Q965 336 940 264T865 127T742 20T573 -22Z" />
<glyph unicode="h" horiz-adv-x="1300" d="M194 0V1500H480V0H194ZM845 0V558Q845 645 828 698T774 775T680 799Q638 799 603 784T539 741T494 678T473 604L411 634Q411 703 434 772T503 898T619 989T782 1023Q860 1023 923 999T1033 924T1105 794T1131 603V0H845Z" />
<glyph unicode="i" horiz-adv-x="1000" d="M70 0V211H371V789H113V1000H657V211H936V0H70ZM366 1429H658V1154H366V1429Z" />
<glyph unicode="j" horiz-adv-x="1000" d="M78 -400V-178H157Q221 -178 271 -163T357 -116T411 -35T430 80V789H102V1000H716V30Q716 -79 677 -160T566 -294T395 -373T177 -400H78ZM425 1429H717V1154H425V1429Z" />
<glyph unicode="k" horiz-adv-x="1300" d="M198 0V1500H486V632H624V422H486V0H198ZM876 0L402 549L703 567L1215 0H876ZM706 501L434 556L867 1000H1204L706 501Z" />
<glyph unicode="l" horiz-adv-x="1000" d="M69 0V211H350V1289H113V1500H637V211H923V0H69Z" />
<glyph unicode="m" horiz-adv-x="1700" d="M1314 0V602Q1314 701 1281 750T1167 799Q1116 799 1075 772T1009 702T981 618L893 644Q894 716 924 784T1009 906T1133 991T1282 1023Q1389 1023 1459 981T1565 851T1600 628V0H1314ZM82 0V1000H339L368 805V0H82ZM698
0V602Q698 701 664 750T551 799Q500 799 459 772T393 702T367 618L279 644Q279 716 309 784T394 906T518 991T666 1023Q826 1023 905 931T984 653V0H698Z" />
<glyph unicode="n" horiz-adv-x="1300" d="M185 0V1000H437L473 790V0H185ZM836 0V558Q836 645 819 698T765 775T671 799Q629 799 594 784T530 741T485 678T464 604L402 634Q402 703 425 772T494 898T610 989T773 1023Q851 1023 914 999T1025 924T1097 794T1123
603V0H836Z" />
<glyph unicode="o" horiz-adv-x="1300" d="M655 -22Q585 -22 512 -5T371 51T250 150T165 299T133 502Q133 617 164 704T249 852T371 951T512 1006T655 1024Q724 1024 797 1007T938 951T1059 852T1144 704T1176 502Q1176 386 1145 299T1060 151T938 51T797 -4T655
-22ZM655 188Q698 188 739 205T814 259T866 356T886 502Q886 587 867 646T814 743T740 797T655 814Q612 814 571 797T496 743T443 647T423 502Q423 417 442 357T495 260T570 206T655 188Z" />
<glyph unicode="p" horiz-adv-x="1300" d="M165 -400V1000H417L451 815V-400H165ZM735 -22Q640 -22 567 20T443 127T368 264T343 397L448 433Q451 388 467 346T511 271T575 219T656 200Q721 200 772 234T853 336T883 502Q883 600 855 666T777 766T663 800Q618
800 582 783T518 735T471 668T443 591L346 628Q346 688 372 756T449 884T574 983T745 1022Q856 1022 953 967T1109 796T1169 502Q1169 368 1133 269T1036 106T897 10T735 -22Z" />
<glyph unicode="q" horiz-adv-x="1300" d="M1105 -400H819V815L853 1000H1105V-400ZM535 -22Q451 -22 374 9T235 105T137 269T101 502Q101 681 161 796T317 966T525 1022Q621 1022 695 984T820 885T897 756T924 628L827 591Q818 630 799 667T752 735T688 782T607
800Q543 800 494 766T416 666T387 502Q387 404 416 337T497 235T614 200Q658 200 694 219T758 270T802 345T822 433L927 397Q927 336 902 264T827 127T704 20T535 -22Z" />
<glyph unicode="r" horiz-adv-x="1300" d="M230 0V211H425V789H230V1000H648L711 761V211H937V0H230ZM706 579L610 627Q611 694 635 754T700 863T794 949T907 1004T1025 1024Q1098 1024 1133 1012T1177 992L1118 755Q1110 762 1078 772T991 782Q943 782 897 766T811
720T744 655T706 579Z" />
<glyph unicode="s" horiz-adv-x="1300" d="M650 -22Q534 -22 441 -1T278 61T167 159L389 304Q407 277 433 256T494 219T571 197T659 190Q702 190 739 196T806 214T852 247T869 295Q869 329 834 351T732 390T572 419Q502 429 435 449T313 505T227 595T195 726Q195
790 221 838T293 922T400 979T527 1013T663 1024Q777 1024 865 998T1014 931T1104 849L888 709Q875 732 851 751T795 785T725 807T646 815Q613 815 579 811T516 795T470 767T452 724Q452 693 483 673T569 639T698 615Q751 607 810 595T928 562T1033 510T1108 429T1136
313Q1136 243 1110 189T1036 94T926 29T794 -9T650 -22Z" />
<glyph unicode="t" horiz-adv-x="1300" d="M347 304V1317H632V311Q632 256 645 226T683 183T737 170Q768 170 794 181T836 225T852 319H1077Q1077 223 1047 158T963 53T842 -3T701 -20Q628 -20 564 -4T451 49T375 148T347 304ZM121 789V1000H1093V789H121Z" />
<glyph unicode="u" horiz-adv-x="1300" d="M507 -23Q430 -23 366 1T256 76T184 207T158 397V1000H444V442Q444 355 461 302T515 225T609 201Q651 201 686 216T750 259T795 322T816 396L878 366Q878 297 855 228T786 102T670 11T507 -23ZM873 0L811 236V1000H1097V153L1052
211H1211V0H873Z" />
<glyph unicode="v" horiz-adv-x="1300" d="M429 0L110 1000H411L636 230H652L877 1000H1178L859 0H429Z" />
<glyph unicode="w" horiz-adv-x="1700" d="M1045 0L802 1000H1003L1246 0H1045ZM285 0L90 1000H376L523 0H285ZM455 0L696 1000H897L656 0H455ZM1177 0L1323 1000H1609L1415 0H1177Z" />
<glyph unicode="x" horiz-adv-x="1300" d="M79 0L420 501L79 1000H396L654 607H644L901 1000H1218L878 501L1218 0H901L644 398H654L396 0H79Z" />
<glyph unicode="y" horiz-adv-x="1300" d="M417 -400L597 59L692 -3H474L123 1000H417L682 150H635L902 1000H1191L701 -400H417Z" />
<glyph unicode="z" horiz-adv-x="1300" d="M202 0V211L727 789H218V1000H1049V789L529 211H1058V0H202Z" />
<glyph unicode="{" horiz-adv-x="1300" d="M311 586V705H335Q385 705 415 727T458 795T471 908V1269Q471 1358 502 1425T588 1539T719 1609T881 1633H971V1420H918Q859 1420 819 1403T759 1338T738 1202V829Q738 741 711 691T639 619T543 592T446 586H311ZM881
-455Q794 -455 719 -432T589 -362T502 -247T471 -91V270Q471 337 458 382T415 450T335 473H311V592H446Q492 592 543 587T638 559T710 487T738 348V-25Q738 -113 758 -160T819 -225T918 -243H971V-455H881Z" />
<glyph unicode="|" horiz-adv-x="1300" d="M536 -360V1600H769V-360H536Z" />
<glyph unicode="}" horiz-adv-x="1300" d="M969 586H835Q789 586 738 591T643 619T571 691T543 829V1202Q543 1291 523 1338T462 1402T363 1420H310V1633H400Q487 1633 561 1610T692 1540T779 1426T810 1269V908Q810 840 823 795T866 728T946 705H969V586ZM400
-455H310V-243H363Q422 -243 462 -226T522 -161T543 -25V348Q543 437 570 486T642 558T738 586T835 592H969V473H946Q896 473 866 451T823 383T810 270V-91Q810 -179 779 -247T692 -361T562 -431T400 -455Z" />
<glyph unicode="~" horiz-adv-x="1300" d="M743 631Q678 631 637 651T566 697T509 743T442 763Q385 763 342 727T280 655L139 774Q144 787 165 814T223 872T311 923T427 945Q493 945 534 925T604 878T661 831T728 811Q785 811 826 847T886 919L1027 798Q1020 784
1000 757T944 701T858 652T743 631Z" />
<glyph unicode="&#xa0;" horiz-adv-x="1000" />
<glyph unicode="&#xa1;" horiz-adv-x="1000" d="M609 557L655 -400H332L377 557H609ZM645 725H347V1000H645V725Z" />
<glyph unicode="&#xa2;" horiz-adv-x="1300" d="M668 170Q560 170 462 198T289 289T171 451T127 694Q127 839 170 939T289 1100T462 1188T668 1216Q817 1216 931 1154T1118 957L880 836Q860 878 829 914T755 972T655 994Q607 994 563 979T484 930T429 837T409
694Q409 610 429 553T484 460T563 408T655 392Q712 392 756 413T832 468T884 537L1121 414Q1074 333 1006 279T853 197T668 170ZM533 0V239H767V0H533ZM533 1160V1400H767V1160H533Z" />
<glyph unicode="&#xa3;" horiz-adv-x="1300" d="M76 591V801H907V591H76ZM363 158L103 148Q133 172 165 208T224 290T268 387T285 494Q285 555 271 616T238 741Q219 807 204 874T189 1010Q189 1101 230 1175T341 1302T502 1383T691 1412Q810 1412 893 1380T1028
1298T1108 1200L897 1073Q881 1107 852 1131T782 1168T691 1181Q654 1181 617 1171T551 1137T504 1075T486 981Q486 932 497 878T525 769Q542 709 555 649T568 531Q568 434 544 365T474 246T363 158ZM207 -38L103 148Q105 148 132 150T202 156T290 164T375 173Q391
185 421 199T495 225T594 236Q633 236 662 231T716 217Q744 208 772 202T839 195Q897 195 941 207T1017 231L1085 8Q1055 -2 987 -14T839 -26Q786 -26 738 -18T645 1Q607 10 571 16T498 22Q437 22 374 10T264 -17T207 -38Z" />
<glyph unicode="&#xa4;" horiz-adv-x="1300" d="M655 338Q566 338 485 361T339 432T237 556T199 740Q199 848 237 924T339 1047T484 1117T655 1140Q742 1140 823 1118T968 1048T1070 924T1108 740Q1108 633 1071 557T969 432T823 361T655 338ZM260 207L123 347L325
545L462 409L260 207ZM1048 211L847 413L982 548L1184 351L1048 211ZM655 555Q687 555 721 562T785 590T833 646T851 740Q851 797 833 832T786 888T722 915T655 923Q621 923 587 916T523 888T475 833T456 740Q456 683 474 647T522 590T586 563T655 555ZM325 936L123
1133L260 1273L462 1071L325 936ZM982 932L847 1068L1048 1269L1184 1130L982 932Z" />
<glyph unicode="&#xa5;" horiz-adv-x="1300" d="M223 480V662H1058V480H223ZM223 180V362H1058V180H223ZM498 0V472L83 1400H379L640 735L901 1400H1197L784 472V0H498Z" />
<glyph unicode="&#xa6;" horiz-adv-x="1300" d="M478 906V1600H712V906H478ZM478 -360V326H712V-360H478Z" />
<glyph unicode="&#xa7;" horiz-adv-x="1300" d="M581 -218Q463 -218 363 -187T192 -99T92 37L319 148Q332 113 364 76T449 15T581 -10Q637 -10 680 -3T754 20T799 60T815 117Q815 140 804 159T770 195T720 224T657 246T585 262Q536 270 477 285T359 325T251 388T171
479T141 605Q141 675 182 730T288 825T426 889T561 922L726 791Q715 793 703 794T677 795Q646 795 610 788T537 768T472 733T426 685T408 623Q408 593 425 568T470 522T535 487T613 465Q648 460 706 446T828 405T949 339T1042 241T1079 106Q1079 30 1049 -25T968
-117T853 -177T718 -208T581 -218ZM781 272L577 363Q614 367 649 380T714 414T768 459T804 514T817 576Q817 611 806 637T772 683T721 714T656 735T582 750Q543 757 489 772T379 813T274 880T196 978T166 1111Q166 1180 195 1230T275 1315T385 1371T506 1402T621
1412Q723 1412 816 1386T976 1307T1066 1176L842 1061Q823 1106 789 1138T710 1186T613 1203Q578 1203 544 1198T482 1182T438 1150T421 1099Q421 1072 437 1051T481 1013T543 986T615 969Q652 963 710 949T833 908T953 841T1045 739T1081 595Q1081 541 1064 496T1018
414T951 349T869 302T781 272Z" />
<glyph unicode="&#xa8;" horiz-adv-x="1300" d="M232 1404H525V1130H232V1404ZM734 1404H1026V1130H734V1404Z" />
<glyph unicode="&#xa9;" horiz-adv-x="1300" d="M648 97Q574 97 494 116T337 176T200 288T102 459T65 698Q65 835 101 936T199 1106T337 1217T493 1278T648 1297Q722 1297 802 1278T958 1218T1096 1107T1193 936T1229 698Q1229 561 1193 460T1096 288T959 177T802
116T648 97ZM659 388Q586 388 518 418T405 515T360 696Q360 810 404 877T517 974T659 1004Q729 1004 780 977T864 909T910 827L769 772Q758 802 730 828T655 855Q614 855 584 836T538 780T521 696Q521 649 537 613T584 558T655 538Q704 538 732 564T771 610L911
556Q898 518 865 480T780 415T659 388ZM648 255Q698 255 753 266T862 307T957 386T1026 513T1052 698Q1052 806 1026 882T958 1008T862 1087T754 1127T648 1139Q598 1139 542 1128T433 1088T336 1009T267 882T241 698Q241 590 266 514T335 387T432 307T542 267T648
255Z" />
<glyph unicode="&#xaa;" horiz-adv-x="1000" d="M419 1032Q332 1032 276 1078T220 1203Q220 1243 238 1273T289 1322T361 1350T444 1360Q498 1359 532 1344T578 1317V1348Q578 1381 547 1399T469 1418Q418 1418 371 1407T301 1387L251 1501Q278 1513 341 1525T478
1538Q543 1538 602 1519T698 1461T736 1365V1157H798V1043H610L592 1104Q585 1091 562 1074T503 1044T419 1032ZM471 1148Q506 1148 533 1162T569 1187V1237Q560 1245 534 1253T477 1262Q434 1262 411 1246T387 1204Q387 1176 408 1162T471 1148Z" />
<glyph unicode="&#xab;" horiz-adv-x="1300" d="M525 167L79 509L172 654L637 304L525 167ZM79 509V665H155V509H79ZM172 522L79 665L525 1007L637 870L172 522ZM1090 167L644 509L737 654L1202 304L1090 167ZM644 509V665H720V509H644ZM737 522L644 665L1090
1007L1202 870L737 522Z" />
<glyph unicode="&#xac;" horiz-adv-x="1300" d="M815 224V724H1040V224H815ZM285 493V723H916V493H285Z" />
<glyph unicode="&#xad;" horiz-adv-x="1300" d="M396 493V723H877V493H396Z" />
<glyph unicode="&#xae;" horiz-adv-x="1300" d="M635 391Q546 391 455 417T288 503T166 660T120 897Q120 1036 166 1132T287 1288T454 1374T635 1401Q724 1401 815 1374T981 1288T1103 1133T1149 897Q1149 757 1103 660T982 504T815 418T635 391ZM719 650L628
882L733 884L845 650H719ZM635 521Q690 521 753 536T872 591T965 705T1001 897Q1001 1013 965 1087T873 1200T753 1255T635 1271Q581 1271 518 1256T397 1201T304 1087T268 897Q268 779 303 705T395 591T515 536T635 521ZM462 650V1145H665Q707 1145 742 1132T800
1086T822 998Q822 933 797 901T736 857T665 845H581V650H462ZM581 941H646Q677 941 694 955T711 996Q711 1024 695 1037T646 1051H581V941Z" />
<glyph unicode="&#xaf;" horiz-adv-x="1300" d="M244 1266V1455H954V1266H244Z" />
<glyph unicode="&#xb0;" horiz-adv-x="1000" d="M528 1037Q459 1037 402 1071T311 1162T277 1288Q277 1356 311 1412T402 1503T528 1537Q596 1537 652 1503T743 1413T778 1288Q778 1219 744 1162T653 1071T528 1037ZM528 1197Q565 1197 591 1223T617 1288Q617
1325 591 1351T528 1377Q490 1377 464 1351T437 1288Q437 1250 463 1224T528 1197Z" />
<glyph unicode="&#xb1;" horiz-adv-x="1300" d="M198 650V842H1012V650H198ZM198 154V346H1012V154H198ZM491 438V1052H721V438H491Z" />
<glyph unicode="&#xb2;" horiz-adv-x="779" d="M60 560V716Q81 728 118 751T199 807T288 879T370 960T431 1047T454 1133Q454 1172 443 1195T413 1230T366 1241Q314 1241 283 1198T241 1105L51 1186Q67 1254 113 1303T225 1380T366 1407Q455 1407 524 1383T634
1300T674 1143Q674 1084 646 1026T573 914T483 819T399 751T347 719H669V560H60Z" />
<glyph unicode="&#xb3;" horiz-adv-x="780" d="M383 547Q299 547 233 570T124 635T61 732L247 825Q260 792 278 767T323 729T385 715Q419 715 444 730T484 774T499 841Q499 880 486 906T449 946T391 959Q373 959 353 954T318 940L200 1069L408 1240H92V1400H669V1240L448
1067Q452 1070 462 1072T486 1076T511 1078Q556 1078 602 1054T680 977T712 839Q712 768 687 714T617 622T512 566T383 547Z" />
<glyph unicode="&#xb4;" horiz-adv-x="1300" d="M534 1121H278L588 1420H883L534 1121Z" />
<glyph unicode="&#xb5;" horiz-adv-x="1300" d="M158 -400V1000H442V-400H158ZM507 -23Q430 -23 366 1T256 76T184 207T158 397V1000H444V442Q444 355 461 302T515 225T609 201Q651 201 686 216T750 259T795 322T816 396L878 366Q878 297 855 228T786 102T670
11T507 -23ZM873 0L811 236V1000H1097V153L1052 211H1211V0H873Z" />
<glyph unicode="&#xb6;" horiz-adv-x="1300" d="M528 -240V570H481Q426 570 361 591T238 662T142 792T105 992Q105 1104 143 1182T242 1308T377 1378T521 1400H1118V-240H902V1189H744V-240H528Z" />
<glyph unicode="&#xb7;" horiz-adv-x="1000" d="M351 793H649V518H351V793Z" />
<glyph unicode="&#xb8;" horiz-adv-x="1300" d="M592 -414Q561 -414 528 -411T462 -403T400 -392T348 -378L411 -245Q448 -257 481 -265T547 -277T615 -282Q658 -282 689 -273T738 -247T755 -206Q755 -180 738 -170T691 -160Q674 -160 653 -165T613 -180T580 -202L439
-166L508 0H674L605 -153L592 -131Q604 -111 628 -96T687 -72T760 -63Q803 -63 840 -75T900 -118T924 -201Q924 -271 882 -318T765 -390T592 -414Z" />
<glyph unicode="&#xb9;" horiz-adv-x="781" d="M100 560V720H268V1205L104 1151V1335L298 1400H490V720H659V560H100Z" />
<glyph unicode="&#xba;" horiz-adv-x="1000" d="M746 1037Q677 1037 620 1071T529 1162T495 1288Q495 1356 529 1412T620 1503T746 1537Q814 1537 870 1503T961 1413T996 1288Q996 1219 962 1162T871 1071T746 1037ZM746 1197Q783 1197 809 1223T835 1288Q835
1325 809 1351T746 1377Q708 1377 682 1351T655 1288Q655 1250 681 1224T746 1197Z" />
<glyph unicode="&#xbb;" horiz-adv-x="1300" d="M777 167L665 304L1130 654L1224 509L777 167ZM1224 509H1147V665H1224V509ZM1130 522L665 870L777 1007L1224 665L1130 522ZM211 167L100 304L565 654L658 509L211 167ZM658 509H581V665H658V509ZM565 522L100
870L211 1007L658 665L565 522Z" />
<glyph unicode="&#xbc;" horiz-adv-x="1821" d="M100 560V720H268V1205L104 1151V1335L298 1400H490V720H659V560H100ZM565 0L1101 1400H1258L724 0H565ZM1466 0V159H1100V319L1342 840H1670V319H1779V159H1670V0H1466ZM1313 319H1466V721H1485L1313 319Z" />
<glyph unicode="&#xbd;" horiz-adv-x="1820" d="M100 560V720H268V1205L104 1151V1335L298 1400H490V720H659V560H100ZM565 0L1101 1400H1258L724 0H565ZM1101 0V156Q1122 168 1159 191T1240 247T1329 319T1411 400T1472 487T1495 573Q1495 612 1484 635T1454
670T1407 681Q1355 681 1324 638T1282 545L1092 626Q1108 694 1154 743T1266 820T1407 847Q1496 847 1565 823T1675 740T1715 583Q1715 524 1687 466T1614 354T1524 259T1440 191T1388 159H1710V0H1101Z" />
<glyph unicode="&#xbe;" horiz-adv-x="1821" d="M383 547Q299 547 233 570T124 635T61 732L247 825Q260 792 278 767T323 729T385 715Q419 715 444 730T484 774T499 841Q499 880 486 906T449 946T391 959Q373 959 353 954T318 940L200 1069L408 1240H92V1400H669V1240L448
1067Q452 1070 462 1072T486 1076T511 1078Q556 1078 602 1054T680 977T712 839Q712 768 687 714T617 622T512 566T383 547ZM564 0L1100 1400H1257L723 0H564ZM1465 0V159H1099V319L1341 840H1669V319H1778V159H1669V0H1465ZM1312 319H1465V721H1484L1312 319Z"
/>
<glyph unicode="&#xbf;" horiz-adv-x="1300" d="M795 573V531Q795 463 775 408T721 308T647 225T568 153Q531 120 500 89T449 25T429 -43Q429 -82 443 -109T484 -152T544 -176T616 -184Q662 -184 706 -170T790 -129T860 -66T906 13L1127 -113Q1100 -188 1030 -257T855
-369T623 -412Q526 -412 440 -393T290 -330T188 -219T151 -54Q151 18 182 74T261 178T360 268Q407 308 448 348T516 435T542 538V573H795ZM816 725H519V1000H816V725Z" />
<glyph unicode="&#xc0;" horiz-adv-x="1300" d="M1216 0H925L855 318H449L379 0H88L425 1400H879L1216 0ZM640 1189L491 529H813L664 1189H640ZM523 1521L174 1820H469L779 1521H523Z" />
<glyph unicode="&#xc1;" horiz-adv-x="1300" d="M1216 0H925L855 318H449L379 0H88L425 1400H879L1216 0ZM640 1189L491 529H813L664 1189H640ZM753 1521H497L807 1820H1102L753 1521Z" />
<glyph unicode="&#xc2;" horiz-adv-x="1300" d="M1216 0H925L855 318H449L379 0H88L425 1400H879L1216 0ZM640 1189L491 529H813L664 1189H640ZM265 1526L561 1806H743L1038 1526H808L652 1687L496 1526H265Z" />
<glyph unicode="&#xc3;" horiz-adv-x="1300" d="M1216 0H925L855 318H449L379 0H88L425 1400H879L1216 0ZM640 1189L491 529H813L664 1189H640ZM761 1499Q714 1499 683 1518T627 1559Q606 1577 586 1590T540 1604Q493 1604 467 1568T431 1503L323 1594Q329 1620
354 1660T424 1732T526 1764Q573 1764 604 1745T662 1704Q685 1685 706 1671T754 1657Q798 1657 824 1694T860 1759L966 1667Q960 1639 936 1600T868 1530T761 1499Z" />
<glyph unicode="&#xc4;" horiz-adv-x="1300" d="M1216 0H925L855 318H449L379 0H88L425 1400H879L1216 0ZM640 1189L491 529H813L664 1189H640ZM255 1804H548V1530H255V1804ZM757 1804H1049V1530H757V1804Z" />
<glyph unicode="&#xc5;" horiz-adv-x="1300" d="M1216 0H925L855 318H449L379 0H88L425 1400H879L1216 0ZM640 1189L491 529H813L664 1189H640ZM655 1470Q593 1470 542 1498T461 1577T430 1690Q430 1750 460 1800T542 1879T655 1909Q714 1909 764 1880T844 1800T874
1690Q874 1627 844 1577T764 1499T655 1470ZM655 1610Q686 1610 708 1632T731 1692Q731 1723 709 1744T655 1766Q619 1766 597 1745T575 1692Q575 1655 597 1633T655 1610Z" />
<glyph unicode="&#xc6;" horiz-adv-x="1700" d="M839 0V1189H644L678 1400H1570V1189H1125V793H1514V583H1125V211H1570V0H839ZM446 227L480 423H942L911 227H446ZM93 0L604 1400H875L402 0H93Z" />
<glyph unicode="&#xc7;" horiz-adv-x="1300" d="M699 -414Q668 -414 635 -411T568 -403T506 -392T455 -378L518 -245Q554 -257 587 -265T653 -277T722 -282Q765 -282 796 -273T845 -247T862 -206Q862 -180 845 -170T798 -160Q781 -160 760 -165T720 -180T687 -202L546
-166L615 0H781L712 -153L699 -131Q710 -111 734 -96T793 -72T867 -63Q910 -63 947 -75T1007 -118T1030 -201Q1030 -271 989 -318T872 -390T699 -414ZM694 -22Q609 -22 523 0T360 74T224 208T130 412T95 696Q95 859 129 979T224 1183T362 1316T525 1389T697 1412Q786
1412 863 1389T1003 1320T1114 1212T1192 1067L942 942Q930 983 910 1027T860 1110T791 1173T696 1197Q638 1197 583 1170T483 1082T413 927T387 696Q387 561 413 465T482 309T581 221T694 193Q748 193 789 217T859 279T908 362T942 445L1192 319Q1162 241 1114
178T1003 70T862 2T694 -22Z" />
<glyph unicode="&#xc8;" horiz-adv-x="1300" d="M202 0V1400H1129V1189H488V793H1055V583H488V211H1129V0H202ZM557 1521L208 1820H503L813 1521H557Z" />
<glyph unicode="&#xc9;" horiz-adv-x="1300" d="M202 0V1400H1129V1189H488V793H1055V583H488V211H1129V0H202ZM787 1521H531L841 1820H1136L787 1521Z" />
<glyph unicode="&#xca;" horiz-adv-x="1300" d="M202 0V1400H1129V1189H488V793H1055V583H488V211H1129V0H202ZM299 1526L595 1806H777L1072 1526H842L686 1687L530 1526H299Z" />
<glyph unicode="&#xcb;" horiz-adv-x="1300" d="M202 0V1400H1129V1189H488V793H1055V583H488V211H1129V0H202ZM289 1804H582V1530H289V1804ZM791 1804H1083V1530H791V1804Z" />
<glyph unicode="&#xcc;" horiz-adv-x="1300" d="M224 0V211H506V1189H224V1400H1076V1189H792V211H1076V0H224ZM523 1521L174 1820H469L779 1521H523Z" />
<glyph unicode="&#xcd;" horiz-adv-x="1300" d="M224 0V211H506V1189H224V1400H1076V1189H792V211H1076V0H224ZM753 1521H497L807 1820H1102L753 1521Z" />
<glyph unicode="&#xce;" horiz-adv-x="1300" d="M224 0V211H506V1189H224V1400H1076V1189H792V211H1076V0H224ZM265 1526L561 1806H743L1038 1526H808L652 1687L496 1526H265Z" />
<glyph unicode="&#xcf;" horiz-adv-x="1300" d="M224 0V211H506V1189H224V1400H1076V1189H792V211H1076V0H224ZM255 1804H548V1530H255V1804ZM757 1804H1049V1530H757V1804Z" />
<glyph unicode="&#xd0;" horiz-adv-x="1300" d="M151 0V605H23V795H151V1400H571Q643 1400 716 1389T859 1351T988 1274T1094 1147T1165 959T1190 700Q1190 551 1165 441T1094 254T989 127T860 50T717 11T571 0H151ZM437 211H548Q627 211 691 236T802 317T872
468T897 700Q897 838 873 932T802 1082T692 1164T548 1189H437V795H667V605H437V211Z" />
<glyph unicode="&#xd1;" horiz-adv-x="1300" d="M116 0V1400H539L947 239H895V1400H1181V0H817L390 1157H402V0H116ZM756 1499Q709 1499 678 1518T622 1559Q601 1577 581 1590T535 1604Q488 1604 462 1568T426 1503L318 1594Q324 1620 349 1660T419 1732T521 1764Q568
1764 599 1745T657 1704Q680 1685 701 1671T749 1657Q793 1657 819 1694T855 1759L961 1667Q955 1639 931 1600T863 1530T756 1499Z" />
<glyph unicode="&#xd2;" horiz-adv-x="1300" d="M647 -22Q558 -22 473 3T313 82T183 220T94 423T61 696Q61 850 93 968T182 1170T313 1308T472 1386T647 1412Q736 1412 820 1387T979 1308T1110 1171T1199 968T1231 696Q1231 541 1199 423T1111 221T980 83T821
4T647 -22ZM647 193Q704 193 756 221T851 309T917 465T941 696Q941 830 917 925T851 1081T757 1169T647 1197Q590 1197 537 1169T442 1081T376 926T351 696Q351 561 375 466T441 310T536 221T647 193ZM514 1521L165 1820H460L770 1521H514Z" />
<glyph unicode="&#xd3;" horiz-adv-x="1300" d="M647 -22Q558 -22 473 3T313 82T183 220T94 423T61 696Q61 850 93 968T182 1170T313 1308T472 1386T647 1412Q736 1412 820 1387T979 1308T1110 1171T1199 968T1231 696Q1231 541 1199 423T1111 221T980 83T821
4T647 -22ZM647 193Q704 193 756 221T851 309T917 465T941 696Q941 830 917 925T851 1081T757 1169T647 1197Q590 1197 537 1169T442 1081T376 926T351 696Q351 561 375 466T441 310T536 221T647 193ZM744 1521H488L798 1820H1093L744 1521Z" />
<glyph unicode="&#xd4;" horiz-adv-x="1300" d="M647 -22Q558 -22 473 3T313 82T183 220T94 423T61 696Q61 850 93 968T182 1170T313 1308T472 1386T647 1412Q736 1412 820 1387T979 1308T1110 1171T1199 968T1231 696Q1231 541 1199 423T1111 221T980 83T821
4T647 -22ZM647 193Q704 193 756 221T851 309T917 465T941 696Q941 830 917 925T851 1081T757 1169T647 1197Q590 1197 537 1169T442 1081T376 926T351 696Q351 561 375 466T441 310T536 221T647 193ZM256 1526L552 1806H734L1029 1526H799L643 1687L487 1526H256Z"
/>
<glyph unicode="&#xd5;" horiz-adv-x="1300" d="M647 -22Q558 -22 473 3T313 82T183 220T94 423T61 696Q61 850 93 968T182 1170T313 1308T472 1386T647 1412Q736 1412 820 1387T979 1308T1110 1171T1199 968T1231 696Q1231 541 1199 423T1111 221T980 83T821
4T647 -22ZM647 193Q704 193 756 221T851 309T917 465T941 696Q941 830 917 925T851 1081T757 1169T647 1197Q590 1197 537 1169T442 1081T376 926T351 696Q351 561 375 466T441 310T536 221T647 193ZM751 1499Q704 1499 673 1518T617 1559Q596 1577 576 1590T530
1604Q483 1604 457 1568T421 1503L313 1594Q319 1620 344 1660T414 1732T516 1764Q563 1764 594 1745T652 1704Q675 1685 696 1671T744 1657Q788 1657 814 1694T850 1759L956 1667Q950 1639 926 1600T858 1530T751 1499Z" />
<glyph unicode="&#xd6;" horiz-adv-x="1300" d="M647 -22Q558 -22 473 3T313 82T183 220T94 423T61 696Q61 850 93 968T182 1170T313 1308T472 1386T647 1412Q736 1412 820 1387T979 1308T1110 1171T1199 968T1231 696Q1231 541 1199 423T1111 221T980 83T821
4T647 -22ZM647 193Q704 193 756 221T851 309T917 465T941 696Q941 830 917 925T851 1081T757 1169T647 1197Q590 1197 537 1169T442 1081T376 926T351 696Q351 561 375 466T441 310T536 221T647 193ZM246 1804H539V1530H246V1804ZM748 1804H1040V1530H748V1804Z"
/>
<glyph unicode="&#xd7;" horiz-adv-x="1300" d="M809 242L238 813L401 974L972 403L809 242ZM399 242L238 403L809 974L970 813L399 242Z" />
<glyph unicode="&#xd8;" horiz-adv-x="1300" d="M75 75L1047 1435L1225 1311L253 -48L75 75ZM647 -22Q558 -22 473 3T313 82T183 220T94 423T61 696Q61 850 93 968T182 1170T313 1308T472 1386T647 1412Q736 1412 820 1387T979 1308T1110 1171T1199 968T1231 696Q1231
541 1199 423T1111 221T980 83T821 4T647 -22ZM647 193Q704 193 756 221T851 309T917 465T941 696Q941 830 917 925T851 1081T757 1169T647 1197Q590 1197 537 1169T442 1081T376 926T351 696Q351 561 375 466T441 310T536 221T647 193Z" />
<glyph unicode="&#xd9;" horiz-adv-x="1300" d="M652 -22Q547 -22 454 7T288 100T175 270T133 528V1400H419V541Q419 418 446 343T526 234T652 200Q726 200 777 234T856 343T883 541V1400H1169V528Q1169 376 1128 271T1016 101T851 7T652 -22ZM521 1521L172 1820H467L777
1521H521Z" />
<glyph unicode="&#xda;" horiz-adv-x="1300" d="M652 -22Q547 -22 454 7T288 100T175 270T133 528V1400H419V541Q419 418 446 343T526 234T652 200Q726 200 777 234T856 343T883 541V1400H1169V528Q1169 376 1128 271T1016 101T851 7T652 -22ZM751 1521H495L805
1820H1100L751 1521Z" />
<glyph unicode="&#xdb;" horiz-adv-x="1300" d="M652 -22Q547 -22 454 7T288 100T175 270T133 528V1400H419V541Q419 418 446 343T526 234T652 200Q726 200 777 234T856 343T883 541V1400H1169V528Q1169 376 1128 271T1016 101T851 7T652 -22ZM263 1526L559 1806H741L1036
1526H806L650 1687L494 1526H263Z" />
<glyph unicode="&#xdc;" horiz-adv-x="1300" d="M652 -22Q547 -22 454 7T288 100T175 270T133 528V1400H419V541Q419 418 446 343T526 234T652 200Q726 200 777 234T856 343T883 541V1400H1169V528Q1169 376 1128 271T1016 101T851 7T652 -22ZM253 1804H546V1530H253V1804ZM755
1804H1047V1530H755V1804Z" />
<glyph unicode="&#xdd;" horiz-adv-x="1300" d="M498 0V472L83 1400H379L640 735L901 1400H1197L784 472V0H498ZM740 1521H484L794 1820H1089L740 1521Z" />
<glyph unicode="&#xde;" horiz-adv-x="1300" d="M182 0V1400H468V1176H631Q680 1176 744 1168T873 1134T994 1059T1083 924T1117 714Q1117 588 1083 505T994 371T874 297T744 264T631 256H468V0H182ZM468 467H611Q640 467 670 471T728 490T780 531T816 603T829
714Q829 780 816 825T780 898T729 940T670 960T611 965H468V467Z" />
<glyph unicode="&#xdf;" horiz-adv-x="1300" d="M727 -22Q678 -22 632 -17T548 -3T486 14L540 238Q568 229 605 219T695 209Q744 209 787 220T864 255T916 314T935 400Q935 450 912 486T854 551T782 604Q747 629 716 654T664 711T644 782Q644 823 657 852T693
904T737 947Q759 967 778 987T810 1032T822 1091Q822 1126 809 1156T771 1208T712 1242T636 1255Q592 1255 549 1241T470 1197T413 1119T392 1001V0H106V1016Q106 1141 151 1229T273 1372T443 1453T634 1479Q756 1479 860 1438T1026 1314T1089 1108Q1089 1042 1071
995T1026 916T973 861Q951 841 936 824T921 789Q921 775 939 761T986 729Q1017 710 1054 684T1126 618T1182 524T1204 393Q1204 281 1163 202T1052 73T899 1T727 -22Z" />
<glyph unicode="&#xe0;" horiz-adv-x="1300" d="M521 -22Q438 -22 367 -1T243 63T161 167T131 310Q131 379 156 431T224 521T321 582T435 617T554 628Q620 628 673 616T764 585T817 549V650Q817 690 800 719T752 767T683 795T599 804Q549 804 504 796T419 775T347
748T293 719L173 928Q210 951 278 973T433 1009T614 1024Q682 1024 750 1014T882 981T994 919T1072 823T1101 684V211H1236V0H878L846 124Q830 92 788 58T679 1T521 -22ZM602 188Q658 188 702 204T775 245T817 290V372Q804 392 772 411T697 444T608 457Q560 457
515 445T440 403T411 324Q411 274 435 245T503 202T602 188ZM754 1121L405 1420H700L1010 1121H754Z" />
<glyph unicode="&#xe1;" horiz-adv-x="1300" d="M521 -22Q438 -22 367 -1T243 63T161 167T131 310Q131 379 156 431T224 521T321 582T435 617T554 628Q620 628 673 616T764 585T817 549V650Q817 690 800 719T752 767T683 795T599 804Q549 804 504 796T419 775T347
748T293 719L173 928Q210 951 278 973T433 1009T614 1024Q682 1024 750 1014T882 981T994 919T1072 823T1101 684V211H1236V0H878L846 124Q830 92 788 58T679 1T521 -22ZM602 188Q658 188 702 204T775 245T817 290V372Q804 392 772 411T697 444T608 457Q560 457
515 445T440 403T411 324Q411 274 435 245T503 202T602 188ZM728 1121H472L782 1420H1077L728 1121Z" />
<glyph unicode="&#xe2;" horiz-adv-x="1300" d="M521 -22Q438 -22 367 -1T243 63T161 167T131 310Q131 379 156 431T224 521T321 582T435 617T554 628Q620 628 673 616T764 585T817 549V650Q817 690 800 719T752 767T683 795T599 804Q549 804 504 796T419 775T347
748T293 719L173 928Q210 951 278 973T433 1009T614 1024Q682 1024 750 1014T882 981T994 919T1072 823T1101 684V211H1236V0H878L846 124Q830 92 788 58T679 1T521 -22ZM602 188Q658 188 702 204T775 245T817 290V372Q804 392 772 411T697 444T608 457Q560 457
515 445T440 403T411 324Q411 274 435 245T503 202T602 188ZM495 1126L791 1406H973L1268 1126H1038L882 1287L726 1126H495Z" />
<glyph unicode="&#xe3;" horiz-adv-x="1300" d="M521 -22Q438 -22 367 -1T243 63T161 167T131 310Q131 379 156 431T224 521T321 582T435 617T554 628Q620 628 673 616T764 585T817 549V650Q817 690 800 719T752 767T683 795T599 804Q549 804 504 796T419 775T347
748T293 719L173 928Q210 951 278 973T433 1009T614 1024Q682 1024 750 1014T882 981T994 919T1072 823T1101 684V211H1236V0H878L846 124Q830 92 788 58T679 1T521 -22ZM602 188Q658 188 702 204T775 245T817 290V372Q804 392 772 411T697 444T608 457Q560 457
515 445T440 403T411 324Q411 274 435 245T503 202T602 188ZM991 1099Q944 1099 913 1118T857 1159Q836 1177 816 1190T770 1204Q723 1204 697 1168T661 1103L553 1194Q559 1220 584 1260T654 1332T756 1364Q803 1364 834 1345T892 1304Q915 1285 936 1271T984
1257Q1028 1257 1054 1294T1090 1359L1196 1267Q1190 1239 1166 1200T1098 1130T991 1099Z" />
<glyph unicode="&#xe4;" horiz-adv-x="1300" d="M521 -22Q438 -22 367 -1T243 63T161 167T131 310Q131 379 156 431T224 521T321 582T435 617T554 628Q620 628 673 616T764 585T817 549V650Q817 690 800 719T752 767T683 795T599 804Q549 804 504 796T419 775T347
748T293 719L173 928Q210 951 278 973T433 1009T614 1024Q682 1024 750 1014T882 981T994 919T1072 823T1101 684V211H1236V0H878L846 124Q830 92 788 58T679 1T521 -22ZM602 188Q658 188 702 204T775 245T817 290V372Q804 392 772 411T697 444T608 457Q560 457
515 445T440 403T411 324Q411 274 435 245T503 202T602 188ZM486 1404H779V1130H486V1404ZM988 1404H1280V1130H988V1404Z" />
<glyph unicode="&#xe5;" horiz-adv-x="1300" d="M521 -22Q438 -22 367 -1T243 63T161 167T131 310Q131 379 156 431T224 521T321 582T435 617T554 628Q620 628 673 616T764 585T817 549V650Q817 690 800 719T752 767T683 795T599 804Q549 804 504 796T419 775T347
748T293 719L173 928Q210 951 278 973T433 1009T614 1024Q682 1024 750 1014T882 981T994 919T1072 823T1101 684V211H1236V0H878L846 124Q830 92 788 58T679 1T521 -22ZM602 188Q658 188 702 204T775 245T817 290V372Q804 392 772 411T697 444T608 457Q560 457
515 445T440 403T411 324Q411 274 435 245T503 202T602 188ZM885 1070Q823 1070 772 1098T691 1177T660 1290Q660 1350 690 1400T772 1479T885 1509Q944 1509 994 1480T1074 1400T1104 1290Q1104 1227 1074 1177T994 1099T885 1070ZM885 1210Q916 1210 938 1232T961
1292Q961 1323 939 1344T885 1366Q849 1366 827 1345T805 1292Q805 1255 827 1233T885 1210Z" />
<glyph unicode="&#xe6;" horiz-adv-x="1700" d="M439 -22Q336 -22 260 1T133 69T57 177T32 321Q32 385 51 437T107 529T194 596T307 637T442 651Q500 651 544 640T618 615T661 588V665Q661 696 650 722T617 766T562 794T484 804Q419 804 360 793T253 765T172 734L73
944Q110 961 178 979T334 1011T515 1024Q586 1024 647 1010T757 968T833 897Q875 940 927 968T1039 1010T1163 1024Q1264 1024 1353 993T1509 901T1615 747T1654 533Q1654 511 1652 485T1645 439H954Q959 362 986 306T1060 219T1169 188Q1227 188 1264 210T1324
262T1356 316L1606 191Q1579 146 1539 108T1445 40T1321 -6T1159 -22Q1090 -22 1026 -5T905 46T806 132Q770 88 717 54T595 -1T439 -22ZM489 181Q546 181 584 205T642 268T661 350V411Q652 422 636 434T600 456T556 473T504 480Q439 480 396 462T332 409T311 329Q311
285 330 252T389 200T489 181ZM957 609H1358V619Q1358 659 1345 694T1307 756T1248 799T1168 815Q1114 815 1070 793T996 725T957 609Z" />
<glyph unicode="&#xe7;" horiz-adv-x="1300" d="M701 -22Q626 -22 551 -3T410 55T292 157T212 304T182 502Q182 615 211 701T292 848T409 948T551 1005T701 1024Q785 1024 856 1005T987 952T1089 869T1156 762L906 647Q896 684 872 722T808 787T709 814Q666 814
625 797T551 743T498 647T478 502Q478 418 497 359T550 262T625 206T709 188Q768 188 808 212T872 272T905 344L1155 228Q1130 174 1088 129T987 49T858 -3T701 -22ZM698 -414Q667 -414 634 -411T568 -403T506 -392T454 -378L517 -245Q554 -257 587 -265T653 -277T721
-282Q764 -282 795 -273T844 -247T861 -206Q861 -180 844 -170T797 -160Q780 -160 759 -165T719 -180T686 -202L545 -166L614 0H780L711 -153L698 -131Q710 -111 734 -96T793 -72T866 -63Q909 -63 946 -75T1006 -118T1030 -201Q1030 -271 988 -318T871 -390T698
-414Z" />
<glyph unicode="&#xe8;" horiz-adv-x="1300" d="M653 -22Q553 -22 460 11T293 109T176 273T133 502Q133 632 175 730T292 893T460 991T656 1024Q761 1024 855 994T1021 903T1135 750T1177 533Q1177 511 1175 485T1169 439H362V609H881Q881 612 881 614T881 619Q881
674 853 718T775 789T662 815Q616 815 573 797T497 742T443 646T423 504Q423 403 455 333T543 225T670 188Q733 188 775 209T843 260T880 316L1137 191Q1109 144 1065 106T961 38T824 -6T653 -22ZM789 1121L440 1420H735L1045 1121H789Z" />
<glyph unicode="&#xe9;" horiz-adv-x="1300" d="M653 -22Q553 -22 460 11T293 109T176 273T133 502Q133 632 175 730T292 893T460 991T656 1024Q761 1024 855 994T1021 903T1135 750T1177 533Q1177 511 1175 485T1169 439H362V609H881Q881 612 881 614T881 619Q881
674 853 718T775 789T662 815Q616 815 573 797T497 742T443 646T423 504Q423 403 455 333T543 225T670 188Q733 188 775 209T843 260T880 316L1137 191Q1109 144 1065 106T961 38T824 -6T653 -22ZM763 1121H507L817 1420H1112L763 1121Z" />
<glyph unicode="&#xea;" horiz-adv-x="1300" d="M653 -22Q553 -22 460 11T293 109T176 273T133 502Q133 632 175 730T292 893T460 991T656 1024Q761 1024 855 994T1021 903T1135 750T1177 533Q1177 511 1175 485T1169 439H362V609H881Q881 612 881 614T881 619Q881
674 853 718T775 789T662 815Q616 815 573 797T497 742T443 646T423 504Q423 403 455 333T543 225T670 188Q733 188 775 209T843 260T880 316L1137 191Q1109 144 1065 106T961 38T824 -6T653 -22ZM275 1126L571 1406H753L1048 1126H818L662 1287L506 1126H275Z"
/>
<glyph unicode="&#xeb;" horiz-adv-x="1300" d="M653 -22Q553 -22 460 11T293 109T176 273T133 502Q133 632 175 730T292 893T460 991T656 1024Q761 1024 855 994T1021 903T1135 750T1177 533Q1177 511 1175 485T1169 439H362V609H881Q881 612 881 614T881 619Q881
674 853 718T775 789T662 815Q616 815 573 797T497 742T443 646T423 504Q423 403 455 333T543 225T670 188Q733 188 775 209T843 260T880 316L1137 191Q1109 144 1065 106T961 38T824 -6T653 -22ZM266 1404H559V1130H266V1404ZM768 1404H1060V1130H768V1404Z" />
<glyph unicode="&#xec;" horiz-adv-x="1000" d="M114 0V211H408V789H114V1000H694V211H953V0H114ZM398 1121L49 1420H344L654 1121H398Z" />
<glyph unicode="&#xed;" horiz-adv-x="1000" d="M114 0V211H408V789H114V1000H694V211H953V0H114ZM628 1121H372L682 1420H977L628 1121Z" />
<glyph unicode="&#xee;" horiz-adv-x="1000" d="M114 0V211H408V789H114V1000H694V211H953V0H114ZM139 1126L435 1406H617L912 1126H682L526 1287L370 1126H139Z" />
<glyph unicode="&#xef;" horiz-adv-x="1000" d="M114 0V211H408V789H114V1000H694V211H953V0H114ZM386 1404H679V1130H386V1404ZM888 1404H1180V1130H888V1404Z" />
<glyph unicode="&#xf0;" horiz-adv-x="1300" d="M634 -21Q532 -21 438 10T271 107T156 271T113 503Q113 636 150 734T255 897T411 993T603 1025Q679 1025 752 999T886 925T988 816T1041 680L877 560Q874 619 858 664T813 741T743 788T647 804Q593 804 549 783T474
722T426 628T409 503Q409 437 426 382T474 286T549 223T644 201Q700 201 743 224T814 297T858 424T873 607Q873 724 847 836T772 1048T653 1229T495 1365T302 1441L400 1613Q501 1590 609 1537T820 1402T1003 1209T1132 960T1180 657Q1180 464 1135 334T1013 125T838
13T634 -21ZM495 1164L364 1290L790 1611L898 1482L495 1164Z" />
<glyph unicode="&#xf1;" horiz-adv-x="1300" d="M185 0V1000H437L473 790V0H185ZM836 0V558Q836 645 819 698T765 775T671 799Q629 799 594 784T530 741T485 678T464 604L402 634Q402 703 425 772T494 898T610 989T773 1023Q851 1023 914 999T1025 924T1097 794T1123
603V0H836ZM1018 1099Q971 1099 940 1118T884 1159Q863 1177 843 1190T797 1204Q750 1204 724 1168T688 1103L580 1194Q586 1220 611 1260T681 1332T783 1364Q830 1364 861 1345T919 1304Q942 1285 963 1271T1011 1257Q1055 1257 1081 1294T1117 1359L1223 1267Q1217
1239 1193 1200T1125 1130T1018 1099Z" />
<glyph unicode="&#xf2;" horiz-adv-x="1300" d="M655 -22Q585 -22 512 -5T371 51T250 150T165 299T133 502Q133 617 164 704T249 852T371 951T512 1006T655 1024Q724 1024 797 1007T938 951T1059 852T1144 704T1176 502Q1176 386 1145 299T1060 151T938 51T797
-4T655 -22ZM655 188Q698 188 739 205T814 259T866 356T886 502Q886 587 867 646T814 743T740 797T655 814Q612 814 571 797T496 743T443 647T423 502Q423 417 442 357T495 260T570 206T655 188ZM782 1121L433 1420H728L1038 1121H782Z" />
<glyph unicode="&#xf3;" horiz-adv-x="1300" d="M655 -22Q585 -22 512 -5T371 51T250 150T165 299T133 502Q133 617 164 704T249 852T371 951T512 1006T655 1024Q724 1024 797 1007T938 951T1059 852T1144 704T1176 502Q1176 386 1145 299T1060 151T938 51T797
-4T655 -22ZM655 188Q698 188 739 205T814 259T866 356T886 502Q886 587 867 646T814 743T740 797T655 814Q612 814 571 797T496 743T443 647T423 502Q423 417 442 357T495 260T570 206T655 188ZM756 1121H500L810 1420H1105L756 1121Z" />
<glyph unicode="&#xf4;" horiz-adv-x="1300" d="M655 -22Q585 -22 512 -5T371 51T250 150T165 299T133 502Q133 617 164 704T249 852T371 951T512 1006T655 1024Q724 1024 797 1007T938 951T1059 852T1144 704T1176 502Q1176 386 1145 299T1060 151T938 51T797
-4T655 -22ZM655 188Q698 188 739 205T814 259T866 356T886 502Q886 587 867 646T814 743T740 797T655 814Q612 814 571 797T496 743T443 647T423 502Q423 417 442 357T495 260T570 206T655 188ZM524 1126L820 1406H1002L1297 1126H1067L911 1287L755 1126H524Z"
/>
<glyph unicode="&#xf5;" horiz-adv-x="1300" d="M655 -22Q585 -22 512 -5T371 51T250 150T165 299T133 502Q133 617 164 704T249 852T371 951T512 1006T655 1024Q724 1024 797 1007T938 951T1059 852T1144 704T1176 502Q1176 386 1145 299T1060 151T938 51T797
-4T655 -22ZM655 188Q698 188 739 205T814 259T866 356T886 502Q886 587 867 646T814 743T740 797T655 814Q612 814 571 797T496 743T443 647T423 502Q423 417 442 357T495 260T570 206T655 188ZM1019 1099Q972 1099 941 1118T885 1159Q864 1177 844 1190T798 1204Q751
1204 725 1168T689 1103L581 1194Q587 1220 612 1260T682 1332T784 1364Q831 1364 862 1345T920 1304Q943 1285 964 1271T1012 1257Q1056 1257 1082 1294T1118 1359L1224 1267Q1218 1239 1194 1200T1126 1130T1019 1099Z" />
<glyph unicode="&#xf6;" horiz-adv-x="1300" d="M655 -22Q585 -22 512 -5T371 51T250 150T165 299T133 502Q133 617 164 704T249 852T371 951T512 1006T655 1024Q724 1024 797 1007T938 951T1059 852T1144 704T1176 502Q1176 386 1145 299T1060 151T938 51T797
-4T655 -22ZM655 188Q698 188 739 205T814 259T866 356T886 502Q886 587 867 646T814 743T740 797T655 814Q612 814 571 797T496 743T443 647T423 502Q423 417 442 357T495 260T570 206T655 188ZM258 1404H551V1130H258V1404ZM760 1404H1052V1130H760V1404Z" />
<glyph unicode="&#xf7;" horiz-adv-x="1300" d="M201 493V723H1009V493H201ZM596 113Q535 113 492 157T449 263Q449 323 492 366T596 410Q658 410 700 367T743 263Q743 201 701 157T596 113ZM596 812Q535 812 492 856T449 961Q449 1022 492 1065T596 1109Q658
1109 700 1066T743 961Q743 900 701 856T596 812Z" />
<glyph unicode="&#xf8;" horiz-adv-x="1300" d="M200 40L1004 1042L1110 965L307 -37L200 40ZM655 -22Q585 -22 512 -5T371 51T250 150T165 299T133 502Q133 617 164 704T249 852T371 951T512 1006T655 1024Q724 1024 797 1007T938 951T1059 852T1144 704T1176
502Q1176 386 1145 299T1060 151T938 51T797 -4T655 -22ZM655 188Q698 188 739 205T814 259T866 356T886 502Q886 587 867 646T814 743T740 797T655 814Q612 814 571 797T496 743T443 647T423 502Q423 417 442 357T495 260T570 206T655 188Z" />
<glyph unicode="&#xf9;" horiz-adv-x="1300" d="M507 -23Q430 -23 366 1T256 76T184 207T158 397V1000H444V442Q444 355 461 302T515 225T609 201Q651 201 686 216T750 259T795 322T816 396L878 366Q878 297 855 228T786 102T670 11T507 -23ZM873 0L811 236V1000H1097V153L1052
211H1211V0H873ZM763 1121L414 1420H709L1019 1121H763Z" />
<glyph unicode="&#xfa;" horiz-adv-x="1300" d="M507 -23Q430 -23 366 1T256 76T184 207T158 397V1000H444V442Q444 355 461 302T515 225T609 201Q651 201 686 216T750 259T795 322T816 396L878 366Q878 297 855 228T786 102T670 11T507 -23ZM873 0L811 236V1000H1097V153L1052
211H1211V0H873ZM737 1121H481L791 1420H1086L737 1121Z" />
<glyph unicode="&#xfb;" horiz-adv-x="1300" d="M507 -23Q430 -23 366 1T256 76T184 207T158 397V1000H444V442Q444 355 461 302T515 225T609 201Q651 201 686 216T750 259T795 322T816 396L878 366Q878 297 855 228T786 102T670 11T507 -23ZM873 0L811 236V1000H1097V153L1052
211H1211V0H873ZM505 1126L801 1406H983L1278 1126H1048L892 1287L736 1126H505Z" />
<glyph unicode="&#xfc;" horiz-adv-x="1300" d="M507 -23Q430 -23 366 1T256 76T184 207T158 397V1000H444V442Q444 355 461 302T515 225T609 201Q651 201 686 216T750 259T795 322T816 396L878 366Q878 297 855 228T786 102T670 11T507 -23ZM873 0L811 236V1000H1097V153L1052
211H1211V0H873ZM239 1404H532V1130H239V1404ZM741 1404H1033V1130H741V1404Z" />
<glyph unicode="&#xfd;" horiz-adv-x="1300" d="M417 -400L597 59L692 -3H474L123 1000H417L682 150H635L902 1000H1191L701 -400H417ZM749 1121H493L803 1420H1098L749 1121Z" />
<glyph unicode="&#xfe;" horiz-adv-x="1300" d="M165 -400V1500H451V-400H165ZM735 -22Q640 -22 567 20T443 127T368 264T343 397L448 433Q451 388 467 346T511 271T575 219T656 200Q721 200 772 234T853 336T883 502Q883 600 855 666T777 766T663 800Q618 800
582 783T518 735T471 668T443 591L346 628Q346 688 372 756T449 884T574 983T745 1022Q856 1022 953 967T1109 796T1169 502Q1169 368 1133 269T1036 106T897 10T735 -22Z" />
<glyph unicode="&#xff;" horiz-adv-x="1300" d="M417 -400L597 59L692 -3H474L123 1000H417L682 150H635L902 1000H1191L701 -400H417ZM251 1404H544V1130H251V1404ZM753 1404H1045V1130H753V1404Z" />
<glyph unicode="&#x2013;" horiz-adv-x="1300" d="M193 493V723H987V493H193Z" />
<glyph unicode="&#x2014;" horiz-adv-x="1300" d="M35 493V723H1161V493H35Z" />
<glyph unicode="&#x2018;" horiz-adv-x="1000" d="M538 1501L653 1358Q619 1342 591 1322T547 1269T531 1184L338 1189Q338 1280 371 1342T450 1444T538 1501ZM641 1189V915H338V1189H641Z" />
<glyph unicode="&#x2019;" horiz-adv-x="1000" d="M449 814L334 957Q369 973 396 993T440 1046T456 1130L650 1125Q650 1034 617 972T537 871T449 814ZM346 1125V1400H650V1125H346Z" />
<glyph unicode="&#x201a;" horiz-adv-x="1000" d="M427 -312L312 -169Q347 -152 374 -132T418 -80T434 5L627 0Q627 -91 595 -153T515 -254T427 -312ZM324 0V275H627V0H324Z" />
<glyph unicode="&#x201c;" horiz-adv-x="1300" d="M506 1486L621 1343Q587 1327 559 1307T515 1254T498 1169L305 1174Q305 1265 338 1327T418 1429T506 1486ZM609 1174V900H305V1174H609ZM930 1486L1045 1343Q1011 1327 983 1307T939 1254T923 1169L729 1174Q729
1265 762 1327T842 1429T930 1486ZM1033 1174V900H729V1174H1033Z" />
<glyph unicode="&#x201d;" horiz-adv-x="1300" d="M808 814L693 957Q728 973 755 993T799 1046T815 1130L1008 1125Q1008 1034 975 972T896 871T808 814ZM705 1125V1400H1008V1125H705ZM383 814L268 957Q303 973 331 993T375 1046T391 1130L584 1125Q584 1034
551 972T472 871T383 814ZM280 1125V1400H584V1125H280Z" />
<glyph unicode="&#x201e;" horiz-adv-x="1300" d="M578 -312L463 -169Q498 -152 525 -132T569 -80T585 5L778 0Q778 -91 746 -153T666 -254T578 -312ZM475 0V275H778V0H475ZM776 -312L661 -169Q696 -152 723 -132T767 -80T783 5L976 0Q976 -91 944 -153T864 -254T776
-312ZM673 0V275H976V0H673Z" />
<glyph unicode="&#x2022;" horiz-adv-x="1300" d="M592 374Q509 374 442 413T336 520T296 670Q296 754 335 821T442 928T592 968Q675 968 742 929T848 822T888 670Q888 587 849 520T742 414T592 374Z" />
<glyph unicode="&#x2039;" horiz-adv-x="1300" d="M749 167L303 509L396 654L861 304L749 167ZM303 509V665H379V509H303ZM396 522L303 665L749 1007L861 870L396 522Z" />
<glyph unicode="&#x203a;" horiz-adv-x="1300" d="M481 167L369 304L834 654L928 509L481 167ZM928 509H851V665H928V509ZM834 522L369 870L481 1007L928 665L834 522Z" />
</font>
</defs>
</svg>
