<?xml version="1.0" standalone="no"?>
<!DOCTYPE svg PUBLIC "-//W3C//DTD SVG 1.1//EN" "http://www.w3.org/Graphics/SVG/1.1/DTD/svg11.dtd">
<svg xmlns="http://www.w3.org/2000/svg">
<defs >
<font id="Trispace" horiz-adv-x="1241" ><font-face
    font-family="Trispace Thin Thin"
    units-per-em="2000"
    panose-1="0 0 0 0 0 0 0 0 0 0"
    ascent="1830"
    descent="-430"
    alphabetic="0" />
<glyph unicode=" " horiz-adv-x="1000" />
<glyph unicode="!" horiz-adv-x="1000" d="M486 370L472 1400H566L552 370H486ZM468 156H568V0H468V156Z" />
<glyph unicode="&quot;" horiz-adv-x="1300" d="M703 992L685 1400H779L761 992H703ZM787 992L769 1400H863L845 992H787Z" />
<glyph unicode="#" horiz-adv-x="1800" d="M1072 0L1234 1400H1294L1132 0H1072ZM208 400L216 464H1410L1402 400H208ZM418 0L580 1400H640L478 0H418ZM274 930L282 994H1476L1468 930H274Z" />
<glyph unicode="$" horiz-adv-x="1300" d="M624 0V224H690V0H624ZM624 1186V1400H690V1186H624ZM644 184Q549 184 470 210T335 275T258 356L318 406Q331 377 360 349T432 299T529 263T648 250Q714 250 772 263T876 304T946 378T972 490Q972 566 920 608T791 672T635
705Q576 714 515 732T402 781T318 861T286 978Q286 1032 308 1073T369 1144T455 1193T557 1221T660 1230Q748 1230 819 1204T938 1137T1004 1056L944 1014Q930 1047 903 1074T838 1121T755 1153T660 1164Q620 1164 568 1157T469 1129T390 1073T358 978Q358 910
400 869T510 804T658 768Q707 760 760 749T864 718T955 669T1020 596T1044 490Q1044 426 1022 376T960 290T870 231T761 196T644 184Z" />
<glyph unicode="%" horiz-adv-x="1300" d="M124 0L1048 1400H1128L204 0H124ZM914 12Q861 12 812 37T732 119T700 274Q700 370 731 427T812 509T914 534Q967 534 1016 509T1096 427T1128 274Q1128 177 1097 120T1016 37T914 12ZM914 74Q956 74 989 92T1041 154T1060
274Q1060 349 1041 392T989 454T914 472Q872 472 839 454T787 393T768 274Q768 198 787 155T839 93T914 74ZM350 852Q297 852 248 877T168 959T136 1114Q136 1210 167 1267T248 1349T350 1374Q403 1374 452 1349T532 1267T564 1114Q564 1017 533 960T452 877T350
852ZM350 914Q392 914 425 932T477 994T496 1114Q496 1189 477 1232T425 1294T350 1312Q308 1312 275 1294T223 1233T204 1114Q204 1038 223 995T275 933T350 914Z" />
<glyph unicode="&amp;" horiz-adv-x="1700" d="M740 -16Q589 -16 486 35T330 174T277 370Q277 456 317 524T422 645T564 739T714 812Q835 865 900 912T992 1016T1018 1150Q1018 1211 1000 1250T950 1311T880 1343T798 1352Q756 1352 718 1341T650 1307T603 1248T586
1160Q586 1111 603 1061T645 963T696 876T741 811L1323 0H1248L699 764Q668 808 637 855T579 953T538 1054T522 1158Q522 1223 544 1270T604 1349T693 1396T798 1412Q854 1412 904 1398T995 1352T1059 1271T1082 1148Q1082 1064 1043 995T928 868T746 763Q676 732
605 696T475 612T379 505T343 366Q343 305 368 248T442 146T566 73T738 46Q831 46 907 68T1042 135T1141 243T1202 392T1223 580H1288Q1288 467 1263 373T1191 207T1077 85T925 10T740 -16Z" />
<glyph unicode="&apos;" horiz-adv-x="1000" d="M518 992L500 1400H594L576 992H518Z" />
<glyph unicode="(" horiz-adv-x="1300" d="M907 -426Q877 -389 835 -329T749 -182T666 18T604 274T580 588Q580 763 604 905T668 1160T751 1358T838 1502T911 1598L960 1558Q944 1539 908 1488T827 1354T741 1158T673 902T646 588Q646 420 671 279T737 25T820
-172T900 -310T956 -386L907 -426Z" />
<glyph unicode=")" horiz-adv-x="1300" d="M406 -426L357 -386Q376 -364 412 -310T492 -173T576 24T641 279T667 588Q667 759 640 901T572 1157T487 1354T406 1488T353 1558L402 1598Q432 1561 474 1502T562 1358T645 1161T708 906T733 588Q733 416 709 274T647
19T565 -181T478 -328T406 -426Z" />
<glyph unicode="*" horiz-adv-x="1300" d="M748 1056L582 1292L626 1326L802 1094L748 1056ZM448 1056L394 1094L570 1326L614 1292L448 1056ZM582 1292L316 1376L338 1440L598 1342L582 1292ZM598 1280Q583 1280 573 1290T562 1316Q562 1330 572 1340T598 1350Q613
1350 622 1340T632 1316Q632 1301 623 1291T598 1280ZM570 1326L566 1600H632L626 1326H570ZM614 1292L598 1342L856 1440L878 1376L614 1292Z" />
<glyph unicode="+" horiz-adv-x="1300" d="M574 240V974H638V240H574ZM238 576V640H972V576H238Z" />
<glyph unicode="," horiz-adv-x="1000" d="M444 -183L409 -128Q426 -122 446 -108T482 -67T497 5L561 0Q561 -54 542 -91T496 -151T444 -183ZM441 0V156H561V0H441Z" />
<glyph unicode="-" horiz-adv-x="1300" d="M371 576V640H927V576H371Z" />
<glyph unicode="." horiz-adv-x="1000" d="M421 156H521V0H421V156Z" />
<glyph unicode="/" horiz-adv-x="766" d="M114 -284L612 1600H672L174 -284H114Z" />
<glyph unicode="0" horiz-adv-x="1300" d="M654 -22Q574 -22 499 15T364 136T269 357T234 696Q234 896 269 1033T363 1254T498 1375T654 1412Q726 1412 799 1375T935 1255T1034 1034T1072 696Q1072 495 1035 357T935 136T800 16T654 -22ZM654 44Q725 44 788 83T900
202T978 406T1006 696Q1006 863 978 985T901 1188T788 1307T654 1346Q581 1346 517 1307T404 1188T328 986T300 696Q300 529 327 406T403 203T516 83T654 44Z" />
<glyph unicode="1" horiz-adv-x="1300" d="M292 0V64H638V1328L294 1246V1316L648 1400H704V64H1050V0H292Z" />
<glyph unicode="2" horiz-adv-x="1300" d="M206 0V64Q233 83 284 125T400 227T537 359T675 514T797 682T884 855T916 1024Q916 1115 891 1177T823 1276T724 1329T606 1346Q529 1346 463 1319T350 1239T283 1107L220 1146Q250 1236 308 1295T445 1383T610 1412Q687
1412 755 1391T874 1323T955 1202T984 1022Q984 924 940 819T825 610T673 413T514 245T381 123T307 64H994V0H206Z" />
<glyph unicode="3" horiz-adv-x="1300" d="M638 -22Q527 -22 441 11T298 102T214 230L284 272Q301 210 347 158T467 75T638 44Q735 44 818 87T951 216T1002 434Q1002 532 975 599T903 707T803 767T690 786Q660 786 627 780T562 765T500 742L446 790L952 1336H286V1400H1040V1336L557
819Q585 835 628 843T712 852Q775 852 838 828T955 753T1040 623T1072 434Q1072 321 1038 236T944 93T805 7T638 -22Z" />
<glyph unicode="4" horiz-adv-x="1300" d="M758 0V352H186V416L708 1400H824V416H1062V352H824V0H758ZM256 416H758V1336H748L256 416Z" />
<glyph unicode="5" horiz-adv-x="1300" d="M594 -22Q480 -22 399 15T268 110T196 232L264 270Q280 215 320 163T429 78T600 44Q697 44 777 93T906 237T954 472Q954 600 905 686T781 815T626 858Q553 858 486 834T369 759T294 628L254 662Q266 724 301 773T387
855T500 906T626 924Q721 924 812 876T964 727T1024 472Q1024 359 993 268T905 112T768 13T594 -22ZM294 628L228 644L310 1400H968V1336H374L294 628Z" />
<glyph unicode="6" horiz-adv-x="1300" d="M610 -22Q515 -22 435 18T297 142T206 353T174 656Q174 819 210 957T314 1197T476 1356T687 1413Q767 1413 821 1390T905 1337T945 1291L900 1236Q889 1254 863 1279T791 1325T676 1345Q590 1345 513 1297T375 1157T281
939T246 656Q246 499 272 384T347 193T463 81T610 44Q708 44 786 94T910 239T956 472Q956 606 912 691T796 817T640 858Q582 858 519 833T399 759T304 635T255 461L202 514Q216 617 260 694T366 822T500 898T640 924Q753 924 839 873T975 721T1024 472Q1024 359
995 268T912 112T782 13T610 -22Z" />
<glyph unicode="7" horiz-adv-x="1300" d="M598 0Q598 139 618 294T676 606T764 904T874 1158T1000 1336H268V1400H1070V1336Q1001 1261 941 1149T830 899T744 609T688 302T668 0H598Z" />
<glyph unicode="8" horiz-adv-x="1300" d="M646 -22Q539 -22 441 18T279 145T216 376Q216 482 255 557T359 679T499 748T646 770Q713 770 787 748T927 679T1033 557T1074 376Q1074 233 1011 146T850 18T646 -22ZM646 44Q738 44 820 78T953 185T1004 372Q1004 488
953 561T820 669T646 704Q553 704 471 668T338 557T286 372Q286 258 337 186T471 79T646 44ZM646 704Q581 704 514 725T391 791T301 904T266 1068Q266 1156 299 1221T387 1329T509 1393T646 1414Q711 1414 777 1393T900 1329T990 1221T1024 1068Q1024 973 990 904T900
791T778 726T646 704ZM646 770Q789 770 871 852T954 1068Q954 1143 926 1196T851 1283T750 1332T646 1348Q591 1348 537 1333T437 1284T364 1197T336 1068Q336 935 424 853T646 770Z" />
<glyph unicode="9" horiz-adv-x="1300" d="M567 -23Q487 -23 433 0T349 53T309 99L354 154Q365 137 391 111T464 65T578 45Q664 45 741 93T879 233T973 451T1008 734Q1008 892 982 1007T907 1197T791 1309T644 1346Q546 1346 468 1296T344 1151T298 918Q298 784
342 699T458 573T614 532Q673 532 736 557T855 631T950 755T999 929L1052 876Q1038 773 994 696T888 568T754 492T614 466Q502 466 415 517T279 669T230 918Q230 1031 259 1122T342 1278T472 1377T644 1412Q739 1412 819 1372T957 1248T1048 1037T1080 734Q1080
571 1044 433T940 193T778 34T567 -23Z" />
<glyph unicode=":" horiz-adv-x="1000" d="M401 1000H501V844H401V1000ZM657 156H757V0H657V156Z" />
<glyph unicode=";" horiz-adv-x="1000" d="M409 1000H509V844H409V1000ZM643 -183L608 -128Q625 -122 645 -108T681 -67T696 5L760 0Q760 -54 741 -91T695 -151T643 -183ZM640 0V156H760V0H640Z" />
<glyph unicode="&lt;" horiz-adv-x="1300" d="M956 1078L1002 1022L346 513V549L1002 40L956 -16L304 482V580L956 1078Z" />
<glyph unicode="=" horiz-adv-x="1300" d="M230 760V824H964V760H230ZM230 392V456H964V392H230Z" />
<glyph unicode="&gt;" horiz-adv-x="1300" d="M230 -16L184 40L840 549V513L184 1022L230 1078L882 580V482L230 -16Z" />
<glyph unicode="?" horiz-adv-x="1300" d="M538 340V408Q538 482 557 541T607 651T677 744T753 826Q794 868 829 909T886 994T908 1090Q908 1166 879 1216T803 1296T702 1337T598 1350Q539 1350 484 1335T382 1291T301 1224T248 1138L182 1174Q206 1239 268 1293T417
1379T598 1412Q670 1412 738 1396T860 1342T946 1243T978 1090Q978 1030 955 981T894 888T812 800Q761 749 713 693T633 567T602 406V340H538ZM520 156H620V0H520V156Z" />
<glyph unicode="@" horiz-adv-x="1700" d="M749 -18Q651 -18 563 4T402 72T276 189T193 360T163 587Q163 733 200 859T308 1088T477 1262T701 1373T969 1412Q1087 1412 1190 1377T1372 1269T1495 1085T1540 821Q1540 722 1516 624T1444 445T1329 316T1174 267Q1122
267 1083 286T1023 344T1001 440Q992 411 966 376T896 316T792 290Q741 290 699 307T627 362T580 460T564 604Q564 707 584 797T646 956T755 1063T915 1102Q961 1102 999 1096T1065 1081T1108 1064Q1099 979 1089 884T1071 702T1057 556T1051 478Q1051 430 1061
396T1098 345T1170 327Q1240 327 1295 372T1390 489T1451 646T1472 811Q1472 930 1440 1028T1344 1197T1185 1307T964 1346Q832 1346 720 1311T517 1209T364 1051T267 843T233 594Q233 461 268 359T371 188T539 82T770 46Q898 46 963 73T1050 116L1080 58Q1065
47 1023 29T913 -4T749 -18ZM804 354Q865 354 905 387T968 476T999 598Q1000 609 1005 655T1017 766T1030 900T1042 1024Q1033 1028 999 1034T912 1040Q831 1040 777 1004T690 905T644 766T630 606Q630 521 645 471T686 395T743 362T804 354Z" />
<glyph unicode="A" horiz-adv-x="1300" d="M1140 0H1064L944 408H360L240 0H164L581 1400H723L1140 0ZM636 1336L377 472H927L668 1336H636Z" />
<glyph unicode="B" horiz-adv-x="1300" d="M280 0V1400H688Q738 1400 787 1392T880 1361T957 1301T1009 1203T1028 1058Q1028 961 992 892T909 782T828 732Q859 728 902 708T988 647T1059 543T1088 390Q1088 269 1048 182T929 47T730 0H280ZM346 64H736Q821 64
885 100T984 208T1020 390Q1020 500 973 566T860 661T736 690H346V64ZM346 754H696Q756 754 816 791T916 896T956 1058Q956 1144 935 1198T877 1282T789 1324T680 1336H346V754Z" />
<glyph unicode="C" horiz-adv-x="1300" d="M708 -22Q622 -22 542 5T392 89T270 231T189 433T160 696Q160 843 190 958T273 1159T396 1301T548 1384T716 1412Q793 1412 857 1389T971 1328T1059 1241T1120 1140L1056 1108Q1036 1154 1006 1196T933 1273T837 1326T715
1346Q628 1346 543 1309T387 1192T274 990T232 696Q232 525 273 402T384 199T538 82T707 44Q776 44 831 64T929 118T1003 192T1056 272L1120 238Q1097 192 1060 146T971 62T854 1T708 -22Z" />
<glyph unicode="D" horiz-adv-x="1300" d="M266 0V1400H550Q618 1400 685 1387T816 1343T933 1260T1028 1131T1091 947T1114 700Q1114 560 1092 454T1028 270T933 140T816 57T686 13T550 0H266ZM332 64H546Q638 64 726 92T887 190T1003 384T1046 700Q1046 892
1003 1016T888 1210T727 1308T546 1336H332V64Z" />
<glyph unicode="E" horiz-adv-x="1300" d="M278 0V1400H1076V1336H344V720H988V656H344V64H1076V0H278Z" />
<glyph unicode="F" horiz-adv-x="1300" d="M312 0V1400H1080V1336H378V670H990V606H378V0H312Z" />
<glyph unicode="G" horiz-adv-x="1300" d="M706 -22Q636 -22 560 0T413 73T285 207T194 411T160 696Q160 856 192 975T281 1178T407 1313T554 1388T704 1412Q792 1412 863 1391T989 1333T1078 1253T1130 1164L1064 1126Q1050 1169 1021 1208T946 1279T841 1328T704
1346Q637 1346 569 1322T441 1249T333 1122T258 939T230 696Q230 521 273 397T388 195T542 81T706 44Q785 44 859 75T992 176T1085 359T1120 636H702V700H1188V636Q1188 487 1161 377T1087 190T978 67T847 -1T706 -22Z" />
<glyph unicode="H" horiz-adv-x="1300" d="M233 0V1400H299V760H995V1400H1061V0H995V696H299V0H233Z" />
<glyph unicode="I" horiz-adv-x="1300" d="M318 0V64H616V1336H318V1400H982V1336H682V64H982V0H318Z" />
<glyph unicode="J" horiz-adv-x="1300" d="M594 -22Q507 -22 436 9T312 108T232 285T204 552H270Q270 377 306 265T415 98T594 44Q702 44 773 98T880 264T916 552V1336H336V1400H982V548Q982 393 955 284T876 108T754 9T594 -22Z" />
<glyph unicode="K" horiz-adv-x="1300" d="M266 0V1400H332V750H451L913 1400H986L488 693V745L1020 0H946L448 686H332V0H266Z" />
<glyph unicode="L" horiz-adv-x="1000" d="M186 0V1400H252V64H854V0H186Z" />
<glyph unicode="M" horiz-adv-x="1700" d="M826 80L868 216L1246 1400H1298L1288 1320L890 80H826ZM180 0L358 1400H422L250 0H180ZM804 80L408 1320L402 1400H450L826 216L868 80H804ZM1446 0L1274 1400H1338L1516 0H1446Z" />
<glyph unicode="N" horiz-adv-x="1300" d="M212 0V1400H308L1010 77H1006V1400H1072V0H976L274 1319H278V0H212Z" />
<glyph unicode="O" horiz-adv-x="1300" d="M650 -22Q568 -22 490 4T345 85T228 225T149 427T120 696Q120 847 148 964T227 1166T345 1305T490 1386T650 1412Q732 1412 809 1386T953 1306T1070 1166T1149 964T1178 696Q1178 544 1150 427T1071 225T953 85T809 4T650
-22ZM650 44Q734 44 815 81T963 198T1068 400T1108 696Q1108 867 1069 990T963 1192T816 1308T650 1346Q565 1346 484 1309T336 1192T230 990T190 696Q190 524 229 401T335 198T483 82T650 44Z" />
<glyph unicode="P" horiz-adv-x="1300" d="M302 0V1400H614Q664 1400 724 1391T843 1357T952 1283T1030 1155T1060 958Q1060 840 1031 760T952 628T844 549T724 511T614 500H368V0H302ZM368 564H610Q659 564 723 574T849 623T951 740T992 958Q992 1096 952 1173T850
1285T724 1328T610 1336H368V564Z" />
<glyph unicode="Q" horiz-adv-x="1300" d="M618 -278V0H682V-244L652 -214H1072V-278H618ZM650 -22Q568 -22 490 4T345 85T228 225T149 427T120 696Q120 847 148 964T227 1166T345 1305T490 1386T650 1412Q732 1412 809 1386T953 1306T1070 1166T1149 964T1178
696Q1178 544 1150 427T1071 225T953 85T809 4T650 -22ZM650 44Q734 44 815 81T963 198T1068 400T1108 696Q1108 867 1069 990T963 1192T816 1308T650 1346Q565 1346 484 1309T336 1192T230 990T190 696Q190 524 229 401T335 198T483 82T650 44Z" />
<glyph unicode="R" horiz-adv-x="1300" d="M294 0V1400H732Q779 1400 827 1390T920 1356T998 1292T1052 1192T1072 1048Q1072 971 1053 911T1000 807T925 735T836 694T746 680H360V0H294ZM1025 0L729 706L797 714L1098 0H1025ZM360 744H732Q797 744 859 774T963
871T1004 1048Q1004 1162 961 1224T852 1311T722 1336H360V744Z" />
<glyph unicode="S" horiz-adv-x="1300" d="M662 -22Q553 -22 460 6T298 90T190 228L257 264Q289 190 349 141T489 68T662 44Q775 44 861 84T995 197T1044 364Q1044 439 1007 495T910 591T778 656T637 696Q545 715 472 746T346 824T267 934T239 1080Q239 1145 262
1197T327 1290T424 1357T543 1398T674 1412Q772 1412 856 1384T1001 1306T1088 1188L1022 1154Q996 1219 946 1261T827 1325T673 1346Q605 1346 540 1329T423 1278T340 1195T309 1082Q309 986 355 923T480 823T656 764Q726 749 793 728T918 675T1020 601T1089 501T1114
370Q1114 296 1092 235T1030 125T933 45T809 -5T662 -22Z" />
<glyph unicode="T" horiz-adv-x="1300" d="M616 0V1336H168V1400H1130V1336H682V0H616Z" />
<glyph unicode="U" horiz-adv-x="1300" d="M652 -22Q558 -22 476 12T333 117T237 301T202 568V1400H268V572Q268 397 315 280T449 103T652 44Q770 44 855 103T987 279T1034 572V1400H1100V568Q1100 413 1066 301T971 118T829 12T652 -22Z" />
<glyph unicode="V" horiz-adv-x="1300" d="M568 0L169 1400H243L624 64H628L1009 1400H1083L684 0H568Z" />
<glyph unicode="W" horiz-adv-x="1700" d="M1186 0L854 1298L836 1384H894L1230 76L1246 0H1186ZM420 0L136 1400H206L470 78L478 0H420ZM454 0L470 76L806 1384H864L846 1298L514 0H454ZM1222 0L1228 78L1494 1400H1564L1280 0H1222Z" />
<glyph unicode="X" horiz-adv-x="1300" d="M200 0L557 689L200 1400H280L616 724H658L1014 1400H1094L718 689L1094 0H1014L657 660H617L280 0H200Z" />
<glyph unicode="Y" horiz-adv-x="1300" d="M608 0V574L186 1400H260L641 644L1020 1400H1094L674 574V0H608Z" />
<glyph unicode="Z" horiz-adv-x="1300" d="M234 0V64L978 1336H250V1400H1054V1336L312 64H1068V0H234Z" />
<glyph unicode="[" horiz-adv-x="1300" d="M550 -400V1600H960V1536H616V-336H960V-400H550Z" />
<glyph unicode="\" horiz-adv-x="766" d="M612 -284L114 1600H174L672 -284H612Z" />
<glyph unicode="]" horiz-adv-x="1300" d="M771 -400H361V-336H705V1536H361V1600H771V-400Z" />
<glyph unicode="^" horiz-adv-x="1300" d="M400 1120L592 1600H700L892 1120H826L660 1540H632L466 1120H400Z" />
<glyph unicode="_" horiz-adv-x="1300" d="M-2 -230V-166H1302V-230H-2Z" />
<glyph unicode="`" horiz-adv-x="1300" d="M685 1138L393 1400H497L767 1138H685Z" />
<glyph unicode="a" horiz-adv-x="1300" d="M598 -22Q510 -22 438 -1T316 62T238 162T210 298Q210 361 232 411T294 498T385 559T493 596T610 608Q691 608 759 590T877 544T948 490V696Q948 774 919 825T843 906T737 948T620 960Q568 960 519 948T426 916T349 874T296
830L254 887Q287 919 341 950T468 1003T630 1024Q683 1024 737 1014T841 980T930 920T991 831T1014 709V64H1182V0H948V133Q927 100 880 64T762 3T598 -22ZM600 42Q703 42 772 73T884 148T948 224V408Q923 441 869 472T748 523T612 544Q529 544 453 518T327 438T278
298Q278 213 317 156T428 71T600 42Z" />
<glyph unicode="b" horiz-adv-x="1300" d="M294 0V1500H360V242V0H294ZM698 -22Q607 -22 536 14T414 111T338 247T312 398L356 410Q364 344 389 279T456 161T555 76T686 44Q775 44 856 91T990 239T1042 502Q1042 667 992 766T863 911T694 956Q621 956 563 927T462
848T393 737T356 614L312 624Q312 697 340 767T420 895T545 987T708 1022Q804 1022 896 969T1048 800T1108 502Q1108 365 1072 266T975 103T843 9T698 -22Z" />
<glyph unicode="c" horiz-adv-x="1300" d="M705 -22Q647 -22 584 -3T462 55T356 157T280 304T252 502Q252 615 280 701T355 848T462 948T584 1005T705 1024Q782 1024 843 1003T950 946T1025 872T1066 796L1001 764Q986 809 948 854T848 928T705 958Q643 958 577
932T453 850T360 708T324 502Q324 384 359 298T452 156T576 72T705 44Q788 44 849 75T948 151T999 238L1066 204Q1056 173 1028 134T953 60T844 1T705 -22Z" />
<glyph unicode="d" horiz-adv-x="1300" d="M552 -22Q480 -22 408 8T275 102T179 265T142 502Q142 685 202 800T354 968T542 1022Q632 1022 705 988T830 896T910 768T938 624L894 614Q884 676 858 737T788 847T687 926T556 956Q467 956 388 911T258 767T208 502Q208
340 260 239T393 91T564 44Q637 44 694 76T793 161T860 279T894 410L938 398Q938 322 912 247T836 112T715 15T552 -22ZM956 1500V35L926 65H1135V0H890V216V1500H956Z" />
<glyph unicode="e" horiz-adv-x="1300" d="M651 -22Q574 -22 493 6T343 97T232 259T189 502Q189 645 233 745T347 906T498 996T655 1024Q738 1024 817 995T959 910T1059 769T1096 573Q1096 560 1096 541T1093 508H238V572H1019Q1019 581 1019 584T1019 597Q1019
717 966 797T829 918T653 958Q589 958 521 933T393 854T298 713T261 502Q261 347 320 246T470 94T651 44Q744 44 815 72T932 143T994 232L1063 194Q1048 158 1013 120T924 50T802 -2T651 -22Z" />
<glyph unicode="f" horiz-adv-x="1000" d="M400 0V1125Q400 1241 429 1317T506 1437T612 1499T727 1517Q798 1517 840 1505T908 1477V1411Q883 1426 843 1439T731 1453Q688 1453 642 1441T555 1395T491 1293T466 1115V0H400ZM104 936V1000H898V936H104Z" />
<glyph unicode="g" horiz-adv-x="1300" d="M665 -420Q564 -420 493 -391T376 -313T310 -210T289 -104H355Q355 -132 370 -173T420 -256T515 -326T665 -354Q785 -354 860 -296T970 -145T1005 56V776V1000H1071V80Q1071 -10 1055 -87T1006 -225T925 -330T811 -397T665
-420ZM670 -22Q598 -22 526 8T393 102T297 265T260 502Q260 685 320 800T472 968T660 1022Q750 1022 823 988T948 896T1028 768T1056 624L1012 614Q1002 676 976 737T906 847T805 926T674 956Q585 956 506 911T376 767T326 502Q326 340 378 239T511 91T682 44Q755
44 812 76T911 161T978 279T1012 410L1056 398Q1056 322 1030 247T954 112T833 15T670 -22Z" />
<glyph unicode="h" horiz-adv-x="1300" d="M290 0V1500H356V0H290ZM962 0V574Q962 711 933 795T844 919T691 958Q627 958 568 932T461 857T384 745T352 604H305Q305 687 331 762T408 897T532 990T699 1024Q779 1024 840 1000T943 923T1006 787T1028 584V0H962Z" />
<glyph unicode="i" horiz-adv-x="1000" d="M114 0V64H482V936H164V1000H548V64H906V0H114ZM474 1400H554V1244H474V1400Z" />
<glyph unicode="j" horiz-adv-x="1000" d="M124 -400V-334H194Q279 -334 347 -308T463 -231T538 -103T564 76V936H158V1000H630V66Q630 -49 597 -136T506 -282T372 -370T208 -400H124ZM554 1400H634V1244H554V1400Z" />
<glyph unicode="k" horiz-adv-x="1300" d="M364 0V1500H430V550H563V486H430V0H364ZM975 0L503 512L561 551L1066 0H975ZM560 497L503 536L977 1000H1068L560 497Z" />
<glyph unicode="l" horiz-adv-x="1000" d="M96 0V64H450V1436H176V1500H516V64H884V0H96Z" />
<glyph unicode="m" horiz-adv-x="1700" d="M1470 0V604Q1470 780 1407 869T1204 958Q1116 958 1039 910T913 781T860 604H802Q803 680 832 754T915 890T1044 987T1212 1024Q1318 1024 1390 984T1499 855T1536 624V0H1470ZM122 0V1000H188V778V0H122ZM794 0V604Q794
780 731 869T528 958Q440 958 364 910T240 781T188 604H130Q131 680 160 754T244 890T373 987T536 1024Q695 1024 777 937T860 664V0H794Z" />
<glyph unicode="n" horiz-adv-x="1300" d="M284 0V1000H350V804V0H284ZM958 0V574Q958 711 929 795T840 919T687 958Q623 958 564 932T457 857T380 745T348 604H301Q301 687 327 762T404 897T528 990T695 1024Q775 1024 836 1000T939 923T1002 787T1024 584V0H958Z" />
<glyph unicode="o" horiz-adv-x="1300" d="M656 -22Q595 -22 532 -5T409 51T302 150T228 299T200 502Q200 617 227 704T302 852T408 951T531 1006T656 1024Q717 1024 780 1007T903 951T1010 852T1084 704T1112 502Q1112 386 1085 299T1010 151T904 51T781 -4T656
-22ZM656 44Q714 44 780 65T906 138T1004 279T1042 502Q1042 634 1004 722T907 862T781 936T656 958Q598 958 532 936T406 862T308 722T270 502Q270 368 308 279T405 139T531 66T656 44Z" />
<glyph unicode="p" horiz-adv-x="1300" d="M254 -400V1000H320V858V-400H254ZM658 -22Q567 -22 496 14T374 111T298 247T272 398L316 410Q324 344 349 279T416 161T515 76T646 44Q735 44 816 91T950 239T1002 502Q1002 667 952 766T823 911T654 956Q581 956 523
927T422 848T353 737T316 614L272 624Q272 697 300 767T380 895T505 987T668 1022Q764 1022 856 969T1008 800T1068 502Q1068 365 1032 266T935 103T803 9T658 -22Z" />
<glyph unicode="q" horiz-adv-x="1300" d="M996 -400H930V858V1000H996V-400ZM592 -22Q520 -22 448 8T315 102T219 265T182 502Q182 685 242 800T394 968T582 1022Q672 1022 745 988T870 896T950 768T978 624L934 614Q924 676 898 737T828 847T727 926T596 956Q507
956 428 911T298 767T248 502Q248 340 300 239T433 91T604 44Q677 44 734 76T833 161T900 279T934 410L978 398Q978 322 952 247T876 112T755 15T592 -22Z" />
<glyph unicode="r" horiz-adv-x="1300" d="M274 0V64H508V936H274V1000H574V742V64H836V0H274ZM572 586L519 594Q522 655 546 716T611 833T708 931T832 999T976 1024Q1032 1024 1065 1014T1113 996L1089 928Q1078 936 1046 946T964 956Q895 956 829 923T709 836T618
717T572 586Z" />
<glyph unicode="s" horiz-adv-x="1300" d="M644 -22Q549 -22 470 4T335 69T258 150L318 200Q331 171 360 143T432 93T529 57T648 44Q714 44 772 57T876 98T946 172T972 284Q972 360 920 402T791 466T635 499Q576 508 515 526T402 575T318 655T286 772Q286 826
308 867T369 938T455 987T557 1015T660 1024Q748 1024 819 998T938 931T1004 850L944 808Q930 841 903 868T838 915T755 947T660 958Q620 958 568 951T469 923T390 867T358 772Q358 704 400 663T510 598T658 562Q707 554 760 543T864 512T955 463T1020 390T1044
284Q1044 220 1022 170T960 84T870 25T761 -10T644 -22Z" />
<glyph unicode="t" horiz-adv-x="1300" d="M450 263V1317H518V265Q518 184 544 135T614 64T714 41Q770 41 818 64T895 136T925 267H993Q993 192 970 138T908 50T819 -1T712 -18Q654 -18 606 -1T523 51T469 139T450 263ZM170 936V1000H994V936H170Z" />
<glyph unicode="u" horiz-adv-x="1300" d="M580 -24Q501 -24 440 0T336 77T273 214T251 416V1000H317V426Q317 289 346 205T435 81T588 42Q652 42 711 68T818 143T895 255T927 396H974Q974 313 948 238T871 103T747 10T580 -24ZM920 0V181V1000H986V34L956 64H1110V0H920Z"
/>
<glyph unicode="v" horiz-adv-x="1300" d="M580 0L196 1000H270L632 64H656L1018 1000H1092L708 0H580Z" />
<glyph unicode="w" horiz-adv-x="1700" d="M1167 0L827 1000H894L1235 0H1167ZM431 0L215 1000H285L499 0H431ZM467 0L807 1000H875L535 0H467ZM1203 0L1417 1000H1487L1271 0H1203Z" />
<glyph unicode="x" horiz-adv-x="1300" d="M198 0L590 501L198 1000H282L649 533H643L1010 1000H1094L702 501L1094 0H1010L643 469H649L282 0H198Z" />
<glyph unicode="y" horiz-adv-x="1300" d="M456 -400L626 26V-11H618L216 1000H290L663 61H641L1006 1000H1078L528 -400H456Z" />
<glyph unicode="z" horiz-adv-x="1300" d="M246 0V64L910 936H262V1000H988V936L328 64H992V0H246Z" />
<glyph unicode="{" horiz-adv-x="1300" d="M370 600V636H372Q449 636 490 671T546 771T562 922V1250Q562 1339 583 1406T646 1520T752 1590T904 1614H934V1550H918Q831 1550 766 1519T665 1418T628 1232V862Q628 774 605 722T549 643T487 608T446 600H370ZM904
-408Q817 -408 753 -385T646 -315T583 -200T562 -44V284Q562 370 547 434T490 534T372 570H370V606H446Q458 606 487 598T549 564T605 485T628 344V-26Q628 -142 664 -212T766 -313T918 -344H934V-408H904Z" />
<glyph unicode="|" horiz-adv-x="1300" d="M617 -360V1600H679V-360H617Z" />
<glyph unicode="}" horiz-adv-x="1300" d="M938 600H862Q850 600 821 608T759 642T703 721T680 862V1232Q680 1348 644 1418T542 1519T390 1550H374V1614H404Q491 1614 555 1591T662 1521T725 1407T746 1250V922Q746 836 761 772T818 672T936 636H938V600ZM404
-408H374V-344H390Q477 -344 542 -313T643 -212T680 -26V344Q680 433 703 485T759 563T821 598T862 606H938V570H936Q859 570 818 535T762 435T746 284V-44Q746 -132 725 -200T662 -314T556 -384T404 -408Z" />
<glyph unicode="~" horiz-adv-x="1300" d="M710 674Q664 674 632 692T573 735T520 777T456 796Q402 796 363 768T306 712L248 760Q253 768 271 785T316 821T380 853T460 866Q507 866 539 848T597 804T650 761T714 742Q768 742 806 771T860 828L918 778Q914 770
897 753T853 718T789 687T710 674Z" />
<glyph unicode="&#xa0;" horiz-adv-x="1000" />
<glyph unicode="&#xa1;" horiz-adv-x="1000" d="M517 630L531 -400H437L451 630H517ZM535 844H435V1000H535V844Z" />
<glyph unicode="&#xa2;" horiz-adv-x="1300" d="M654 170Q566 170 486 198T342 289T241 451T204 694Q204 839 241 939T341 1100T485 1188T654 1216Q768 1216 863 1166T1028 996L960 960Q931 1011 892 1054T795 1124T648 1150Q573 1150 507 1124T389 1042T309 900T280
694Q280 576 309 490T389 348T506 264T648 236Q731 236 793 259T898 320T964 404L1034 368Q990 299 931 256T801 191T654 170ZM610 0V220H676V0H610ZM610 1160V1400H676V1160H610Z" />
<glyph unicode="&#xa3;" horiz-adv-x="1300" d="M132 664V728H870V664H132ZM292 24L256 62Q287 86 315 129T365 227T400 345T413 472Q413 552 396 620T356 754Q336 814 321 876T306 1010Q306 1101 333 1175T411 1302T536 1383T700 1412Q795 1412 861 1386T971
1319T1044 1230L986 1194Q963 1228 929 1264T840 1325T700 1350Q645 1350 588 1335T483 1281T406 1177T376 1010Q376 948 389 889T422 770Q443 703 460 631T477 475Q477 378 455 287T391 127T292 24ZM284 -12L256 62Q258 62 261 60T270 53T281 45T292 36Q323 52
358 63T436 80T538 86Q592 86 633 78T712 58Q744 48 776 41T846 34Q896 34 941 41T1008 58L1028 -6Q1004 -13 955 -19T846 -26Q797 -26 755 -18T671 2Q635 13 599 19T522 26Q473 26 422 18T333 1T284 -12Z" />
<glyph unicode="&#xa4;" horiz-adv-x="1300" d="M666 338Q605 338 541 357T421 421T332 544T298 740Q298 859 332 936T421 1058T540 1121T666 1140Q726 1140 790 1122T909 1059T998 937T1032 740Q1032 622 998 544T909 421T790 357T666 338ZM264 288L216 340L368
488L418 440L264 288ZM1072 288L918 440L968 488L1120 340L1072 288ZM666 408Q704 408 754 418T853 461T932 561T964 740Q964 852 933 918T853 1016T755 1059T666 1070Q627 1070 576 1060T477 1017T398 918T366 740Q366 628 397 561T477 462T576 419T666 408ZM368
996L216 1144L264 1196L418 1044L368 996ZM968 996L918 1044L1072 1196L1120 1144L968 996Z" />
<glyph unicode="&#xa5;" horiz-adv-x="1300" d="M312 564V628H970V564H312ZM312 304V368H970V304H312ZM608 0V574L186 1400H260L641 644L1020 1400H1094L674 574V0H608Z" />
<glyph unicode="&#xa6;" horiz-adv-x="1300" d="M562 906V1600H628V906H562ZM562 -360V326H628V-360H562Z" />
<glyph unicode="&#xa7;" horiz-adv-x="1300" d="M572 -218Q463 -218 379 -194T241 -131T168 -44L230 -12Q251 -58 298 -90T415 -139T572 -156Q638 -156 699 -145T809 -107T885 -37T914 74Q914 118 893 154T835 221T756 273T667 312T582 336Q533 347 484 361T389
398T309 452T253 528T232 632Q232 694 263 737T345 808T458 852T582 878L660 824Q654 826 650 826T634 826Q603 826 560 820T471 801T386 766T323 711T298 634Q298 579 326 538T398 469T494 422T594 394Q632 386 682 371T785 332T881 273T952 190T980 80Q980 16
960 -32T903 -116T816 -174T704 -207T572 -218ZM678 318L596 356Q633 360 677 370T765 398T845 440T904 499T926 576Q926 619 903 655T842 719T759 769T667 804T582 826Q545 833 503 848T419 889T345 948T292 1028T272 1130Q272 1187 290 1232T342 1311T421 1367T519
1401T632 1412Q734 1412 810 1388T934 1323T1002 1236L936 1208Q915 1257 875 1288T775 1335T632 1350Q578 1350 526 1340T432 1306T365 1239T340 1132Q340 1075 364 1033T426 961T509 913T594 886Q631 878 682 863T787 824T887 766T961 684T990 576Q990 515 963
472T895 400T809 354T728 329T678 318Z" />
<glyph unicode="&#xa8;" horiz-adv-x="1300" d="M391 1315H471V1159H391V1315ZM796 1315H876V1159H796V1315Z" />
<glyph unicode="&#xa9;" horiz-adv-x="1300" d="M634 120Q570 120 500 138T363 198T242 306T156 470T124 698Q124 828 156 924T242 1088T362 1196T499 1255T634 1274Q698 1274 768 1256T904 1196T1024 1088T1110 925T1142 698Q1142 567 1110 470T1025 306T905
198T768 139T634 120ZM658 388Q583 388 517 418T408 515T366 696Q366 810 408 877T516 974T658 1004Q723 1004 767 983T836 934T870 884L818 856Q803 897 756 924T654 952Q585 952 535 920T458 830T430 696Q430 621 457 564T535 474T654 442Q710 442 750 465T810
520L864 490Q850 464 820 441T748 403T658 388ZM634 182Q704 182 769 203T889 265T987 369T1052 513T1076 698Q1076 800 1053 882T987 1026T890 1129T769 1191T634 1212Q564 1212 498 1191T376 1129T278 1026T212 882T188 698Q188 595 211 513T277 369T376 266T498
203T634 182Z" />
<glyph unicode="&#xaa;" horiz-adv-x="1000" d="M441 1078Q346 1078 298 1115T249 1216Q249 1245 262 1269T303 1312T369 1339T461 1349Q514 1349 556 1337T618 1313V1337Q618 1397 570 1420T460 1444Q411 1444 364 1431T297 1407L277 1455Q302 1467 350 1481T468
1495Q518 1495 566 1481T646 1433T678 1344V1137H747V1086H618V1132Q606 1121 582 1108T522 1087T441 1078ZM442 1127Q508 1127 553 1147T618 1189V1260Q596 1275 554 1289T463 1303Q390 1303 348 1281T306 1216Q306 1170 342 1149T442 1127Z" />
<glyph unicode="&#xab;" horiz-adv-x="1300" d="M608 174L174 552L212 630L654 210L608 174ZM174 552V622H218V552H174ZM212 546L174 622L608 1000L654 964L212 546ZM1088 174L654 552L692 630L1134 210L1088 174ZM654 552V622H698V552H654ZM692 546L654 622L1088
1000L1134 964L692 546Z" />
<glyph unicode="&#xac;" horiz-adv-x="1300" d="M858 354V640H923V354H858ZM371 576V640H927V576H371Z" />
<glyph unicode="&#xad;" horiz-adv-x="1300" d="M435 576V640H831V576H435Z" />
<glyph unicode="&#xae;" horiz-adv-x="1300" d="M634 422Q548 422 463 448T307 531T195 682T152 911Q152 1045 194 1138T307 1289T462 1372T634 1398Q720 1398 805 1372T960 1289T1072 1139T1114 911Q1114 777 1072 684T960 533T805 449T634 422ZM772 647L639
884L692 893L830 647H772ZM634 478Q713 478 787 502T922 577T1017 711T1052 911Q1052 1027 1017 1109T922 1242T788 1318T634 1342Q555 1342 480 1318T345 1243T250 1109T214 911Q214 794 249 712T345 578T480 502T634 478ZM491 647V1176H654Q679 1176 714 1167T776
1125T804 1025Q804 957 771 926T701 885T647 876H543V647H491ZM543 925H639Q686 925 717 948T748 1027Q748 1083 717 1104T639 1125H543V925Z" />
<glyph unicode="&#xaf;" horiz-adv-x="1300" d="M300 1326V1392H898V1326H300Z" />
<glyph unicode="&#xb0;" horiz-adv-x="1000" d="M526 1078Q467 1078 420 1106T344 1181T316 1288Q316 1346 344 1393T419 1468T526 1496Q584 1496 631 1468T706 1393T734 1288Q734 1229 706 1182T631 1106T526 1078ZM526 1140Q588 1140 630 1182T672 1288Q672
1350 630 1392T526 1434Q463 1434 421 1392T378 1288Q378 1225 420 1183T526 1140Z" />
<glyph unicode="&#xb1;" horiz-adv-x="1300" d="M198 720V772H1012V720H198ZM198 224V276H1012V224H198ZM572 438V1052H640V438H572Z" />
<glyph unicode="&#xb2;" horiz-adv-x="780" d="M116 560V612Q135 626 173 657T259 733T355 830T445 941T512 1057T538 1170Q538 1239 514 1279T451 1336T364 1353Q297 1353 246 1316T178 1210L122 1240Q140 1296 176 1333T262 1388T366 1407Q431 1407 484 1384T569
1308T601 1170Q601 1102 565 1028T474 883T362 755T260 658T203 612H605V560H116Z" />
<glyph unicode="&#xb3;" horiz-adv-x="781" d="M383 547Q315 547 262 567T173 623T121 702L180 735Q191 698 218 668T287 619T384 601Q439 601 486 625T561 699T590 822Q590 896 564 940T497 1003T411 1023Q387 1023 358 1016T303 998L260 1038L553 1347H163V1400H630V1347L348
1053Q357 1059 371 1063T403 1069T437 1072Q487 1072 536 1046T619 966T652 823Q652 755 631 703T573 617T487 565T383 547Z" />
<glyph unicode="&#xb4;" horiz-adv-x="1300" d="M475 1138H393L663 1400H767L475 1138Z" />
<glyph unicode="&#xb5;" horiz-adv-x="1300" d="M250 -400V1000H318V-400H250ZM580 -24Q501 -24 440 0T336 77T273 214T251 416V1000H317V426Q317 289 346 205T435 81T588 42Q652 42 711 68T818 143T895 255T927 396H974Q974 313 948 238T871 103T747 10T580 -24ZM920
0V181V1000H986V34L956 64H1110V0H920Z" />
<glyph unicode="&#xb6;" horiz-adv-x="1300" d="M634 -240V680H568Q513 680 448 701T325 766T229 880T192 1048Q192 1139 230 1205T329 1315T464 1379T608 1400H998V-240H932V1336H700V-240H634Z" />
<glyph unicode="&#xb7;" horiz-adv-x="1000" d="M421 674H521V518H421V674Z" />
<glyph unicode="&#xb8;" horiz-adv-x="1300" d="M610 -396Q582 -396 560 -394T519 -388T483 -379T448 -368L470 -303Q489 -311 509 -318T555 -329T614 -333Q665 -333 705 -317T768 -273T791 -208Q791 -162 763 -150T701 -138Q673 -138 646 -147T596 -170T560 -194L508
-178L557 0H621L578 -156L563 -138Q575 -124 599 -111T656 -88T721 -79Q754 -79 786 -89T839 -125T860 -202Q860 -263 827 -306T738 -373T610 -396Z" />
<glyph unicode="&#xb9;" horiz-adv-x="780" d="M166 560V613H369V1339L168 1289V1348L378 1400H430V613H633V560H166Z" />
<glyph unicode="&#xba;" horiz-adv-x="1000" d="M746 1078Q687 1078 640 1106T564 1181T536 1288Q536 1346 564 1393T639 1468T746 1496Q804 1496 851 1468T926 1393T954 1288Q954 1229 926 1182T851 1106T746 1078ZM746 1140Q808 1140 850 1182T892 1288Q892
1350 850 1392T746 1434Q683 1434 641 1392T598 1288Q598 1225 640 1183T746 1140Z" />
<glyph unicode="&#xbb;" horiz-adv-x="1300" d="M700 174L654 210L1096 630L1134 552L700 174ZM1134 552H1090V622H1134V552ZM1096 546L654 964L700 1000L1134 622L1096 546ZM220 174L174 210L616 630L654 552L220 174ZM654 552H610V622H654V552ZM616 546L174
964L220 1000L654 622L616 546Z" />
<glyph unicode="&#xbc;" horiz-adv-x="1819" d="M166 560V613H369V1339L168 1289V1348L378 1400H430V613H633V560H166ZM586 0L1173 1400H1234L649 0H586ZM1491 0V205H1145V258L1454 840H1551V258H1690V205H1551V0H1491ZM1207 258H1491V790H1489L1207 258Z" />
<glyph unicode="&#xbd;" horiz-adv-x="1820" d="M166 560V613H369V1339L168 1289V1348L378 1400H430V613H633V560H166ZM586 0L1173 1400H1234L649 0H586ZM1156 0V52Q1175 66 1213 97T1299 173T1395 270T1485 381T1552 497T1578 610Q1578 679 1554 719T1491 776T1404
793Q1337 793 1286 756T1218 650L1162 680Q1180 736 1216 773T1302 828T1406 847Q1471 847 1524 824T1609 748T1641 610Q1641 542 1605 468T1514 323T1402 195T1300 98T1243 52H1645V0H1156Z" />
<glyph unicode="&#xbe;" horiz-adv-x="1820" d="M383 547Q315 547 262 567T173 623T121 702L180 735Q191 698 218 668T287 619T384 601Q439 601 486 625T561 699T590 822Q590 896 564 940T497 1003T411 1023Q387 1023 358 1016T303 998L260 1038L553 1347H163V1400H630V1347L348
1053Q357 1059 371 1063T403 1069T437 1072Q487 1072 536 1046T619 966T652 823Q652 755 631 703T573 617T487 565T383 547ZM587 0L1174 1400H1235L650 0H587ZM1492 0V205H1146V258L1455 840H1552V258H1691V205H1552V0H1492ZM1208 258H1492V790H1490L1208 258Z"
/>
<glyph unicode="&#xbf;" horiz-adv-x="1300" d="M672 660V592Q672 519 653 459T603 349T533 256T457 174Q417 132 382 91T324 6T302 -90Q302 -166 331 -216T407 -296T508 -337T612 -350Q671 -350 726 -335T828 -291T909 -224T962 -138L1028 -174Q1004 -239 942
-293T793 -379T612 -412Q540 -412 472 -396T350 -342T264 -243T232 -90Q232 -30 255 19T317 113T398 200Q450 252 498 308T577 433T608 594V660H672ZM690 844H590V1000H690V844Z" />
<glyph unicode="&#xc0;" horiz-adv-x="1300" d="M1140 0H1064L944 408H360L240 0H164L581 1400H723L1140 0ZM636 1336L377 472H927L668 1336H636ZM611 1538L319 1800H423L693 1538H611Z" />
<glyph unicode="&#xc1;" horiz-adv-x="1300" d="M1140 0H1064L944 408H360L240 0H164L581 1400H723L1140 0ZM636 1336L377 472H927L668 1336H636ZM685 1538H603L873 1800H977L685 1538Z" />
<glyph unicode="&#xc2;" horiz-adv-x="1300" d="M1140 0H1064L944 408H360L240 0H164L581 1400H723L1140 0ZM636 1336L377 472H927L668 1336H636ZM359 1535L619 1777H685L945 1535H847L653 1727L457 1535H359Z" />
<glyph unicode="&#xc3;" horiz-adv-x="1300" d="M1140 0H1064L944 408H360L240 0H164L581 1400H723L1140 0ZM636 1336L377 472H927L668 1336H636ZM765 1547Q719 1547 690 1565T637 1603Q615 1621 593 1635T540 1649Q486 1649 457 1617T416 1565L358 1613Q364 1624
388 1649T451 1697T543 1719Q588 1719 617 1701T669 1663Q691 1644 713 1630T766 1615Q820 1615 850 1648T890 1701L945 1653Q940 1643 919 1618T860 1570T765 1547Z" />
<glyph unicode="&#xc4;" horiz-adv-x="1300" d="M1140 0H1064L944 408H360L240 0H164L581 1400H723L1140 0ZM636 1336L377 472H927L668 1336H636ZM408 1715H488V1559H408V1715ZM813 1715H893V1559H813V1715Z" />
<glyph unicode="&#xc5;" horiz-adv-x="1300" d="M1140 0H1064L944 408H360L240 0H164L581 1400H723L1140 0ZM636 1336L377 472H927L668 1336H636ZM654 1506Q613 1506 579 1525T525 1578T504 1654Q504 1694 524 1727T579 1780T654 1800Q693 1800 726 1780T780 1727T800
1654Q800 1612 780 1579T727 1526T654 1506ZM654 1562Q692 1562 719 1587T746 1656Q746 1694 719 1718T654 1742Q615 1742 588 1718T560 1656Q560 1613 587 1588T654 1562Z" />
<glyph unicode="&#xc6;" horiz-adv-x="1700" d="M828 0V1336H694L728 1400H1456V1336H894V720H1388V656H894V64H1456V0H828ZM360 388L394 452H856L848 388H360ZM176 0L684 1400H754L246 0H176Z" />
<glyph unicode="&#xc7;" horiz-adv-x="1300" d="M739 -396Q711 -396 689 -394T648 -388T612 -379T577 -368L599 -303Q618 -311 638 -318T684 -329T743 -333Q794 -333 834 -317T897 -273T920 -208Q920 -162 892 -150T830 -138Q802 -138 775 -147T725 -170T689 -194L637
-178L686 0H750L707 -156L692 -138Q704 -124 728 -111T785 -88T850 -79Q883 -79 915 -89T968 -125T989 -202Q989 -263 956 -306T867 -373T739 -396ZM708 -22Q622 -22 542 5T392 89T270 231T189 433T160 696Q160 843 190 958T273 1159T396 1301T548 1384T716 1412Q793
1412 857 1389T971 1328T1059 1241T1120 1140L1056 1108Q1036 1154 1006 1196T933 1273T837 1326T715 1346Q628 1346 543 1309T387 1192T274 990T232 696Q232 525 273 402T384 199T538 82T707 44Q776 44 831 64T929 118T1003 192T1056 272L1120 238Q1097 192 1060
146T971 62T854 1T708 -22Z" />
<glyph unicode="&#xc8;" horiz-adv-x="1300" d="M278 0V1400H1076V1336H344V720H988V656H344V64H1076V0H278ZM659 1538L367 1800H471L741 1538H659Z" />
<glyph unicode="&#xc9;" horiz-adv-x="1300" d="M278 0V1400H1076V1336H344V720H988V656H344V64H1076V0H278ZM733 1538H651L921 1800H1025L733 1538Z" />
<glyph unicode="&#xca;" horiz-adv-x="1300" d="M278 0V1400H1076V1336H344V720H988V656H344V64H1076V0H278ZM407 1535L667 1777H733L993 1535H895L701 1727L505 1535H407Z" />
<glyph unicode="&#xcb;" horiz-adv-x="1300" d="M278 0V1400H1076V1336H344V720H988V656H344V64H1076V0H278ZM456 1715H536V1559H456V1715ZM861 1715H941V1559H861V1715Z" />
<glyph unicode="&#xcc;" horiz-adv-x="1300" d="M318 0V64H616V1336H318V1400H982V1336H682V64H982V0H318ZM611 1538L319 1800H423L693 1538H611Z" />
<glyph unicode="&#xcd;" horiz-adv-x="1300" d="M318 0V64H616V1336H318V1400H982V1336H682V64H982V0H318ZM685 1538H603L873 1800H977L685 1538Z" />
<glyph unicode="&#xce;" horiz-adv-x="1300" d="M318 0V64H616V1336H318V1400H982V1336H682V64H982V0H318ZM359 1535L619 1777H685L945 1535H847L653 1727L457 1535H359Z" />
<glyph unicode="&#xcf;" horiz-adv-x="1300" d="M318 0V64H616V1336H318V1400H982V1336H682V64H982V0H318ZM408 1715H488V1559H408V1715ZM813 1715H893V1559H813V1715Z" />
<glyph unicode="&#xd0;" horiz-adv-x="1300" d="M266 0V668H74V732H266V1400H550Q618 1400 685 1387T816 1343T933 1260T1028 1131T1091 947T1114 700Q1114 560 1092 454T1028 270T933 140T816 57T686 13T550 0H266ZM332 64H546Q638 64 726 92T887 190T1003 384T1046
700Q1046 892 1003 1016T888 1210T727 1308T546 1336H332V732H674V668H332V64Z" />
<glyph unicode="&#xd1;" horiz-adv-x="1300" d="M212 0V1400H308L1010 77H1006V1400H1072V0H976L274 1319H278V0H212ZM753 1547Q707 1547 678 1565T625 1603Q603 1621 581 1635T528 1649Q474 1649 445 1617T404 1565L346 1613Q352 1624 376 1649T439 1697T531
1719Q576 1719 605 1701T657 1663Q679 1644 701 1630T754 1615Q808 1615 838 1648T878 1701L933 1653Q928 1643 907 1618T848 1570T753 1547Z" />
<glyph unicode="&#xd2;" horiz-adv-x="1300" d="M650 -22Q568 -22 490 4T345 85T228 225T149 427T120 696Q120 847 148 964T227 1166T345 1305T490 1386T650 1412Q732 1412 809 1386T953 1306T1070 1166T1149 964T1178 696Q1178 544 1150 427T1071 225T953 85T809
4T650 -22ZM650 44Q734 44 815 81T963 198T1068 400T1108 696Q1108 867 1069 990T963 1192T816 1308T650 1346Q565 1346 484 1309T336 1192T230 990T190 696Q190 524 229 401T335 198T483 82T650 44ZM609 1538L317 1800H421L691 1538H609Z" />
<glyph unicode="&#xd3;" horiz-adv-x="1300" d="M650 -22Q568 -22 490 4T345 85T228 225T149 427T120 696Q120 847 148 964T227 1166T345 1305T490 1386T650 1412Q732 1412 809 1386T953 1306T1070 1166T1149 964T1178 696Q1178 544 1150 427T1071 225T953 85T809
4T650 -22ZM650 44Q734 44 815 81T963 198T1068 400T1108 696Q1108 867 1069 990T963 1192T816 1308T650 1346Q565 1346 484 1309T336 1192T230 990T190 696Q190 524 229 401T335 198T483 82T650 44ZM683 1538H601L871 1800H975L683 1538Z" />
<glyph unicode="&#xd4;" horiz-adv-x="1300" d="M650 -22Q568 -22 490 4T345 85T228 225T149 427T120 696Q120 847 148 964T227 1166T345 1305T490 1386T650 1412Q732 1412 809 1386T953 1306T1070 1166T1149 964T1178 696Q1178 544 1150 427T1071 225T953 85T809
4T650 -22ZM650 44Q734 44 815 81T963 198T1068 400T1108 696Q1108 867 1069 990T963 1192T816 1308T650 1346Q565 1346 484 1309T336 1192T230 990T190 696Q190 524 229 401T335 198T483 82T650 44ZM357 1535L617 1777H683L943 1535H845L651 1727L455 1535H357Z"
/>
<glyph unicode="&#xd5;" horiz-adv-x="1300" d="M650 -22Q568 -22 490 4T345 85T228 225T149 427T120 696Q120 847 148 964T227 1166T345 1305T490 1386T650 1412Q732 1412 809 1386T953 1306T1070 1166T1149 964T1178 696Q1178 544 1150 427T1071 225T953 85T809
4T650 -22ZM650 44Q734 44 815 81T963 198T1068 400T1108 696Q1108 867 1069 990T963 1192T816 1308T650 1346Q565 1346 484 1309T336 1192T230 990T190 696Q190 524 229 401T335 198T483 82T650 44ZM763 1547Q717 1547 688 1565T635 1603Q613 1621 591 1635T538
1649Q484 1649 455 1617T414 1565L356 1613Q362 1624 386 1649T449 1697T541 1719Q586 1719 615 1701T667 1663Q689 1644 711 1630T764 1615Q818 1615 848 1648T888 1701L943 1653Q938 1643 917 1618T858 1570T763 1547Z" />
<glyph unicode="&#xd6;" horiz-adv-x="1300" d="M650 -22Q568 -22 490 4T345 85T228 225T149 427T120 696Q120 847 148 964T227 1166T345 1305T490 1386T650 1412Q732 1412 809 1386T953 1306T1070 1166T1149 964T1178 696Q1178 544 1150 427T1071 225T953 85T809
4T650 -22ZM650 44Q734 44 815 81T963 198T1068 400T1108 696Q1108 867 1069 990T963 1192T816 1308T650 1346Q565 1346 484 1309T336 1192T230 990T190 696Q190 524 229 401T335 198T483 82T650 44ZM406 1715H486V1559H406V1715ZM811 1715H891V1559H811V1715Z"
/>
<glyph unicode="&#xd7;" horiz-adv-x="1300" d="M842 326L324 844L368 890L888 370L842 326ZM368 326L322 370L840 890L886 844L368 326Z" />
<glyph unicode="&#xd8;" horiz-adv-x="1300" d="M152 14L1088 1414L1148 1375L212 -25L152 14ZM650 -22Q568 -22 490 4T345 85T228 225T149 427T120 696Q120 847 148 964T227 1166T345 1305T490 1386T650 1412Q732 1412 809 1386T953 1306T1070 1166T1149 964T1178
696Q1178 544 1150 427T1071 225T953 85T809 4T650 -22ZM650 44Q734 44 815 81T963 198T1068 400T1108 696Q1108 867 1069 990T963 1192T816 1308T650 1346Q565 1346 484 1309T336 1192T230 990T190 696Q190 524 229 401T335 198T483 82T650 44Z" />
<glyph unicode="&#xd9;" horiz-adv-x="1300" d="M652 -22Q558 -22 476 12T333 117T237 301T202 568V1400H268V572Q268 397 315 280T449 103T652 44Q770 44 855 103T987 279T1034 572V1400H1100V568Q1100 413 1066 301T971 118T829 12T652 -22ZM609 1538L317 1800H421L691
1538H609Z" />
<glyph unicode="&#xda;" horiz-adv-x="1300" d="M652 -22Q558 -22 476 12T333 117T237 301T202 568V1400H268V572Q268 397 315 280T449 103T652 44Q770 44 855 103T987 279T1034 572V1400H1100V568Q1100 413 1066 301T971 118T829 12T652 -22ZM683 1538H601L871
1800H975L683 1538Z" />
<glyph unicode="&#xdb;" horiz-adv-x="1300" d="M652 -22Q558 -22 476 12T333 117T237 301T202 568V1400H268V572Q268 397 315 280T449 103T652 44Q770 44 855 103T987 279T1034 572V1400H1100V568Q1100 413 1066 301T971 118T829 12T652 -22ZM357 1535L617 1777H683L943
1535H845L651 1727L455 1535H357Z" />
<glyph unicode="&#xdc;" horiz-adv-x="1300" d="M652 -22Q558 -22 476 12T333 117T237 301T202 568V1400H268V572Q268 397 315 280T449 103T652 44Q770 44 855 103T987 279T1034 572V1400H1100V568Q1100 413 1066 301T971 118T829 12T652 -22ZM406 1715H486V1559H406V1715ZM811
1715H891V1559H811V1715Z" />
<glyph unicode="&#xdd;" horiz-adv-x="1300" d="M608 0V574L186 1400H260L641 644L1020 1400H1094L674 574V0H608ZM673 1538H591L861 1800H965L673 1538Z" />
<glyph unicode="&#xde;" horiz-adv-x="1300" d="M302 0V1400H368V1176H574Q621 1176 682 1167T806 1132T922 1055T1007 921T1040 714Q1040 590 1008 508T922 375T806 299T682 265T574 256H368V0H302ZM368 320H570Q609 320 661 326T767 352T868 416T943 531T972
714Q972 824 944 897T869 1013T768 1078T661 1105T570 1112H368V320Z" />
<glyph unicode="&#xdf;" horiz-adv-x="1300" d="M666 -22Q602 -22 554 -15T472 4T412 24L434 90Q454 80 513 61T666 42Q726 42 789 55T906 102T993 199T1026 364Q1026 447 995 501T917 590T824 653Q793 672 767 691T724 732T708 782Q708 814 721 838T757 882T803
923Q833 948 861 976T909 1042T928 1134Q928 1205 904 1256T839 1340T745 1390T634 1406Q571 1406 510 1386T398 1322T317 1207T286 1034V0H220V1056Q220 1160 254 1238T346 1368T478 1446T634 1472Q742 1472 824 1433T952 1318T998 1134Q998 1071 975 1023T918
939T851 874Q821 849 801 828T780 785Q780 767 803 749T861 710Q896 689 937 661T1014 593T1074 497T1098 364Q1098 260 1065 187T973 67T836 0T666 -22Z" />
<glyph unicode="&#xe0;" horiz-adv-x="1300" d="M598 -22Q510 -22 438 -1T316 62T238 162T210 298Q210 361 232 411T294 498T385 559T493 596T610 608Q691 608 759 590T877 544T948 490V696Q948 774 919 825T843 906T737 948T620 960Q568 960 519 948T426 916T349
874T296 830L254 887Q287 919 341 950T468 1003T630 1024Q683 1024 737 1014T841 980T930 920T991 831T1014 709V64H1182V0H948V133Q927 100 880 64T762 3T598 -22ZM600 42Q703 42 772 73T884 148T948 224V408Q923 441 869 472T748 523T612 544Q529 544 453 518T327
438T278 298Q278 213 317 156T428 71T600 42ZM857 1138L565 1400H669L939 1138H857Z" />
<glyph unicode="&#xe1;" horiz-adv-x="1300" d="M598 -22Q510 -22 438 -1T316 62T238 162T210 298Q210 361 232 411T294 498T385 559T493 596T610 608Q691 608 759 590T877 544T948 490V696Q948 774 919 825T843 906T737 948T620 960Q568 960 519 948T426 916T349
874T296 830L254 887Q287 919 341 950T468 1003T630 1024Q683 1024 737 1014T841 980T930 920T991 831T1014 709V64H1182V0H948V133Q927 100 880 64T762 3T598 -22ZM600 42Q703 42 772 73T884 148T948 224V408Q923 441 869 472T748 523T612 544Q529 544 453 518T327
438T278 298Q278 213 317 156T428 71T600 42ZM675 1138H593L863 1400H967L675 1138Z" />
<glyph unicode="&#xe2;" horiz-adv-x="1300" d="M598 -22Q510 -22 438 -1T316 62T238 162T210 298Q210 361 232 411T294 498T385 559T493 596T610 608Q691 608 759 590T877 544T948 490V696Q948 774 919 825T843 906T737 948T620 960Q568 960 519 948T426 916T349
874T296 830L254 887Q287 919 341 950T468 1003T630 1024Q683 1024 737 1014T841 980T930 920T991 831T1014 709V64H1182V0H948V133Q927 100 880 64T762 3T598 -22ZM600 42Q703 42 772 73T884 148T948 224V408Q923 441 869 472T748 523T612 544Q529 544 453 518T327
438T278 298Q278 213 317 156T428 71T600 42ZM605 1135L865 1377H931L1191 1135H1093L899 1327L703 1135H605Z" />
<glyph unicode="&#xe3;" horiz-adv-x="1300" d="M598 -22Q510 -22 438 -1T316 62T238 162T210 298Q210 361 232 411T294 498T385 559T493 596T610 608Q691 608 759 590T877 544T948 490V696Q948 774 919 825T843 906T737 948T620 960Q568 960 519 948T426 916T349
874T296 830L254 887Q287 919 341 950T468 1003T630 1024Q683 1024 737 1014T841 980T930 920T991 831T1014 709V64H1182V0H948V133Q927 100 880 64T762 3T598 -22ZM600 42Q703 42 772 73T884 148T948 224V408Q923 441 869 472T748 523T612 544Q529 544 453 518T327
438T278 298Q278 213 317 156T428 71T600 42ZM755 1147Q709 1147 680 1165T627 1203Q605 1221 583 1235T530 1249Q476 1249 447 1217T406 1165L348 1213Q354 1224 378 1249T441 1297T533 1319Q578 1319 607 1301T659 1263Q681 1244 703 1230T756 1215Q810 1215
840 1248T880 1301L935 1253Q930 1243 909 1218T850 1170T755 1147Z" />
<glyph unicode="&#xe4;" horiz-adv-x="1300" d="M598 -22Q510 -22 438 -1T316 62T238 162T210 298Q210 361 232 411T294 498T385 559T493 596T610 608Q691 608 759 590T877 544T948 490V696Q948 774 919 825T843 906T737 948T620 960Q568 960 519 948T426 916T349
874T296 830L254 887Q287 919 341 950T468 1003T630 1024Q683 1024 737 1014T841 980T930 920T991 831T1014 709V64H1182V0H948V133Q927 100 880 64T762 3T598 -22ZM600 42Q703 42 772 73T884 148T948 224V408Q923 441 869 472T748 523T612 544Q529 544 453 518T327
438T278 298Q278 213 317 156T428 71T600 42ZM398 1315H478V1159H398V1315ZM803 1315H883V1159H803V1315Z" />
<glyph unicode="&#xe5;" horiz-adv-x="1300" d="M598 -22Q510 -22 438 -1T316 62T238 162T210 298Q210 361 232 411T294 498T385 559T493 596T610 608Q691 608 759 590T877 544T948 490V696Q948 774 919 825T843 906T737 948T620 960Q568 960 519 948T426 916T349
874T296 830L254 887Q287 919 341 950T468 1003T630 1024Q683 1024 737 1014T841 980T930 920T991 831T1014 709V64H1182V0H948V133Q927 100 880 64T762 3T598 -22ZM600 42Q703 42 772 73T884 148T948 224V408Q923 441 869 472T748 523T612 544Q529 544 453 518T327
438T278 298Q278 213 317 156T428 71T600 42ZM644 1106Q603 1106 569 1125T515 1178T494 1254Q494 1294 514 1327T569 1380T644 1400Q683 1400 716 1380T770 1327T790 1254Q790 1212 770 1179T717 1126T644 1106ZM644 1162Q682 1162 709 1187T736 1256Q736 1294
709 1318T644 1342Q605 1342 578 1318T550 1256Q550 1213 577 1188T644 1162Z" />
<glyph unicode="&#xe6;" horiz-adv-x="1700" d="M430 -22Q336 -22 266 4T148 77T76 186T52 318Q52 375 71 424T127 512T217 580T340 623T492 638Q558 638 613 627T711 599T780 568V746Q780 805 754 846T684 912T584 948T470 960Q405 960 340 943T223 902T146 860L106
920Q139 940 193 964T321 1006T484 1024Q569 1024 648 999T782 922T845 788Q886 869 947 921T1081 999T1229 1024Q1320 1024 1395 993T1526 902T1611 760T1641 573Q1641 560 1641 541T1638 508H855Q855 368 902 264T1033 102T1225 44Q1328 44 1392 74T1490 149T1539
232L1608 194Q1595 163 1567 126T1492 55T1380 0T1225 -22Q1143 -22 1066 7T926 98T826 253Q801 176 748 114T614 15T430 -22ZM442 42Q554 42 629 94T742 228T780 400V502Q758 515 726 527T655 550T575 567T494 574Q374 574 291 544T164 457T120 318Q120 236 154
174T260 77T442 42ZM858 572H1564V597Q1564 681 1540 748T1472 862T1366 933T1227 958Q1140 958 1060 916T926 789T858 572Z" />
<glyph unicode="&#xe7;" horiz-adv-x="1300" d="M705 -22Q647 -22 584 -3T462 55T356 157T280 304T252 502Q252 615 280 701T355 848T462 948T584 1005T705 1024Q782 1024 843 1003T950 946T1025 872T1066 796L1001 764Q986 809 948 854T848 928T705 958Q643 958
577 932T453 850T360 708T324 502Q324 384 359 298T452 156T576 72T705 44Q788 44 849 75T948 151T999 238L1066 204Q1056 173 1028 134T953 60T844 1T705 -22ZM711 -396Q683 -396 661 -394T620 -388T584 -379T549 -368L571 -303Q590 -311 610 -318T656 -329T715
-333Q766 -333 806 -317T869 -273T892 -208Q892 -162 864 -150T802 -138Q774 -138 747 -147T697 -170T661 -194L609 -178L658 0H722L679 -156L664 -138Q676 -124 700 -111T757 -88T822 -79Q855 -79 887 -89T940 -125T961 -202Q961 -263 928 -306T839 -373T711 -396Z"
/>
<glyph unicode="&#xe8;" horiz-adv-x="1300" d="M651 -22Q574 -22 493 6T343 97T232 259T189 502Q189 645 233 745T347 906T498 996T655 1024Q738 1024 817 995T959 910T1059 769T1096 573Q1096 560 1096 541T1093 508H238V572H1019Q1019 581 1019 584T1019 597Q1019
717 966 797T829 918T653 958Q589 958 521 933T393 854T298 713T261 502Q261 347 320 246T470 94T651 44Q744 44 815 72T932 143T994 232L1063 194Q1048 158 1013 120T924 50T802 -2T651 -22ZM875 1138L583 1400H687L957 1138H875Z" />
<glyph unicode="&#xe9;" horiz-adv-x="1300" d="M651 -22Q574 -22 493 6T343 97T232 259T189 502Q189 645 233 745T347 906T498 996T655 1024Q738 1024 817 995T959 910T1059 769T1096 573Q1096 560 1096 541T1093 508H238V572H1019Q1019 581 1019 584T1019 597Q1019
717 966 797T829 918T653 958Q589 958 521 933T393 854T298 713T261 502Q261 347 320 246T470 94T651 44Q744 44 815 72T932 143T994 232L1063 194Q1048 158 1013 120T924 50T802 -2T651 -22ZM693 1138H611L881 1400H985L693 1138Z" />
<glyph unicode="&#xea;" horiz-adv-x="1300" d="M651 -22Q574 -22 493 6T343 97T232 259T189 502Q189 645 233 745T347 906T498 996T655 1024Q738 1024 817 995T959 910T1059 769T1096 573Q1096 560 1096 541T1093 508H238V572H1019Q1019 581 1019 584T1019 597Q1019
717 966 797T829 918T653 958Q589 958 521 933T393 854T298 713T261 502Q261 347 320 246T470 94T651 44Q744 44 815 72T932 143T994 232L1063 194Q1048 158 1013 120T924 50T802 -2T651 -22ZM367 1135L627 1377H693L953 1135H855L661 1327L465 1135H367Z" />
<glyph unicode="&#xeb;" horiz-adv-x="1300" d="M651 -22Q574 -22 493 6T343 97T232 259T189 502Q189 645 233 745T347 906T498 996T655 1024Q738 1024 817 995T959 910T1059 769T1096 573Q1096 560 1096 541T1093 508H238V572H1019Q1019 581 1019 584T1019 597Q1019
717 966 797T829 918T653 958Q589 958 521 933T393 854T298 713T261 502Q261 347 320 246T470 94T651 44Q744 44 815 72T932 143T994 232L1063 194Q1048 158 1013 120T924 50T802 -2T651 -22ZM416 1315H496V1159H416V1315ZM821 1315H901V1159H821V1315Z" />
<glyph unicode="&#xec;" horiz-adv-x="1000" d="M170 0V64H538V936H170V1000H604V64H942V0H170ZM531 1138L239 1400H343L613 1138H531Z" />
<glyph unicode="&#xed;" horiz-adv-x="1000" d="M170 0V64H538V936H170V1000H604V64H942V0H170ZM605 1138H523L793 1400H897L605 1138Z" />
<glyph unicode="&#xee;" horiz-adv-x="1000" d="M170 0V64H538V936H170V1000H604V64H942V0H170ZM535 1135L795 1377H861L1121 1135H1023L829 1327L633 1135H535Z" />
<glyph unicode="&#xef;" horiz-adv-x="1000" d="M170 0V64H538V936H170V1000H604V64H942V0H170ZM584 1315H664V1159H584V1315ZM989 1315H1069V1159H989V1315Z" />
<glyph unicode="&#xf0;" horiz-adv-x="1300" d="M634 -22Q537 -22 459 17T325 126T240 293T210 502Q210 617 236 712T315 878T446 986T630 1024Q733 1024 808 989T934 895T1008 767T1033 628L976 565Q976 652 953 724T886 848T776 929T624 958Q543 958 479 926T369
834T300 690T276 502Q276 399 301 315T374 171T487 77T634 44Q711 44 773 73T881 171T950 358T974 656Q974 811 938 940T839 1172T699 1349T538 1467T378 1524L414 1590Q515 1569 608 1512T781 1368T920 1170T1011 929T1044 656Q1044 466 1013 336T927 127T797
13T634 -22ZM524 1328L470 1384L760 1568L804 1502L524 1328Z" />
<glyph unicode="&#xf1;" horiz-adv-x="1300" d="M284 0V1000H350V804V0H284ZM958 0V574Q958 711 929 795T840 919T687 958Q623 958 564 932T457 857T380 745T348 604H301Q301 687 327 762T404 897T528 990T695 1024Q775 1024 836 1000T939 923T1002 787T1024 584V0H958ZM785
1147Q739 1147 710 1165T657 1203Q635 1221 613 1235T560 1249Q506 1249 477 1217T436 1165L378 1213Q384 1224 408 1249T471 1297T563 1319Q608 1319 637 1301T689 1263Q711 1244 733 1230T786 1215Q840 1215 870 1248T910 1301L965 1253Q960 1243 939 1218T880
1170T785 1147Z" />
<glyph unicode="&#xf2;" horiz-adv-x="1300" d="M656 -22Q595 -22 532 -5T409 51T302 150T228 299T200 502Q200 617 227 704T302 852T408 951T531 1006T656 1024Q717 1024 780 1007T903 951T1010 852T1084 704T1112 502Q1112 386 1085 299T1010 151T904 51T781
-4T656 -22ZM656 44Q714 44 780 65T906 138T1004 279T1042 502Q1042 634 1004 722T907 862T781 936T656 958Q598 958 532 936T406 862T308 722T270 502Q270 368 308 279T405 139T531 66T656 44ZM871 1138L579 1400H683L953 1138H871Z" />
<glyph unicode="&#xf3;" horiz-adv-x="1300" d="M656 -22Q595 -22 532 -5T409 51T302 150T228 299T200 502Q200 617 227 704T302 852T408 951T531 1006T656 1024Q717 1024 780 1007T903 951T1010 852T1084 704T1112 502Q1112 386 1085 299T1010 151T904 51T781
-4T656 -22ZM656 44Q714 44 780 65T906 138T1004 279T1042 502Q1042 634 1004 722T907 862T781 936T656 958Q598 958 532 936T406 862T308 722T270 502Q270 368 308 279T405 139T531 66T656 44ZM689 1138H607L877 1400H981L689 1138Z" />
<glyph unicode="&#xf4;" horiz-adv-x="1300" d="M656 -22Q595 -22 532 -5T409 51T302 150T228 299T200 502Q200 617 227 704T302 852T408 951T531 1006T656 1024Q717 1024 780 1007T903 951T1010 852T1084 704T1112 502Q1112 386 1085 299T1010 151T904 51T781
-4T656 -22ZM656 44Q714 44 780 65T906 138T1004 279T1042 502Q1042 634 1004 722T907 862T781 936T656 958Q598 958 532 936T406 862T308 722T270 502Q270 368 308 279T405 139T531 66T656 44ZM363 1135L623 1377H689L949 1135H851L657 1327L461 1135H363Z" />
<glyph unicode="&#xf5;" horiz-adv-x="1300" d="M656 -22Q595 -22 532 -5T409 51T302 150T228 299T200 502Q200 617 227 704T302 852T408 951T531 1006T656 1024Q717 1024 780 1007T903 951T1010 852T1084 704T1112 502Q1112 386 1085 299T1010 151T904 51T781
-4T656 -22ZM656 44Q714 44 780 65T906 138T1004 279T1042 502Q1042 634 1004 722T907 862T781 936T656 958Q598 958 532 936T406 862T308 722T270 502Q270 368 308 279T405 139T531 66T656 44ZM769 1147Q723 1147 694 1165T641 1203Q619 1221 597 1235T544 1249Q490
1249 461 1217T420 1165L362 1213Q368 1224 392 1249T455 1297T547 1319Q592 1319 621 1301T673 1263Q695 1244 717 1230T770 1215Q824 1215 854 1248T894 1301L949 1253Q944 1243 923 1218T864 1170T769 1147Z" />
<glyph unicode="&#xf6;" horiz-adv-x="1300" d="M656 -22Q595 -22 532 -5T409 51T302 150T228 299T200 502Q200 617 227 704T302 852T408 951T531 1006T656 1024Q717 1024 780 1007T903 951T1010 852T1084 704T1112 502Q1112 386 1085 299T1010 151T904 51T781
-4T656 -22ZM656 44Q714 44 780 65T906 138T1004 279T1042 502Q1042 634 1004 722T907 862T781 936T656 958Q598 958 532 936T406 862T308 722T270 502Q270 368 308 279T405 139T531 66T656 44ZM412 1315H492V1159H412V1315ZM817 1315H897V1159H817V1315Z" />
<glyph unicode="&#xf7;" horiz-adv-x="1300" d="M238 576V640H972V576H238ZM596 260Q565 260 544 282T522 336Q522 366 543 388T596 410Q628 410 649 388T670 336Q670 305 649 283T596 260ZM596 812Q565 812 544 834T522 888Q522 918 543 940T596 962Q628 962
649 940T670 888Q670 857 649 835T596 812Z" />
<glyph unicode="&#xf8;" horiz-adv-x="1300" d="M248 20L1016 1022L1066 986L298 -16L248 20ZM656 -22Q595 -22 532 -5T409 51T302 150T228 299T200 502Q200 617 227 704T302 852T408 951T531 1006T656 1024Q717 1024 780 1007T903 951T1010 852T1084 704T1112
502Q1112 386 1085 299T1010 151T904 51T781 -4T656 -22ZM656 44Q714 44 780 65T906 138T1004 279T1042 502Q1042 634 1004 722T907 862T781 936T656 958Q598 958 532 936T406 862T308 722T270 502Q270 368 308 279T405 139T531 66T656 44Z" />
<glyph unicode="&#xf9;" horiz-adv-x="1300" d="M580 -24Q501 -24 440 0T336 77T273 214T251 416V1000H317V426Q317 289 346 205T435 81T588 42Q652 42 711 68T818 143T895 255T927 396H974Q974 313 948 238T871 103T747 10T580 -24ZM920 0V181V1000H986V34L956
64H1110V0H920ZM834 1138L542 1400H646L916 1138H834Z" />
<glyph unicode="&#xfa;" horiz-adv-x="1300" d="M580 -24Q501 -24 440 0T336 77T273 214T251 416V1000H317V426Q317 289 346 205T435 81T588 42Q652 42 711 68T818 143T895 255T927 396H974Q974 313 948 238T871 103T747 10T580 -24ZM920 0V181V1000H986V34L956
64H1110V0H920ZM652 1138H570L840 1400H944L652 1138Z" />
<glyph unicode="&#xfb;" horiz-adv-x="1300" d="M580 -24Q501 -24 440 0T336 77T273 214T251 416V1000H317V426Q317 289 346 205T435 81T588 42Q652 42 711 68T818 143T895 255T927 396H974Q974 313 948 238T871 103T747 10T580 -24ZM920 0V181V1000H986V34L956
64H1110V0H920ZM582 1135L842 1377H908L1168 1135H1070L876 1327L680 1135H582Z" />
<glyph unicode="&#xfc;" horiz-adv-x="1300" d="M580 -24Q501 -24 440 0T336 77T273 214T251 416V1000H317V426Q317 289 346 205T435 81T588 42Q652 42 711 68T818 143T895 255T927 396H974Q974 313 948 238T871 103T747 10T580 -24ZM920 0V181V1000H986V34L956
64H1110V0H920ZM631 1315H711V1159H631V1315ZM1036 1315H1116V1159H1036V1315Z" />
<glyph unicode="&#xfd;" horiz-adv-x="1300" d="M456 -400L626 26V-11H618L216 1000H290L663 61H641L1006 1000H1078L528 -400H456ZM663 1138H581L851 1400H955L663 1138Z" />
<glyph unicode="&#xfe;" horiz-adv-x="1300" d="M254 -400V1500H320V-400H254ZM658 -22Q567 -22 496 14T374 111T298 247T272 398L316 410Q324 344 349 279T416 161T515 76T646 44Q735 44 816 91T950 239T1002 502Q1002 667 952 766T823 911T654 956Q581 956 523
927T422 848T353 737T316 614L272 624Q272 697 300 767T380 895T505 987T668 1022Q764 1022 856 969T1008 800T1068 502Q1068 365 1032 266T935 103T803 9T658 -22Z" />
<glyph unicode="&#xff;" horiz-adv-x="1300" d="M456 -400L626 26V-11H618L216 1000H290L663 61H641L1006 1000H1078L528 -400H456ZM642 1315H722V1159H642V1315ZM1047 1315H1127V1159H1047V1315Z" />
<glyph unicode="&#x2013;" horiz-adv-x="1300" d="M230 576V640H950V576H230Z" />
<glyph unicode="&#x2014;" horiz-adv-x="1300" d="M72 576V640H1124V576H72Z" />
<glyph unicode="&#x2018;" horiz-adv-x="1000" d="M561 1410L596 1355Q580 1350 559 1336T523 1294T508 1222L444 1227Q444 1281 463 1318T510 1379T561 1410ZM564 1227V1071H444V1227H564Z" />
<glyph unicode="&#x2019;" horiz-adv-x="1000" d="M429 1061L394 1116Q411 1122 431 1136T467 1177T482 1249L546 1244Q546 1190 527 1153T480 1093T429 1061ZM426 1244V1400H546V1244H426Z" />
<glyph unicode="&#x201a;" horiz-adv-x="1000" d="M444 -183L409 -128Q426 -122 446 -108T482 -67T497 5L561 0Q561 -54 542 -91T496 -151T444 -183ZM441 0V156H561V0H441Z" />
<glyph unicode="&#x201c;" horiz-adv-x="1300" d="M600 1410L635 1355Q619 1350 598 1336T562 1294T547 1222L483 1227Q483 1281 502 1318T549 1379T600 1410ZM603 1227V1071H483V1227H603ZM880 1410L915 1355Q899 1350 878 1336T842 1294T827 1222L763 1227Q763
1281 782 1318T829 1379T880 1410ZM883 1227V1071H763V1227H883Z" />
<glyph unicode="&#x201d;" horiz-adv-x="1300" d="M702 1061L667 1116Q684 1122 704 1136T740 1177T755 1249L819 1244Q819 1190 800 1153T754 1093T702 1061ZM699 1244V1400H819V1244H699ZM422 1061L387 1116Q404 1122 424 1136T460 1177T475 1249L539 1244Q539
1190 520 1153T473 1093T422 1061ZM419 1244V1400H539V1244H419Z" />
<glyph unicode="&#x201e;" horiz-adv-x="1300" d="M528 -183L493 -128Q510 -122 530 -108T566 -67T581 5L645 0Q645 -54 626 -91T580 -151T528 -183ZM525 0V156H645V0H525ZM780 -183L745 -128Q762 -122 782 -108T818 -67T833 5L897 0Q897 -54 878 -91T832 -151T780
-183ZM777 0V156H897V0H777Z" />
<glyph unicode="&#x2022;" horiz-adv-x="1300" d="M592 510Q547 510 511 531T454 589T432 670Q432 715 453 752T511 810T592 832Q637 832 673 811T731 752T752 670Q752 626 731 590T674 532T592 510Z" />
<glyph unicode="&#x2039;" horiz-adv-x="1300" d="M818 174L384 552L422 630L864 210L818 174ZM384 552V622H428V552H384ZM422 546L384 622L818 1000L864 964L422 546Z" />
<glyph unicode="&#x203a;" horiz-adv-x="1300" d="M454 174L408 210L850 630L888 552L454 174ZM888 552H844V622H888V552ZM850 546L408 964L454 1000L888 622L850 546Z" />
</font>
</defs>
</svg>
