<?xml version="1.0" standalone="no"?>
<!DOCTYPE svg PUBLIC "-//W3C//DTD SVG 1.1//EN" "http://www.w3.org/Graphics/SVG/1.1/DTD/svg11.dtd">
<svg xmlns="http://www.w3.org/2000/svg">
<defs >
<font id="Tajawal" horiz-adv-x="514" ><font-face
    font-family="Tajawal"
    units-per-em="1000"
    panose-1="0 0 8 0 0 0 0 0 0 0"
    ascent="643"
    descent="-357"
    alphabetic="0" />
<glyph unicode=" " glyph-name="space" horiz-adv-x="240" />
<glyph unicode="!" glyph-name="exclam" horiz-adv-x="280" d="M74 177V633H200V177H74ZM215 52Q215 51 215 50Q215 18 195 -2T142 -22Q108 -22 88 -2T67 53V55Q69 86 89 105T142 124Q175 124 195 104T215 52Z" />
<glyph unicode="&quot;" glyph-name="quotedbl" horiz-adv-x="356" d="M70 433V596L160 645V482L70 433ZM195 433V596L286 645V482L195 433Z" />
<glyph unicode="#" glyph-name="numbersign" horiz-adv-x="477" d="M329 131L300 0H214L244 131H156L128 0H41Q54 63 70 131H5V232H89L116 351H35V451H139L172 609H258L225 451H310L346 609H431L397 451H472V351H375L348 232H439V131H329ZM202 351L176 232H262L290
351H202Z" />
<glyph unicode="$" glyph-name="dollar" horiz-adv-x="567" d="M298 700V644Q393 641 483 581L427 500Q353 531 298 533V392Q499 315 499 181Q499 86 434 34Q381 -9 298 -11V-74H249V-11Q162 -2 64 59Q74 74 96 103Q113 125 122 138Q132 130 180 118T249 106V284Q155
321 116 364T76 473Q76 543 122 588T249 642V700H298ZM298 107Q360 112 360 175Q360 228 298 260V107ZM249 532Q212 517 212 473Q212 437 249 413V532Z" />
<glyph unicode="%" glyph-name="percent" horiz-adv-x="781" d="M193 0L496 589H594L291 0H193ZM305 429Q305 354 271 309T180 264Q120 264 86 307T52 428Q52 501 86 543T180 585Q235 585 270 542T305 429ZM232 427Q232 466 217 492T178 519Q155 519 140 493T124
427Q124 384 139 357T178 329Q202 329 217 356T232 427ZM729 162Q729 87 695 42T604 -3Q544 -3 510 41T476 161Q476 234 510 276T604 319Q659 319 694 275T729 162ZM655 160Q655 199 640 225T602 252Q578 252 563 227T548 160Q548 117 563 90T602 62Q625 62 640
89T655 160Z" />
<glyph unicode="&amp;" glyph-name="ampersand" horiz-adv-x="593" d="M369 329H495V290Q495 197 445 120Q491 68 555 0H411Q405 6 397 17Q387 29 380 36Q328 -12 228 -12Q130 -12 78 50Q38 97 38 164Q38 267 130 342Q58 414 58 487Q58 560 103 602T226 645Q305
645 390 581Q379 565 353 526Q345 513 340 506Q283 536 231 536Q202 536 184 521T166 482Q166 451 202 408Q208 401 212 396Q231 373 263 333Q325 255 357 218Q369 237 369 292V329ZM192 265Q167 236 167 183Q167 101 241 101Q283 101 304 126Q287 149 251 192Q210
240 192 265Z" />
<glyph unicode="&apos;" glyph-name="quotesingle" horiz-adv-x="230" d="M70 433V596L160 645V482L70 433Z" />
<glyph unicode="(" glyph-name="parenleft" horiz-adv-x="311" d="M296 645Q234 567 196 461T157 260Q157 106 227 -39Q245 -76 266 -108T295 -140H185Q177 -140 149 -100T102 -23Q38 106 38 260Q38 363 79 470T185 645H296Z" />
<glyph unicode=")" glyph-name="parenright" horiz-adv-x="311" d="M36 -140Q45 -140 71 -98T117 -10Q174 123 174 260Q174 354 136 460T35 645H146Q211 577 252 470T293 260Q293 89 215 -50Q198 -79 175 -109T146 -140H36Z" />
<glyph unicode="*" glyph-name="asterisk" horiz-adv-x="300" d="M135 542V646Q158 641 199 630L211 627Q226 623 234 621Q227 610 212 584Q190 546 177 526L283 566L293 454Q283 456 263 461Q210 475 183 480Q195 464 223 430Q240 408 250 396Q233 390 194 373Q164
360 148 354Q146 380 144 427L143 434Q143 451 142 461Q136 453 124 436L121 432Q94 397 79 375L13 458Q33 467 77 485L87 488Q104 495 113 499Q98 504 74 512Q29 526 7 534L68 623Q77 612 95 591Q122 558 135 542Z" />
<glyph unicode="+" glyph-name="plus" horiz-adv-x="498" d="M190 176H32V276H190V454H307V276H466V176H307V0H190V176Z" />
<glyph unicode="," glyph-name="comma" horiz-adv-x="176" d="M61 -105L29 -46Q73 -29 73 0Q25 0 25 57Q25 86 44 105T95 124Q126 124 146 100T166 38Q166 -15 137 -55T61 -105Z" />
<glyph unicode="-" glyph-name="hyphen" horiz-adv-x="298" d="M283 188H15V288H283V188Z" />
<glyph unicode="." glyph-name="period" horiz-adv-x="328" d="M239 69Q239 68 239 67Q239 35 219 15T166 -5Q132 -5 112 15T91 70V72Q93 103 113 122T166 141Q199 141 219 121T239 69Z" />
<glyph unicode="/" glyph-name="slash" horiz-adv-x="307" d="M377 633L64 -30H-35L276 633H377Z" />
<glyph unicode="0" glyph-name="zero" horiz-adv-x="563" d="M280 645Q396 645 466 534Q525 442 525 315Q525 162 450 70Q384 -12 280 -12Q161 -12 94 94Q38 182 38 315Q38 463 112 558Q179 645 280 645ZM282 533Q174 533 174 321Q174 214 205 153Q233 98 279
98Q330 98 359 157T389 321Q389 533 282 533Z" />
<glyph unicode="1" glyph-name="one" horiz-adv-x="369" d="M289 633V0H158V484Q144 475 117 459Q78 436 61 424Q48 446 17 497L11 506Q4 519 0 525Q32 548 101 594Q137 618 158 633H289Z" />
<glyph unicode="2" glyph-name="two" horiz-adv-x="466" d="M40 0V111Q64 138 104 184Q167 254 197 290Q264 370 281 399T298 465Q298 495 276 515T220 535Q161 535 90 487L35 567Q135 646 244 646Q331 646 383 599Q434 553 434 472Q434 412 395 347T241 152Q213
120 200 105H427V0H40Z" />
<glyph unicode="3" glyph-name="three" horiz-adv-x="503" d="M227 283H132V389H227Q267 389 282 400Q305 417 305 461Q305 495 285 515T231 536Q170 536 104 480L56 564Q139 645 244 645Q332 645 388 596Q442 548 442 472Q442 378 364 346Q465 307 465 196Q465
79 385 26Q329 -11 245 -11Q199 -11 141 13T45 73L98 152Q152 103 236 103Q279 103 304 127T329 194Q329 283 227 283Z" />
<glyph unicode="4" glyph-name="four" horiz-adv-x="563" d="M32 228Q167 434 298 633H427V228H531V123H427V0H297V123H32V228ZM145 228H297V465L145 228Z" />
<glyph unicode="5" glyph-name="five" horiz-adv-x="497" d="M418 528H197V400Q209 405 230 405Q340 405 401 350Q459 297 459 205Q459 108 387 44Q324 -12 234 -12Q114 -12 25 75L79 158Q152 103 220 103Q325 103 325 197Q325 302 190 302Q143 302 67 285V633H418V528Z" />
<glyph unicode="6" glyph-name="six" horiz-adv-x="518" d="M172 383Q206 414 273 414Q363 414 417 362Q473 308 473 205Q473 118 416 54Q357 -12 257 -12Q126 -12 72 103Q38 176 38 288Q38 645 281 645Q327 645 374 628T450 583L405 501Q339 533 285 533Q234
533 203 492T172 383ZM171 290Q176 186 188 148Q207 90 255 90Q288 90 312 124T336 205Q336 320 244 320Q201 320 171 290Z" />
<glyph unicode="7" glyph-name="seven" horiz-adv-x="421" d="M264 528H32V633H406V533L176 0H38L264 528Z" />
<glyph unicode="8" glyph-name="eight" horiz-adv-x="528" d="M359 322Q490 287 490 160Q490 73 416 26Q355 -12 265 -12Q160 -12 97 38Q38 84 38 161Q38 233 89 281Q127 317 174 323Q65 356 65 462Q65 552 135 603Q191 645 272 645Q364 645 423 589Q478 536 478
455Q478 408 445 371T359 322ZM270 368Q304 378 326 405T348 464Q348 500 328 522T275 544Q238 544 216 522T193 462Q193 394 270 368ZM273 278Q228 267 201 238T174 170Q174 135 200 113T266 90Q304 90 328 111T353 167Q353 205 331 236T273 278Z" />
<glyph unicode="9" glyph-name="nine" horiz-adv-x="518" d="M366 250Q332 219 265 219Q175 219 121 271Q65 325 65 428Q65 515 122 579Q181 645 281 645Q412 645 466 530Q500 457 500 345Q500 -12 257 -12Q211 -12 164 5T88 50L133 132Q199 100 253 100Q304 100
335 141T366 250ZM367 343Q362 447 350 485Q331 543 283 543Q250 543 226 509T202 428Q202 313 294 313Q337 313 367 343Z" />
<glyph unicode=":" glyph-name="colon" horiz-adv-x="288" d="M239 309Q239 308 239 307Q239 275 219 255T166 235Q132 235 112 255T91 310V312Q93 343 113 362T166 381Q199 381 219 361T239 309ZM239 69Q239 68 239 67Q239 35 219 15T166 -5Q132 -5 112 15T91
70V72Q93 103 113 122T166 141Q199 141 219 121T239 69Z" />
<glyph unicode=";" glyph-name="semicolon" horiz-adv-x="199" d="M25 309Q25 337 45 357T93 378Q121 378 141 358T161 309Q161 280 142 261T93 242Q64 242 45 261T25 309ZM64 -105L32 -46Q76 -29 76 0Q28 0 28 57Q28 86 47 105T98 124Q129 124 149 100T169 38Q169
-15 140 -55T64 -105Z" />
<glyph unicode="&lt;" glyph-name="less" horiz-adv-x="497" d="M483 -15L32 162V309L483 479V376L116 236L483 90V-15Z" />
<glyph unicode="=" glyph-name="equal" horiz-adv-x="516" d="M484 257H32V357H484V257ZM484 97H32V198H484V97Z" />
<glyph unicode="&gt;" glyph-name="greater" horiz-adv-x="497" d="M485 162L34 -15V90L401 236L34 376V479L485 309V162Z" />
<glyph unicode="?" glyph-name="question" horiz-adv-x="397" d="M231 152H108V227Q108 282 120 305T177 364Q247 417 247 479Q247 508 225 528T172 549Q124 549 79 510L32 580Q102 645 201 645Q285 645 330 587Q365 543 365 484Q365 393 291 319Q285 313 275
304Q231 265 231 219V152ZM99 55Q99 84 119 104T167 124Q195 124 215 104T235 55Q235 27 216 8T167 -12Q138 -12 119 7T99 55Z" />
<glyph unicode="@" glyph-name="at" horiz-adv-x="696" d="M491 119Q491 74 509 74Q556 74 556 181Q556 281 481 337Q425 380 355 380Q255 380 197 313Q144 252 144 153Q144 15 242 -48Q307 -90 396 -90Q411 -90 427 -88L430 -172Q391 -175 366 -175Q221 -175
126 -79Q38 11 38 150Q38 303 142 392Q229 466 355 466Q486 466 575 381Q658 301 658 181Q658 104 621 50Q578 -12 501 -12Q461 -12 436 3T408 45Q386 12 366 0T308 -12Q255 -12 219 29T182 130Q182 216 238 267Q281 306 336 306Q371 306 388 292L398 307H491V119ZM376
218Q362 225 341 225Q298 225 298 147Q298 77 337 77Q359 77 367 90T376 138V218Z" />
<glyph unicode="A" glyph-name="A" horiz-adv-x="586" d="M238 633H348L581 0H448Q431 50 406 132H179Q165 87 136 0H5L238 633ZM294 462Q266 383 217 240H369Q322 378 294 462Z" />
<glyph unicode="B" glyph-name="B" horiz-adv-x="555" d="M80 1V632Q156 645 264 645Q389 645 450 586Q498 539 498 462Q498 415 459 377T372 338V337Q438 330 476 286T515 175Q515 81 436 31Q367 -12 252 -12Q152 -12 80 1ZM211 533V387H285Q369 387 369 458Q369
537 267 539H264Q239 539 211 533ZM211 282V99Q236 91 282 91Q379 91 379 176Q379 282 279 282H211Z" />
<glyph unicode="C" glyph-name="C" horiz-adv-x="572" d="M532 71Q449 -12 337 -12Q176 -12 97 108Q40 194 40 310Q40 461 118 553Q195 645 332 645Q428 645 524 564L473 481Q401 533 342 533Q260 533 215 464Q176 405 176 310Q176 226 222 166Q271 103 353 103Q407
103 481 150L532 71Z" />
<glyph unicode="D" glyph-name="D" horiz-adv-x="631" d="M80 632Q129 645 253 645Q424 645 514 545Q591 460 591 323Q591 152 493 66Q404 -12 245 -12Q145 -12 80 1V632ZM211 96Q231 91 261 91Q454 91 454 319Q454 432 390 492Q338 540 258 540Q235 540 211 535V96Z" />
<glyph unicode="E" glyph-name="E" horiz-adv-x="506" d="M64 633H478V528H195V379H431V274H195V105H491V0H64V633Z" />
<glyph unicode="F" glyph-name="F" horiz-adv-x="493" d="M64 0V633H478V528H195V378H431V273H195V0H64Z" />
<glyph unicode="G" glyph-name="G" horiz-adv-x="574" d="M548 53Q431 -12 321 -12Q171 -12 96 105Q40 191 40 315Q40 460 124 555Q203 645 325 645Q437 645 524 564L473 481Q401 533 333 533Q265 533 221 470T176 311Q176 209 233 149Q280 99 347 99Q389 99 424
112V243H311V357H548V53Z" />
<glyph unicode="H" glyph-name="H" horiz-adv-x="692" d="M209 0H80V633H209V379H481V633H612V0H481V274H209V0Z" />
<glyph unicode="I" glyph-name="I" horiz-adv-x="289" d="M209 633V0H80V633H209Z" />
<glyph unicode="J" glyph-name="J" horiz-adv-x="269" d="M189 633V-25Q189 -168 52 -168Q-28 -168 -95 -117L-51 -45Q-11 -71 26 -71Q60 -71 60 -18V633H189Z" />
<glyph unicode="K" glyph-name="K" horiz-adv-x="596" d="M204 633V372Q336 551 396 633H557Q454 498 329 335Q460 178 604 0H430Q338 123 207 296H204V0H80V633H204Z" />
<glyph unicode="L" glyph-name="L" horiz-adv-x="463" d="M80 0V633H211V105H448V0H80Z" />
<glyph unicode="M" glyph-name="M" horiz-adv-x="837" d="M417 150Q473 355 567 633H757V0H625V514Q578 311 471 0H362Q249 343 209 509V0H80V633H262Q356 377 417 150Z" />
<glyph unicode="N" glyph-name="N" horiz-adv-x="718" d="M209 424V0H80V633H189Q349 425 507 196V633H638V0H526Q432 111 209 424Z" />
<glyph unicode="O" glyph-name="O" horiz-adv-x="654" d="M327 645Q473 645 552 529Q614 438 614 309Q614 161 533 72Q456 -12 327 -12Q179 -12 102 96Q40 181 40 309Q40 459 121 554Q198 645 327 645ZM327 98Q399 98 438 152T477 309Q477 418 434 479Q394 533
327 533Q255 533 216 474T176 309Q176 98 327 98Z" />
<glyph unicode="P" glyph-name="P" horiz-adv-x="540" d="M80 0V632Q94 635 159 640T258 645Q500 645 500 447Q500 324 416 267Q360 228 284 228Q224 228 211 236V0H80ZM211 533V342Q237 332 276 332Q316 332 339 360T362 439Q362 540 273 540Q222 540 211 533Z" />
<glyph unicode="Q" glyph-name="Q" horiz-adv-x="654" d="M379 -8Q351 -12 327 -12Q180 -12 102 94Q40 179 40 305Q40 462 124 557Q201 645 327 645Q473 645 552 527Q614 435 614 305Q614 119 491 32Q549 -33 618 -107H465L379 -8ZM327 98Q477 98 477 305Q477
417 434 478Q394 533 327 533Q255 533 216 473T176 305Q176 98 327 98Z" />
<glyph unicode="R" glyph-name="R" horiz-adv-x="525" d="M80 0V632Q94 635 159 640T258 645Q500 645 500 447Q500 340 413 265Q449 182 536 0H404Q355 107 298 230Q287 228 268 228Q224 228 211 236V0H80ZM211 533V342Q241 333 276 333Q362 333 362 447Q362 540
273 540Q222 540 211 533Z" />
<glyph unicode="S" glyph-name="S" horiz-adv-x="536" d="M472 581Q454 554 416 500Q336 535 273 535Q190 535 190 473Q190 445 209 429T288 390Q396 348 443 299T491 181Q491 84 418 31Q358 -12 269 -12Q164 -12 45 64L103 145Q161 106 252 106Q355 106 355 189Q355
243 244 281Q65 341 65 473Q65 553 125 600Q181 645 274 645Q380 645 472 581Z" />
<glyph unicode="T" glyph-name="T" horiz-adv-x="542" d="M198 528H15V633H527V528H330V0H198V528Z" />
<glyph unicode="U" glyph-name="U" horiz-adv-x="648" d="M568 266Q568 -12 324 -12Q80 -12 80 266V633H212V248Q212 98 324 98Q438 98 438 248V633H568V266Z" />
<glyph unicode="V" glyph-name="V" horiz-adv-x="569" d="M139 633L285 211L431 633H566L335 0H235L5 633H139Z" />
<glyph unicode="W" glyph-name="W" horiz-adv-x="798" d="M467 633Q535 367 577 211L658 633H793L636 0H528L398 442L267 0H158L5 633H139L218 211Q290 473 331 633H467Z" />
<glyph unicode="X" glyph-name="X" horiz-adv-x="609" d="M606 633L398 323Q508 147 602 0H453L305 254Q226 120 157 0H5L221 325L33 633H185L319 413Q361 480 454 633H606Z" />
<glyph unicode="Y" glyph-name="Y" horiz-adv-x="573" d="M5 633H146Q216 491 288 349L427 633H568L353 250V0H222V250Q108 450 5 633Z" />
<glyph unicode="Z" glyph-name="Z" horiz-adv-x="484" d="M462 633V524L182 105H469V0H15V93Q160 306 310 528H24V633H462Z" />
<glyph unicode="[" glyph-name="bracketleft" horiz-adv-x="347" d="M312 -140H81V645H312V548H202V-46H312V-140Z" />
<glyph unicode="\" glyph-name="backslash" horiz-adv-x="372" d="M313 -30L0 633H101L412 -30H313Z" />
<glyph unicode="]" glyph-name="bracketright" horiz-adv-x="348" d="M35 645H267V-140H35V-46H144V548H35V645Z" />
<glyph unicode="^" glyph-name="asciicircum" horiz-adv-x="450" d="M177 609H273L425 302H310L223 460L149 302H25L177 609Z" />
<glyph unicode="_" glyph-name="underscore" horiz-adv-x="404" d="M409 -131H-5V-30H409V-131Z" />
<glyph unicode="`" glyph-name="grave" horiz-adv-x="226" d="M124 509L15 655H139L211 509H124Z" />
<glyph unicode="a" glyph-name="a" horiz-adv-x="502" d="M434 0H333L323 43Q257 -12 189 -12Q38 -12 38 135Q38 208 101 249Q165 291 290 291H311V293Q311 336 293 352T228 368Q162 368 107 326Q89 359 73 391Q130 435 172 450T274 466Q434 466 434 266V0ZM307
214H292Q235 214 200 194T165 141Q165 79 219 79Q252 79 277 98T307 146V214Z" />
<glyph unicode="b" glyph-name="b" horiz-adv-x="561" d="M168 0H66V574L192 645V403Q213 435 251 453Q281 467 317 467Q418 467 475 398Q525 337 525 236Q525 106 451 39Q393 -12 308 -12Q224 -12 178 45L168 0ZM192 272V163Q195 126 222 101T287 76Q335 76 363
116T391 226Q391 295 365 335T293 375Q251 375 222 345T192 272Z" />
<glyph unicode="c" glyph-name="c" horiz-adv-x="477" d="M449 58Q378 -12 281 -12Q165 -12 97 62Q38 127 38 225Q38 335 114 405Q180 466 275 466Q380 466 444 400L406 332Q355 377 295 377Q239 377 203 334T167 222Q167 159 202 119T293 78Q359 78 406 127L449 58Z" />
<glyph unicode="d" glyph-name="d" horiz-adv-x="561" d="M392 0L374 48Q358 22 322 5T248 -12Q141 -12 85 59Q38 118 38 211Q38 342 114 413Q171 466 251 466Q320 466 367 428V573L493 643V0H392ZM367 173V300Q360 333 336 354T278 376Q227 376 197 336T167 228Q167
79 264 79Q300 79 331 107T367 173Z" />
<glyph unicode="e" glyph-name="e" horiz-adv-x="526" d="M488 186H176Q180 140 213 110T293 79Q358 79 429 119L461 52Q389 -12 281 -12Q165 -12 100 54Q38 116 38 225Q38 332 108 402Q171 466 268 466Q376 466 436 393Q488 331 488 232V186ZM169 279H362Q357
377 267 377Q180 377 169 279Z" />
<glyph unicode="f" glyph-name="f" horiz-adv-x="385" d="M33 352V454H104V514Q104 645 226 645Q306 645 375 591L329 525Q289 551 261 551Q230 551 230 501V454H354V352H230V0H104V352H33Z" />
<glyph unicode="g" glyph-name="g" horiz-adv-x="551" d="M356 55Q311 -12 229 -12Q129 -12 74 59Q27 119 27 211Q27 342 103 413Q161 466 240 466Q303 466 347 435Q376 415 376 405L386 454H483V47Q483 -68 426 -130Q370 -191 266 -191Q158 -191 79 -119L111
-55Q172 -95 248 -95Q356 -95 356 55ZM356 300Q352 331 326 353T267 376Q217 376 187 336T157 228Q157 79 255 79Q296 79 326 110T356 185V300Z" />
<glyph unicode="h" glyph-name="h" horiz-adv-x="551" d="M68 576L194 645V400Q210 431 260 453Q293 467 322 467Q409 467 448 420T488 267V0H362V262Q362 360 278 360Q217 360 194 326V0H68V576Z" />
<glyph unicode="i" glyph-name="i" horiz-adv-x="252" d="M190 454V0H63V454H190ZM48 570Q48 602 70 625T124 649Q157 649 180 626T204 570Q204 535 182 513T124 491Q91 491 70 513T48 570Z" />
<glyph unicode="j" glyph-name="j" horiz-adv-x="263" d="M203 454V-60Q203 -129 173 -160T77 -191Q-6 -191 -74 -138L-32 -74Q9 -98 45 -98H46Q77 -98 77 -48V454H203ZM60 570Q60 602 82 625T136 649Q169 649 192 626T216 570Q216 535 194 513T136 491Q103 491
82 513T60 570Z" />
<glyph unicode="k" glyph-name="k" horiz-adv-x="496" d="M491 454L276 271Q396 91 461 0H319Q235 144 192 216V0H66V579L192 645V344Q241 383 323 454H491Z" />
<glyph unicode="l" glyph-name="l" horiz-adv-x="262" d="M194 645V0H68V579L194 645Z" />
<glyph unicode="m" glyph-name="m" horiz-adv-x="886" d="M189 410Q245 466 329 466Q387 466 431 442T493 376Q515 416 561 441T663 466Q823 466 823 272V0H696V238Q696 305 677 332T611 360Q545 360 504 308V0H378V252Q378 311 357 335T285 360Q255 360 229 351T194
329V0H68V454H175L184 410H189Z" />
<glyph unicode="n" glyph-name="n" horiz-adv-x="552" d="M190 410Q210 433 250 449T326 466Q412 466 450 419T489 267V0H362V262Q362 360 275 360Q253 360 228 351T194 329V0H68V454H175Q180 428 185 410H190Z" />
<glyph unicode="o" glyph-name="o" horiz-adv-x="528" d="M264 466Q376 466 438 387Q490 321 490 226Q490 115 413 46Q349 -12 264 -12Q165 -12 98 62Q38 129 38 226Q38 336 105 404Q166 466 264 466ZM264 82Q361 82 361 226Q361 376 264 376Q167 376 167 226Q167
82 264 82Z" />
<glyph unicode="p" glyph-name="p" horiz-adv-x="549" d="M163 454L175 411Q217 466 293 466Q400 466 460 394Q511 332 511 236Q511 110 435 42Q375 -12 288 -12Q262 -12 233 -1T192 24V-178H68V454H163ZM192 277V161Q192 126 216 101T274 76Q319 76 349 119T379
226Q379 294 353 334T281 375Q246 375 219 346T192 277Z" />
<glyph unicode="q" glyph-name="q" horiz-adv-x="551" d="M356 -177V47Q351 27 314 8T242 -12Q137 -12 83 61Q38 121 38 214Q38 340 112 410Q170 466 253 466Q331 466 376 405L383 454H483V-177H356ZM356 184V295Q356 296 356 298Q356 326 331 351T276 376Q226
376 196 336T166 228Q166 79 269 79Q307 79 331 107T356 179Q356 182 356 184Z" />
<glyph unicode="r" glyph-name="r" horiz-adv-x="417" d="M175 454L187 414Q197 435 225 450T284 466Q374 466 418 381L312 323Q279 361 242 361Q208 361 192 326V0H68V454H175Z" />
<glyph unicode="s" glyph-name="s" horiz-adv-x="428" d="M333 344Q284 376 221 376Q173 376 173 335Q173 297 238 281Q319 261 348 236Q390 200 390 128Q390 64 345 26T222 -12Q113 -12 38 50L84 120Q136 79 209 79Q238 79 256 93T274 130Q274 172 203 185Q51
214 51 333Q51 390 97 428T214 466Q309 466 379 411L333 344Z" />
<glyph unicode="t" glyph-name="t" horiz-adv-x="397" d="M352 353H222V128Q222 78 255 78Q285 78 330 104L372 40Q301 -16 215 -16Q95 -16 95 116V353H32V454H96V535Q146 562 223 602V454H352V353Z" />
<glyph unicode="u" glyph-name="u" horiz-adv-x="538" d="M364 52Q314 -12 227 -12Q141 -12 105 32T68 182V454H192V215Q192 147 210 120T272 92Q291 92 315 102T344 123V454H470V0H376L365 52H364Z" />
<glyph unicode="v" glyph-name="v" horiz-adv-x="489" d="M290 0H192L15 454H142L239 154L342 454H474L455 407L433 353Q340 123 290 0Z" />
<glyph unicode="w" glyph-name="w" horiz-adv-x="716" d="M282 0H171L15 454H142L225 153L292 454H420Q435 382 470 223L485 153L571 454H701L679 391L667 360Q581 118 538 0H426Q414 46 396 119Q368 233 354 288Q342 242 321 155Q295 48 282 0Z" />
<glyph unicode="x" glyph-name="x" horiz-adv-x="479" d="M471 454L313 227L474 0H336L243 140L142 0H5Q16 13 37 40L53 60Q135 164 184 224Q158 265 95 362Q53 426 35 454H173L247 321Q266 349 301 403Q324 439 334 454H471Z" />
<glyph unicode="y" glyph-name="y" horiz-adv-x="499" d="M484 454Q444 342 374 153Q323 12 294 -66Q247 -191 162 -191Q96 -191 26 -134Q46 -100 60 -74Q97 -98 125 -98Q166 -98 198 0H174L15 454H140Q151 421 174 351L180 335Q223 205 242 144L358 454H484Z" />
<glyph unicode="z" glyph-name="z" horiz-adv-x="423" d="M408 0H15V103L250 353H29V454H402V350L164 100H408V0Z" />
<glyph unicode="{" glyph-name="braceleft" horiz-adv-x="396" d="M258 94V35Q258 -16 269 -30T322 -44H349V-139H305Q199 -139 166 -97Q138 -61 138 35V94Q138 204 38 204V296Q138 296 138 411V470Q138 573 172 608T305 644H349V549H322Q280 549 269 535T258
470V411Q258 284 186 250Q225 233 241 198T258 94Z" />
<glyph unicode="|" glyph-name="bar" horiz-adv-x="277" d="M197 662V-179H80V662H197Z" />
<glyph unicode="}" glyph-name="braceright" horiz-adv-x="396" d="M149 36V95Q149 163 165 198T221 251Q149 285 149 412V471Q149 522 138 536T85 550H58V645H102Q208 645 241 603Q269 567 269 471V412Q269 297 369 297V205Q269 205 269 95V36Q269 -67 235 -102T102
-138H58V-43H85Q127 -43 138 -29T149 36Z" />
<glyph unicode="~" glyph-name="asciitilde" horiz-adv-x="508" d="M25 216Q53 320 149 320Q179 320 258 289Q330 261 356 261Q395 261 421 320L483 275Q455 170 352 170Q319 170 239 203Q177 229 157 229Q113 229 87 171L25 216Z" />
<glyph unicode="&#xa0;" glyph-name="space" horiz-adv-x="240" />
<glyph unicode="&#xa1;" glyph-name="exclamdown" horiz-adv-x="280" d="M74 288H200V-168H74V288ZM215 413Q215 381 195 361T142 341Q110 341 90 360T67 410V413Q67 446 87 466T142 487Q175 487 195 468T215 415Q215 414 215 413Z" />
<glyph unicode="&#xa2;" glyph-name="cent" horiz-adv-x="487" d="M290 -14V-52H242V-11Q142 1 86 73Q38 135 38 225Q38 323 102 391Q158 451 242 463V512H290V465Q365 462 444 400L416 332Q356 376 290 376V79Q366 79 412 129L449 58Q387 -7 290 -14ZM242 368Q208
348 188 309T167 222Q167 182 187 144T242 86V368Z" />
<glyph unicode="&#xa3;" glyph-name="sterling" horiz-adv-x="503" d="M378 283H229V105H450V0H34V105H98V283H32V378H98V427Q98 645 304 645Q354 645 397 627T503 560L453 481Q367 535 316 535Q229 535 229 433V378H378V283Z" />
<glyph unicode="&#xa4;" glyph-name="currency" horiz-adv-x="490" d="M430 91L351 168Q308 142 252 142Q194 142 154 167L78 92Q75 89 72 89Q61 89 46 105T30 132Q30 135 32 136L105 209Q70 257 70 315Q70 376 105 420L32 493Q30 495 30 498Q30 508 45 524T71
540Q75 540 77 537L154 462Q198 489 252 489Q309 489 353 462L429 537Q431 540 435 540Q446 540 461 525T476 498Q476 495 475 493L400 419Q433 374 433 315Q433 260 400 210L476 136Q477 135 477 132Q477 120 462 104T436 88Q432 88 430 91ZM156 313Q156 269 183
242T253 215Q296 215 321 242T347 317Q347 362 321 389T253 417Q210 417 183 389T156 316V313Z" />
<glyph unicode="&#xa5;" glyph-name="yen" horiz-adv-x="525" d="M197 0V137H103V200H197V242H103V315H193L33 633H153L264 416L375 633H493L332 315H425V242H327V200H425V137H327V0H197Z" />
<glyph unicode="&#xa6;" glyph-name="brokenbar" horiz-adv-x="228" d="M56 238H172V-179H56V238ZM172 662V278H56V662H172Z" />
<glyph unicode="&#xa7;" glyph-name="section" horiz-adv-x="468" d="M372 130Q400 98 408 77T416 14Q416 -53 360 -98Q309 -140 231 -140Q123 -140 54 -81L102 -13Q152 -47 216 -47Q292 -47 292 18Q292 59 232 88Q216 96 180 108Q107 134 80 159Q40 195 40 258Q40
297 62 332T119 382Q56 423 56 500Q56 564 106 604T236 645Q325 645 395 590L351 519Q304 552 237 552Q179 552 179 501Q179 441 293 400Q428 352 428 234Q428 161 372 130ZM188 338Q161 303 161 273Q161 209 258 187Q260 186 265 185Q267 184 269 184Q291 178
301 173Q312 191 312 222Q312 260 290 283T206 331L200 333Q192 336 188 338Z" />
<glyph unicode="&#xa8;" glyph-name="dieresis" horiz-adv-x="373" d="M24 578Q24 606 44 625T92 645Q117 645 137 625T157 578Q157 550 138 530T92 510Q62 510 43 529T24 578ZM208 578Q208 605 228 625T274 645Q302 645 322 625T342 578Q342 548 323 529T274
510Q246 510 227 529T208 578Z" />
<glyph unicode="&#xa9;" glyph-name="copyright" horiz-adv-x="679" d="M477 170Q428 121 354 121Q260 121 209 174Q162 223 162 308Q162 396 223 453Q275 502 348 502Q411 502 471 459L446 409Q398 437 356 437Q316 437 286 399T256 308Q256 254 285 219T358
183Q409 183 451 220L477 170ZM339 617Q473 617 563 517Q641 431 641 315Q641 182 541 92Q455 14 339 14Q206 14 116 114Q38 200 38 315Q38 448 138 539Q224 617 339 617ZM342 85Q443 85 514 160Q576 226 576 313Q576 416 499 485Q433 545 346 545Q242 545 173
468Q113 402 113 313Q113 211 188 144Q252 85 342 85Z" />
<glyph unicode="&#xaa;" glyph-name="ordfeminine" horiz-adv-x="248" d="M236 406H181L177 436Q150 400 98 400Q66 400 45 421T23 473Q23 511 57 534T145 558H172V560Q172 591 138 591Q99 591 61 571L47 611Q90 645 143 645Q236 645 236 544V406ZM171 518H153Q86
518 86 476Q86 444 122 444Q142 444 156 457T171 490V518Z" />
<glyph unicode="&#xab;" glyph-name="guillemotleft" horiz-adv-x="658" d="M331 1Q244 4 161 82Q89 149 52 245Q95 354 180 424Q255 485 331 487V372Q231 334 187 245Q230 157 331 117V1ZM617 1Q529 4 446 82Q375 149 337 245Q380 354 466 424Q541 485 617 487V372Q517
334 472 245Q516 157 617 117V1Z" />
<glyph unicode="&#xac;" glyph-name="logicalnot" horiz-adv-x="477" d="M316 0V142H32V245H445V0H316Z" />
<glyph unicode="&#xae;" glyph-name="registered" horiz-adv-x="391" d="M197 470H188V410H141V567H214Q267 567 267 520Q267 493 240 477L279 410H224L197 470ZM197 529H188V500H195Q222 500 222 514Q222 529 197 529ZM197 322Q125 322 77 376Q35 422 35 484Q35
556 89 604Q135 646 197 646Q268 646 315 592Q356 546 356 484Q356 412 304 364Q259 322 197 322ZM77 484Q77 430 110 396T197 361Q251 361 284 395T317 484Q317 536 283 571T197 607Q144 607 111 573T77 484Z" />
<glyph unicode="&#xaf;" glyph-name="overscore" horiz-adv-x="256" d="M250 541H6V633H250V541Z" />
<glyph unicode="&#xb0;" glyph-name="degree" horiz-adv-x="258" d="M14 537Q14 584 48 618T129 652Q176 652 210 618T244 537Q244 489 210 455T129 421Q82 421 48 455T14 537ZM76 538Q76 515 91 500T129 485Q152 485 167 500T183 538Q183 561 168 576T129 592Q107
592 92 577T76 538Z" />
<glyph unicode="&#xb1;" glyph-name="plusminus" horiz-adv-x="516" d="M201 223H32V324H201V454H317V324H484V223H317V111H201V223ZM484 0H32V100H484V0Z" />
<glyph unicode="&#xb2;" glyph-name="twosuperior" horiz-adv-x="367" d="M52 316V392Q141 441 166 459Q219 497 219 529Q219 566 168 566Q133 566 92 537L47 584Q108 645 189 645Q247 645 283 614T320 535Q320 486 298 458T206 392H311V316H52Z" />
<glyph unicode="&#xb3;" glyph-name="threesuperior" horiz-adv-x="356" d="M111 445V520H157Q159 520 164 520Q167 520 169 520Q203 520 203 543Q203 566 173 566Q137 566 93 541L47 587Q106 645 182 645Q239 645 271 621T304 556Q304 505 230 491Q309 475 309
410Q309 314 192 314Q103 314 47 371Q81 403 97 419Q139 390 172 390Q208 390 208 419Q208 445 154 445H111Z" />
<glyph unicode="&#xb4;" glyph-name="acute" horiz-adv-x="226" d="M211 655L102 509H15L87 655H211Z" />
<glyph unicode="&#xb5;" glyph-name="mu" horiz-adv-x="600" d="M191 17V-181H68V454H191V231Q191 153 211 120T280 86Q296 86 324 94T364 110V454H488V113Q488 83 507 83Q520 83 542 98L583 38Q532 -13 460 -13Q399 -13 378 36Q317 -12 270 -12Q220 -12 191 17Z" />
<glyph unicode="&#xb6;" glyph-name="paragraph" horiz-adv-x="543" d="M463 0H374V633H463V0ZM255 0V357H212Q45 357 45 492Q45 559 86 596T202 633H345V0H255Z" />
<glyph unicode="&#xb7;" glyph-name="middot" horiz-adv-x="186" d="M25 372Q25 401 45 421T93 441Q121 441 141 421T161 372Q161 344 142 325T93 305Q64 305 45 324T25 372Z" />
<glyph unicode="&#xb8;" glyph-name="cedilla" horiz-adv-x="211" d="M44 -55L64 10H152L140 -24H146Q174 -24 191 -41T209 -86Q209 -123 181 -144T105 -165Q56 -165 15 -149L29 -99Q65 -108 84 -108Q122 -108 122 -82Q122 -53 77 -53Q59 -53 44 -55Z" />
<glyph unicode="&#xb9;" glyph-name="onesuperior" horiz-adv-x="325" d="M265 633V318H166V517L92 452L34 519L153 633H265Z" />
<glyph unicode="&#xba;" glyph-name="ordmasculine" horiz-adv-x="273" d="M139 645Q191 645 224 611T257 522Q257 468 224 434T140 400Q85 400 51 434T16 522Q16 578 49 611T139 645ZM138 585Q98 585 98 522Q98 458 136 458Q175 458 175 522Q175 585 138 585Z" />
<glyph unicode="&#xbb;" glyph-name="guillemotright" horiz-adv-x="658" d="M42 1V117Q143 157 186 245Q142 334 42 372V487Q129 485 212 407Q284 340 321 245Q278 134 193 64Q118 3 42 1ZM327 1V117Q427 157 471 245Q426 333 327 372V487Q414 485 497 407Q569
340 607 245Q563 134 477 64Q403 3 327 1Z" />
<glyph unicode="&#xbc;" glyph-name="onequarter" horiz-adv-x="891" d="M537 143Q557 166 599 215Q658 283 687 318H789V134H844V55H789V0H690V55H537V143ZM638 134H690V203Q681 192 671 179Q648 149 638 134ZM727 633Q465 179 340 -30H262L646 633H727ZM278
633V318H179V517L105 452L47 519L166 633H278Z" />
<glyph unicode="&#xbd;" glyph-name="onehalf" horiz-adv-x="845" d="M278 633V318H179V517L105 452L47 519L166 633H278ZM531 0V76Q611 119 640 140Q697 181 697 213Q697 250 646 250Q596 250 573 219L523 264Q588 329 667 329Q725 329 761 299T798 219Q798 134
684 76H789V0H531ZM641 633L256 -30H178L562 633H641Z" />
<glyph unicode="&#xbe;" glyph-name="threequarters" horiz-adv-x="877" d="M110 445V520H156Q202 520 202 543Q202 566 172 566Q136 566 92 541L48 588Q106 645 181 645Q237 645 270 622T303 558Q303 494 229 491Q308 475 308 410Q308 370 272 342T184 314Q97
314 47 369L96 419Q138 390 171 390Q207 390 207 419Q207 445 153 445H110ZM522 143Q559 184 620 255Q649 288 676 318H774V134H830V55H774V0H676V55H522V143ZM623 134H676V203Q669 193 655 176Q633 149 623 134ZM668 633Q591 501 475 302L436 235Q336 63 282 -30H204L588
633H668Z" />
<glyph unicode="&#xbf;" glyph-name="questiondown" horiz-adv-x="397" d="M186 300H309V225Q309 170 297 147T240 88Q170 35 170 -27Q170 -56 192 -76T245 -97Q293 -97 338 -58L385 -128Q315 -193 216 -193Q132 -193 87 -135Q52 -91 52 -32Q52 59 126 133Q132
139 142 148Q186 187 186 233V300ZM318 397Q318 368 298 348T250 328Q222 328 202 348T182 397Q182 425 201 444T250 464Q279 464 298 445T318 397Z" />
<glyph unicode="&#xc0;" glyph-name="Agrave" horiz-adv-x="586" d="M238 633H348L581 0H448Q437 31 420 88L415 103Q409 122 406 132H179Q171 106 153 53Q142 18 136 0H5L238 633ZM294 462Q277 412 238 300L217 240H369L357 276L350 294Q311 408 294 462ZM244
677L135 823H259L331 677H244Z" />
<glyph unicode="&#xc1;" glyph-name="Aacute" horiz-adv-x="586" d="M238 633H348L581 0H448Q437 31 420 88L415 103Q409 122 406 132H179Q171 106 153 53Q142 18 136 0H5L238 633ZM294 462Q277 412 238 300L217 240H369L357 276L350 294Q311 408 294 462ZM445
823L336 677H249L321 823H445Z" />
<glyph unicode="&#xc2;" glyph-name="Acircumflex" horiz-adv-x="586" d="M238 633H348L581 0H448Q437 31 420 88L415 103Q409 122 406 132H179Q171 106 153 53Q142 18 136 0H5L238 633ZM294 462Q277 412 238 300L217 240H369L357 276L350 294Q311 408 294 462ZM254
823H334Q351 798 372 767Q415 705 433 677H342L296 751L244 677H154L254 823Z" />
<glyph unicode="&#xc3;" glyph-name="Atilde" horiz-adv-x="586" d="M238 633H348L581 0H448Q437 31 420 88L415 103Q409 122 406 132H179Q171 106 153 53Q142 18 136 0H5L238 633ZM294 462Q277 412 238 300L217 240H369L357 276L350 294Q311 408 294 462ZM441
780Q421 678 350 678Q322 678 288 697Q255 717 239 717Q214 717 193 672L148 703Q169 807 239 807Q265 807 302 781Q332 761 348 761Q369 761 395 814L441 780Z" />
<glyph unicode="&#xc4;" glyph-name="Adieresis" horiz-adv-x="586" d="M238 633H348L581 0H448Q437 31 420 88L415 103Q409 122 406 132H179Q171 106 153 53Q142 18 136 0H5L238 633ZM294 462Q277 412 238 300L217 240H369L357 276L350 294Q311 408 294 462ZM135
746Q135 774 155 793T203 813Q228 813 248 793T268 746Q268 718 249 698T203 678Q173 678 154 697T135 746ZM319 746Q319 773 339 793T385 813Q413 813 433 793T453 746Q453 716 434 697T385 678Q357 678 338 697T319 746Z" />
<glyph unicode="&#xc5;" glyph-name="Aring" horiz-adv-x="586" d="M238 633H348L581 0H448Q437 31 420 88L415 103Q409 122 406 132H179Q171 106 153 53Q142 18 136 0H5L238 633ZM294 462Q277 412 238 300L217 240H369L357 276L350 294Q311 408 294 462ZM287
826Q322 826 346 801T371 741Q371 706 347 682T287 657Q251 657 227 681T202 741Q202 776 226 801T287 826ZM287 775Q253 772 253 741Q253 708 287 708Q320 708 320 741Q320 773 287 775Z" />
<glyph unicode="&#xc6;" glyph-name="AE" horiz-adv-x="846" d="M806 633V528H524V379H759V274H524V105H819V0H392V124H188L137 0H5L268 633H806ZM347 529Q319 455 267 322Q249 277 232 232H392V529H347Z" />
<glyph unicode="&#xc7;" glyph-name="Ccedilla" horiz-adv-x="572" d="M257 -55L272 -6Q147 17 85 128Q40 208 40 310Q40 461 118 553Q195 645 332 645Q428 645 524 564L473 481Q401 533 342 533Q260 533 215 464Q176 405 176 310Q176 226 222 166Q271 103 353
103Q407 103 481 150L532 71Q458 -3 357 -11L353 -24H359Q387 -24 404 -41T422 -86Q422 -123 394 -144T318 -165Q269 -165 228 -149L242 -99Q278 -108 297 -108Q335 -108 335 -82Q335 -53 290 -53Q272 -53 257 -55Z" />
<glyph unicode="&#xc8;" glyph-name="Egrave" horiz-adv-x="506" d="M64 633H478V528H195V379H431V274H195V105H491V0H64V633ZM248 679L139 825H263L335 679H248Z" />
<glyph unicode="&#xc9;" glyph-name="Eacute" horiz-adv-x="506" d="M64 633H478V528H195V379H431V274H195V105H491V0H64V633ZM411 819L302 673H215L287 819H411Z" />
<glyph unicode="&#xca;" glyph-name="Ecircumflex" horiz-adv-x="506" d="M64 633H478V528H195V379H431V274H195V105H491V0H64V633ZM226 823H306Q323 798 344 767Q387 705 405 677H314L268 751L216 677H126L226 823Z" />
<glyph unicode="&#xcb;" glyph-name="Edieresis" horiz-adv-x="506" d="M64 633H478V528H195V379H431V274H195V105H491V0H64V633ZM114 753Q114 781 134 800T182 820Q207 820 227 800T247 753Q247 725 228 705T182 685Q152 685 133 704T114 753ZM298 753Q298 780
318 800T364 820Q392 820 412 800T432 753Q432 723 413 704T364 685Q336 685 317 704T298 753Z" />
<glyph unicode="&#xcc;" glyph-name="Igrave" horiz-adv-x="289" d="M209 633V0H80V633H209ZM104 678L-5 824H119L191 678H104Z" />
<glyph unicode="&#xcd;" glyph-name="Iacute" horiz-adv-x="289" d="M209 633V0H80V633H209ZM295 823L186 677H99L171 823H295Z" />
<glyph unicode="&#xce;" glyph-name="Icircumflex" horiz-adv-x="289" d="M209 633V0H80V633H209ZM104 834H184Q201 809 222 778Q265 716 283 688H192L146 762L94 688H4L104 834Z" />
<glyph unicode="&#xcf;" glyph-name="Idieresis" horiz-adv-x="289" d="M209 633V0H80V633H209ZM-16 746Q-16 774 4 793T52 813Q77 813 97 793T117 746Q117 718 98 698T52 678Q22 678 3 697T-16 746ZM168 746Q168 773 188 793T234 813Q262 813 282 793T302 746Q302
716 283 697T234 678Q206 678 187 697T168 746Z" />
<glyph unicode="&#xd0;" glyph-name="Eth" horiz-adv-x="635" d="M106 277H31V374H106V628Q115 632 180 638T279 645Q448 645 539 545Q617 460 617 323Q617 154 520 66Q434 -12 285 -12Q252 -12 182 -6T106 3V277ZM237 91Q246 88 285 88Q384 88 435 153Q481 213
481 319Q481 433 416 494Q363 544 282 544Q281 544 277 544Q271 544 268 544Q243 544 237 541V374H383V277H237V91Z" />
<glyph unicode="&#xd1;" glyph-name="Ntilde" horiz-adv-x="718" d="M209 424V0H80V633H189Q349 425 507 196V633H638V0H526Q432 111 209 424ZM494 792Q474 690 403 690Q375 690 341 709Q308 729 292 729Q267 729 246 684L201 715Q222 819 292 819Q318 819 355
793Q385 773 401 773Q422 773 448 826L494 792Z" />
<glyph unicode="&#xd2;" glyph-name="Ograve" horiz-adv-x="654" d="M327 645Q473 645 552 529Q614 438 614 309Q614 161 533 72Q456 -12 327 -12Q179 -12 102 96Q40 181 40 309Q40 459 121 554Q198 645 327 645ZM327 98Q399 98 438 152T477 309Q477 418 434 479Q394
533 327 533Q255 533 216 474T176 309Q176 98 327 98ZM288 675L179 821H303L375 675H288Z" />
<glyph unicode="&#xd3;" glyph-name="Oacute" horiz-adv-x="654" d="M327 645Q473 645 552 529Q614 438 614 309Q614 161 533 72Q456 -12 327 -12Q179 -12 102 96Q40 181 40 309Q40 459 121 554Q198 645 327 645ZM327 98Q399 98 438 152T477 309Q477 418 434 479Q394
533 327 533Q255 533 216 474T176 309Q176 98 327 98ZM471 823L362 677H275L347 823H471Z" />
<glyph unicode="&#xd4;" glyph-name="Ocircumflex" horiz-adv-x="654" d="M327 645Q473 645 552 529Q614 438 614 309Q614 161 533 72Q456 -12 327 -12Q179 -12 102 96Q40 181 40 309Q40 459 121 554Q198 645 327 645ZM327 98Q399 98 438 152T477 309Q477 418
434 479Q394 533 327 533Q255 533 216 474T176 309Q176 98 327 98ZM289 825H369Q386 800 407 769Q450 707 468 679H377L331 753L279 679H189L289 825Z" />
<glyph unicode="&#xd5;" glyph-name="Otilde" horiz-adv-x="654" d="M327 645Q473 645 552 529Q614 438 614 309Q614 161 533 72Q456 -12 327 -12Q179 -12 102 96Q40 181 40 309Q40 459 121 554Q198 645 327 645ZM327 98Q399 98 438 152T477 309Q477 418 434 479Q394
533 327 533Q255 533 216 474T176 309Q176 98 327 98ZM469 780Q449 678 378 678Q350 678 316 697Q283 717 267 717Q242 717 221 672L176 703Q197 807 267 807Q293 807 330 781Q360 761 376 761Q397 761 423 814L469 780Z" />
<glyph unicode="&#xd6;" glyph-name="Odieresis" horiz-adv-x="654" d="M327 645Q473 645 552 529Q614 438 614 309Q614 161 533 72Q456 -12 327 -12Q179 -12 102 96Q40 181 40 309Q40 459 121 554Q198 645 327 645ZM327 98Q399 98 438 152T477 309Q477 418 434
479Q394 533 327 533Q255 533 216 474T176 309Q176 98 327 98ZM171 752Q171 780 191 799T239 819Q264 819 284 799T304 752Q304 724 285 704T239 684Q209 684 190 703T171 752ZM355 752Q355 779 375 799T421 819Q449 819 469 799T489 752Q489 722 470 703T421 684Q393
684 374 703T355 752Z" />
<glyph unicode="&#xd7;" glyph-name="multiply" horiz-adv-x="479" d="M247 154L83 -11L5 65L171 232L15 392L92 467L244 309L398 471L474 392L318 231L472 61L397 -11L247 154Z" />
<glyph unicode="&#xd8;" glyph-name="Oslash" horiz-adv-x="654" d="M566 645L526 561Q614 465 614 309Q614 160 532 72Q452 -12 317 -12Q296 -12 250 -5L236 -30H136L165 32Q40 115 40 309Q40 459 121 554Q198 645 327 645Q394 645 451 618L464 645H566ZM399
512Q366 533 327 533Q255 533 216 474T176 309Q176 198 221 144Q339 390 399 512ZM298 96Q306 93 327 93Q398 93 437 149T477 309Q477 372 463 435L298 96Z" />
<glyph unicode="&#xd9;" glyph-name="Ugrave" horiz-adv-x="648" d="M568 266Q568 -12 324 -12Q80 -12 80 266V633H212V248Q212 98 324 98Q438 98 438 248V633H568V266ZM279 676L170 822H294L366 676H279Z" />
<glyph unicode="&#xda;" glyph-name="Uacute" horiz-adv-x="648" d="M568 266Q568 -12 324 -12Q80 -12 80 266V633H212V248Q212 98 324 98Q438 98 438 248V633H568V266ZM473 822L364 676H277L349 822H473Z" />
<glyph unicode="&#xdb;" glyph-name="Ucircumflex" horiz-adv-x="648" d="M568 266Q568 -12 324 -12Q80 -12 80 266V633H212V248Q212 98 324 98Q438 98 438 248V633H568V266ZM282 822H362Q379 797 400 766Q443 704 461 676H370L324 750L272 676H182L282 822Z" />
<glyph unicode="&#xdc;" glyph-name="Udieresis" horiz-adv-x="648" d="M568 266Q568 -12 324 -12Q80 -12 80 266V633H212V248Q212 98 324 98Q438 98 438 248V633H568V266ZM165 752Q165 780 185 799T233 819Q258 819 278 799T298 752Q298 724 279 704T233 684Q203
684 184 703T165 752ZM349 752Q349 779 369 799T415 819Q443 819 463 799T483 752Q483 722 464 703T415 684Q387 684 368 703T349 752Z" />
<glyph unicode="&#xdd;" glyph-name="Yacute" horiz-adv-x="573" d="M5 633H146Q216 491 288 349L427 633H568L353 250V0H222V250Q108 450 5 633ZM421 818L312 672H225L297 818H421Z" />
<glyph unicode="&#xde;" glyph-name="Thorn" horiz-adv-x="513" d="M80 0V633H210V535Q238 537 248 537Q249 537 253 537Q256 537 258 537Q498 537 498 336Q498 228 426 173Q367 129 276 129Q269 129 233 131Q214 132 211 132V0H80ZM211 436V234Q247 231 276 231Q362
231 362 336Q362 436 267 436H211Z" />
<glyph unicode="&#xdf;" glyph-name="germandbls" horiz-adv-x="512" d="M332 332Q474 308 474 172Q474 72 416 24Q372 -12 305 -12Q259 -12 219 8L243 84Q255 76 280 76Q325 76 325 174Q325 267 257 267H222V379H254Q315 379 315 474Q315 510 298 531T253 552Q192
552 192 474V0H68V459Q68 643 254 643Q348 643 403 587Q449 541 449 474Q449 419 416 379T332 332Z" />
<glyph unicode="&#xe0;" glyph-name="agrave" horiz-adv-x="502" d="M434 0H333L323 43Q257 -12 189 -12Q38 -12 38 135Q38 208 101 249Q165 291 290 291H311V293Q311 336 293 352T228 368Q162 368 107 326Q89 359 73 391Q130 435 172 450T274 466Q434 466 434
266V0ZM307 214H292Q235 214 200 194T165 141Q165 79 219 79Q252 79 277 98T307 146V214ZM230 526L121 672H245L317 526H230Z" />
<glyph unicode="&#xe1;" glyph-name="aacute" horiz-adv-x="502" d="M434 0H333L323 43Q257 -12 189 -12Q38 -12 38 135Q38 208 101 249Q165 291 290 291H311V293Q311 336 293 352T228 368Q162 368 107 326Q89 359 73 391Q130 435 172 450T274 466Q434 466 434
266V0ZM307 214H292Q235 214 200 194T165 141Q165 79 219 79Q252 79 277 98T307 146V214ZM402 671L293 525H206L278 671H402Z" />
<glyph unicode="&#xe2;" glyph-name="acircumflex" horiz-adv-x="502" d="M434 0H333L323 43Q257 -12 189 -12Q38 -12 38 135Q38 208 101 249Q165 291 290 291H311V293Q311 336 293 352T228 368Q162 368 107 326Q89 359 73 391Q130 435 172 450T274 466Q434 466
434 266V0ZM307 214H292Q235 214 200 194T165 141Q165 79 219 79Q252 79 277 98T307 146V214ZM223 655H303Q320 630 341 599Q384 537 402 509H311L265 583L213 509H123L223 655Z" />
<glyph unicode="&#xe3;" glyph-name="atilde" horiz-adv-x="502" d="M434 0H333L323 43Q257 -12 189 -12Q38 -12 38 135Q38 208 101 249Q165 291 290 291H311V293Q311 336 293 352T228 368Q162 368 107 326Q89 359 73 391Q130 435 172 450T274 466Q434 466 434
266V0ZM307 214H292Q235 214 200 194T165 141Q165 79 219 79Q252 79 277 98T307 146V214ZM409 628Q389 526 318 526Q290 526 256 545Q223 565 207 565Q182 565 161 520L116 551Q137 655 207 655Q233 655 270 629Q300 609 316 609Q337 609 363 662L409 628Z" />
<glyph unicode="&#xe4;" glyph-name="adieresis" horiz-adv-x="502" d="M434 0H333L323 43Q257 -12 189 -12Q38 -12 38 135Q38 208 101 249Q165 291 290 291H311V293Q311 336 293 352T228 368Q162 368 107 326Q89 359 73 391Q130 435 172 450T274 466Q434 466
434 266V0ZM307 214H292Q235 214 200 194T165 141Q165 79 219 79Q252 79 277 98T307 146V214ZM104 578Q104 606 124 625T172 645Q197 645 217 625T237 578Q237 550 218 530T172 510Q142 510 123 529T104 578ZM288 578Q288 605 308 625T354 645Q382 645 402 625T422
578Q422 548 403 529T354 510Q326 510 307 529T288 578Z" />
<glyph unicode="&#xe5;" glyph-name="aring" horiz-adv-x="502" d="M434 0H333L323 43Q257 -12 189 -12Q38 -12 38 135Q38 208 101 249Q165 291 290 291H311V293Q311 336 293 352T228 368Q162 368 107 326Q89 359 73 391Q130 435 172 450T274 466Q434 466 434
266V0ZM307 214H292Q235 214 200 194T165 141Q165 79 219 79Q252 79 277 98T307 146V214ZM265 668Q300 668 325 644T350 584Q350 549 325 524T265 499Q230 499 206 524T181 584Q181 619 205 643T265 668ZM265 617Q232 615 232 584Q232 550 265 550Q299 550 299
584Q299 615 265 617Z" />
<glyph unicode="&#xe6;" glyph-name="ae" horiz-adv-x="795" d="M757 186H445Q449 140 482 110T562 79Q627 79 698 119L730 52Q658 -12 550 -12Q491 -12 441 13T365 82Q305 -12 189 -12Q38 -12 38 135Q38 208 101 249Q165 291 290 291H311V293Q311 336 293 352T228
368Q162 368 107 326Q89 359 73 391Q130 435 172 450T274 466Q351 466 392 416Q453 466 537 466Q645 466 705 393Q757 331 757 232V186ZM307 214H292Q235 214 200 194T165 141Q165 79 219 79Q252 79 277 98T307 146V214ZM438 279H631Q626 377 536 377Q449 377 438
279Z" />
<glyph unicode="&#xe7;" glyph-name="ccedilla" horiz-adv-x="477" d="M214 -55L228 -7Q135 9 83 79Q38 140 38 225Q38 335 114 405Q180 466 275 466Q380 466 444 400L406 332Q355 377 295 377Q239 377 203 334T167 222Q167 159 202 119T293 78Q359 78 406 127L449
58Q390 0 315 -10L310 -24H316Q344 -24 361 -41T379 -86Q379 -123 351 -144T275 -165Q226 -165 185 -149L199 -99Q235 -108 254 -108Q292 -108 292 -82Q292 -53 247 -53Q229 -53 214 -55Z" />
<glyph unicode="&#xe8;" glyph-name="egrave" horiz-adv-x="526" d="M488 186H176Q180 140 213 110T293 79Q358 79 429 119L461 52Q389 -12 281 -12Q165 -12 100 54Q38 116 38 225Q38 332 108 402Q171 466 268 466Q376 466 436 393Q488 331 488 232V186ZM169 279H362Q357
377 267 377Q180 377 169 279ZM229 509L120 655H244L316 509H229Z" />
<glyph unicode="&#xe9;" glyph-name="eacute" horiz-adv-x="526" d="M488 186H176Q180 140 213 110T293 79Q358 79 429 119L461 52Q389 -12 281 -12Q165 -12 100 54Q38 116 38 225Q38 332 108 402Q171 466 268 466Q376 466 436 393Q488 331 488 232V186ZM169 279H362Q357
377 267 377Q180 377 169 279ZM411 655L302 509H215L287 655H411Z" />
<glyph unicode="&#xea;" glyph-name="ecircumflex" horiz-adv-x="526" d="M488 186H176Q180 140 213 110T293 79Q358 79 429 119L461 52Q389 -12 281 -12Q165 -12 100 54Q38 116 38 225Q38 332 108 402Q171 466 268 466Q376 466 436 393Q488 331 488 232V186ZM169
279H362Q357 377 267 377Q180 377 169 279ZM224 655H304Q321 630 342 599Q385 537 403 509H312L266 583L214 509H124L224 655Z" />
<glyph unicode="&#xeb;" glyph-name="edieresis" horiz-adv-x="526" d="M488 186H176Q180 140 213 110T293 79Q358 79 429 119L461 52Q389 -12 281 -12Q165 -12 100 54Q38 116 38 225Q38 332 108 402Q171 466 268 466Q376 466 436 393Q488 331 488 232V186ZM169
279H362Q357 377 267 377Q180 377 169 279ZM103 578Q103 606 123 625T171 645Q196 645 216 625T236 578Q236 550 217 530T171 510Q141 510 122 529T103 578ZM287 578Q287 605 307 625T353 645Q381 645 401 625T421 578Q421 548 402 529T353 510Q325 510 306 529T287
578Z" />
<glyph unicode="&#xec;" glyph-name="igrave" horiz-adv-x="261" d="M212 454V0H88V454H212ZM104 509L-5 655H119L191 509H104Z" />
<glyph unicode="&#xed;" glyph-name="iacute" horiz-adv-x="261" d="M212 454V0H88V454H212ZM301 655L192 509H105L177 655H301Z" />
<glyph unicode="&#xee;" glyph-name="icircumflex" horiz-adv-x="261" d="M212 454V0H88V454H212ZM108 655H188Q205 630 226 599Q269 537 287 509H196L150 583L98 509H8L108 655Z" />
<glyph unicode="&#xef;" glyph-name="idieresis" horiz-adv-x="261" d="M212 454V0H88V454H212ZM-2 578Q-2 606 18 625T66 645Q91 645 111 625T131 578Q131 550 112 530T66 510Q36 510 17 529T-2 578ZM182 578Q182 605 202 625T248 645Q276 645 296 625T316 578Q316
548 297 529T248 510Q220 510 201 529T182 578Z" />
<glyph unicode="&#xf0;" glyph-name="eth" horiz-adv-x="522" d="M230 559Q216 563 191 574Q155 589 125 599Q138 610 164 628L170 633Q181 641 187 645Q256 632 318 607Q379 635 420 656Q431 645 451 624Q473 601 484 590Q463 580 423 562Q402 552 392 547Q429
507 451 442T474 309Q474 161 415 75Q356 -12 245 -12Q139 -12 81 72Q38 135 38 220Q38 324 110 377Q161 414 224 414Q248 414 275 405Q321 386 342 365Q339 471 304 498Q283 487 241 466Q209 451 193 443Q182 453 157 476Q137 495 126 505Q149 516 189 537Q217
553 230 559ZM343 278Q313 321 252 321Q169 321 169 205Q169 87 238 87Q338 87 343 278Z" />
<glyph unicode="&#xf1;" glyph-name="ntilde" horiz-adv-x="549" d="M190 410Q210 433 250 449T326 466Q412 466 450 419T489 267V0H362V262Q362 360 275 360Q253 360 228 351T194 329V0H68V454H175Q180 428 185 410H190ZM424 628Q404 526 333 526Q305 526 271
545Q238 565 222 565Q197 565 176 520L131 551Q152 655 222 655Q248 655 285 629Q315 609 331 609Q352 609 378 662L424 628Z" />
<glyph unicode="&#xf2;" glyph-name="ograve" horiz-adv-x="528" d="M260 466Q372 466 434 387Q486 321 486 226Q486 115 409 46Q345 -12 260 -12Q161 -12 94 62Q34 129 34 226Q34 336 101 404Q162 466 260 466ZM260 82Q357 82 357 226Q357 376 260 376Q163 376
163 226Q163 82 260 82ZM226 509L117 655H241L313 509H226Z" />
<glyph unicode="&#xf3;" glyph-name="oacute" horiz-adv-x="528" d="M260 466Q372 466 434 387Q486 321 486 226Q486 115 409 46Q345 -12 260 -12Q161 -12 94 62Q34 129 34 226Q34 336 101 404Q162 466 260 466ZM260 82Q357 82 357 226Q357 376 260 376Q163 376
163 226Q163 82 260 82ZM403 655L294 509H207L279 655H403Z" />
<glyph unicode="&#xf4;" glyph-name="ocircumflex" horiz-adv-x="528" d="M260 466Q372 466 434 387Q486 321 486 226Q486 115 409 46Q345 -12 260 -12Q161 -12 94 62Q34 129 34 226Q34 336 101 404Q162 466 260 466ZM260 82Q357 82 357 226Q357 376 260 376Q163
376 163 226Q163 82 260 82ZM221 655H301Q318 630 339 599Q382 537 400 509H309L263 583L211 509H121L221 655Z" />
<glyph unicode="&#xf5;" glyph-name="otilde" horiz-adv-x="528" d="M260 466Q372 466 434 387Q486 321 486 226Q486 115 409 46Q345 -12 260 -12Q161 -12 94 62Q34 129 34 226Q34 336 101 404Q162 466 260 466ZM260 82Q357 82 357 226Q357 376 260 376Q163 376
163 226Q163 82 260 82ZM408 628Q388 526 317 526Q289 526 255 545Q222 565 206 565Q181 565 160 520L115 551Q136 655 206 655Q232 655 269 629Q299 609 315 609Q336 609 362 662L408 628Z" />
<glyph unicode="&#xf6;" glyph-name="odieresis" horiz-adv-x="528" d="M260 466Q372 466 434 387Q486 321 486 226Q486 115 409 46Q345 -12 260 -12Q161 -12 94 62Q34 129 34 226Q34 336 101 404Q162 466 260 466ZM260 82Q357 82 357 226Q357 376 260 376Q163
376 163 226Q163 82 260 82ZM106 578Q106 606 126 625T174 645Q199 645 219 625T239 578Q239 550 220 530T174 510Q144 510 125 529T106 578ZM290 578Q290 605 310 625T356 645Q384 645 404 625T424 578Q424 548 405 529T356 510Q328 510 309 529T290 578Z" />
<glyph unicode="&#xf7;" glyph-name="divide" horiz-adv-x="458" d="M229 319Q199 319 181 338T162 389Q162 419 180 437T229 456Q260 456 278 438T297 389Q297 357 279 338T229 319ZM47 157V283H412V157H47ZM229 -20Q199 -20 181 -1T162 49Q162 79 180 98T229
117Q260 117 278 98T297 49Q297 18 279 -1T229 -20Z" />
<glyph unicode="&#xf8;" glyph-name="oslash" horiz-adv-x="520" d="M127 33Q38 102 38 226Q38 337 103 404Q163 466 262 466Q288 466 319 459L333 489H415L388 428Q482 361 482 226Q482 115 407 46Q345 -12 260 -12Q225 -12 196 -2L184 -30H98L127 33ZM235 85Q247
82 260 82Q353 82 353 226Q353 281 339 318L235 85ZM281 374Q269 376 262 376Q217 376 192 337T167 226Q167 179 178 146L281 374Z" />
<glyph unicode="&#xf9;" glyph-name="ugrave" horiz-adv-x="538" d="M364 52Q314 -12 227 -12Q141 -12 105 32T68 182V454H192V215Q192 147 210 120T272 92Q291 92 315 102T344 123V454H470V0H376L365 52H364ZM220 509L111 655H235L307 509H220Z" />
<glyph unicode="&#xfa;" glyph-name="uacute" horiz-adv-x="538" d="M364 52Q314 -12 227 -12Q141 -12 105 32T68 182V454H192V215Q192 147 210 120T272 92Q291 92 315 102T344 123V454H470V0H376L365 52H364ZM421 655L312 509H225L297 655H421Z" />
<glyph unicode="&#xfb;" glyph-name="ucircumflex" horiz-adv-x="538" d="M364 52Q314 -12 227 -12Q141 -12 105 32T68 182V454H192V215Q192 147 210 120T272 92Q291 92 315 102T344 123V454H470V0H376L365 52H364ZM232 655H312Q329 630 350 599Q393 537 411 509H320L274
583L222 509H132L232 655Z" />
<glyph unicode="&#xfc;" glyph-name="udieresis" horiz-adv-x="538" d="M364 52Q314 -12 227 -12Q141 -12 105 32T68 182V454H192V215Q192 147 210 120T272 92Q291 92 315 102T344 123V454H470V0H376L365 52H364ZM114 578Q114 606 134 625T182 645Q207 645 227
625T247 578Q247 550 228 530T182 510Q152 510 133 529T114 578ZM298 578Q298 605 318 625T364 645Q392 645 412 625T432 578Q432 548 413 529T364 510Q336 510 317 529T298 578Z" />
<glyph unicode="&#xfd;" glyph-name="yacute" horiz-adv-x="479" d="M474 454Q434 342 364 153Q313 12 284 -66Q237 -191 152 -191Q86 -191 16 -134Q36 -100 50 -74Q87 -98 115 -98Q156 -98 188 0H164L5 454H130Q141 421 164 351L170 335Q213 205 232 144L348
454H474ZM384 651L275 505H188L260 651H384Z" />
<glyph unicode="&#xfe;" glyph-name="thorn" horiz-adv-x="547" d="M68 581Q82 589 114 605L121 609L130 614Q170 634 191 646V427Q191 425 192 425Q193 425 198 430Q235 466 291 466Q396 466 457 392Q509 330 509 236Q509 113 433 44Q373 -12 286 -12Q258 -12
228 -2T191 20V-178H68V581ZM191 302V139Q192 115 217 96T272 76Q318 76 348 118T379 226Q379 295 352 335T279 375Q251 375 226 354T191 302Z" />
<glyph unicode="&#xff;" glyph-name="ydieresis" horiz-adv-x="479" d="M474 454Q365 153 284 -66Q235 -191 152 -191Q86 -191 16 -134Q22 -123 33 -104Q45 -84 50 -74Q87 -98 107 -98Q110 -98 114 -98H115Q120 -99 122 -99Q144 -99 185 0H164L79 242L5 454H130L229
144Q256 215 315 367L348 454H474ZM77 578Q77 606 96 625T145 645Q171 645 191 625T212 578Q212 549 193 530T145 510Q114 510 96 528T77 578ZM261 578Q261 605 281 625T328 645Q355 645 375 625T396 578Q396 549 377 530T328 510Q299 510 280 529T261 578Z" />
<glyph unicode="&#x2013;" glyph-name="endash" horiz-adv-x="397" d="M73 117V243H324V117H73Z" />
<glyph unicode="&#x2014;" glyph-name="emdash" horiz-adv-x="648" d="M73 117V243H575V117H73Z" />
<glyph unicode="&#x2018;" glyph-name="quoteleft" horiz-adv-x="321" d="M177 538Q212 538 233 516T255 457Q255 417 230 391T166 365Q126 365 102 392T77 465V638L168 671V538H177Z" />
<glyph unicode="&#x2019;" glyph-name="quoteright" horiz-adv-x="321" d="M144 494Q109 494 88 516T66 575Q66 615 91 641T155 667Q195 667 219 640T244 567V393L153 361V494H144Z" />
<glyph unicode="&#x201a;" glyph-name="quotesinglbase" horiz-adv-x="321" d="M143 -1Q108 -1 87 21T65 80Q65 120 90 146T154 172Q194 172 218 145T243 72V-102L152 -134V-1H143Z" />
<glyph unicode="&#x201c;" glyph-name="quotedblleft" horiz-adv-x="536" d="M177 540Q212 540 233 518T255 459Q255 419 230 393T166 367Q126 367 102 394T77 467V641L168 674V540H177ZM393 540Q428 540 449 518T471 459Q471 419 446 393T382 367Q342 367 318
394T293 467V641L384 674V540H393Z" />
<glyph unicode="&#x201d;" glyph-name="quotedblright" horiz-adv-x="541" d="M362 494Q327 494 306 516T284 575Q284 615 309 641T373 667Q413 667 437 640T462 567V393L371 361V494H362ZM146 494Q111 494 90 516T68 575Q68 615 93 641T157 667Q197 667 221 640T246
567V393L155 361V494H146Z" />
<glyph unicode="&#x201e;" glyph-name="quotedblbase" horiz-adv-x="541" d="M363 -2Q328 -2 307 20T285 79Q285 118 310 144T374 171Q414 171 438 144T463 71V-103L372 -136V-2H363ZM147 -2Q112 -2 91 20T69 79Q69 118 94 144T158 171Q198 171 222 144T247 71V-103L156
-136V-2H147Z" />
<glyph unicode="&#x2022;" glyph-name="bullet" horiz-adv-x="331" d="M44 328Q44 378 79 413T164 448Q215 448 251 413T287 328Q287 279 251 244T164 209Q113 209 79 243T44 328Z" />
<glyph unicode="&#x2039;" glyph-name="guilsinglleft" horiz-adv-x="373" d="M331 1Q244 4 161 82Q89 149 52 245Q95 354 180 424Q255 485 331 487V372Q231 334 187 245Q230 157 331 117V1Z" />
<glyph unicode="&#x203a;" glyph-name="guilsinglright" horiz-adv-x="373" d="M42 1V117Q143 157 186 245Q142 334 42 372V487Q129 485 212 407Q284 340 321 245Q278 134 193 64Q118 3 42 1Z" />
</font>
</defs>
</svg>
