<?xml version="1.0" standalone="no"?>
<!DOCTYPE svg PUBLIC "-//W3C//DTD SVG 1.1//EN" "http://www.w3.org/Graphics/SVG/1.1/DTD/svg11.dtd">
<svg xmlns="http://www.w3.org/2000/svg">
<defs >
<font id="SairaSemiCondensed" horiz-adv-x="510" ><font-face
    font-family="Saira SemiCondensed SemiBold"
    units-per-em="1000"
    panose-1="0 0 7 6 0 0 0 0 0 0"
    ascent="1135"
    descent="-439"
    alphabetic="0" />
<glyph unicode=" " glyph-name="space" horiz-adv-x="216" />
<glyph unicode="!" glyph-name="exclam" horiz-adv-x="272" d="M93 245T81 412T68 629V688H212V629Q212 580 200 413T183 216H97Q93 245 81 412ZM73 0V125H206V0H73Z" />
<glyph unicode="&quot;" glyph-name="quotedbl" horiz-adv-x="392" d="M70 433L56 627V688H169V627L155 433H70ZM236 433L222 627V688H335V627L321 433H236Z" />
<glyph unicode="#" glyph-name="numbersign" horiz-adv-x="663" d="M309 0L343 182H218L184 0H98L131 182H52V267H147L175 418H82V502H191L226 688H313L278 502H403L438 688H525L490 502H573V418H474L446 267H544V182H430L396 0H309ZM387 418H262L234 267H359L387 418Z" />
<glyph unicode="$" glyph-name="dollar" horiz-adv-x="476" d="M196 69Q119 72 65 84V181Q148 173 216 173Q256 173 274 178T298 194T304 230Q304 256 301 266T289 281T257 288L167 301Q119 308 94 326T60 376T50 459Q50 539 87 575T196 617V696H285V618Q347 615
398 602V505Q323 515 259 515Q223 515 205 512T179 496T171 460Q171 435 174 425T185 412T215 405L316 392Q354 387 377 374T412 328T424 236Q424 149 390 113T285 70V-8H196V69Z" />
<glyph unicode="%" glyph-name="percent" horiz-adv-x="785" d="M121 311T93 327T57 381T49 503Q49 587 57 625T93 679T185 696Q248 696 276 680T312 625T320 503Q320 419 312 382T277 328T185 311Q121 311 93 327ZM150 0L555 688H635L230 0H150ZM214 376T224
382T237 412T240 503Q240 570 237 594T224 624T185 630Q155 630 145 624T132 594T129 503Q129 436 132 412T145 382T185 376Q214 376 224 382ZM537 -8T509 8T473 62T465 184Q465 268 473 306T509 360T601 377Q664 377 692 361T729 306T737 184Q737 100 729 63T693
9T601 -8Q537 -8 509 8ZM631 57T641 63T653 92T656 184Q656 252 654 275T641 304T601 311Q572 311 562 305T549 275T546 184Q546 117 549 93T562 63T601 57Q631 57 641 63Z" />
<glyph unicode="&amp;" glyph-name="ampersand" horiz-adv-x="644" d="M619 398V296H524V11Q478 3 420 -2T316 -8Q208 -8 151 14T72 77T51 183Q51 238 63 271T100 321T163 349V353Q108 367 83 404T57 516Q57 575 80 614T160 674T317 696Q361 696 417 691T521 676V581Q482
586 433 589T348 593Q272 593 238 585T192 557T180 494Q180 458 186 439T213 409T276 398H332V296H276Q231 296 210 287T181 257T174 195Q174 150 188 129T233 100T323 93Q361 93 404 98V398H619Z" />
<glyph unicode="&apos;" glyph-name="quotesingle" horiz-adv-x="225" d="M70 433L56 627V688H169V627L155 433H70Z" />
<glyph unicode="(" glyph-name="parenleft" horiz-adv-x="308" d="M140 -72T114 -25T75 95T62 297Q62 426 75 499T114 622T199 743H288Q243 676 223 634T191 515T179 297Q179 156 190 79T222 -41T288 -150H199Q140 -72 114 -25Z" />
<glyph unicode=")" glyph-name="parenright" horiz-adv-x="308" d="M64 -83T84 -41T116 78T128 297Q128 437 117 514T85 634T19 743H108Q166 672 193 623T232 500T245 297Q245 168 233 96T194 -25T108 -150H19Q64 -83 84 -41Z" />
<glyph unicode="*" glyph-name="asterisk" horiz-adv-x="427" d="M239 468L249 340H178L188 468L80 395L44 458L161 513L44 570L80 633L188 559L178 688H249L239 560L347 633L382 570L265 513L382 458L347 395L239 468Z" />
<glyph unicode="+" glyph-name="plus" horiz-adv-x="508" d="M205 62V204H64V301H205V442H303V301H444V204H303V62H205Z" />
<glyph unicode="," glyph-name="comma" horiz-adv-x="249" d="M73 -85T85 -80T103 -60T108 -16V0H58V125H191V35Q191 -41 182 -76T143 -125T48 -140V-85Q73 -85 85 -80Z" />
<glyph unicode="-" glyph-name="hyphen" horiz-adv-x="335" d="M52 232V338H283V232H52Z" />
<glyph unicode="." glyph-name="period" horiz-adv-x="249" d="M58 0V125H191V0H58Z" />
<glyph unicode="/" glyph-name="slash" horiz-adv-x="354" d="M3 -55L244 743H350L109 -55H3Z" />
<glyph unicode="0" glyph-name="zero" horiz-adv-x="575" d="M175 -8T127 21T66 119T53 344Q53 501 66 569T127 666T287 696Q400 696 448 667T508 570T521 344Q521 186 509 119T448 22T287 -8Q175 -8 127 21ZM344 102T363 114T388 170T394 344Q394 473 389 517T364
574T287 586Q231 586 211 574T186 517T180 344Q180 216 185 171T211 114T287 102Q344 102 363 114Z" />
<glyph unicode="1" glyph-name="one" horiz-adv-x="346" d="M142 0V543L23 492V606L179 688H270V0H142Z" />
<glyph unicode="2" glyph-name="two" horiz-adv-x="532" d="M175 111H481V0H50V88Q50 177 56 220T82 290T150 339L233 378Q252 386 290 404Q318 417 331 428T348 455T353 500Q353 540 342 557T307 580T229 586Q166 586 61 574V676Q101 685 159 690T267 696Q336
696 381 684T453 630T481 509Q481 449 470 413T437 354T377 315L222 244Q207 237 199 232T186 218Q180 207 178 190T175 138V111Z" />
<glyph unicode="3" glyph-name="three" horiz-adv-x="523" d="M188 -8T134 -3T40 11V112Q138 102 213 102Q265 102 290 107T328 132T341 195Q341 235 332 256T303 285T245 293H137V403H245Q277 403 296 409T325 436T335 494Q335 537 324 556T287 580T205 586Q129
586 43 575V677Q81 685 134 690T232 696Q318 696 368 677T441 619T463 516Q463 442 438 404T359 353V349Q416 336 443 300T470 183Q470 118 450 77T377 14T231 -8Q188 -8 134 -3Z" />
<glyph unicode="4" glyph-name="four" horiz-adv-x="560" d="M325 0V145H32V242L237 688H373L167 254H326L358 448H453V254H531V145H453V0H325Z" />
<glyph unicode="5" glyph-name="five" horiz-adv-x="539" d="M160 102T232 102Q287 102 314 111T352 142T362 210Q362 258 351 280T312 309T226 316Q158 316 68 305V688H450V577H185V418Q206 421 239 423T296 426Q374 426 416 403T475 335T491 222Q491 137 472
88T401 16T253 -8Q210 -8 156 -3T62 11V112Q160 102 232 102Z" />
<glyph unicode="6" glyph-name="six" horiz-adv-x="572" d="M226 -8T185 0T117 34T75 108Q53 175 53 340Q53 421 58 477T77 572Q100 641 152 668T308 696Q346 696 398 690T493 675V573Q400 586 333 586Q262 586 232 571T192 515T182 378H189Q224 426 332 426Q402
426 442 411T503 353T524 226Q524 133 506 84T439 14T296 -8Q226 -8 185 0ZM339 102T360 108T389 135T398 207Q398 260 390 282T361 310T290 317Q242 317 220 309T192 283T185 224Q185 166 194 141T223 109T290 102Q339 102 360 108Z" />
<glyph unicode="7" glyph-name="seven" horiz-adv-x="496" d="M95 0L327 577H30V688H464V589L234 0H95Z" />
<glyph unicode="8" glyph-name="eight" horiz-adv-x="589" d="M199 -8T147 13T74 75T53 183Q53 240 65 273T100 322T163 349V353Q109 366 84 404T58 516Q58 580 80 619T154 677T294 696Q383 696 434 677T508 619T530 516Q530 442 505 404T425 353V349Q464 339
488 323T524 273T536 183Q536 116 516 75T442 13T294 -8Q199 -8 147 13ZM341 400T363 407T393 433T402 494Q402 536 394 555T364 581T294 588Q247 588 225 581T195 555T187 494Q187 453 195 434T225 407T294 400Q341 400 363 407ZM342 100T364 106T397 133T407
196Q407 241 398 261T366 288T294 295Q245 295 223 289T191 262T182 196Q182 153 191 133T223 107T294 100Q342 100 364 106Z" />
<glyph unicode="9" glyph-name="nine" horiz-adv-x="572" d="M227 -8T175 -2T80 13V115Q121 109 165 106T239 102Q310 102 340 117T380 173T390 310H384Q348 262 240 262Q170 262 130 277T70 335T49 462Q49 555 67 604T133 674T276 696Q347 696 389 688T457 656T498
585Q510 547 514 491T519 348Q519 258 513 199T489 100Q465 40 413 16T264 -8Q227 -8 175 -2ZM330 371T352 379T381 405T388 464Q388 522 379 547T349 579T282 586Q233 586 212 580T183 553T174 481Q174 428 182 406T211 378T282 371Q330 371 352 379Z" />
<glyph unicode=":" glyph-name="colon" horiz-adv-x="249" d="M58 385V510H191V385H58ZM58 0V125H191V0H58Z" />
<glyph unicode=";" glyph-name="semicolon" horiz-adv-x="249" d="M58 385V510H191V385H58ZM73 -85T85 -80T103 -60T108 -16V0H58V125H191V35Q191 -41 182 -76T143 -125T48 -140V-85Q73 -85 85 -80Z" />
<glyph unicode="&lt;" glyph-name="less" horiz-adv-x="509" d="M445 55L65 201V304L445 451V350L176 253L445 155V55Z" />
<glyph unicode="=" glyph-name="equal" horiz-adv-x="508" d="M64 299V398H444V299H64ZM64 108V206H444V108H64Z" />
<glyph unicode="&gt;" glyph-name="greater" horiz-adv-x="509" d="M64 55V155L332 253L64 350V451L444 304V201L64 55Z" />
<glyph unicode="?" glyph-name="question" horiz-adv-x="450" d="M121 295Q121 332 127 353T147 385T184 408L213 420Q238 431 249 440T264 465T269 511Q269 546 259 561T228 581T162 586Q136 586 99 583T33 576V679Q70 686 120 691T211 696Q310 696 354 654T398
517Q398 450 380 413T320 356L288 344Q259 331 249 324T235 304T232 262V215H121V295ZM111 0V125H244V0H111Z" />
<glyph unicode="@" glyph-name="at" horiz-adv-x="822" d="M238 -108T170 -81T85 22T67 294Q67 491 84 566T170 668T411 696Q585 696 652 670T737 568T755 294Q755 188 744 143T709 86T633 75H484L479 127H472Q456 93 427 81T358 68Q296 68 269 98T241 199Q241
251 251 279T287 320T361 332Q399 332 477 328V349Q477 389 471 405T445 425T378 430Q351 430 319 428T264 424V505Q342 518 412 518Q486 518 522 501T571 447T583 343V129H642Q667 129 677 137T691 178T696 294Q696 437 691 498T661 591T581 633Q535 641 410 641Q301
641 255 635Q191 626 165 596T132 504T125 294Q125 132 134 69T178 -21T301 -51Q331 -53 411 -53Q454 -53 511 -52T582 -49V-106Q539 -108 411 -108Q238 -108 170 -81ZM434 153T449 160T471 185T477 238V264H390Q369 264 359 260T346 245T342 208Q342 184 346 173T363
158T403 153Q434 153 449 160Z" />
<glyph unicode="A" glyph-name="A" horiz-adv-x="595" d="M450 0L408 154H183L142 0H14L209 688H386L581 0H450ZM298 567H293L212 264H378L298 567Z" />
<glyph unicode="B" glyph-name="B" horiz-adv-x="587" d="M72 688H355Q446 688 489 645T532 515Q532 443 507 405T426 353V349Q488 336 513 298T539 183Q539 94 497 47T355 0H72V688ZM365 403T384 421T404 490Q404 527 397 545T371 570T314 578H199V403H314Q365
403 384 421ZM357 110T376 117T402 144T410 200Q410 238 402 257T375 285T319 293H199V110H319Q357 110 376 117Z" />
<glyph unicode="C" glyph-name="C" horiz-adv-x="488" d="M421 1T380 -3T303 -8Q192 -8 141 22T72 124T54 344Q54 492 71 563T141 665T303 696Q341 696 381 691T445 679V577Q369 586 332 586Q257 586 228 572T191 511T182 344Q182 224 190 178T228 117T332 102Q390
102 448 111V8Q421 1 380 -3Z" />
<glyph unicode="D" glyph-name="D" horiz-adv-x="594" d="M72 688H279Q406 688 459 660T526 566T540 344Q540 188 527 123T460 29T279 0H72V688ZM273 110Q346 110 371 121T404 176T412 344Q412 468 405 512T372 567T273 578H199V110H273Z" />
<glyph unicode="E" glyph-name="E" horiz-adv-x="520" d="M72 0V688H474V578H199V403H436V292H199V110H474V0H72Z" />
<glyph unicode="F" glyph-name="F" horiz-adv-x="486" d="M72 0V688H456V578H199V386H426V275H199V0H72Z" />
<glyph unicode="G" glyph-name="G" horiz-adv-x="582" d="M300 284V391H518V13Q475 4 418 -2T316 -8Q205 -8 150 21T75 123T54 344Q54 490 75 563T152 666T320 696Q366 696 421 690T515 675V572Q415 586 366 586Q276 586 242 574T195 514T182 344Q182 232 191
183T228 117T319 99Q362 99 395 104V284H300Z" />
<glyph unicode="H" glyph-name="H" horiz-adv-x="626" d="M427 0V289H199V0H71V688H199V404H427V688H555V0H427Z" />
<glyph unicode="I" glyph-name="I" horiz-adv-x="272" d="M72 0V688H200V0H72Z" />
<glyph unicode="J" glyph-name="J" horiz-adv-x="337" d="M84 105T107 113T135 147T141 251V688H269V296Q269 141 256 86T197 16T20 0V104Q84 105 107 113Z" />
<glyph unicode="K" glyph-name="K" horiz-adv-x="586" d="M430 0L263 294H199V0H72V688H199V405H263L434 688H570L366 359L573 0H430Z" />
<glyph unicode="L" glyph-name="L" horiz-adv-x="463" d="M72 0V688H199V114H442V0H72Z" />
<glyph unicode="M" glyph-name="M" horiz-adv-x="800" d="M605 0V503H600L450 0H346L197 503H192V0H71V688H256L398 208H404L546 688H728V0H605Z" />
<glyph unicode="N" glyph-name="N" horiz-adv-x="628" d="M436 0L198 435H194V0H71V688H201L430 275H434V688H557V0H436Z" />
<glyph unicode="O" glyph-name="O" horiz-adv-x="613" d="M185 -8T133 21T68 119T54 344Q54 501 67 569T133 666T306 696Q427 696 479 667T545 569T559 344Q559 187 546 119T480 22T306 -8Q185 -8 133 21ZM371 102T394 114T424 171T431 344Q431 471 425 516T395
574T306 586Q241 586 218 574T189 517T182 344Q182 216 188 171T218 114T306 102Q371 102 394 114Z" />
<glyph unicode="P" glyph-name="P" horiz-adv-x="564" d="M72 688H340Q418 688 459 662T515 587T530 460Q530 385 516 337T460 260T338 231H199V0H72V688ZM296 341Q346 341 367 350T395 383T402 460Q402 513 396 536T368 569T298 578H199V341H296Z" />
<glyph unicode="Q" glyph-name="Q" horiz-adv-x="613" d="M586 -111V-115H447L378 -5Q347 -8 306 -8Q185 -8 133 21T68 119T54 344Q54 501 67 569T133 666T306 696Q427 696 479 667T545 569T559 344Q559 245 555 189T537 93T492 31L586 -111ZM311 102L238 218H368L418
142Q426 165 428 208T431 344Q431 471 425 516T395 574T306 586Q241 586 218 574T189 517T182 344Q182 216 188 171T218 114T306 102H311Z" />
<glyph unicode="R" glyph-name="R" horiz-adv-x="589" d="M417 0L331 251H199V0H72V688H348Q428 688 469 663T525 591T539 470Q539 400 522 348T453 272L552 0H417ZM354 361T376 370T404 401T411 470Q411 518 405 539T377 569T307 578H199V361H306Q354 361 376 370Z" />
<glyph unicode="S" glyph-name="S" horiz-adv-x="536" d="M223 -8T164 -4T60 8V113Q172 102 238 102Q283 102 308 107T345 123Q357 133 360 149T363 195Q363 232 359 248T341 271T297 284L170 302Q98 311 71 357T44 492Q44 576 71 620T147 680T271 696Q322 696
374 691T461 677V574Q389 586 302 586Q258 586 233 582T194 569Q180 560 176 545T172 498Q172 464 176 449T192 428T233 418L361 401Q403 395 430 379T474 325Q491 283 491 207Q491 116 466 69T395 7T275 -8Q223 -8 164 -4Z" />
<glyph unicode="T" glyph-name="T" horiz-adv-x="501" d="M187 0V574H16V688H485V574H314V0H187Z" />
<glyph unicode="U" glyph-name="U" horiz-adv-x="607" d="M541 688V305Q541 169 526 107T462 18T304 -8Q195 -8 146 18T81 107T66 305V688H194V265Q194 186 200 155T227 113T304 102Q359 102 380 113T407 154T413 265V688H541Z" />
<glyph unicode="V" glyph-name="V" horiz-adv-x="574" d="M198 0L15 688H146L286 138H292L430 688H559L375 0H198Z" />
<glyph unicode="W" glyph-name="W" horiz-adv-x="870" d="M544 0L438 495H434L328 0H161L22 688H151L249 148H255L368 688H510L624 148H630L724 688H851L711 0H544Z" />
<glyph unicode="X" glyph-name="X" horiz-adv-x="590" d="M429 0L296 248H289L156 0H16L213 346L20 688H163L293 448H301L431 688H571L378 349L574 0H429Z" />
<glyph unicode="Y" glyph-name="Y" horiz-adv-x="541" d="M206 0V244L3 688H136L270 381H277L409 688H538L334 244V0H206Z" />
<glyph unicode="Z" glyph-name="Z" horiz-adv-x="526" d="M39 0V105L331 578H49V688H485V585L191 110H488V0H39Z" />
<glyph unicode="[" glyph-name="bracketleft" horiz-adv-x="327" d="M72 -150V743H289V662L184 658V-65L289 -69V-150H72Z" />
<glyph unicode="\" glyph-name="backslash" horiz-adv-x="354" d="M244 -55L3 743H109L350 -55H244Z" />
<glyph unicode="]" glyph-name="bracketright" horiz-adv-x="326" d="M38 -150V-69L142 -65V658L38 662V743H255V-150H38Z" />
<glyph unicode="^" glyph-name="asciicircum" horiz-adv-x="420" d="M297 459L210 662L122 459H26L160 749H260L393 459H297Z" />
<glyph unicode="_" glyph-name="underscore" horiz-adv-x="364" d="M0 -181V-84H364V-181H0Z" />
<glyph unicode="`" glyph-name="grave" horiz-adv-x="223" d="M118 599L13 738V743H135L210 604V599H118Z" />
<glyph unicode="a" glyph-name="a" horiz-adv-x="497" d="M103 -8T70 28T37 144Q37 204 50 237T94 286T182 302Q227 302 315 298V320Q315 367 307 386T276 411T198 417Q172 417 131 415T65 409V503Q152 518 236 518Q321 518 363 498T420 436T435 314V0H323L319
62H312Q281 -8 173 -8Q103 -8 70 28ZM256 93T272 98T300 120Q315 143 315 200V220H215Q189 220 177 216T159 198T154 155Q154 128 159 115T180 98T228 93Q256 93 272 98Z" />
<glyph unicode="b" glyph-name="b" horiz-adv-x="518" d="M271 -8T237 7T185 63H178L174 0H62V743H182V454H189Q207 489 239 503T319 518Q377 518 409 494T456 414T471 255Q471 152 456 96T408 16T316 -8Q271 -8 237 7ZM307 99T323 108T345 148T351 255Q351 330
346 360T324 400T266 410Q237 410 221 403T197 378Q188 361 185 332T182 255Q182 207 185 180T196 135Q204 115 220 107T266 99Q307 99 323 108Z" />
<glyph unicode="c" glyph-name="c" horiz-adv-x="404" d="M342 0T306 -4T238 -8Q152 -8 111 20T58 101T46 255Q46 353 59 408T113 490T236 518Q270 518 305 514T363 503V409Q320 417 268 417Q221 417 201 406T174 362T167 255Q167 180 174 148T201 104T269 93Q321
93 367 100V7Q342 0 306 -4Z" />
<glyph unicode="d" glyph-name="d" horiz-adv-x="518" d="M142 -8T109 15T61 94T46 254Q46 356 60 412T107 493T198 518Q246 518 278 504T328 454H335V743H455V0H343L339 63H332Q303 -8 201 -8Q142 -8 109 15ZM283 99T299 108T324 138Q330 156 332 183T335 255Q335
296 334 320T326 362Q319 388 302 399T252 410Q211 410 195 401T173 361T167 255Q167 179 172 149T194 109T252 99Q283 99 299 108Z" />
<glyph unicode="e" glyph-name="e" horiz-adv-x="493" d="M446 216H167Q167 156 173 133T204 101T290 92Q355 92 430 100V7Q401 0 354 -4T263 -8Q164 -8 119 17T60 95T46 254Q46 357 59 410T117 491T254 518Q345 518 385 492T436 415T446 254V216ZM213 419T196
410T174 377T167 298H332Q332 353 326 378T303 411T252 419Q213 419 196 410Z" />
<glyph unicode="f" glyph-name="f" horiz-adv-x="352" d="M102 409H20V510H102V556Q102 645 121 683T184 731T330 742V652Q280 652 259 648T231 629T223 579V510H330V409H223V0H102V409Z" />
<glyph unicode="g" glyph-name="g" horiz-adv-x="517" d="M196 -203T152 -200T80 -192V-99Q150 -102 209 -102Q270 -102 295 -93T327 -57T335 34V63H328Q312 28 280 14T201 -1Q141 -1 108 22T61 100T46 256Q46 359 61 415T109 494T202 518Q301 518 332 446H339L343
510H455V62Q455 -43 442 -96T382 -176T237 -203Q196 -203 152 -200ZM282 104T298 112T323 142Q330 159 332 186T335 257Q335 339 324 367Q316 391 300 400T252 410Q211 410 195 401T173 362T167 257Q167 183 172 153T194 114T252 104Q282 104 298 112Z" />
<glyph unicode="h" glyph-name="h" horiz-adv-x="524" d="M342 275Q342 342 338 368T318 402T266 410Q228 410 211 397T188 354T182 264V0H62V743H182V450H189Q205 485 238 501T321 518Q380 518 410 498T451 437T462 327V0H342V275Z" />
<glyph unicode="i" glyph-name="i" horiz-adv-x="245" d="M61 629V743H184V629H61ZM62 0V510H183V0H62Z" />
<glyph unicode="j" glyph-name="j" horiz-adv-x="245" d="M61 629V743H184V629H61ZM-14 -105Q21 -105 37 -100T57 -85T62 -52V510H183V-16Q183 -100 167 -137T111 -185T-14 -197V-105Z" />
<glyph unicode="k" glyph-name="k" horiz-adv-x="491" d="M342 0L222 205H182V0H62V743H182V305H222L344 510H472L319 265L474 0H342Z" />
<glyph unicode="l" glyph-name="l" horiz-adv-x="245" d="M62 0V743H183V0H62Z" />
<glyph unicode="m" glyph-name="m" horiz-adv-x="775" d="M593 275Q593 341 589 367T571 402T523 410Q489 410 474 397T453 355T448 264V0H328V275Q328 341 324 367T306 402T258 410Q224 410 208 397T187 354T182 264V0H62V510H174L178 446H185Q201 483 233 500T316
518Q370 518 398 501T438 446H445Q461 483 494 500T579 518Q634 518 663 498T702 437T713 328V0H593V275Z" />
<glyph unicode="n" glyph-name="n" horiz-adv-x="524" d="M342 275Q342 342 338 368T318 402T266 410Q228 410 211 397T188 354T182 264V0H62V510H174L178 446H185Q201 483 235 500T322 518Q381 518 411 498T451 437T462 326V0H342V275Z" />
<glyph unicode="o" glyph-name="o" horiz-adv-x="507" d="M156 -8T113 14T58 88T46 255Q46 371 58 422T113 496T254 518Q351 518 394 496T449 422T461 255Q461 140 449 89T394 15T254 -8Q156 -8 113 14ZM298 93T315 103T336 143T340 255Q340 338 336 367T316 407T254
417Q209 417 192 407T171 368T167 255Q167 173 171 143T192 103T254 93Q298 93 315 103Z" />
<glyph unicode="p" glyph-name="p" horiz-adv-x="518" d="M62 510H174L178 446H185Q202 487 236 502T316 518Q375 518 408 495T456 416T471 256Q471 154 457 98T410 17T319 -8Q272 -8 240 6T189 56H182V-196H62V510ZM307 100T323 109T345 148T351 255Q351 331
346 361T324 401T266 411Q234 411 217 401T193 369Q182 338 182 255Q182 178 191 147Q198 121 215 111T266 100Q307 100 323 109Z" />
<glyph unicode="q" glyph-name="q" horiz-adv-x="518" d="M335 56H329Q310 21 278 7T198 -8Q140 -8 108 16T61 96T46 255Q46 358 61 414T109 494T201 518Q247 518 281 503T332 446H339L343 510H455V-196H335V56ZM285 100T301 109T326 144Q332 160 333 185T335
255Q335 305 333 331T322 375Q314 394 298 402T252 411Q211 411 195 402T173 362T167 255Q167 179 172 149T194 109T252 100Q285 100 301 109Z" />
<glyph unicode="r" glyph-name="r" horiz-adv-x="349" d="M62 510H174L178 422H186Q202 476 236 497T329 518V397Q272 397 241 380T196 325T182 220V0H62V510Z" />
<glyph unicode="s" glyph-name="s" horiz-adv-x="438" d="M184 -8T136 -4T52 6V101Q126 92 198 92Q236 92 254 97T278 113T284 147Q284 171 281 181T268 195T235 202L132 216Q77 223 58 257T38 365Q38 427 60 460T123 505T224 518Q262 518 304 514T374 502V408Q307
418 239 418Q205 418 188 415T163 400T155 365Q155 343 157 334T168 320T198 313L302 300Q336 295 356 283T388 241T400 152Q400 87 380 52T322 5T224 -8Q184 -8 136 -4Z" />
<glyph unicode="t" glyph-name="t" horiz-adv-x="342" d="M102 0V409H19V510H102V658H222V510H322V409H222V0H102Z" />
<glyph unicode="u" glyph-name="u" horiz-adv-x="524" d="M346 64H339Q323 27 289 10T202 -8Q143 -8 113 12T73 73T62 184V510H182V235Q182 168 186 142T206 108T258 100Q296 100 313 113T336 156T342 246V510H462V0H350L346 64Z" />
<glyph unicode="v" glyph-name="v" horiz-adv-x="478" d="M159 0L16 510H140L236 121H245L340 510H462L320 0H159Z" />
<glyph unicode="w" glyph-name="w" horiz-adv-x="736" d="M446 0L372 306H364L290 0H143L20 510H141L218 141H225L313 510H427L515 141H523L598 510H716L593 0H446Z" />
<glyph unicode="x" glyph-name="x" horiz-adv-x="491" d="M343 0L246 171H239L142 0H17L170 259L21 510H153L245 348H251L343 510H468L321 260L474 0H343Z" />
<glyph unicode="y" glyph-name="y" horiz-adv-x="524" d="M155 -203T92 -193V-100Q114 -100 124 -101L220 -102Q279 -102 304 -92T335 -57T342 31V65H335Q319 31 287 15T203 -2Q142 -2 112 19T72 83T62 202V510H182V240Q182 173 186 147T206 112T258 104Q296 104
313 117T336 160T342 250V510H462V61Q462 -43 449 -96T390 -176T247 -203Q155 -203 92 -193Z" />
<glyph unicode="z" glyph-name="z" horiz-adv-x="456" d="M42 0V94L265 409H51V510H413V417L189 101H415V0H42Z" />
<glyph unicode="{" glyph-name="braceleft" horiz-adv-x="325" d="M201 -139T175 -114T128 -52T107 29V148Q107 198 90 231T22 267V324Q72 326 89 359T107 444V563Q107 607 127 644T174 707T222 743H305Q279 711 263 689T234 633T220 563V445Q220 322 117 300V293Q220
271 220 146V29Q220 -8 233 -40T260 -92T305 -150H222Q201 -139 175 -114Z" />
<glyph unicode="|" glyph-name="bar" horiz-adv-x="262" d="M77 -161V743H185V-161H77Z" />
<glyph unicode="}" glyph-name="braceright" horiz-adv-x="325" d="M24 -145T48 -115T88 -46T104 29V146Q104 271 207 293V300Q104 322 104 445V563Q104 609 85 645T33 726L20 743H102Q123 732 149 707T196 645T217 563V444Q217 393 234 360T301 324V267Q251 265
234 232T217 148V29Q217 -14 197 -51T150 -114T102 -150H20Q24 -145 48 -115Z" />
<glyph unicode="~" glyph-name="asciitilde" horiz-adv-x="477" d="M419 324T415 298T393 258T337 244Q295 244 225 264Q220 265 194 271T150 278Q132 278 128 270T124 233H56Q56 282 61 307T84 347T140 362Q183 362 251 342Q256 341 282 335T326 328Q344 328
348 336T352 373H419Q419 324 415 298Z" />
<glyph unicode="&#xa0;" glyph-name="uni00A0" horiz-adv-x="216" />
<glyph unicode="&#xa1;" glyph-name="exclamdown" horiz-adv-x="264" d="M65 385V510H198V385H65ZM60 -119Q60 -70 72 98T88 294H175Q179 266 191 98T203 -119V-178H60V-119Z" />
<glyph unicode="&#xa2;" glyph-name="cent" horiz-adv-x="415" d="M194 70Q130 79 99 111T59 197T49 342Q49 433 59 488T101 575T194 615V696H284V617Q329 614 369 603V505Q315 514 275 514Q228 514 208 502T181 456T174 342Q174 264 181 230T209 184T276 172Q326
172 372 180V83Q332 72 284 69V-8H194V70Z" />
<glyph unicode="&#xa3;" glyph-name="sterling" horiz-adv-x="520" d="M479 110V0H41V110H106V300H41V408H107V410Q107 519 126 580T194 668T335 696Q371 696 408 692T470 681V577Q411 586 368 586Q329 586 306 583T269 568Q248 553 241 518T234 410V408H408V300H234V110H479Z"
/>
<glyph unicode="&#xa4;" glyph-name="currency" horiz-adv-x="606" d="M47 70L118 142Q104 171 100 217T95 345Q95 425 99 471T117 546L46 617L116 687L196 606Q233 617 302 617Q372 617 409 606L491 687L560 618L487 545Q500 516 504 470T509 345Q509 265 505
219T486 144L560 70L491 1L409 82Q372 71 302 71Q233 71 196 82L116 1L47 70ZM346 172T363 183T384 225T388 345Q388 432 384 463T364 505T302 516Q257 516 240 506T219 464T215 345Q215 257 219 226T240 183T302 172Q346 172 363 183Z" />
<glyph unicode="&#xa5;" glyph-name="yen" horiz-adv-x="567" d="M218 0V222H53V293H203L163 374H53V445H132L28 688H159L281 381H288L410 688H538L433 445H512V374H400L362 293H512V222H346V0H218Z" />
<glyph unicode="&#xa6;" glyph-name="brokenbar" horiz-adv-x="262" d="M77 390V743H185V390H77ZM77 -161V192H185V-161H77Z" />
<glyph unicode="&#xa7;" glyph-name="section" horiz-adv-x="600" d="M227 -171T182 -166T116 -156V-54Q130 -57 167 -59T243 -62Q294 -62 318 -58T352 -41T362 -5Q362 17 359 27T348 42T318 55L167 105Q122 120 97 136T56 183T41 269Q41 342 61 383T133 436Q122
452 118 474T114 531Q114 624 166 660T318 696Q372 696 418 691T483 681V580Q464 582 428 584T356 586Q305 586 280 582T246 567T237 531Q237 508 240 498T252 482T281 470L432 420Q477 404 502 389T543 342T558 255Q558 182 538 141T466 88Q477 71 481 49T485
-6Q485 -99 434 -135T281 -171Q227 -171 182 -166ZM439 156T439 235Q439 268 431 282T399 305L239 358Q205 368 198 368Q161 368 161 288Q161 254 169 240T203 218L361 165Q390 156 402 156Q439 156 439 235Z" />
<glyph unicode="&#xa8;" glyph-name="dieresis" horiz-adv-x="321" d="M15 632V730H120V632H15ZM202 632V730H306V632H202Z" />
<glyph unicode="&#xa9;" glyph-name="copyright" horiz-adv-x="662" d="M201 -8T149 17T84 108T70 344Q70 513 83 579T149 671T331 696Q461 696 513 671T578 580T592 344Q592 175 579 109T513 17T331 -8Q201 -8 149 17ZM443 42T481 57T530 128T540 344Q540 504
530 559T482 629T331 645Q219 645 181 630T132 559T121 344Q121 184 131 129T180 58T331 42Q443 42 481 57ZM292 154T265 171T228 226T218 343Q218 421 227 459T264 514T351 531Q402 531 428 523V464Q396 469 367 469Q329 469 315 462T296 431T292 343Q292 279
296 255T314 224T367 216Q402 216 429 221V162Q402 154 351 154Q292 154 265 171Z" />
<glyph unicode="&#xaa;" glyph-name="ordfeminine" horiz-adv-x="372" d="M81 311T58 337T35 423Q35 487 56 512T138 537Q173 537 235 533V551Q235 585 230 598T208 615T148 619Q121 619 55 613V684Q115 696 179 696Q242 696 273 681T315 634T326 545V315H240L236
358H231Q204 311 132 311Q81 311 58 337ZM198 384T210 389T228 409Q235 426 235 461V478H164Q138 478 130 469T122 431Q122 402 131 393T174 384Q198 384 210 389Z" />
<glyph unicode="&#xab;" glyph-name="guillemotleft" horiz-adv-x="449" d="M144 108L33 308L144 510H228L137 308L228 108H144ZM314 108L203 308L314 510H397L306 308L397 108H314Z" />
<glyph unicode="&#xac;" glyph-name="logicalnot" horiz-adv-x="508" d="M347 61V202H64V301H444V61H347Z" />
<glyph unicode="&#xad;" glyph-name="uni00AD" horiz-adv-x="335" d="M52 232V338H283V232H52Z" />
<glyph unicode="&#xae;" glyph-name="registered" horiz-adv-x="662" d="M460 696T512 671T578 580T592 344Q592 174 579 108T513 17T330 -8Q200 -8 148 16T83 107T70 344Q70 513 83 579T148 671T330 696Q460 696 512 671ZM442 42T481 57T530 128T540 344Q540
504 530 559T481 629T330 645Q219 645 181 630T132 559T121 344Q121 184 131 129T180 58T330 42Q442 42 481 57ZM460 371T451 344T414 305L468 158H391L344 292H333H281V158H209V528H354Q400 528 423 514T453 476T460 411Q460 371 451 344ZM356 353T368 358T383
374T387 410Q387 434 383 445T368 460T333 464H281V353H329Q356 353 368 358Z" />
<glyph unicode="&#xaf;" glyph-name="overscore" horiz-adv-x="336" d="M52 636V743H283V636H52Z" />
<glyph unicode="&#xb0;" glyph-name="degree" horiz-adv-x="357" d="M117 397T90 411T55 454T48 546Q48 608 55 637T89 681T178 696Q240 696 267 682T302 638T309 546Q309 483 302 454T268 411T178 397Q117 397 90 411ZM205 458T215 464T228 487T231 546Q231 589
229 605T216 627T178 634Q151 634 141 628T128 605T125 546Q125 504 127 488T140 465T178 458Q205 458 215 464Z" />
<glyph unicode="&#xb1;" glyph-name="plusminus" horiz-adv-x="508" d="M205 189V331H64V429H205V570H303V429H444V331H303V189H205ZM64 14V112H444V14H64Z" />
<glyph unicode="&#xb2;" glyph-name="uni00B2" horiz-adv-x="335" d="M126 389H289V315H46V373Q46 434 53 458T88 497L173 538Q194 548 200 556T207 585Q207 610 195 617T147 624Q121 624 51 616V685Q113 696 169 696Q208 696 233 689T273 659T289 590Q289 545
276 521T234 483L153 446Q137 438 132 431T126 408V389Z" />
<glyph unicode="&#xb3;" glyph-name="uni00B3" horiz-adv-x="331" d="M96 307T41 318V385Q119 379 140 379Q176 379 188 387T201 423Q201 450 192 459T157 469H92V537H157Q179 537 188 545T197 581Q197 608 185 616T135 624Q99 624 43 616V685Q102 696 150 696Q221
696 251 672T281 594Q281 558 269 537T232 507V503Q257 494 270 474T284 416Q284 360 256 334T150 307Q96 307 41 318Z" />
<glyph unicode="&#xb4;" glyph-name="acute" horiz-adv-x="223" d="M13 599V604L88 743H210V738L105 599H13Z" />
<glyph unicode="&#xb5;" glyph-name="uni00B5" horiz-adv-x="525" d="M462 510V0H351L347 64H340Q324 27 292 10T206 -7Q198 -7 182 -5V-189H62V510H182V235Q182 169 187 143T207 108T259 100Q297 100 314 113T337 156T342 246V510H462Z" />
<glyph unicode="&#xb6;" glyph-name="paragraph" horiz-adv-x="547" d="M241 222Q145 222 106 238T55 298T44 454Q44 565 55 610T106 671T241 688H329V-144H241V222ZM389 -144V688H476V-144H389Z" />
<glyph unicode="&#xb7;" glyph-name="middot" horiz-adv-x="249" d="M58 237V362H191V237H58Z" />
<glyph unicode="&#xb8;" glyph-name="cedilla" horiz-adv-x="178" d="M15 -190V-185L82 8H163V3L126 -190H15Z" />
<glyph unicode="&#xb9;" glyph-name="uni00B9" horiz-adv-x="242" d="M102 315V593L39 566V641L127 688H185V315H102Z" />
<glyph unicode="&#xba;" glyph-name="ordmasculine" horiz-adv-x="384" d="M122 311T90 328T49 384T40 503Q40 584 49 622T90 678T192 696Q262 696 294 679T335 623T344 503Q344 422 335 384T294 329T192 311Q122 311 90 328ZM223 386T235 393T249 421T252 503Q252
563 250 584T235 612T192 620Q161 620 149 613T135 584T132 503Q132 443 134 422T149 393T192 386Q223 386 235 393Z" />
<glyph unicode="&#xbb;" glyph-name="guillemotright" horiz-adv-x="449" d="M52 108L142 308L52 510H135L246 308L135 108H52ZM221 108L311 308L221 510H304L415 308L304 108H221Z" />
<glyph unicode="&#xbc;" glyph-name="onequarter" horiz-adv-x="672" d="M102 315V593L39 566V641L127 688H184V315H102ZM76 0L476 688H556L157 0H76ZM508 0V74H350V133L459 375H547L436 145H509L534 249H590V145H631V74H590V0H508Z" />
<glyph unicode="&#xbd;" glyph-name="onehalf" horiz-adv-x="719" d="M102 315V593L39 566V641L127 688H184V315H102ZM476 688H556L157 0H76L476 688ZM505 73H669V0H425V58Q425 119 432 143T468 181Q496 196 553 223Q574 233 580 241T587 270Q587 295 575 301T526
308Q492 308 431 301V370Q493 381 548 381Q587 381 612 374T653 344T669 275Q669 230 656 206T614 168L564 144L533 130Q517 123 511 115T505 92V73Z" />
<glyph unicode="&#xbe;" glyph-name="threequarters" horiz-adv-x="733" d="M120 379T140 379Q176 379 188 386T201 423Q201 450 192 459T158 469H92V537H158Q180 537 189 545T198 581Q198 608 186 616T135 624Q101 624 43 616V685Q102 696 151 696Q221 696 251
672T281 594Q281 557 269 537T232 507V503Q257 494 270 474T284 416Q284 360 256 334T150 307Q95 307 42 318V385Q120 379 140 379ZM138 0L538 688H618L218 0H138ZM569 0V74H411V133L520 375H608L498 145H571L595 249H651V145H692V74H651V0H569Z" />
<glyph unicode="&#xbf;" glyph-name="questiondown" horiz-adv-x="404" d="M202 385V510H335V385H202ZM136 -186T92 -145T48 -7Q48 63 66 99T125 154L161 170Q188 181 197 187T210 206T213 248V295H324V215Q324 178 318 157T298 125T262 102L236 91Q209 79 197
70T181 46T176 -1Q176 -36 186 -51T217 -71T284 -76Q310 -76 347 -73T412 -66V-169Q375 -176 325 -181T235 -186Q136 -186 92 -145Z" />
<glyph unicode="&#xc0;" glyph-name="Agrave" horiz-adv-x="594" d="M450 0L408 154H183L142 0H14L209 688H386L581 0H450ZM298 567H293L212 264H378L298 567ZM271 750L166 889V894H288L363 755V750H271Z" />
<glyph unicode="&#xc1;" glyph-name="Aacute" horiz-adv-x="594" d="M450 0L408 154H183L142 0H14L209 688H386L581 0H450ZM298 567H293L212 264H378L298 567ZM229 750V755L304 894H426V889L321 750H229Z" />
<glyph unicode="&#xc2;" glyph-name="Acircumflex" horiz-adv-x="594" d="M450 0L408 154H183L142 0H14L209 688H386L581 0H450ZM298 567H293L212 264H378L298 567ZM150 750V758L236 889H357L444 758V750H362L296 833L231 750H150Z" />
<glyph unicode="&#xc3;" glyph-name="Atilde" horiz-adv-x="594" d="M450 0L408 154H183L142 0H14L209 688H386L581 0H450ZM298 567H293L212 264H378L298 567ZM468 841T464 816T443 776T390 762Q367 762 344 767T287 781Q278 783 255 789T217 796Q200 796 197
788T193 751H125Q125 800 129 825T151 865T204 879Q240 879 308 860Q327 855 346 851T378 846Q394 846 397 854T401 890H468Q468 841 464 816Z" />
<glyph unicode="&#xc4;" glyph-name="Adieresis" horiz-adv-x="594" d="M450 0L408 154H183L142 0H14L209 688H386L581 0H450ZM298 567H293L212 264H378L298 567ZM151 779V877H256V779H151ZM338 779V877H442V779H338Z" />
<glyph unicode="&#xc5;" glyph-name="Aring" horiz-adv-x="595" d="M581 0H450L408 154H183L142 0H14L209 687Q181 697 174 718T166 785Q166 830 173 852T207 885T296 897Q358 897 386 886T421 852T429 785Q429 741 422 719T386 687L581 0ZM268 839T256 835T242
820T239 785Q239 761 241 751T256 737T296 732Q326 732 338 736T353 751T356 785Q356 810 353 820T338 834T296 839Q268 839 256 835ZM212 264H378L298 567H293L212 264Z" />
<glyph unicode="&#xc6;" glyph-name="AE" horiz-adv-x="826" d="M423 0L397 154H173L115 0H-12L250 688H779V578H450L481 402H741V292H501L534 110H779V0H423ZM327 567H322L212 264H378L327 567Z" />
<glyph unicode="&#xc7;" glyph-name="Ccedilla" horiz-adv-x="488" d="M390 102T448 111V8Q421 1 380 -3T303 -8H284L249 -190H138V-185L202 0Q139 13 108 50T65 154T54 344Q54 492 71 563T141 665T303 696Q341 696 381 691T445 679V577Q369 586 332 586Q257 586
228 572T191 511T182 344Q182 224 190 178T228 117T332 102Q390 102 448 111Z" />
<glyph unicode="&#xc8;" glyph-name="Egrave" horiz-adv-x="519" d="M72 0V688H474V578H199V403H436V292H199V110H474V0H72ZM244 750L139 889V894H261L336 755V750H244Z" />
<glyph unicode="&#xc9;" glyph-name="Eacute" horiz-adv-x="519" d="M72 0V688H474V578H199V403H436V292H199V110H474V0H72ZM229 750V755L304 894H426V889L321 750H229Z" />
<glyph unicode="&#xca;" glyph-name="Ecircumflex" horiz-adv-x="519" d="M72 0V688H474V578H199V403H436V292H199V110H474V0H72ZM122 750V758L208 889H329L416 758V750H334L268 833L203 750H122Z" />
<glyph unicode="&#xcb;" glyph-name="Edieresis" horiz-adv-x="519" d="M72 0V688H474V578H199V403H436V292H199V110H474V0H72ZM127 778V876H232V778H127ZM314 778V876H418V778H314Z" />
<glyph unicode="&#xcc;" glyph-name="Igrave" horiz-adv-x="272" d="M72 0V688H200V0H72ZM109 750L4 889V894H126L201 755V750H109Z" />
<glyph unicode="&#xcd;" glyph-name="Iacute" horiz-adv-x="272" d="M72 0V688H200V0H72ZM75 750V755L150 894H272V889L167 750H75Z" />
<glyph unicode="&#xce;" glyph-name="Icircumflex" horiz-adv-x="272" d="M72 0V688H200V0H72ZM-11 750V758L75 889H196L283 758V750H201L135 833L70 750H-11Z" />
<glyph unicode="&#xcf;" glyph-name="Idieresis" horiz-adv-x="272" d="M72 0V688H200V0H72ZM-9 779V877H96V779H-9ZM178 779V877H282V779H178Z" />
<glyph unicode="&#xd0;" glyph-name="Eth" horiz-adv-x="595" d="M72 296H13V399H72V688H279Q406 688 459 660T526 566T540 344Q540 188 527 123T460 29T279 0H72V296ZM346 110T371 121T404 176T412 344Q412 468 405 512T372 567T273 578H199V399H281V296H199V110H273Q346
110 371 121Z" />
<glyph unicode="&#xd1;" glyph-name="Ntilde" horiz-adv-x="628" d="M436 0L198 435H194V0H71V688H201L430 275H434V688H557V0H436ZM484 842T480 817T459 777T406 763Q383 763 360 768T303 782Q294 784 271 790T233 797Q216 797 213 789T209 752H141Q141 801 145
826T167 866T220 880Q256 880 324 861Q343 856 362 852T394 847Q410 847 413 855T417 891H484Q484 842 480 817Z" />
<glyph unicode="&#xd2;" glyph-name="Ograve" horiz-adv-x="612" d="M185 -8T133 21T68 119T54 344Q54 501 67 569T133 666T306 696Q427 696 479 667T545 569T559 344Q559 187 546 119T480 22T306 -8Q185 -8 133 21ZM371 102T394 114T424 171T431 344Q431 471
425 516T395 574T306 586Q241 586 218 574T189 517T182 344Q182 216 188 171T218 114T306 102Q371 102 394 114ZM266 750L161 889V894H283L358 755V750H266Z" />
<glyph unicode="&#xd3;" glyph-name="Oacute" horiz-adv-x="612" d="M185 -8T133 21T68 119T54 344Q54 501 67 569T133 666T306 696Q427 696 479 667T545 569T559 344Q559 187 546 119T480 22T306 -8Q185 -8 133 21ZM371 102T394 114T424 171T431 344Q431 471
425 516T395 574T306 586Q241 586 218 574T189 517T182 344Q182 216 188 171T218 114T306 102Q371 102 394 114ZM248 750V755L323 894H445V889L340 750H248Z" />
<glyph unicode="&#xd4;" glyph-name="Ocircumflex" horiz-adv-x="612" d="M185 -8T133 21T68 119T54 344Q54 501 67 569T133 666T306 696Q427 696 479 667T545 569T559 344Q559 187 546 119T480 22T306 -8Q185 -8 133 21ZM371 102T394 114T424 171T431 344Q431
471 425 516T395 574T306 586Q241 586 218 574T189 517T182 344Q182 216 188 171T218 114T306 102Q371 102 394 114ZM158 750V758L244 889H365L452 758V750H370L304 833L239 750H158Z" />
<glyph unicode="&#xd5;" glyph-name="Otilde" horiz-adv-x="612" d="M185 -8T133 21T68 119T54 344Q54 501 67 569T133 666T306 696Q427 696 479 667T545 569T559 344Q559 187 546 119T480 22T306 -8Q185 -8 133 21ZM371 102T394 114T424 171T431 344Q431 471
425 516T395 574T306 586Q241 586 218 574T189 517T182 344Q182 216 188 171T218 114T306 102Q371 102 394 114ZM477 841T473 816T452 776T399 762Q376 762 353 767T296 781Q287 783 264 789T226 796Q209 796 206 788T202 751H134Q134 800 138 825T160 865T213
879Q249 879 317 860Q336 855 355 851T387 846Q403 846 406 854T410 890H477Q477 841 473 816Z" />
<glyph unicode="&#xd6;" glyph-name="Odieresis" horiz-adv-x="612" d="M185 -8T133 21T68 119T54 344Q54 501 67 569T133 666T306 696Q427 696 479 667T545 569T559 344Q559 187 546 119T480 22T306 -8Q185 -8 133 21ZM371 102T394 114T424 171T431 344Q431 471
425 516T395 574T306 586Q241 586 218 574T189 517T182 344Q182 216 188 171T218 114T306 102Q371 102 394 114ZM161 779V877H266V779H161ZM348 779V877H452V779H348Z" />
<glyph unicode="&#xd7;" glyph-name="multiply" horiz-adv-x="471" d="M235 183L131 79L62 148L166 252L62 356L131 426L235 322L340 426L409 357L304 252L409 147L340 78L235 183Z" />
<glyph unicode="&#xd8;" glyph-name="Oslash" horiz-adv-x="611" d="M541 609T550 544T559 344Q559 187 546 119T480 22T306 -8Q234 -8 188 2L160 -55H54L104 45Q72 80 63 144T54 344Q54 501 67 569T133 666T306 696Q377 696 423 687L451 743H558L508 644Q541
609 550 544ZM182 241T185 207L371 582Q354 586 306 586Q241 586 218 574T189 517T182 344Q182 241 185 207ZM371 102T394 114T424 171T431 344Q431 449 428 483L240 106Q257 102 306 102Q371 102 394 114Z" />
<glyph unicode="&#xd9;" glyph-name="Ugrave" horiz-adv-x="607" d="M541 688V305Q541 169 526 107T462 18T304 -8Q195 -8 146 18T81 107T66 305V688H194V265Q194 186 200 155T227 113T304 102Q359 102 380 113T407 154T413 265V688H541ZM270 750L165 889V894H287L362
755V750H270Z" />
<glyph unicode="&#xda;" glyph-name="Uacute" horiz-adv-x="607" d="M541 688V305Q541 169 526 107T462 18T304 -8Q195 -8 146 18T81 107T66 305V688H194V265Q194 186 200 155T227 113T304 102Q359 102 380 113T407 154T413 265V688H541ZM257 750V755L332 894H454V889L349
750H257Z" />
<glyph unicode="&#xdb;" glyph-name="Ucircumflex" horiz-adv-x="607" d="M541 688V305Q541 169 526 107T462 18T304 -8Q195 -8 146 18T81 107T66 305V688H194V265Q194 186 200 155T227 113T304 102Q359 102 380 113T407 154T413 265V688H541ZM159 750V758L245
889H366L453 758V750H371L305 833L240 750H159Z" />
<glyph unicode="&#xdc;" glyph-name="Udieresis" horiz-adv-x="607" d="M541 688V305Q541 169 526 107T462 18T304 -8Q195 -8 146 18T81 107T66 305V688H194V265Q194 186 200 155T227 113T304 102Q359 102 380 113T407 154T413 265V688H541ZM158 779V877H263V779H158ZM345
779V877H449V779H345Z" />
<glyph unicode="&#xdd;" glyph-name="Yacute" horiz-adv-x="541" d="M206 0V244L3 688H136L270 381H277L409 688H538L334 244V0H206ZM227 750V755L302 894H424V889L319 750H227Z" />
<glyph unicode="&#xde;" glyph-name="Thorn" horiz-adv-x="564" d="M72 688H199V579H340Q419 579 460 553T515 478T530 351Q530 276 516 228T460 151T338 122H199V0H72V688ZM296 233Q346 233 367 242T395 274T402 351Q402 404 396 427T369 460T298 469H199V233H296Z" />
<glyph unicode="&#xdf;" glyph-name="germandbls" horiz-adv-x="533" d="M245 0V100H273Q319 100 336 107T359 143T365 245Q365 307 358 335T332 371T275 380H257V481H275Q310 481 327 488T351 512T358 562Q358 600 350 618T324 643T269 650Q235 650 217 643T191
612T182 539V0H62V549Q62 620 81 663T147 728T272 750Q352 750 397 731T460 675T478 578Q478 514 453 481T374 437V433Q432 421 459 378T486 240Q486 149 472 99T415 25T289 0H245Z" />
<glyph unicode="&#xe0;" glyph-name="agrave" horiz-adv-x="497" d="M103 -8T70 28T37 144Q37 204 50 237T94 286T182 302Q227 302 315 298V320Q315 367 307 386T276 411T198 417Q172 417 131 415T65 409V503Q152 518 236 518Q321 518 363 498T420 436T435 314V0H323L319
62H312Q281 -8 173 -8Q103 -8 70 28ZM256 93T272 98T300 120Q315 143 315 200V220H215Q189 220 177 216T159 198T154 155Q154 128 159 115T180 98T228 93Q256 93 272 98ZM211 599L106 738V743H228L303 604V599H211Z" />
<glyph unicode="&#xe1;" glyph-name="aacute" horiz-adv-x="497" d="M103 -8T70 28T37 144Q37 204 50 237T94 286T182 302Q227 302 315 298V320Q315 367 307 386T276 411T198 417Q172 417 131 415T65 409V503Q152 518 236 518Q321 518 363 498T420 436T435 314V0H323L319
62H312Q281 -8 173 -8Q103 -8 70 28ZM256 93T272 98T300 120Q315 143 315 200V220H215Q189 220 177 216T159 198T154 155Q154 128 159 115T180 98T228 93Q256 93 272 98ZM194 599V604L269 743H391V738L286 599H194Z" />
<glyph unicode="&#xe2;" glyph-name="acircumflex" horiz-adv-x="497" d="M103 -8T70 28T37 144Q37 204 50 237T94 286T182 302Q227 302 315 298V320Q315 367 307 386T276 411T198 417Q172 417 131 415T65 409V503Q152 518 236 518Q321 518 363 498T420 436T435
314V0H323L319 62H312Q281 -8 173 -8Q103 -8 70 28ZM256 93T272 98T300 120Q315 143 315 200V220H215Q189 220 177 216T159 198T154 155Q154 128 159 115T180 98T228 93Q256 93 272 98ZM102 604V612L188 743H309L396 612V604H314L248 687L183 604H102Z" />
<glyph unicode="&#xe3;" glyph-name="atilde" horiz-adv-x="497" d="M103 -8T70 28T37 144Q37 204 50 237T94 286T182 302Q227 302 315 298V320Q315 367 307 386T276 411T198 417Q172 417 131 415T65 409V503Q152 518 236 518Q321 518 363 498T420 436T435 314V0H323L319
62H312Q281 -8 173 -8Q103 -8 70 28ZM256 93T272 98T300 120Q315 143 315 200V220H215Q189 220 177 216T159 198T154 155Q154 128 159 115T180 98T228 93Q256 93 272 98ZM419 694T415 669T394 629T341 615Q318 615 295 620T238 634Q229 636 206 642T168 649Q151
649 148 641T144 604H76Q76 653 80 678T102 718T155 732Q191 732 259 713Q278 708 297 704T329 699Q345 699 348 707T352 743H419Q419 694 415 669Z" />
<glyph unicode="&#xe4;" glyph-name="adieresis" horiz-adv-x="497" d="M103 -8T70 28T37 144Q37 204 50 237T94 286T182 302Q227 302 315 298V320Q315 367 307 386T276 411T198 417Q172 417 131 415T65 409V503Q152 518 236 518Q321 518 363 498T420 436T435
314V0H323L319 62H312Q281 -8 173 -8Q103 -8 70 28ZM256 93T272 98T300 120Q315 143 315 200V220H215Q189 220 177 216T159 198T154 155Q154 128 159 115T180 98T228 93Q256 93 272 98ZM103 885V983H208V885H103ZM290 885V983H394V885H290Z" />
<glyph unicode="&#xe5;" glyph-name="aring" horiz-adv-x="497" d="M103 -8T70 28T37 144Q37 204 50 237T94 286T182 302Q227 302 315 298V320Q315 367 307 386T276 411T198 417Q172 417 131 415T65 409V503Q152 518 236 518Q321 518 363 498T420 436T435 314V0H323L319
62H312Q281 -8 173 -8Q103 -8 70 28ZM256 93T272 98T300 120Q315 143 315 200V220H215Q189 220 177 216T159 198T154 155Q154 128 159 115T180 98T228 93Q256 93 272 98ZM187 838T160 849T125 882T117 948Q117 992 124 1014T159 1048T247 1060Q309 1060 337 1049T372
1015T380 948Q380 904 373 882T337 849T247 838Q187 838 160 849ZM277 895T289 899T304 914T307 948Q307 973 304 983T289 997T247 1002Q219 1002 208 998T193 983T190 948Q190 924 193 914T207 900T247 895Q277 895 289 899Z" />
<glyph unicode="&#xe6;" glyph-name="ae" horiz-adv-x="763" d="M715 217H435Q435 157 442 133T473 101T559 92Q624 92 698 100V7Q668 0 622 -4T532 -8Q465 -8 425 4T362 45Q334 13 292 3T196 -8Q112 -8 75 27T37 143Q37 203 50 237T94 286T182 302Q214 302 253
301T314 298V320Q314 367 306 386T276 411T197 417Q171 417 130 415T65 409V503Q159 518 235 518Q336 518 379 478Q425 518 523 518Q614 518 654 492T705 414T715 254V217ZM482 419T465 410T442 377T435 298H600Q600 353 594 378T571 411T520 419Q482 419 465 410ZM314
218H213Q187 218 175 214T158 196T153 154Q153 127 158 114T179 96T227 91Q259 91 277 99T304 128Q314 152 314 199V218Z" />
<glyph unicode="&#xe7;" glyph-name="ccedilla" horiz-adv-x="404" d="M367 7Q342 0 308 -4T242 -8L207 -190H96V-185L160 0Q110 12 86 43T54 123T46 255Q46 353 59 408T113 490T236 518Q270 518 305 514T363 503V409Q320 417 268 417Q221 417 201 406T174 362T167
255Q167 180 174 148T201 104T269 93Q321 93 367 100V7Z" />
<glyph unicode="&#xe8;" glyph-name="egrave" horiz-adv-x="493" d="M446 216H167Q167 156 173 133T204 101T290 92Q355 92 430 100V7Q401 0 354 -4T263 -8Q164 -8 119 17T60 95T46 254Q46 357 59 410T117 491T254 518Q345 518 385 492T436 415T446 254V216ZM213
419T196 410T174 377T167 298H332Q332 353 326 378T303 411T252 419Q213 419 196 410ZM216 599L111 738V743H233L308 604V599H216Z" />
<glyph unicode="&#xe9;" glyph-name="eacute" horiz-adv-x="493" d="M446 216H167Q167 156 173 133T204 101T290 92Q355 92 430 100V7Q401 0 354 -4T263 -8Q164 -8 119 17T60 95T46 254Q46 357 59 410T117 491T254 518Q345 518 385 492T436 415T446 254V216ZM213
419T196 410T174 377T167 298H332Q332 353 326 378T303 411T252 419Q213 419 196 410ZM200 599V604L275 743H397V738L292 599H200Z" />
<glyph unicode="&#xea;" glyph-name="ecircumflex" horiz-adv-x="493" d="M446 216H167Q167 156 173 133T204 101T290 92Q355 92 430 100V7Q401 0 354 -4T263 -8Q164 -8 119 17T60 95T46 254Q46 357 59 410T117 491T254 518Q345 518 385 492T436 415T446 254V216ZM213
419T196 410T174 377T167 298H332Q332 353 326 378T303 411T252 419Q213 419 196 410ZM105 604V612L191 743H312L399 612V604H317L251 687L186 604H105Z" />
<glyph unicode="&#xeb;" glyph-name="edieresis" horiz-adv-x="493" d="M446 216H167Q167 156 173 133T204 101T290 92Q355 92 430 100V7Q401 0 354 -4T263 -8Q164 -8 119 17T60 95T46 254Q46 357 59 410T117 491T254 518Q345 518 385 492T436 415T446 254V216ZM213
419T196 410T174 377T167 298H332Q332 353 326 378T303 411T252 419Q213 419 196 410ZM107 885V983H212V885H107ZM294 885V983H398V885H294Z" />
<glyph unicode="&#xec;" glyph-name="igrave" horiz-adv-x="245" d="M62 0V510H183V0H62ZM346 599L241 738V743H363L438 604V599H346Z" />
<glyph unicode="&#xed;" glyph-name="iacute" horiz-adv-x="245" d="M62 0V510H183V0H62ZM64 599V604L139 743H261V738L156 599H64Z" />
<glyph unicode="&#xee;" glyph-name="icircumflex" horiz-adv-x="245" d="M62 0V510H183V0H62ZM232 604V612L318 743H439L526 612V604H444L378 687L313 604H232Z" />
<glyph unicode="&#xef;" glyph-name="idieresis" horiz-adv-x="245" d="M62 0V510H183V0H62ZM234 885V983H339V885H234ZM421 885V983H525V885H421Z" />
<glyph unicode="&#xf0;" glyph-name="eth" horiz-adv-x="511" d="M157 -8T114 15T58 90T46 254Q46 355 56 408T103 489T216 517Q273 517 310 501L313 504Q293 564 271 603L168 587V661L230 670Q206 701 170 739V743H297Q317 722 344 688L445 704V630L387 621Q423
555 443 459Q460 376 460 263Q460 145 449 92T394 16T254 -8Q157 -8 114 15ZM299 92T316 102T337 141T341 254Q341 333 337 362T316 404T254 417Q208 417 192 407T171 368T167 254Q167 171 171 142T192 102T254 92Q299 92 316 102Z" />
<glyph unicode="&#xf1;" glyph-name="ntilde" horiz-adv-x="524" d="M342 275Q342 342 338 368T318 402T266 410Q228 410 211 397T188 354T182 264V0H62V510H174L178 446H185Q201 483 235 500T322 518Q381 518 411 498T451 437T462 326V0H342V275ZM436 694T432
669T411 629T358 615Q335 615 312 620T255 634Q246 636 223 642T185 649Q168 649 165 641T161 604H93Q93 653 97 678T119 718T172 732Q208 732 276 713Q295 708 314 704T346 699Q362 699 365 707T369 743H436Q436 694 432 669Z" />
<glyph unicode="&#xf2;" glyph-name="ograve" horiz-adv-x="507" d="M156 -8T113 14T58 88T46 255Q46 371 58 422T113 496T254 518Q351 518 394 496T449 422T461 255Q461 140 449 89T394 15T254 -8Q156 -8 113 14ZM298 93T315 103T336 143T340 255Q340 338 336
367T316 407T254 417Q209 417 192 407T171 368T167 255Q167 173 171 143T192 103T254 93Q298 93 315 103ZM216 599L111 738V743H233L308 604V599H216Z" />
<glyph unicode="&#xf3;" glyph-name="oacute" horiz-adv-x="507" d="M156 -8T113 14T58 88T46 255Q46 371 58 422T113 496T254 518Q351 518 394 496T449 422T461 255Q461 140 449 89T394 15T254 -8Q156 -8 113 14ZM298 93T315 103T336 143T340 255Q340 338 336
367T316 407T254 417Q209 417 192 407T171 368T167 255Q167 173 171 143T192 103T254 93Q298 93 315 103ZM201 599V604L276 743H398V738L293 599H201Z" />
<glyph unicode="&#xf4;" glyph-name="ocircumflex" horiz-adv-x="507" d="M156 -8T113 14T58 88T46 255Q46 371 58 422T113 496T254 518Q351 518 394 496T449 422T461 255Q461 140 449 89T394 15T254 -8Q156 -8 113 14ZM298 93T315 103T336 143T340 255Q340 338
336 367T316 407T254 417Q209 417 192 407T171 368T167 255Q167 173 171 143T192 103T254 93Q298 93 315 103ZM107 604V612L193 743H314L401 612V604H319L253 687L188 604H107Z" />
<glyph unicode="&#xf5;" glyph-name="otilde" horiz-adv-x="507" d="M156 -8T113 14T58 88T46 255Q46 371 58 422T113 496T254 518Q351 518 394 496T449 422T461 255Q461 140 449 89T394 15T254 -8Q156 -8 113 14ZM298 93T315 103T336 143T340 255Q340 338 336
367T316 407T254 417Q209 417 192 407T171 368T167 255Q167 173 171 143T192 103T254 93Q298 93 315 103ZM426 694T422 669T401 629T348 615Q325 615 302 620T245 634Q236 636 213 642T175 649Q158 649 155 641T151 604H83Q83 653 87 678T109 718T162 732Q198 732
266 713Q285 708 304 704T336 699Q352 699 355 707T359 743H426Q426 694 422 669Z" />
<glyph unicode="&#xf6;" glyph-name="odieresis" horiz-adv-x="507" d="M156 -8T113 14T58 88T46 255Q46 371 58 422T113 496T254 518Q351 518 394 496T449 422T461 255Q461 140 449 89T394 15T254 -8Q156 -8 113 14ZM298 93T315 103T336 143T340 255Q340 338
336 367T316 407T254 417Q209 417 192 407T171 368T167 255Q167 173 171 143T192 103T254 93Q298 93 315 103ZM108 885V983H213V885H108ZM295 885V983H399V885H295Z" />
<glyph unicode="&#xf7;" glyph-name="divide" horiz-adv-x="508" d="M205 383V474H303V383H205ZM64 204V301H444V204H64ZM205 31V122H303V31H205Z" />
<glyph unicode="&#xf8;" glyph-name="oslash" horiz-adv-x="507" d="M445 454T453 405T461 255Q461 140 449 89T394 15T254 -8Q210 -8 172 -3L145 -55H47L90 30Q62 56 54 105T46 255Q46 371 58 422T113 496T254 518Q306 518 335 513L361 565H461L417 480Q445 454
453 405ZM167 203T168 183L285 416Q277 417 254 417Q209 417 192 407T171 368T167 255Q167 203 168 183ZM298 93T315 103T336 143T340 255Q340 307 339 326L221 94Q230 93 254 93Q298 93 315 103Z" />
<glyph unicode="&#xf9;" glyph-name="ugrave" horiz-adv-x="524" d="M346 64H339Q323 27 289 10T202 -8Q143 -8 113 12T73 73T62 184V510H182V235Q182 168 186 142T206 108T258 100Q296 100 313 113T336 156T342 246V510H462V0H350L346 64ZM224 599L119 738V743H241L316
604V599H224Z" />
<glyph unicode="&#xfa;" glyph-name="uacute" horiz-adv-x="524" d="M346 64H339Q323 27 289 10T202 -8Q143 -8 113 12T73 73T62 184V510H182V235Q182 168 186 142T206 108T258 100Q296 100 313 113T336 156T342 246V510H462V0H350L346 64ZM215 599V604L290 743H412V738L307
599H215Z" />
<glyph unicode="&#xfb;" glyph-name="ucircumflex" horiz-adv-x="524" d="M346 64H339Q323 27 289 10T202 -8Q143 -8 113 12T73 73T62 184V510H182V235Q182 168 186 142T206 108T258 100Q296 100 313 113T336 156T342 246V510H462V0H350L346 64ZM114 604V612L200
743H321L408 612V604H326L260 687L195 604H114Z" />
<glyph unicode="&#xfc;" glyph-name="udieresis" horiz-adv-x="524" d="M346 64H339Q323 27 289 10T202 -8Q143 -8 113 12T73 73T62 184V510H182V235Q182 168 186 142T206 108T258 100Q296 100 313 113T336 156T342 246V510H462V0H350L346 64ZM115 885V983H220V885H115ZM302
885V983H406V885H302Z" />
<glyph unicode="&#xfd;" glyph-name="yacute" horiz-adv-x="524" d="M155 -203T92 -193V-100Q114 -100 124 -101L220 -102Q279 -102 304 -92T335 -57T342 31V65H335Q319 31 287 15T203 -2Q142 -2 112 19T72 83T62 202V510H182V240Q182 173 186 147T206 112T258
104Q296 104 313 117T336 160T342 250V510H462V61Q462 -43 449 -96T390 -176T247 -203Q155 -203 92 -193ZM213 599V604L288 743H410V738L305 599H213Z" />
<glyph unicode="&#xfe;" glyph-name="thorn" horiz-adv-x="518" d="M62 743H182V449H189Q206 488 239 503T316 518Q375 518 408 495T456 415T471 256Q471 154 457 98T410 17T319 -8Q272 -8 240 6T189 56H182V-190H62V743ZM307 100T323 109T345 148T351 255Q351
331 346 361T324 401T266 411Q235 411 218 401T194 367Q187 349 185 323T182 255Q182 185 190 154Q197 124 214 112T266 100Q307 100 323 109Z" />
<glyph unicode="&#xff;" glyph-name="ydieresis" horiz-adv-x="524" d="M155 -203T92 -193V-100Q114 -100 124 -101L220 -102Q279 -102 304 -92T335 -57T342 31V65H335Q319 31 287 15T203 -2Q142 -2 112 19T72 83T62 202V510H182V240Q182 173 186 147T206 112T258
104Q296 104 313 117T336 160T342 250V510H462V61Q462 -43 449 -96T390 -176T247 -203Q155 -203 92 -193ZM116 885V983H221V885H116ZM303 885V983H407V885H303Z" />
<glyph unicode="&#x2013;" glyph-name="endash" horiz-adv-x="459" d="M48 255V353H411V255H48Z" />
<glyph unicode="&#x2014;" glyph-name="emdash" horiz-adv-x="848" d="M48 255V353H800V255H48Z" />
<glyph unicode="&#x2018;" glyph-name="quoteleft" horiz-adv-x="241" d="M57 521Q57 593 66 626T103 674T193 688V636Q157 636 146 623T134 570V554H183V436H57V521Z" />
<glyph unicode="&#x2019;" glyph-name="quoteright" horiz-adv-x="241" d="M84 488T95 501T107 553V569H57V688H184V602Q184 531 175 497T138 450T48 436V488Q84 488 95 501Z" />
<glyph unicode="&#x201a;" glyph-name="quotesinglbase" horiz-adv-x="243" d="M84 -82T96 -69T108 -16V0H58V119H185V33Q185 -39 176 -72T139 -120T49 -134V-82Q84 -82 96 -69Z" />
<glyph unicode="&#x201c;" glyph-name="quotedblleft" horiz-adv-x="427" d="M57 521Q57 593 66 626T103 674T193 688V636Q157 636 146 623T134 570V554H183V436H57V521ZM243 521Q243 593 252 626T289 674T379 688V636Q343 636 332 623T320 570V554H369V436H243V521Z" />
<glyph unicode="&#x201d;" glyph-name="quotedblright" horiz-adv-x="427" d="M84 488T95 501T107 553V569H57V688H184V602Q184 531 175 497T138 450T48 436V488Q84 488 95 501ZM270 488T281 501T293 553V569H244V688H370V602Q370 531 361 497T324 450T234 436V488Q270
488 281 501Z" />
<glyph unicode="&#x201e;" glyph-name="quotedblbase" horiz-adv-x="429" d="M84 -82T96 -69T108 -16V0H58V119H185V33Q185 -39 176 -72T139 -120T49 -134V-82Q84 -82 96 -69ZM271 -82T282 -69T294 -16V0H244V119H371V33Q371 -39 362 -72T324 -120T235 -134V-82Q271
-82 282 -69Z" />
<glyph unicode="&#x2022;" glyph-name="bullet" horiz-adv-x="339" d="M277 290T272 270T244 242T168 234Q115 234 94 241T67 269T61 342Q61 395 66 416T93 444T168 452Q222 452 244 445T271 416T277 342Q277 290 272 270Z" />
<glyph unicode="&#x2039;" glyph-name="guilsinglleft" horiz-adv-x="280" d="M144 108L33 308L144 510H227L137 308L227 108H144Z" />
<glyph unicode="&#x203a;" glyph-name="guilsinglright" horiz-adv-x="280" d="M52 108L142 308L52 510H135L246 308L135 108H52Z" />
</font>
</defs>
</svg>
