<?xml version="1.0" standalone="no"?>
<!DOCTYPE svg PUBLIC "-//W3C//DTD SVG 1.1//EN" "http://www.w3.org/Graphics/SVG/1.1/DTD/svg11.dtd">
<svg xmlns="http://www.w3.org/2000/svg">
<defs >
<font id="Recursive" horiz-adv-x="628" ><font-face
    font-family="Recursive Sans Linear Light SemiBold"
    units-per-em="1000"
    panose-1="0 0 0 0 0 0 0 0 0 0"
    ascent="950"
    descent="-250"
    alphabetic="0" />
<glyph unicode=" " horiz-adv-x="300" />
<glyph unicode="!" horiz-adv-x="350" d="M220 275H140Q137 275 136 276T132 278Q131 280 130 285T125 310T117 376T101 502V590Q101 618 101 645T101 700Q127 700 161 700T238 700Q241 700 243 699T247 695T249 689V502Q244 465 239 427T230 351T220 275ZM256
-9Q230 -9 206 -9T157 -9T105 -9Q102 -9 100 -8T96 -4T94 2V155Q121 155 145 155T194 155T245 155Q249 155 251 154T254 150T256 144V-9Z" />
<glyph unicode="&quot;" horiz-adv-x="600" d="M234 441Q211 441 187 441T138 441Q134 441 131 444T126 452L110 648Q109 666 108 682T105 715T102 750Q142 750 177 750T244 750Q249 750 252 747T254 737L234 441ZM475 441Q451 441 427 441T377 441Q373 441 369
444T365 452L345 750Q384 750 419 750T487 750Q492 750 495 747T497 737L475 441Z" />
<glyph unicode="#" horiz-adv-x="600" d="M212 720Q233 720 255 720T299 720Q304 720 307 718T308 709Q290 619 272 530T236 350T200 171T164 -9Q163 -16 159 -18T150 -20Q128 -20 107 -20T64 -20Q82 72 100 164T138 350T175 535T212 720ZM436 720Q450 720 465
720T495 720T523 720Q528 720 531 718T532 709Q514 619 496 530T460 350T424 171T388 -9Q387 -16 383 -18T374 -20Q361 -20 346 -20T317 -20T288 -20Q306 72 324 164T362 350T399 535T436 720ZM580 439H71Q66 439 63 442T60 450Q60 454 60 463T60 482T60 503T60
522T60 535H569Q571 535 573 535T577 532Q579 531 579 529T580 524Q580 520 580 512T580 493T580 472T580 452T580 439ZM20 254H529Q534 254 537 251T540 243Q540 239 540 231T540 214T540 194T540 177T540 165H31Q29 165 27 166T23 168Q22 170 21 172T20 176Q20
180 20 187T20 205T20 224T20 242T20 254Z" />
<glyph unicode="$" horiz-adv-x="600" d="M285 -19Q214 -19 156 -3T69 40Q68 42 67 44T66 48Q66 72 66 103T66 163H83Q129 129 177 114T293 98Q363 98 396 120T429 174V201Q429 222 423 236T396 263T335 287L239 316Q191 331 158 351T106 393T78 440T70 487V531Q70
572 87 606T138 666T218 705T322 719Q385 719 438 707T514 671Q516 670 516 668T517 663Q517 636 517 604T517 549H500Q461 578 418 590T314 602Q271 602 242 592T199 565T184 527V505Q184 483 193 469T223 444T285 420L381 392Q442 374 476 349T525 291T540 217V169Q540
114 509 72T421 6T285 -19ZM356 467Q340 472 323 476T300 482Q294 483 292 486T289 496Q289 526 289 557T289 621T289 682T289 737Q289 749 289 764T289 794T289 825T289 852Q308 852 321 852T349 852T381 852Q386 852 389 849T391 839Q388 811 385 776T378 702T370
622T363 542T356 467ZM261 239Q275 236 292 232T317 225Q323 224 325 221T328 210Q328 192 328 170T328 123T328 74T328 27T328 -14Q328 -25 328 -45T328 -88T328 -131T328 -161Q309 -161 295 -161T266 -161T233 -161Q230 -161 228 -160T224 -155T223 -146Q227
-118 230 -82T238 -4T246 79T253 163T261 239Z" />
<glyph unicode="%" horiz-adv-x="600" d="M172 710Q221 710 255 691T307 640T325 566V503Q325 462 307 430T255 378T172 359Q98 359 58 400T18 503V566Q18 608 36 640T88 691T172 710ZM104 516Q104 494 108 479T123 455Q132 446 143 442T172 438Q206 438 223 457T240
516V553Q240 574 235 589T221 614Q204 631 172 631Q138 631 121 612T104 553V516ZM428 341Q477 341 511 322T564 271T582 197V134Q582 93 564 61T512 9T428 -10Q355 -10 315 31T275 134V197Q275 239 293 271T345 322T428 341ZM360 147Q360 126 365 111T379 86Q389
77 400 73T428 69Q463 69 479 88T496 147V184Q496 205 492 220T478 245Q461 262 428 262Q395 262 378 243T360 184V147ZM362 405Q366 415 374 438T392 493T412 558T433 623T451 678T464 710Q468 710 483 710T517 710T552 710T572 710Q576 710 578 709T581 704T580
697Q579 693 571 672T549 619T523 554T497 489T476 437T466 412Q465 408 463 407T456 405Q453 405 440 405T410 405T379 405T362 405ZM238 296Q234 287 226 263T208 208T188 143T167 78T149 24T136 -9Q132 -9 117 -9T83 -9T48 -9T28 -9Q24 -9 22 -8T19 -3T20 4Q21
8 29 29T51 81T77 147T103 213T124 264T134 289Q136 294 138 295T144 296Q147 296 160 296T190 296T221 296T238 296Z" />
<glyph unicode="&amp;" horiz-adv-x="600" d="M241 455Q274 410 304 369T360 291T408 224T446 173T470 141Q486 123 497 117T526 111Q533 111 540 111T554 111H571Q571 85 571 60T571 8Q571 3 569 0T560 -3Q552 -3 538 -3T512 -3Q486 -3 464 3T424 25T386 65Q377
77 360 100T321 154T273 220T222 290T173 356Q140 401 122 429T97 481T90 535V545Q90 580 103 609T143 661T211 696T308 709Q353 709 386 704T439 693T463 680Q465 679 465 677T466 671Q466 648 466 625T466 578H449Q413 589 381 595T308 602Q275 602 254 596T222
578Q213 569 210 559T206 536Q206 525 208 515T218 491T241 455ZM193 -9Q143 -9 106 9T50 63T30 148V201Q30 271 66 310T156 361V412L233 319Q206 317 188 306T161 277T151 233V177Q151 137 170 117T228 96Q265 96 291 108T347 151L402 80H357Q334 39 295 15T193
-9ZM443 441Q469 441 495 441T547 441Q553 441 555 438T558 430V348Q558 310 546 278T512 222T457 178V127L398 207Q423 234 433 257T443 314Q443 346 443 377T443 441Z" />
<glyph unicode="&apos;" horiz-adv-x="350" d="M231 441Q205 441 181 441T130 441Q126 441 123 444T118 452L103 648Q102 666 101 682T98 715T95 750Q137 750 174 750T244 750Q249 750 252 747T254 737L231 441Z" />
<glyph unicode="(" horiz-adv-x="400" d="M237 745Q242 750 247 751T257 753Q280 753 299 753T338 753T383 753V735Q320 677 279 610T219 470T199 317V309Q199 231 218 157T279 15T383 -109V-127Q359 -127 339 -127T299 -127T257 -127Q252 -127 247 -126T237 -119Q181
-63 145 4T91 147T74 309V317Q74 402 91 478T145 621T237 745Z" />
<glyph unicode=")" horiz-adv-x="400" d="M163 -119Q158 -124 153 -125T143 -127Q121 -127 102 -127T62 -127T17 -127V-109Q81 -51 121 16T181 157T201 309V317Q201 396 182 470T122 611T17 735V753Q41 753 61 753T101 753T143 753Q148 753 153 752T163 745Q220
689 256 622T309 478T326 317V309Q326 224 309 148T255 6T163 -119Z" />
<glyph unicode="*" horiz-adv-x="600" d="M350 765Q355 765 357 763T359 755Q354 715 349 688T338 639T322 589L338 579Q360 601 379 617T422 652T481 697Q494 674 508 651T535 604Q538 599 537 595T531 589Q495 576 468 567T415 551T362 538V520Q395 511 421
504T474 487T540 463Q527 439 514 416T487 368Q484 364 480 363T472 365Q443 388 422 405T381 439T338 480L322 470Q328 452 331 438T338 411T343 384Q347 367 349 353T355 325T360 293Q333 293 305 293T249 293Q245 293 242 296T240 303Q245 337 250 363T262 415T277
470L261 480Q236 456 216 437T172 400T118 358Q105 382 91 405T64 451Q61 457 62 461T68 466Q102 479 129 488T181 504T239 520V538Q206 546 179 554T123 572T58 596Q72 620 85 643T112 690Q116 695 119 695T127 694Q158 670 179 653T218 619T259 579L275 589Q272
604 269 617T263 644T256 674Q252 696 248 717T239 765Q266 765 294 765T350 765Z" />
<glyph unicode="+" horiz-adv-x="600" d="M240 534Q272 534 297 534T349 534Q354 534 357 531T360 523Q360 448 360 372T360 219T360 66Q331 66 306 66T251 66Q246 66 243 69T240 77Q240 137 240 197T240 316T240 436Q240 466 240 491T240 534ZM65 360H524Q528
360 530 359T533 355T535 349Q535 322 535 295T535 240H76Q73 240 71 241T67 245T65 251Q65 279 65 306T65 360Z" />
<glyph unicode="," horiz-adv-x="350" d="M157 -192Q134 -192 105 -192T51 -192Q60 -149 68 -105T84 -18T101 70T119 157Q144 157 164 157T208 157T259 157Q263 157 265 156T267 151T267 143Q257 109 245 69T219 -15T193 -101T167 -184Q166 -189 164 -190T157 -192Z" />
<glyph unicode="-" horiz-adv-x="450" d="M66 358H373Q377 358 379 357T382 353T384 347Q384 320 384 295T384 242H77Q74 242 72 242T69 244T67 248T66 253Q66 280 66 305T66 358Z" />
<glyph unicode="." horiz-adv-x="350" d="M256 -9Q230 -9 206 -9T157 -9T105 -9Q102 -9 100 -8T96 -4T94 2V155Q121 155 145 155T194 155T245 155Q249 155 251 154T254 150T256 144V-9Z" />
<glyph unicode="/" horiz-adv-x="600" d="M544 750Q488 606 432 461T319 171T206 -119Q205 -123 203 -125T197 -129T191 -130Q161 -130 134 -130T76 -130Q86 -103 97 -76T118 -21Q168 106 217 233T316 488T415 743Q417 747 420 748T427 750Q458 750 486 750T544 750Z" />
<glyph unicode="0" horiz-adv-x="600" d="M301 720Q372 720 426 687T511 592T543 445V255Q543 169 511 107T424 13T299 -20Q247 -20 203 -1T126 54T75 140T57 255V445Q57 532 89 593T176 687T301 720ZM300 607Q264 607 237 591T194 540T178 445V255Q178 227 182
204T193 165T207 138Q221 116 243 105T296 93Q333 93 361 109T406 161T422 255V448Q422 480 417 504T403 547T383 577Q369 592 348 599T300 607ZM442 539L448 425H382L410 445Q401 421 389 402T360 365T324 327Q296 298 268 271T211 217T153 161L141 281H214L188
258Q197 282 209 300T239 339T284 385Q323 424 362 461T442 539Z" />
<glyph unicode="1" horiz-adv-x="600" d="M265 710Q269 710 281 710T310 710T343 710T370 710T384 710Q388 710 390 709T393 705T395 699Q395 696 395 663T395 578T395 463T395 336T395 218T395 127T395 82H269L275 106Q275 116 275 135T275 173T275 201Q275 208
275 231T275 290T275 366T275 447T275 522T275 580T275 609L289 590H241L268 609Q252 581 239 562T210 527T173 494Q154 479 141 468T119 453T107 448Q105 448 103 449T100 452T99 458V581Q120 598 141 614T183 646Q197 657 213 669T243 692T265 710ZM83 114Q85
114 110 114T176 114T263 114T357 114T444 114T509 114T536 114Q541 114 544 111T547 103Q547 99 547 85T547 52T547 19T547 0Q545 0 520 0T456 0T369 0T274 0T187 0T122 0T94 0Q91 0 90 1T86 3Q85 5 84 7T83 11Q83 14 83 24T83 49T83 76T83 100T83 114Z" />
<glyph unicode="2" horiz-adv-x="600" d="M296 720Q355 720 398 708T471 672T514 616T528 544V520Q528 485 520 456T492 401T436 346T343 284Q290 252 259 228T211 181T190 135T184 81L158 93H229L174 82Q199 94 221 101T272 111T342 114H533Q538 114 541 111T544
103Q544 100 544 90T544 66T544 38T544 14T544 0Q542 0 516 0T448 0T358 0T260 0T170 0T102 0T74 0Q71 0 69 1T65 5T63 11V88Q63 148 82 195T148 285T273 375Q318 403 345 423T385 459T403 491T408 522V530Q408 546 404 558T390 580Q379 592 356 598T290 605Q234
605 188 589T100 538H83Q83 542 83 552T83 577T83 606T83 630T83 643Q83 648 84 651T89 657Q114 680 169 700T296 720Z" />
<glyph unicode="3" horiz-adv-x="600" d="M284 720Q361 720 416 699T502 640T532 552V532Q532 486 514 453T454 397T345 363L373 392V327L345 356Q417 345 460 322T523 267T542 198V168Q542 110 511 68T421 3T282 -20Q230 -20 186 -14T111 1T68 18Q64 21 62 24T60
33Q60 36 60 46T60 72T60 102T60 128T60 142H78Q109 126 138 117T200 104T278 100Q328 100 359 111T405 142T420 190V199Q420 224 408 243T366 275T289 294T168 301Q163 301 160 303T157 312Q157 316 157 330T157 363T157 395T157 414Q236 414 286 421T363 441T401
472T411 513V518Q411 542 398 560T356 589T279 600Q218 600 179 591T95 562H77Q77 566 77 576T77 600T77 629T77 653T77 667Q77 673 79 676T85 681Q105 693 158 706T284 720Z" />
<glyph unicode="4" horiz-adv-x="600" d="M317 700Q322 700 333 700T360 700T392 700T419 700T435 700V682Q408 640 381 597T325 510T268 421T209 328T147 232L167 296V219L142 236Q173 248 203 254T268 262T345 265H549Q553 265 555 264T558 260T560 254Q560
251 560 241T560 218T560 192T560 169T560 156H55Q52 156 50 157T46 161T44 167V265Q44 265 55 284T86 335T129 407T177 490T225 571T268 642T298 691Q301 695 303 696T309 699T317 700ZM393 404Q397 404 409 404T436 404T463 404T480 404Q484 404 486 403T489
399T491 393V99Q491 92 491 78T491 48T491 18T491 0Q488 0 477 0T452 0T422 0T396 0T381 0Q376 0 373 3T370 11Q370 19 370 42T370 97T370 159T370 214T370 245Q373 263 376 286T383 333T389 375T393 404Z" />
<glyph unicode="5" horiz-adv-x="600" d="M121 700Q124 700 145 700T200 700T273 700T352 700T425 700T480 700T503 700Q508 700 511 697T514 689Q514 686 514 677T514 655T514 629T514 606T514 593Q512 593 490 593T435 593T363 593T291 593T232 593T203 593Q177
593 159 603T131 630T121 669Q121 677 121 684T121 700ZM121 700H245L236 661Q235 647 233 628T227 577Q224 545 220 508T212 436T204 372L185 396H250L194 367Q223 401 262 415T356 429Q401 429 435 417T494 381T530 322T542 241V193Q542 144 526 105T478 38T398
-5T288 -20Q235 -20 193 -14T123 1T80 20Q75 23 75 25T74 32Q74 36 74 47T74 73T74 102T74 128T74 142H92Q135 120 181 110T289 100Q355 100 388 127T422 199V232Q422 262 411 283T377 317T313 329Q282 329 253 322T198 303H93Q87 303 84 306T81 317Q83 329 86
359T93 432T103 522T112 616T121 700Z" />
<glyph unicode="6" horiz-adv-x="600" d="M349 720Q403 720 444 709T504 686Q508 683 510 680T513 669Q513 666 513 656T513 633T513 606T513 582T513 568H495Q456 588 418 597T333 607Q294 607 267 597T219 566Q197 545 189 511T181 428V256Q181 220 185 193T197
148T216 117Q232 101 254 94T306 86Q365 86 396 118T428 206V222Q428 251 422 270T404 301Q392 314 370 322T312 331Q271 331 235 318T166 278L158 383H218L184 365Q211 402 249 421T347 440Q407 440 451 418T521 353T546 251V191Q546 130 516 83T432 8T307 -20Q227
-20 171 12T86 107T57 264V408Q57 482 74 535T120 623T187 680T266 711T349 720Z" />
<glyph unicode="7" horiz-adv-x="600" d="M59 700Q72 700 88 698T120 689T149 675T171 655T180 629Q180 622 180 606T180 569T180 529T180 495T180 479Q176 479 165 479T140 479T110 479T84 479T70 479Q65 479 62 482T59 490Q59 493 59 512T59 559T59 616T59 668T59
700ZM311 0Q308 0 296 0T269 0T237 0T210 0T195 0Q190 0 187 3T184 11Q184 15 193 38T220 108T268 223T335 385Q349 419 362 447T389 502T422 553T461 604L429 548V618L471 588Q430 587 392 587T319 586T253 586H151Q138 586 125 592T100 608T79 633T64 665T59
700H536Q540 700 542 699T545 695T547 689V597Q547 596 540 577T521 527T494 458T463 379T432 301Q417 264 402 228T373 155T343 80T311 0Z" />
<glyph unicode="8" horiz-adv-x="600" d="M301 720Q370 720 421 698T500 634T528 535V523Q528 482 512 451T465 399T391 372L423 393V336L282 392Q344 410 379 439T414 507V521Q414 540 409 555T393 581Q380 593 357 600T301 607Q263 607 237 596T199 565T186
516Q186 491 193 474T217 445T266 420L403 370Q440 356 467 339T511 301T537 251T546 187V164Q546 111 516 70T431 4T299 -20Q226 -20 171 2T85 63T54 157V170Q54 211 70 245T120 302T211 333L180 316V365L316 310Q267 299 234 282T184 240T168 182Q168 151 183
131T228 102T299 93Q366 93 399 114T432 184Q432 208 425 226T399 257T349 282L213 332Q161 351 131 374T86 430T72 513V533Q72 585 99 627T178 695T301 720Z" />
<glyph unicode="9" horiz-adv-x="600" d="M291 720Q353 720 400 702T479 649T527 561T544 439V282Q544 209 526 153T472 59T383 0T262 -20Q228 -20 194 -15T134 -2T94 15Q90 19 88 22T86 31Q86 34 86 43T86 65T86 89T86 110T86 123H103Q144 103 180 95T263 87Q302
87 332 97T379 126Q397 145 408 181T420 267V443Q420 492 411 526T384 578Q368 594 347 601T293 608Q236 608 205 578T173 497V458Q173 432 178 415T196 384Q209 371 230 365T281 359Q325 359 363 371T436 412V310H385L414 329Q393 288 351 269T255 250Q194 250
149 273T80 339T55 442V505Q55 568 85 616T169 692T291 720Z" />
<glyph unicode=":" horiz-adv-x="350" d="M256 367Q230 367 206 367T157 367T105 367Q102 367 100 368T96 372T94 378V531Q121 531 145 531T194 531T245 531Q249 531 251 530T254 526T256 520V367ZM256 -9Q230 -9 206 -9T157 -9T105 -9Q102 -9 100 -8T96 -4T94
2V155Q121 155 145 155T194 155T245 155Q249 155 251 154T254 150T256 144V-9Z" />
<glyph unicode=";" horiz-adv-x="350" d="M256 367Q230 367 206 367T157 367T105 367Q102 367 100 368T96 372T94 378V531Q121 531 145 531T194 531T245 531Q249 531 251 530T254 526T256 520V367ZM395 29Q372 29 343 29T289 29Q298 72 306 116T322 203T339 291T357
378Q382 378 402 378T446 378T497 378Q501 378 503 377T505 372T505 364Q495 330 483 290T457 206T431 120T405 37Q404 32 402 31T395 29Z" />
<glyph unicode="&lt;" horiz-adv-x="600" d="M79 386Q128 408 182 433T293 484T407 537T519 589Q519 561 519 533T519 477Q519 470 518 467T508 460Q491 451 462 438T396 407T320 372T243 336T171 303L186 332V268L171 296Q213 276 262 254T360 210T447 170T508
140Q516 136 517 133T519 123Q519 96 519 68T519 11Q448 44 378 76T236 141T93 206Q88 208 85 210T81 217T79 225Q79 266 79 306T79 386Z" />
<glyph unicode="=" horiz-adv-x="600" d="M65 485H524Q528 485 530 484T533 480T535 474Q535 447 535 423T535 370H76Q73 370 71 371T67 375T65 381Q65 409 65 433T65 485ZM65 228H524Q528 228 530 227T533 223T535 217Q535 190 535 166T535 113H76Q73 113 71
114T67 118T65 124Q65 152 65 176T65 228Z" />
<glyph unicode="&gt;" horiz-adv-x="600" d="M521 214Q472 192 418 167T307 115T193 63T81 11Q81 39 81 67T81 123Q81 130 82 133T92 140Q109 149 138 162T204 193T280 227T357 263T429 297L414 268V332L429 303Q387 323 338 345T240 390T153 430T92 460Q84 463
83 466T81 477Q81 505 81 533T81 589Q152 556 223 524T365 459T507 394Q512 392 515 389T519 383T521 374Q521 335 521 295T521 214Z" />
<glyph unicode="?" horiz-adv-x="600" d="M370 -9Q330 -9 287 -9T203 -9Q200 -9 198 -8T194 -4T192 2V161Q232 161 275 161T359 161Q363 161 365 160T368 156T370 150V-9ZM296 720Q357 720 400 707T472 671T514 618T528 555V525Q528 488 520 461T491 410T430 361L396
337Q372 322 360 310T343 286T338 254V247H227Q223 247 221 248T217 252T216 258V279Q216 307 224 329T253 372T313 420L342 440Q370 459 384 471T403 496T408 528Q408 536 406 543T399 556Q392 578 367 589T295 600Q240 600 193 588T100 546H82Q82 574 82 602T82
658Q82 661 83 663T86 668Q100 681 130 693T204 713T296 720Z" />
<glyph unicode="@" horiz-adv-x="1050" d="M525 744Q634 744 717 716T856 638T940 522T969 380V281Q969 230 957 191T918 123T853 81T759 66H753Q698 66 663 80T610 125T593 201Q593 225 593 253T593 310T593 369T593 423Q593 424 597 434T608 460T622 492H695Q700
492 703 489T706 481Q706 456 706 422T706 350T706 274T706 204Q706 181 717 169T754 157H756Q797 157 821 168T855 206T866 281V379Q866 414 859 445T837 506T798 559Q771 586 732 606T641 637T525 649Q407 649 332 612T220 514T184 379V186Q184 148 190 114T211
52T249 0Q290 -41 360 -63T536 -85Q606 -85 657 -77T748 -56T821 -29H839V-109Q839 -113 838 -115T835 -119Q826 -128 792 -143T695 -169T536 -180Q412 -180 326 -154T185 -79T106 36T81 183V377Q81 455 109 521T194 638T333 716T525 744ZM460 62Q425 62 399 76T357
122T341 200V364Q341 400 349 426T374 468T412 493T460 502Q502 502 532 485T585 436H619L616 341Q581 372 555 382T505 392Q493 392 484 389T468 379T458 363T454 340V228Q454 202 468 189T505 176Q521 176 537 181T572 198T616 233L628 136H593Q568 98 536 80T460
62Z" />
<glyph unicode="A" horiz-adv-x="650" d="M148 279H377Q391 279 405 279T432 279L465 288L478 230L490 173H158Q155 173 153 174T149 178T147 184L148 279ZM156 0Q129 0 101 0T45 0Q42 0 40 1T37 6T37 13Q45 43 57 86T83 182T112 293T142 409T172 522T199 623T221
703Q272 703 326 703T423 703Q427 703 429 702T432 698T435 692Q451 631 469 565T505 428T544 282T584 126Q591 95 599 64T614 0Q588 0 559 0T504 0Q498 0 495 1T490 7T486 19Q464 103 445 178T408 318T377 440T353 542T334 626L370 604H285L320 626Q312 589 301
544T275 442T242 319T203 173T156 0Z" />
<glyph unicode="B" horiz-adv-x="600" d="M331 0Q302 0 264 0T188 0T125 0T93 0Q88 0 85 3T82 11Q82 93 82 170T82 321T82 473T82 632H213L207 613Q207 577 207 546T207 481Q207 434 207 389T207 299T207 206T207 107Q226 107 243 107T277 107T314 107Q348 107
369 117T400 146T411 191V222Q411 247 401 265T367 293T303 303H145L149 379H412V347Q471 337 503 300T535 201V174Q535 113 510 75T439 18T331 0ZM30 700Q101 700 171 700T312 700Q373 700 415 687T482 651T519 599T531 537V513Q531 474 518 445T478 397T414 368T329
358Q275 358 236 358T164 358L149 346L145 406Q184 406 224 406T304 406Q343 406 365 416T397 446T407 492V517Q407 534 403 547T388 570Q377 582 359 587T314 593Q269 593 223 593T132 593T41 593Q36 593 33 596T30 604Q30 630 30 652T30 700Z" />
<glyph unicode="C" horiz-adv-x="600" d="M338 -20Q269 -20 216 -2T128 51T75 136T57 252V456Q57 516 75 564T128 647T213 701T329 720Q380 720 419 711T487 687T532 655Q535 653 535 651T536 646T537 639Q537 603 537 558T537 470Q512 470 486 470T435 470Q430
470 427 473T424 481Q424 500 424 519T424 562T424 614L450 571Q423 590 394 597T327 605Q284 605 252 589T203 539T186 453V262Q186 216 195 183T226 129Q246 109 275 101T339 93Q395 93 437 106T525 151H542Q542 138 542 126T542 102T542 78T542 53Q542 48 541
45T537 38Q521 22 492 9T424 -12T338 -20Z" />
<glyph unicode="D" horiz-adv-x="650" d="M589 240Q589 182 572 137T522 62T444 16T342 0Q319 0 290 0T231 0T172 0T123 0T93 0Q89 0 86 3T82 11Q82 89 82 167T82 325T82 482T82 639H220L211 618Q211 591 211 561T211 503Q211 453 211 405T211 309T211 213T211
114Q224 114 247 114T296 114T339 114Q386 114 414 129T455 174T468 248V452Q468 478 465 498T454 533T435 559Q424 569 411 575T379 583T337 586Q304 586 266 586T187 586T109 586T41 586Q38 586 36 587T32 591T30 597Q30 621 30 648T30 700Q61 700 99 700T178
700T259 700T335 700Q401 700 449 684T529 637T574 562T589 461V240Z" />
<glyph unicode="E" horiz-adv-x="550" d="M27 700H486Q489 700 491 699T495 695T497 689Q497 662 497 640T497 591H38Q35 591 33 592T29 596T27 602Q27 629 27 651T27 700ZM157 405H429Q432 405 434 404T438 400T440 394Q440 376 440 361T440 331T440 300H157V405ZM91
0Q89 0 87 1T83 3T80 7T79 11Q79 45 79 99T79 220T79 359T79 503T79 638H214L207 617Q207 595 207 572T207 525Q207 476 207 424T207 319T207 213T207 109H486Q491 109 494 106T497 98Q497 72 497 49T497 0H91Z" />
<glyph unicode="F" horiz-adv-x="550" d="M227 0Q198 0 169 0T110 0Q107 0 105 1T101 5T99 11Q99 92 99 170T99 324T99 479T99 637H237L227 613Q227 586 227 560T227 510Q227 439 227 371T227 234T227 98Q227 72 227 48T227 0ZM47 700H479Q483 700 485 699T488
695T490 689Q490 671 490 656T490 625T490 591H58Q55 591 53 592T49 596T47 602Q47 629 47 651T47 700ZM170 381H443Q448 381 451 378T454 370Q454 352 454 336T454 304T454 272H170V381Z" />
<glyph unicode="G" horiz-adv-x="650" d="M337 375H602Q605 375 607 374T611 370T613 364V270H348Q345 270 343 270T340 272T338 276T337 281Q337 305 337 328T337 375ZM347 720Q390 720 425 715T487 700T535 680T567 657Q570 653 571 650T572 641Q572 621 572
596T572 546T572 496Q547 496 521 496T469 496Q464 496 461 499T458 507Q458 523 458 539T458 575T458 616L485 572Q458 590 423 597T340 605Q301 605 272 595T221 565T190 514T179 440V244Q179 205 189 177T219 129Q236 112 264 103T336 93Q368 93 394 99T437
114T461 131Q461 165 461 193T461 250T461 309H579L575 287Q575 234 575 187T575 84Q575 78 574 75T569 66Q550 41 515 22T436 -8T346 -20Q271 -20 217 -2T127 52T75 137T58 248V445Q58 509 76 559T130 646T221 701T347 720Z" />
<glyph unicode="H" horiz-adv-x="650" d="M76 700Q106 700 135 700T193 700Q198 700 201 697T204 689Q204 603 204 517T204 345T204 172T204 0Q175 0 146 0T87 0Q84 0 82 1T78 5T76 11Q76 108 76 205T76 400T76 595Q76 622 76 648T76 700ZM133 405H394Q408 405
422 405T449 405L482 415L505 296H144Q142 296 140 297T137 299T134 303T133 307V405ZM574 0Q545 0 516 0T457 0Q454 0 452 1T448 5T446 11Q446 97 446 183T446 355T446 528T446 700Q476 700 505 700T563 700Q565 700 567 699T570 697T573 693T574 689Q574 617
574 544T574 398T574 253T574 107Q574 79 574 52T574 0Z" />
<glyph unicode="I" horiz-adv-x="500" d="M314 66H182L186 102Q186 119 186 140T186 178Q186 235 186 292T186 405T186 519T186 634H319L314 598Q314 582 314 563T314 526Q314 469 314 412T314 296T314 181T314 66ZM427 0H84Q82 0 80 1T77 3T74 7T73 11Q73 29
73 44T73 76T73 109H416Q419 109 421 108T425 104T427 98Q427 81 427 65T427 34T427 0ZM73 700H416Q421 700 424 697T427 689Q427 676 427 664T427 640T427 616T427 591H84Q80 591 77 594T73 602Q73 615 73 627T73 651T73 675T73 700Z" />
<glyph unicode="J" horiz-adv-x="500" d="M200 100Q228 100 247 106T280 126Q290 136 296 150T305 184T309 232Q309 279 309 324T309 418T309 515T309 619L328 574L293 612L338 591Q304 591 276 591T220 591T164 591T102 591Q99 591 97 592T93 596T91 602Q91 628
91 651T91 700Q136 700 176 700T255 700T333 700T419 700Q422 700 424 699T428 695T430 689Q430 633 430 576T430 462T430 345T430 225Q430 166 416 121T373 44T302 -3T201 -20Q165 -20 134 -15T81 -1T51 16Q49 18 48 19T47 24T46 29Q46 54 46 80T46 134H64Q87
123 108 115T152 104T200 100Z" />
<glyph unicode="K" horiz-adv-x="600" d="M315 410Q357 343 400 276T487 141Q499 122 508 116T538 110Q545 110 549 110T561 110H567Q567 97 567 81T567 50T567 25T567 11Q567 6 564 3T556 0Q553 0 548 0T536 0T520 0Q486 0 463 5T421 27T381 77Q361 109 346 133T320
178T301 218T285 260H236L315 410ZM561 700Q564 700 566 699T569 697T570 693Q570 690 569 686T561 673T539 643Q523 620 500 587T448 514T386 427T318 332T246 232T174 132V337H211Q218 358 227 378T247 417T271 457T297 499Q317 529 340 564T385 635T428 700H561ZM69
700Q99 700 126 700T182 700Q187 700 190 697T193 689Q193 603 193 517T193 345T193 172T193 0Q164 0 137 0T80 0Q75 0 72 3T69 11Q69 108 69 205T69 400T69 595Q69 622 69 648T69 700Z" />
<glyph unicode="L" horiz-adv-x="550" d="M87 0Q85 0 83 1T80 3T77 7T76 11Q76 90 76 169T76 327T76 477T76 614Q76 636 76 657T76 700Q106 700 135 700T193 700Q196 700 198 699T202 695T204 689Q204 617 204 545T204 399T204 254T204 109H402Q426 109 442 103T468
84T486 50T497 0H87ZM383 193Q402 193 418 193T451 193T486 193Q489 193 491 192T495 188T497 182Q497 164 497 141T497 92T497 43T497 0Q454 4 429 16T393 48T383 95Q383 110 383 127T383 162T383 193Z" />
<glyph unicode="M" horiz-adv-x="800" d="M196 0Q169 0 142 0T87 0Q84 0 82 1T78 5T76 11Q76 85 76 158T76 305T76 453T76 600Q76 625 76 650T76 700Q94 700 123 700T181 700T226 700Q232 700 235 699T242 693T249 679Q266 639 282 599T314 520T345 439T377 356T410
269L366 317H436L390 269Q407 314 423 357T456 443T488 528T522 613T556 700Q575 700 605 700T665 700T713 700Q716 700 718 699T722 695T724 689Q724 653 724 609T724 516T724 414T724 308T724 202T724 100Q724 84 724 67T724 34T724 0Q696 0 669 0T614 0Q611
0 609 1T605 5T603 11Q603 33 603 54T603 98T603 141Q603 172 603 201T605 261T607 324T611 390T617 463T626 546L645 517H575L615 547Q599 507 582 465T548 379T513 293T479 209T447 131Q425 131 403 131T360 131Q357 131 354 132T348 139Q336 170 321 207T288
287T253 374T218 461T184 545L223 517H155L173 547Q178 504 182 466T188 393T192 326T195 264T196 203T196 141Q196 106 196 71T196 0Z" />
<glyph unicode="N" horiz-adv-x="650" d="M180 0Q153 0 125 0T70 0Q67 0 65 1T61 5T59 11Q59 84 59 156T59 300T59 444T59 588Q59 616 59 644T59 700Q78 700 103 700T154 700T198 700Q203 700 206 699T213 692T224 672Q245 634 266 593T310 510T356 423T402 335T448
247T492 159L452 187H518L499 173Q492 219 487 260T479 339T474 414T471 486T470 559Q470 590 470 626T470 700Q498 700 525 700T580 700Q585 700 588 697T591 689Q591 618 591 547T591 405T591 262T591 120Q591 90 591 60T591 0Q573 0 553 0T512 0T475 0Q469 0
462 4T443 28Q401 101 364 169T292 302T226 431T160 562L203 527H137L155 546Q162 497 166 453T173 369T177 292T179 223T180 162Q179 124 179 83T180 0Z" />
<glyph unicode="O" horiz-adv-x="650" d="M325 720Q400 720 459 689T554 597T589 442V247Q589 160 554 101T460 11T325 -20Q252 -20 192 10T97 101T61 248V442Q61 535 97 596T193 689T325 720ZM182 254Q182 198 196 168T227 122Q243 109 268 100T328 91Q369 91
400 109T450 165T468 256V453Q468 485 464 508T450 548T428 577Q412 593 387 602T327 611Q277 611 245 591T198 536T182 453V254Z" />
<glyph unicode="P" horiz-adv-x="600" d="M210 0Q181 0 152 0T93 0Q88 0 85 3T82 11Q82 92 82 169T82 322T82 476T82 635H220L210 610Q210 584 210 562T210 516Q210 447 210 379T210 242T210 99Q210 72 210 47T210 0ZM30 700Q99 700 173 700T311 700Q357 700 394
692T459 667T505 626T532 568T542 494V431Q542 383 529 344T488 279T417 238T313 223Q284 223 255 223T195 223L184 220V333Q218 333 251 333T312 333Q338 333 357 338T388 355T407 384T414 427V500Q414 524 409 540T392 568Q380 581 360 586T311 591Q267 591 222
591T131 591T41 591Q36 591 33 594T30 602Q30 628 30 651T30 700Z" />
<glyph unicode="Q" horiz-adv-x="650" d="M481 93Q499 65 513 43T544 -7Q554 -21 563 -25T585 -29Q590 -29 593 -29T600 -29H617Q617 -56 617 -85T617 -143Q617 -148 614 -151T606 -154Q599 -154 589 -154T569 -154Q538 -154 517 -147T481 -123T451 -81Q431 -48
414 -18T378 46L481 93ZM325 720Q400 720 459 689T554 597T589 442V247Q589 160 554 101T460 11T325 -20Q252 -20 192 10T97 101T61 248V442Q61 535 97 596T193 689T325 720ZM182 254Q182 198 196 168T227 122Q243 109 268 100T328 91Q369 91 400 109T450 165T468
256V453Q468 485 464 508T450 548T428 577Q412 593 387 602T327 611Q277 611 245 591T198 536T182 453V254Z" />
<glyph unicode="R" horiz-adv-x="600" d="M388 322Q415 273 438 230T488 138Q498 122 506 116T528 109Q533 109 536 109T543 109H560Q560 82 560 60T560 11Q560 6 557 3T549 0Q542 0 531 0T511 0Q479 0 457 6T419 26T388 68Q362 120 336 171T282 275L388 322ZM30
700Q99 700 169 700T308 700Q366 700 408 686T477 646T516 582T529 498V444Q529 399 515 363T475 302T411 264T326 251Q293 251 260 251T195 251L184 244V356Q216 356 248 356T311 356Q343 356 363 366T394 395T404 444V503Q404 524 399 540T383 568Q372 579 355
585T311 591Q267 591 222 591T131 591T41 591Q36 591 33 594T30 602Q30 628 30 651T30 700ZM207 0Q178 0 151 0T93 0Q88 0 85 3T82 11Q82 92 82 169T82 322T82 476T82 635H219L207 610Q207 573 207 537T207 464Q207 403 207 344T207 225T207 99Q207 72 207 47T207
0Z" />
<glyph unicode="S" horiz-adv-x="600" d="M321 719Q390 719 440 703T513 662Q518 658 519 655T520 645Q520 626 520 603T520 556T520 510Q494 510 468 510T416 510Q411 510 408 513T405 521Q405 532 405 543T405 566T405 592T405 622L432 584Q409 597 383 603T321
610Q290 610 266 605T226 588T201 561T192 523V503Q192 481 199 466T225 439T282 416L378 387Q424 374 455 358T505 321T532 274T540 212V169Q540 111 510 69T422 4T285 -19Q237 -19 195 -13T120 7T71 36Q68 39 67 42T65 55Q65 70 65 85T65 117T65 152H83Q127 120
176 106T293 91Q358 91 389 114T421 171V203Q421 222 415 235T389 260T331 283L236 312Q188 326 156 345T107 385T82 433T74 488V533Q74 573 91 607T141 666T219 705T321 719Z" />
<glyph unicode="T" horiz-adv-x="600" d="M53 700H536Q541 700 544 697T547 689Q547 662 547 640T547 591H64Q61 591 59 592T55 596T53 602Q53 629 53 651T53 700ZM364 0Q335 0 306 0T247 0Q242 0 239 3T236 11Q236 92 236 169T236 325T236 481T236 640H374L364
615Q364 593 364 570T364 525T364 481Q364 417 364 355T364 230T364 99Q364 72 364 47T364 0Z" />
<glyph unicode="U" horiz-adv-x="650" d="M574 0Q555 0 536 0T497 0T457 0Q455 0 453 0T450 2T448 4T447 7T446 11Q446 97 446 183T446 355T446 528T446 700Q466 700 485 700T524 700T563 700Q566 700 568 699T572 695T574 689Q574 617 574 544T574 398T574 253T574
107Q574 79 574 52T574 0ZM243 -13Q199 -13 168 -1T116 35T85 93T74 172Q74 237 74 307T74 452T74 600Q74 625 74 650T74 700Q104 700 133 700T191 700Q195 700 197 699T200 695T202 689Q202 605 202 518T202 345T202 180Q202 139 221 120T279 100Q314 100 346
113T408 156T468 234V94H426Q406 60 379 36T318 0T243 -13Z" />
<glyph unicode="V" horiz-adv-x="650" d="M151 700Q155 700 157 699T162 693T167 678Q194 569 216 482T256 324T290 191T321 69L286 97H363L328 69Q340 116 352 165T379 268T411 387T449 528T494 700Q522 700 550 700T607 700Q610 700 612 699T614 695T614 688Q605
656 591 603T559 483T523 347T486 211T453 88T428 -3Q378 -3 328 -3T238 -3Q228 -3 225 1T217 19Q206 59 194 105T167 203T139 311T109 425T77 544Q71 570 64 595T49 647T35 700Q64 700 94 700T151 700Z" />
<glyph unicode="W" horiz-adv-x="950" d="M31 700Q49 700 69 700T110 700T148 700Q152 700 154 699T159 694T161 686Q169 650 177 607T196 511T216 397T237 268T259 123L233 136H296L274 124Q286 183 303 255T339 406T378 560T412 700H528Q531 700 533 699T537
695T540 689Q553 638 568 580T600 461T631 341T659 226T681 123L658 136H719L697 126Q707 207 716 271T734 389T752 492T770 592T791 700Q809 700 829 700T870 700T908 700Q912 700 915 699T919 694T919 685Q914 659 905 615T884 513T860 389T833 255T807 122T782
-2Q767 -2 745 -2T701 -2T659 -2T625 -2Q617 -2 613 2T605 18Q593 69 577 129T544 256T510 399T478 556L510 522H443L472 556Q460 490 445 421T415 285T385 162T359 63T342 -2Q320 -2 290 -2T232 -2T184 -2Q176 -2 172 2T165 18Q156 61 146 113T124 224T101 345T76
473T51 602Q48 624 42 650T31 700Z" />
<glyph unicode="X" horiz-adv-x="600" d="M452 0Q449 0 446 1T440 5T435 10Q416 44 392 90T342 186T292 280L233 328Q199 390 165 452T95 576T25 700Q58 700 88 700T150 700Q155 700 158 699T164 695T169 688Q193 644 216 600T263 512T310 422L367 377Q419 284
472 190T579 0Q548 0 516 0T452 0ZM559 700Q564 700 567 698T570 691T568 681Q558 664 540 634T499 565T451 484T402 400T355 322L277 426H327Q334 459 339 483T352 528T370 572T398 625T440 700Q470 700 500 700T559 700ZM38 0Q33 0 30 2T27 9T29 19Q39 36 57
66T98 135T146 216T195 301T241 379L325 275H277Q269 243 263 220T249 176T230 133T201 78T157 0Q128 0 98 0T38 0Z" />
<glyph unicode="Y" horiz-adv-x="650" d="M390 0Q370 0 351 0T312 0T273 0Q270 0 268 1T264 5T262 11Q262 83 262 158T262 306H390Q390 274 390 239T390 168T390 100Q390 75 390 50T390 0ZM25 700Q56 700 86 700T144 700Q151 700 155 699T162 693T169 680Q193
635 214 592T256 505T294 415T330 317L295 351H365L328 317Q346 371 364 417T401 508T443 599T493 700Q523 700 552 700T607 700Q616 700 619 695T617 678Q595 636 572 591T524 500T475 408T426 315T378 226Q341 226 320 226T288 227T274 230T268 237Q259 252 240
289T194 377T138 484T79 597T25 700Z" />
<glyph unicode="Z" horiz-adv-x="600" d="M551 0H64Q59 0 56 3T53 11V131Q94 182 135 234T218 339T304 448Q321 469 335 485T362 515T389 539T418 562T452 587L424 544V611L441 586Q381 586 338 586T260 586T194 586H161Q136 586 117 593T85 614T66 650T59 700H536Q540
700 542 699T545 695T547 689V569Q517 533 480 487T401 388T312 274Q292 247 276 228T246 195T217 168T188 144T153 117L177 154V88L160 114Q221 114 274 114T372 114T456 114H540Q545 114 548 111T551 103Q551 77 551 52T551 0ZM172 522Q145 522 121 522T70 522Q67
522 65 523T61 527T59 533Q59 550 59 571T59 616T59 661T59 700Q104 700 129 691T163 661T172 605Q172 593 172 578T172 549T172 522Z" />
<glyph unicode="[" horiz-adv-x="450" d="M395 -160H91Q88 -160 86 -160T83 -158T81 -154T80 -149Q80 -49 80 52T80 254T80 456T80 657Q80 682 80 708T80 760Q93 760 105 760T130 760H384Q389 760 392 757T395 749Q395 721 395 697T395 645H208Q208 559 208 473T208
300T208 127T208 -45H384Q389 -45 392 -48T395 -56Q395 -82 395 -108T395 -160Z" />
<glyph unicode="\" horiz-adv-x="600" d="M71 750Q101 750 129 750T187 750Q190 750 192 750T196 748T199 743Q249 616 298 489T397 234T496 -21Q507 -48 517 -75T539 -130Q509 -130 482 -130T423 -130Q419 -130 415 -128T408 -119Q352 26 296 171T184 461T71 750Z" />
<glyph unicode="]" horiz-adv-x="450" d="M56 760H360Q363 760 365 760T368 758T370 754T371 749Q371 649 371 548T371 346T371 144T371 -57Q371 -83 371 -109T371 -160Q358 -160 346 -160T321 -160H67Q62 -160 59 -157T56 -149Q56 -121 56 -97T56 -45H243Q243
40 243 126T243 299T243 472T243 645H67Q62 645 59 648T56 656Q56 682 56 708T56 760Z" />
<glyph unicode="^" horiz-adv-x="600" d="M212 750Q252 750 292 750T372 750Q380 750 384 747T392 736Q416 683 436 638T476 549T517 461T562 362Q534 362 506 362T449 362Q443 362 440 364T432 373Q413 413 399 446T370 509T341 572T307 646L332 632H255L294
656Q272 609 255 572T223 502T192 435T157 361H47Q44 361 42 362T39 365T38 369Q38 372 39 376T45 391Q53 408 71 446T112 534T161 641T212 750Z" />
<glyph unicode="_" horiz-adv-x="600" d="M58 -65H531Q535 -65 537 -66T540 -70T542 -76Q542 -103 542 -127T542 -180H69Q66 -180 64 -179T60 -175T58 -169Q58 -141 58 -117T58 -65Z" />
<glyph unicode="`" horiz-adv-x="350" d="M205 741Q220 696 238 646T274 545T306 450Q279 450 254 450T198 450Q191 450 186 451T179 457Q163 488 145 524T108 596T74 666T44 726Q42 731 44 736T52 741Q83 741 105 741T150 741T205 741Z" />
<glyph unicode="a" horiz-adv-x="600" d="M506 344Q506 319 506 294T506 243T506 191T506 141Q506 131 507 124T514 113Q517 109 523 107T538 105Q540 105 542 105T548 105H566Q566 82 566 59T566 11Q566 6 563 3T555 0Q550 0 534 0T504 0Q477 0 456 8T419 32T394
70T385 121Q385 153 385 187T385 253Q385 270 385 286T385 318T385 350Q385 382 374 400T340 426T275 434Q246 434 220 432T168 424T116 409H99Q99 432 99 456T99 503Q99 507 100 509T102 513Q107 518 134 526T199 540T275 546Q336 546 379 535T451 499T492 437T506
344ZM181 148Q181 124 195 111T238 97Q267 97 294 104T349 128T403 172V86H374Q359 55 336 34T280 1T210 -10Q164 -10 131 8T79 58T60 133V167Q60 200 71 226T102 271T152 300T217 311Q252 311 285 311T349 311T410 311Q418 311 422 297T428 264T429 233Q395 233
365 233T303 233T238 233Q223 233 213 230T194 218Q188 212 185 203T181 182V148Z" />
<glyph unicode="b" horiz-adv-x="600" d="M170 0Q161 0 147 0T117 0T93 0Q90 0 88 1T84 5T82 11Q82 87 82 162T82 313T82 465T82 616Q82 650 82 683T82 750Q96 750 109 750T136 750T163 750T191 750Q195 750 197 749T200 745T202 739Q202 658 202 579T202 420T202
262T202 102Q202 102 199 92T191 66T182 36T174 10T170 0ZM174 83L187 191Q219 146 257 126T332 106Q359 106 378 117T408 152T418 207V333Q418 359 412 378T394 409Q383 420 368 425T332 431Q308 431 283 421T235 389T190 337V455H219Q236 485 259 505T310 536T371
547Q409 547 440 534T493 496T527 435T539 353V188Q539 141 527 105T493 43T440 4T369 -10Q338 -10 309 0T256 32T213 83H174Z" />
<glyph unicode="c" horiz-adv-x="500" d="M309 547Q347 547 375 542T421 531T444 517Q447 515 447 513T448 508Q448 483 448 458T448 407H430Q405 419 375 426T309 433Q271 433 243 419T200 376T185 301V232Q185 198 194 173T220 132Q236 117 258 110T309 103Q334
103 355 106T394 114T430 127H448Q448 102 448 77T448 26Q448 24 448 22T445 18Q439 12 422 5T376 -6T309 -11Q251 -11 205 4T127 50T78 125T61 226V304Q61 378 92 432T180 517T309 547Z" />
<glyph unicode="d" horiz-adv-x="600" d="M231 547Q265 547 292 537T342 507T380 461H413V345Q381 389 344 410T268 431Q241 431 222 420T192 386T182 330V204Q182 178 188 159T206 128Q217 118 232 112T268 106Q293 106 318 114T367 142T413 194V79H380Q363 51
340 31T290 1T229 -10Q192 -10 161 3T107 41T73 103T61 185V350Q61 396 73 433T107 495T160 534T231 547ZM507 750Q511 750 513 749T516 745T518 739Q518 664 518 587T518 434T518 282T518 135Q518 99 518 66T518 0Q505 0 491 0T464 0T436 0T409 0Q406 0 404 1T400
5T398 11Q398 91 398 171T398 330T398 490T398 650Q398 675 398 700T398 750Q411 750 425 750T452 750T480 750T507 750Z" />
<glyph unicode="e" horiz-adv-x="600" d="M302 547Q368 547 418 521T496 445T524 324V244Q524 241 523 239T520 235T514 234H274Q258 234 241 234T206 234H169L162 311H407Q407 316 407 319T407 328Q407 360 400 383T379 420Q366 433 347 439T302 445Q248 445
220 418T192 326V211Q192 183 199 163T219 128Q237 110 265 102T331 94Q368 94 395 98T447 109T495 125H513Q513 103 513 80T513 35Q513 33 512 31T509 27Q500 18 473 9T408 -5T329 -11Q266 -11 218 3T137 47T88 117T71 211V322Q71 376 87 417T135 488T209 532T302
547Z" />
<glyph unicode="f" horiz-adv-x="400" d="M33 515H344Q348 515 350 514T353 510T355 504Q355 479 355 457T355 409H44Q41 409 39 410T35 414T33 420Q33 446 33 468T33 515ZM225 11Q225 7 222 4T214 0Q186 0 160 0T105 0Q105 25 105 50T105 100Q105 165 105 221T105
332T105 445T105 572Q105 618 117 654T153 715T211 754T289 767Q315 767 335 764T368 756T387 746Q389 745 389 743T390 738Q390 716 390 692T390 645H372Q361 650 350 654T326 659T301 661Q286 661 273 657T248 645Q237 635 231 618T225 570Q225 521 225 464T225
347T225 226T225 111T225 11Z" />
<glyph unicode="g" horiz-adv-x="600" d="M104 80Q104 102 112 120T136 152T178 174V204L238 182Q231 166 228 150T225 115Q225 101 231 95T251 89H386Q444 89 481 70T537 15T556 -65V-99Q556 -133 545 -160T513 -208T459 -239T382 -250H184Q132 -250 98 -236T46
-196T28 -131V-113Q28 -83 40 -60T75 -21T130 0V35L200 -9Q180 -13 169 -23T152 -47T147 -78V-106Q147 -124 153 -136T173 -155T210 -162H373Q390 -162 402 -157T422 -145Q430 -137 433 -125T437 -99V-73Q437 -43 423 -29T373 -14H196Q172 -14 151 -2T117 32T104
80ZM340 448L431 454V428Q466 416 481 393T497 337V319Q497 275 472 243T399 193T277 175Q205 175 155 195T79 254T52 346V368Q52 423 78 462T155 523T277 544Q345 544 413 544T550 544Q550 522 550 499T550 453Q550 449 547 446T539 442Q496 442 454 442T369 442T277
442Q226 442 198 423T170 364V345Q170 329 175 317T189 295Q203 282 224 275T277 268Q329 268 354 288T380 347V370Q380 386 377 399T365 424T340 448Z" />
<glyph unicode="h" horiz-adv-x="600" d="M93 0Q90 0 88 1T84 5T82 11Q82 91 82 171T82 331T82 492T82 651Q82 681 82 706T82 750Q104 750 122 750T157 750T191 750Q195 750 197 749T200 745T202 739Q202 647 202 555T202 370T202 185T202 0Q183 0 166 0T130 0T93
0ZM187 338V448H220Q236 471 254 489T292 520T336 540T386 547Q419 547 445 537T489 506T517 457T527 394Q527 346 527 297T527 199T527 101Q527 75 527 50T527 0Q498 0 473 0T417 0Q414 0 412 1T408 5T406 11Q406 71 406 130T406 250T406 369Q406 401 392 416T347
431Q329 431 309 426T267 408T225 379T187 338Z" />
<glyph unicode="i" horiz-adv-x="350" d="M131 11Q131 42 131 83T131 172T131 266T131 355T131 427H122Q115 427 107 427T90 427T72 427T55 427Q50 427 47 430T44 438Q44 462 44 487T44 536Q60 536 81 536T124 536T168 536T209 536T241 536Q245 536 247 535T250
531T252 525Q252 477 252 422T252 311T252 200T252 95Q252 80 252 64T252 32T252 0Q223 0 198 0T142 0Q137 0 134 3T131 11ZM109 787Q127 787 145 787T182 787T220 787T256 787Q261 787 264 784T267 776V658Q249 658 231 658T194 658T156 658T120 658Q115 658 112
661T109 669V787Z" />
<glyph unicode="j" horiz-adv-x="350" d="M255 536Q259 536 261 535T265 531T266 525Q266 472 266 421T266 319T266 215T266 106T266 -12Q266 -63 257 -99T229 -157T182 -190T116 -200Q86 -200 63 -197T25 -188T2 -175Q1 -173 0 -172T-1 -167Q-1 -140 -1 -110T-1
-53H17Q31 -60 41 -64T63 -70T87 -72Q101 -72 112 -68T130 -57Q135 -51 138 -45T143 -29T145 -9Q145 58 145 114T145 221T145 320T145 422H138Q131 422 122 422T101 422T79 422T58 422Q53 422 50 425T47 433Q47 459 47 484T47 536Q80 536 109 536T163 536T212 536T255
536ZM125 787Q143 787 161 787T198 787T236 787T272 787Q277 787 280 784T283 776V658Q265 658 247 658T210 658T172 658T136 658Q131 658 128 661T125 669V787Z" />
<glyph unicode="k" horiz-adv-x="600" d="M202 0Q183 0 166 0T130 0T93 0Q90 0 88 1T84 5T82 11Q82 91 82 171T82 331T82 491T82 651Q82 681 82 706T82 750Q104 750 122 750T157 750T191 750Q195 750 197 749T200 745T202 739Q202 647 202 555T202 370T202 185T202
0ZM444 0Q432 0 427 3T416 13Q412 18 404 29T384 56T361 88T336 120Q321 140 312 157T296 191T285 231H246L319 327Q363 272 405 218T489 109T575 0Q555 0 536 0T496 0T444 0ZM184 297H220Q228 318 235 334T252 365T271 392T293 420Q308 436 324 453T359 491T400
536L532 537Q535 537 537 536T541 532T542 527Q542 525 541 522T534 513Q502 480 472 448T411 384T353 323T296 262T240 203T184 145V297Z" />
<glyph unicode="l" horiz-adv-x="350" d="M21 750Q29 750 47 750T90 750T138 750T181 750T208 750Q212 750 214 749T217 745T219 739Q219 687 219 629T219 509T219 386T219 267T219 156Q219 143 220 136T228 123Q233 118 242 116T262 114Q270 114 279 114T293
114H304Q304 90 304 63T304 11Q304 7 303 5T299 2T293 0Q287 0 275 0T249 0T225 0Q194 0 171 8T131 34T107 78T98 141Q98 186 98 237T98 341T98 448T98 551T98 644H91Q87 644 76 644T51 644T32 644Q27 644 24 647T21 655Q21 679 21 702T21 750Z" />
<glyph unicode="m" horiz-adv-x="850" d="M768 0Q752 0 730 0T687 0T651 0Q648 0 646 1T642 5T640 11Q640 49 640 87T640 162T640 235T640 305T640 371Q640 402 629 415T591 429Q571 429 551 418T512 384T476 327L459 458H506Q523 488 543 508T587 537T643 547Q668
547 690 539T730 514T758 471T768 409Q768 381 768 346T768 270T768 186T768 100Q768 75 768 50T768 0ZM489 0Q475 0 452 0T407 0T372 0Q369 0 367 1T363 5T361 11Q361 49 361 87T361 162T361 235T361 306T361 372Q361 393 356 405T342 423T317 429Q297 429 277
418T236 383T196 325L175 458H220Q239 486 260 506T307 536T359 547Q387 547 410 539T451 515T479 474T489 415Q489 392 489 354T489 264T489 146T489 0ZM210 0Q197 0 182 0T151 0T120 0T93 0Q90 0 88 0T85 2T83 6T82 11Q82 82 82 153T82 294T82 436Q82 464 82
489T82 536Q92 536 104 536T130 536T156 536T179 536Q179 536 183 519T194 480T205 441T210 424Q210 360 210 290T210 148T210 0Z" />
<glyph unicode="n" horiz-adv-x="600" d="M527 0Q498 0 473 0T417 0Q414 0 412 1T408 5T406 11Q406 71 406 130T406 250T406 369Q406 401 392 416T347 431Q329 431 309 426T267 408T225 379T187 338V448H220Q241 478 266 500T322 534T386 547Q419 547 445 537T489
506T517 457T527 394Q527 346 527 297T527 199T527 101Q527 75 527 50T527 0ZM202 0Q183 0 166 0T130 0T93 0Q90 0 88 0T85 2T83 6T82 11Q82 65 82 118T82 224T82 330T82 437Q82 467 82 492T82 536Q104 536 122 536T157 536T191 536Q195 536 197 535T200 531T202
525Q202 438 202 351T202 176T202 0Z" />
<glyph unicode="o" horiz-adv-x="600" d="M300 547Q353 547 396 531T471 484T520 413T538 322V217Q538 149 508 98T424 18T300 -11Q247 -11 203 5T128 52T80 123T62 214V319Q62 387 92 438T177 518T300 547ZM303 438Q264 438 238 423T197 380T183 314V221Q183
192 191 169T216 129Q230 114 251 106T297 98Q336 98 362 113T403 157T417 222V315Q417 347 409 370T386 409Q371 423 351 430T303 438Z" />
<glyph unicode="p" horiz-adv-x="600" d="M82 536Q101 536 119 536T155 536T191 536Q195 536 197 535T200 531T202 525Q202 435 202 344T202 163T202 -19T202 -200Q184 -200 166 -200T130 -200T93 -200Q90 -200 88 -199T84 -195T82 -189Q82 -111 82 -33T82 123T82
279T82 435Q82 462 82 487T82 536ZM371 547Q421 547 459 524T518 457T539 353V188Q539 141 527 105T493 43T440 4T369 -10Q339 -10 312 0T261 28T219 71H190V175Q218 140 255 123T332 106Q359 106 378 117T407 152T418 207V333Q418 359 412 378T394 409Q383 420
368 425T332 431Q308 431 283 420T235 388T190 334V453H219Q235 483 258 504T310 536T371 547Z" />
<glyph unicode="q" horiz-adv-x="600" d="M398 536Q426 536 452 536T507 536Q511 536 513 535T516 531T518 525Q518 451 518 376T518 226T518 78T518 -65Q518 -101 518 -134T518 -200Q490 -200 464 -200T409 -200Q406 -200 404 -199T400 -195T398 -189Q398 -111
398 -33T398 123T398 279T398 436Q398 453 398 469T398 503T398 536ZM410 84H383Q367 53 343 33T291 1T229 -10Q179 -10 141 13T82 80T61 185V350Q61 396 73 433T107 495T160 534T231 547Q261 547 288 537T339 507T381 462H410V354Q379 392 342 411T268 431Q241
431 222 420T192 386T182 330V204Q182 178 188 159T206 128Q217 118 232 112T268 106Q292 106 317 117T366 149T410 202V84Z" />
<glyph unicode="r" horiz-adv-x="450" d="M191 441H229Q244 478 262 501T303 535T358 546Q374 546 385 543T401 537Q405 534 406 532T408 524Q408 510 408 496T408 469T408 443T408 415H390Q380 418 368 420T340 422Q309 422 284 410T237 375T191 319V441ZM210
0Q190 0 171 0T132 0T93 0Q90 0 88 0T85 2T83 6T82 11Q82 43 82 82T82 166T82 257T82 349T82 437Q82 467 82 492T82 536Q104 536 123 536T162 536T199 536Q203 536 205 535T208 531T210 525Q210 486 210 437T210 334T210 223T210 109T210 0Z" />
<glyph unicode="s" horiz-adv-x="550" d="M267 107Q332 107 357 123T382 162Q382 175 376 185T354 203T311 216L210 233Q161 242 130 261T83 308T68 374Q68 414 84 445T131 499T207 533T311 545Q345 545 372 543T421 536T459 526Q465 524 468 522T472 515T473
505Q473 485 473 458T473 406H455Q430 415 406 420T355 427T298 429Q257 429 233 423T198 405T188 378Q188 365 193 356T214 341T255 329L352 313Q399 306 432 287T482 237T500 163Q500 111 473 72T394 12T268 -9Q232 -9 201 -7T144 1T97 12T62 27Q57 30 55 32T53
42Q53 63 53 91T53 147H71Q94 135 115 128T160 116T210 109T267 107Z" />
<glyph unicode="t" horiz-adv-x="500" d="M43 536H426Q431 536 434 533T437 525Q437 507 437 491T437 458T437 423H54Q52 423 50 424T47 426T44 430T43 434Q43 452 43 468T43 501T43 536ZM437 115Q437 89 437 63T437 11Q437 6 434 3T426 0Q416 0 406 0T386 0T366
0T346 0Q295 0 255 12T188 50T146 115T131 211Q131 259 131 307T131 404T131 501T131 599Q131 624 131 649T131 700Q159 700 186 700T241 700Q244 700 246 699T250 695T252 689Q252 630 252 572T252 455T252 338T252 221Q252 189 258 169T278 135Q289 124 307 120T350
115Q363 115 375 115T400 115T425 115H437Z" />
<glyph unicode="u" horiz-adv-x="600" d="M191 536Q195 536 197 535T200 531T202 525Q202 480 202 434T202 342T202 252T202 167Q202 140 216 126T255 111Q278 111 299 116T340 131T378 158T415 198V87H382Q362 57 339 35T288 1T222 -11Q191 -11 165 -1T120 30T92
77T81 138Q81 183 81 228T81 318T81 407Q81 439 81 471T81 536Q109 536 136 536T191 536ZM508 536Q512 536 514 535T517 531T519 525Q519 454 519 383T519 241T519 99Q519 79 519 61T519 28T519 0Q500 0 481 0T445 0T410 0Q407 0 405 1T401 5T399 11Q399 99 399
186T399 361T399 536Q418 536 436 536T472 536T508 536Z" />
<glyph unicode="v" horiz-adv-x="600" d="M159 536Q163 536 166 535T171 530T174 522Q193 458 212 392T252 252T292 87H310Q323 141 335 189T359 283T383 371T407 454T431 536Q459 536 487 536T542 536Q547 536 550 534T554 528T554 519Q533 455 512 390T471 260T430
130T388 0Q348 0 309 0T236 0Q227 0 221 2T210 12T201 35Q186 81 171 129T140 227T108 328T75 432T42 536Q71 536 100 536T159 536Z" />
<glyph unicode="w" horiz-adv-x="800" d="M338 536H450Q453 536 455 535T460 532T463 525Q477 464 490 410T514 304T535 203T551 99H573Q578 156 585 211T601 322T619 431T638 536Q656 536 675 536T715 536T753 536Q757 536 759 536T763 532T762 523Q749 462 735
398T705 266T675 132T645 0Q629 0 611 0T574 0T537 0T502 0Q496 0 492 5T484 24Q474 67 466 98T450 157T437 216T425 287T411 386H392Q384 338 379 303T368 240T358 187T345 136T330 77T310 0Q288 0 263 0T213 0T168 0Q162 0 158 5T150 26Q141 68 130 116T108 217T84
323T59 431T36 536Q53 536 72 536T111 536T149 536Q153 536 155 535T159 532T162 523Q171 474 181 422T200 315T217 207T229 99H251Q257 152 266 206T287 314T312 424T338 536Z" />
<glyph unicode="x" horiz-adv-x="600" d="M56 536Q88 536 120 536T184 536Q191 536 195 533T204 525Q231 474 259 422T315 317L358 300Q406 225 454 150T551 0Q535 0 519 0T488 0T460 0T435 0Q420 0 413 3T399 19Q388 37 369 72T327 148T285 225L241 246Q194 319
149 391T56 536ZM243 302L335 192H286Q271 160 254 128T221 64T188 0L68 -1Q62 -1 59 2T56 10Q56 14 58 17T64 27Q109 96 153 165T243 302ZM529 536Q534 536 537 534T541 525Q541 523 540 521T537 514Q493 447 448 378T358 240L271 343H316Q331 376 346 408T376
472T407 536H529Z" />
<glyph unicode="y" horiz-adv-x="600" d="M545 536Q550 536 554 532T557 520Q536 446 517 377T478 240T439 100T399 -49Q385 -102 362 -135T304 -184T217 -200Q205 -200 189 -200T156 -200T129 -200T115 -200Q110 -200 107 -198T104 -189V-94H122Q143 -94 163
-94T204 -94Q238 -94 259 -78T289 -26Q296 -1 307 44T334 148T367 273T401 407T434 536Q447 536 460 536T487 536T515 536T545 536ZM159 536Q169 536 172 533T179 523Q198 456 213 405T242 311T267 235T287 168T305 104H359L337 28H243Q234 28 228 30T218 40T207
61Q201 77 188 113T158 199T120 308T80 425T43 536Q57 536 71 536T99 536T129 536T159 536Z" />
<glyph unicode="z" horiz-adv-x="550" d="M66 536H472Q477 536 479 535T482 531T484 525V410Q458 381 435 355T391 306T351 261T315 222T282 186Q263 166 248 155T216 132V114Q239 114 262 114T308 114H473Q478 114 481 111T484 103Q484 77 484 52T484 0H78Q74
0 72 1T68 5T66 11V129Q110 176 146 215T212 287T271 349Q288 365 304 378T338 404V422Q311 422 284 422T230 422H77Q74 422 72 423T68 427T66 433Q66 458 66 484T66 536Z" />
<glyph unicode="{" horiz-adv-x="550" d="M381 155Q381 127 374 106T355 69T336 39T323 11Q323 5 322 -1T321 -14Q323 -32 332 -39T360 -46Q390 -46 419 -46T478 -46H496Q496 -72 496 -98T496 -150Q496 -155 493 -158T485 -161H311Q270 -161 246 -144T211 -103T200
-61V-16Q200 17 209 39T230 78T251 113T260 154Q260 181 240 201T182 231T86 242H65Q60 242 57 245T54 253Q54 280 54 305T54 358H86Q143 358 181 368T240 397T260 445Q260 469 252 486T231 520T209 559T200 615V660Q200 679 211 702T246 743T311 760H485Q490 760
493 757T496 749Q496 723 496 697T496 645H478Q448 645 419 645T360 645Q341 645 332 638T321 613Q321 608 321 603T322 593Q324 579 333 565T353 533T373 495T381 444Q381 393 354 360T268 308V292Q328 276 354 240T381 155Z" />
<glyph unicode="|" horiz-adv-x="300" d="M86 760Q116 760 145 760T203 760Q208 760 211 757T214 749Q214 658 214 567T214 385T214 203T214 22T214 -160Q185 -160 156 -160T97 -160Q93 -160 90 -157T86 -149Q86 -49 86 51T86 253T86 454T86 655Q86 682 86 708T86 760Z" />
<glyph unicode="}" horiz-adv-x="550" d="M169 444Q169 472 176 493T195 530T215 560T227 588Q228 595 228 601T229 613Q227 631 219 638T190 645Q160 645 131 645T72 645H54Q54 671 54 697T54 749Q54 754 57 757T65 760H239Q281 760 305 743T339 703T350 660V615Q350
582 341 560T320 521T299 487T290 445Q290 418 310 398T369 368T464 357H485Q490 357 493 354T496 346Q496 319 496 294T496 241H464Q408 241 369 231T310 202T290 154Q290 131 298 113T319 79T341 40T350 -16V-61Q350 -79 340 -103T305 -144T239 -161H65Q60 -161
57 -158T54 -150Q54 -124 54 -98T54 -46H72Q102 -46 131 -46T190 -46Q210 -46 218 -39T229 -14Q229 -9 229 -4T228 6Q226 20 217 34T197 66T177 104T169 155Q169 206 196 239T282 291V307Q222 324 196 359T169 444Z" />
<glyph unicode="~" horiz-adv-x="600" d="M398 150Q451 150 486 174T539 246T557 363V427Q557 436 554 439T542 443Q520 443 499 443T455 443V431Q455 420 455 410T455 390Q455 331 443 310T406 288Q387 288 375 299T354 329T334 369T307 408T266 438T202 450Q150
450 114 426T61 355T43 237V173Q43 164 46 161T58 157Q80 157 102 157T145 157V169Q145 179 145 190T145 211Q145 269 157 290T194 312Q213 312 225 301T246 271T267 231T293 192T334 162T398 150Z" />
<glyph unicode="&#xa1;" horiz-adv-x="350" d="M130 261H210Q213 261 215 261T218 258Q220 257 221 252T225 226T233 160T249 34V-54Q249 -82 249 -108T249 -164Q223 -164 189 -164T112 -164Q109 -164 107 -163T103 -159T101 -153V34Q106 72 111 109T120 185T130
261ZM94 544Q121 544 145 544T194 544T245 544Q249 544 251 543T254 539T256 533V381Q230 381 206 381T157 381T105 381Q102 381 100 382T96 386T94 392V544Z" />
<glyph unicode="&#xa2;" horiz-adv-x="600" d="M343 623Q390 623 424 616T480 600T510 582Q512 580 513 578T514 572Q514 564 514 545T514 505T514 466H496Q459 484 423 493T341 503Q298 503 266 491T217 450T200 374V312Q200 280 208 256T233 215Q250 200 276
192T340 184Q370 184 396 187T446 199T496 219H514Q514 201 514 181T514 142T514 112Q514 110 514 108T511 104Q502 96 479 86T420 70T338 64Q275 64 226 80T144 127T93 202T75 304V378Q75 452 108 507T203 592T343 623ZM383 368L327 382Q323 383 321 385T317 389T316
396Q316 436 316 477T316 559T316 637Q316 661 316 691T316 746Q338 746 354 746T386 746T424 746Q427 746 429 745T433 741T434 733Q429 704 425 670T415 598T404 521T393 443T383 368ZM312 311L368 296Q372 296 374 294T378 290T379 283Q379 241 379 200T379
116T379 33Q379 9 379 -21T379 -76Q357 -76 342 -76T310 -76T272 -76Q269 -76 267 -75T263 -70T262 -63Q268 -18 274 28T287 122T300 216T312 311Z" />
<glyph unicode="&#xa3;" horiz-adv-x="600" d="M63 398H439Q443 398 445 397T448 393T450 387Q450 381 450 364T450 331T450 308H74Q71 308 69 309T65 313T63 319Q63 325 63 341T63 375T63 398ZM377 605Q347 605 326 600T291 583Q278 573 272 557T266 518Q266
483 266 445T266 371T266 300T266 238Q266 213 262 191T242 148T196 110L220 148V81L190 108Q215 108 245 108T306 108T366 108T417 108Q434 108 454 108T494 108T529 108H547Q547 84 547 60T547 11Q547 7 544 4T536 0Q518 0 493 0T439 0T380 0T320 0T266 0T221
0H203Q183 0 159 0T108 0T54 0Q49 0 46 3T43 11Q43 23 43 35T43 59T43 84T43 108H64Q88 108 106 117T134 144T145 191Q145 224 145 264T145 349T145 438T145 519V538Q145 591 172 632T251 696T376 720Q435 720 473 707T523 681Q525 680 525 678T525 674Q525 657
525 640T525 605T525 570H508Q473 588 445 596T377 605Z" />
<glyph unicode="&#xa4;" horiz-adv-x="600" d="M245 423Q232 409 215 392T182 360Q180 358 178 358T174 357T170 360Q149 381 124 406T77 453Q90 466 106 482T140 516Q142 518 143 518T146 519Q149 519 152 516Q175 493 199 469T245 423ZM353 423Q374 444 398
468T446 516Q449 519 452 519Q454 519 455 519T458 516Q475 500 490 485T521 453Q499 431 474 406T428 360Q426 358 424 358T420 357T416 360Q413 363 404 372T384 391T365 411T353 423ZM353 176Q367 190 384 207T416 239Q419 242 422 242T428 239Q449 217 474
192T521 146Q508 132 492 116T458 83Q457 82 456 81T452 80Q449 80 446 83Q423 105 399 129T353 176ZM245 176Q224 154 200 130T152 83Q149 80 146 80Q145 80 144 81T140 83Q124 99 109 114T77 146Q99 167 124 192T170 239Q172 241 174 241T178 242T182 239Q185
235 194 227T214 207T233 188T245 176ZM124 309Q124 358 146 395T207 453T300 474Q353 474 392 453T454 395T476 308V289Q476 242 454 206T393 149T300 128Q247 128 208 148T146 205T124 289V309ZM221 293Q221 272 225 259T240 235Q250 227 265 222T300 217Q340
217 359 236T379 293V311Q379 330 375 343T362 365Q353 374 338 379T300 384Q260 384 241 366T221 311V293Z" />
<glyph unicode="&#xa5;" horiz-adv-x="600" d="M23 463H214V371H34Q31 371 29 372T25 376T23 382Q23 390 23 406T23 439T23 463ZM386 463H566Q571 463 574 460T577 452Q577 443 577 427T577 395T577 371H386V463ZM577 137H34Q29 137 26 140T23 148Q23 154 23 170T23
203T23 228H566Q570 228 572 227T575 223T577 217Q577 209 577 193T577 160T577 137ZM364 267Q364 235 364 200T364 138T364 100Q364 82 364 56T364 0Q358 0 342 0T306 0T270 0T247 0Q244 0 242 1T238 5T236 11Q236 25 236 53T236 117T236 192T236 267Q224 290
208 322T172 395T128 484T78 587T23 700Q44 700 64 700T106 700T147 700Q152 700 154 699T159 695T163 689Q186 636 204 593T238 510T271 423T307 314L268 350H338L301 314Q320 376 336 423T367 512T401 599T443 700Q474 700 503 700T561 700Q568 700 570 696T570
685Q545 633 520 581T468 477T416 372T364 267Z" />
<glyph unicode="&#xa6;" horiz-adv-x="350" d="M111 760Q140 760 169 760T228 760Q230 760 232 760T236 757Q238 756 238 754T239 749V369Q209 369 180 369T122 369Q118 369 115 372T111 380V661Q111 686 111 710T111 760ZM111 231Q140 231 169 231T228 231Q233
231 236 228T239 220V-160Q209 -160 180 -160T122 -160Q119 -160 117 -159T113 -155T111 -149V231Z" />
<glyph unicode="&#xa7;" horiz-adv-x="600" d="M318 719Q356 719 387 715T444 705T486 690T513 672Q516 669 517 667T519 662T520 653Q520 618 520 583T520 514Q493 514 467 514T414 514Q409 514 406 517T403 525Q403 537 403 549T403 574T403 599T403 624L433
585Q385 607 321 607Q290 607 266 602T226 587T201 560T192 523V502Q192 481 200 467T229 441T288 419L384 390Q444 372 478 351T526 302T540 234V212Q540 190 530 170T503 135T464 114V88L369 91Q389 108 400 121T417 148T422 177V202Q422 222 416 236T391 263T335
286L239 315Q174 335 138 362T88 422T74 485V529Q74 570 92 604T142 664T220 704T318 719ZM293 -134Q359 -134 390 -112T422 -59V-48Q422 -29 415 -17T389 6T332 28L237 57Q182 74 146 97T92 148T74 208V228Q74 270 96 299T150 336V362L247 357Q226 346 214 334T197
306T192 269V247Q192 225 199 210T226 184T284 161L381 132Q442 114 476 89T525 32T540 -42V-62Q540 -103 523 -137T473 -197T393 -236T285 -250Q249 -250 216 -246T155 -235T104 -216T68 -190Q67 -188 66 -186T65 -182Q65 -154 65 -126T65 -69H83Q128 -103 177
-118T293 -134Z" />
<glyph unicode="&#xa8;" horiz-adv-x="600" d="M126 764Q156 764 187 764T249 764Q253 764 255 763T258 759T260 753V630Q230 630 199 630T137 630Q134 630 132 631T128 635T126 641V764ZM340 764Q370 764 401 764T463 764Q467 764 469 763T472 759T474 753V630Q444
630 413 630T351 630Q348 630 346 631T342 635T340 641V764Z" />
<glyph unicode="&#xa9;" horiz-adv-x="600" d="M300 715Q388 715 451 683T549 587T584 429V269Q584 177 549 114T449 18T300 -15Q212 -15 149 17T51 114T16 271V431Q16 524 51 587T151 682T300 715ZM300 657Q231 657 181 632T104 559T77 446V255Q77 204 93 164T140
95Q169 70 209 57T300 43Q370 43 420 68T496 141T523 254V445Q523 496 508 535T461 602Q433 629 392 643T300 657ZM308 566Q344 566 370 554T415 522Q418 519 419 517T420 511Q420 489 420 467T420 422Q405 422 390 422T359 422Q353 422 351 425T348 433Q348 451
348 471T348 515L366 471Q353 485 340 490T308 495Q287 495 274 488T254 466T247 429V276Q247 257 250 244T263 223Q270 215 282 212T312 208Q345 208 366 219T409 255H421Q421 238 421 221T421 186Q421 181 420 179T416 173Q402 154 372 144T307 134Q259 134 229
151T183 199T168 273V428Q168 494 205 530T308 566Z" />
<glyph unicode="&#xaa;" horiz-adv-x="600" d="M232 293Q200 293 175 304T130 336T101 387T91 456V594Q91 647 108 683T158 739T233 759Q273 759 304 742T353 692H384L381 599Q355 632 327 647T268 662Q245 662 229 653T204 624T195 578V472Q195 450 200 435T215
409Q225 400 237 395T268 390Q288 390 307 399T345 425T381 469L390 375H356Q340 337 308 315T232 293ZM522 389Q522 369 522 350T522 311Q522 306 520 304T512 301Q503 301 496 301T481 301Q444 301 419 314T382 351T370 402Q370 442 370 481T370 560T370 640Q370
658 370 676T370 713T370 750Q393 750 417 750T464 750Q469 750 471 747T474 739Q474 686 474 632T474 524T474 415Q474 402 479 396T497 389Q499 389 501 389T505 389H522Z" />
<glyph unicode="&#xab;" horiz-adv-x="600" d="M328 96V78Q305 78 283 78T237 78Q227 78 223 80T211 90Q207 94 191 111T153 151T109 197T69 239T46 263Q39 271 38 275T36 285Q36 295 36 305T36 325Q59 350 85 377T137 432T182 480T213 512Q220 519 225 520T239
522Q261 522 283 522T328 522V504Q287 461 254 426T193 360T135 299Q163 269 190 241T251 178T328 96ZM558 96V78Q535 78 513 78T467 78Q457 78 453 80T441 90Q437 94 421 111T383 151T339 197T299 239T276 263Q269 271 268 275T266 285Q266 295 266 305T266 325Q289
350 315 377T367 432T412 480T443 512Q450 519 455 520T469 522Q491 522 513 522T558 522V504Q517 461 484 426T423 360T365 299Q393 269 420 241T481 178T558 96Z" />
<glyph unicode="&#xac;" horiz-adv-x="600" d="M65 445H524Q528 445 530 444T533 440T535 434Q535 361 535 288T535 141Q510 141 486 141T435 141Q432 141 430 142T426 146T424 152Q424 209 424 267T424 382L464 335H76Q73 335 71 336T67 340T65 346Q65 371 65
396T65 445Z" />
<glyph unicode="&#xad;" horiz-adv-x="600" d="M66 358H373Q377 358 379 357T382 353T384 347Q384 320 384 295T384 242H77Q74 242 72 242T69 244T67 248T66 253Q66 280 66 305T66 358Z" />
<glyph unicode="&#xae;" horiz-adv-x="600" d="M300 760Q361 760 408 746T488 704T537 635T554 541V414Q554 362 537 322T488 255T409 215T300 201Q223 201 166 224T77 296T46 417V544Q46 596 63 636T113 704T193 746T300 760ZM300 702Q252 702 216 692T155 662T119
615T107 552V408Q107 372 120 344T159 296Q184 277 219 268T300 258Q349 258 386 268T446 298T481 344T493 406V550Q493 584 483 610T451 657Q428 679 390 690T300 702ZM223 608H257Q259 601 260 593T261 577Q261 533 261 490T261 404Q261 384 261 366T261 327Q246
327 231 327T201 327Q196 327 193 330T190 338Q190 383 190 428T190 518T190 608H223ZM324 635Q358 635 380 625T414 595T426 548V514Q426 496 420 481T403 454T376 436T339 429Q320 429 300 429T262 429Q256 429 250 429T235 430V458V489H325Q339 489 347 497T356
518V544Q356 552 355 557T349 566Q341 573 325 573Q301 573 277 573T229 573T180 573Q175 573 172 576T169 584Q169 597 169 609T169 635Q208 635 246 635T324 635ZM359 474Q366 456 373 439T387 402Q390 395 393 393T406 390Q413 390 415 390T423 390H426Q426
377 426 362T426 335Q426 330 424 327T415 324H405Q375 324 358 333T331 370Q324 390 316 410T300 451L359 474Z" />
<glyph unicode="&#xaf;" horiz-adv-x="600" d="M122 763H467Q472 763 475 760T478 752Q478 737 478 722T478 693T478 662H133Q130 662 128 663T124 667T122 673Q122 689 122 703T122 733T122 763Z" />
<glyph unicode="&#xb0;" horiz-adv-x="600" d="M300 710Q353 710 391 693T451 642T472 565V510Q472 465 451 432T392 382T300 364Q247 364 209 381T149 432T128 510V565Q128 609 149 642T208 692T300 710ZM300 447Q340 447 363 465T386 516V558Q386 587 369 604Q358
616 341 621T300 627Q260 627 237 610T214 558V516Q214 487 232 469Q243 458 260 453T300 447Z" />
<glyph unicode="&#xb1;" horiz-adv-x="600" d="M240 593Q272 593 297 593T349 593Q354 593 357 590T360 582Q360 537 360 492T360 402T360 312T360 221Q331 221 306 221T251 221Q246 221 243 224T240 232Q240 276 240 320T240 408T240 492Q240 519 240 545T240
593ZM65 463H524Q528 463 530 462T533 458T535 452Q535 425 535 403T535 352H76Q71 352 68 355T65 363Q65 391 65 413T65 463ZM65 161H524Q528 161 530 160T533 156T535 150Q535 123 535 100T535 50H76Q73 50 71 51T67 55T65 61Q65 88 65 111T65 161Z" />
<glyph unicode="&#xb2;" horiz-adv-x="400" d="M338 360Q336 360 316 360T267 360T205 360T143 360T94 360T71 360Q68 360 66 361T62 365T60 371V440Q60 475 68 504T100 555T165 593Q200 606 217 615T241 636T248 661Q248 673 245 680T236 693Q230 698 217 701T182
704Q149 704 124 698T79 682H67Q67 686 67 697T67 723T67 748T67 764Q67 767 68 770T76 776Q88 783 119 789T192 796Q243 796 274 781T321 740T337 677V670Q337 638 327 612T290 566T219 529Q186 518 170 506T148 475T138 427L143 489V416L122 439Q147 446 173
448T243 451H327Q332 451 335 448T338 440Q338 436 338 425T338 400T338 375T338 360Z" />
<glyph unicode="&#xb3;" horiz-adv-x="400" d="M336 683Q336 646 312 615T232 576L263 599V552L231 573Q272 569 295 554T329 517T340 469V463Q340 425 322 400T272 363T193 350Q143 350 113 357T67 374Q63 377 62 380T61 389Q61 393 61 403T61 427T61 450T61
465H73Q96 452 123 447T182 441Q222 441 239 452T256 487Q256 502 246 513T207 529T127 535Q122 535 119 538T115 547Q115 552 115 565T115 592T115 611Q168 611 198 615T240 631T252 661Q252 683 235 693T179 704Q149 704 124 698T78 682H66Q66 686 66 697T66
722T66 747T66 762Q66 766 67 769T75 776Q87 782 114 789T184 796Q241 796 274 782T321 743T336 689V683Z" />
<glyph unicode="&#xb4;" horiz-adv-x="600" d="M356 814Q394 814 424 814T492 814Q498 814 500 809T498 798Q474 769 453 744T408 693T356 634Q354 631 350 629T339 626Q314 626 291 626T245 626Q264 656 282 687T319 750T356 814Z" />
<glyph unicode="&#xb5;" horiz-adv-x="600" d="M81 157H171L181 15L160 -5Q184 -59 197 -96T211 -135Q211 -157 211 -167T211 -200Q192 -200 159 -200T92 -200Q89 -200 87 -199T83 -196T81 -189Q81 -130 81 -73T81 41T81 157ZM198 536Q202 536 204 535T207 531T209
525V358Q209 328 209 298T209 237T209 175Q209 144 222 130T259 116Q278 116 296 121T334 140T375 174T422 228V83H382Q359 50 335 29T285 -1T232 -11Q200 -11 173 0T125 32T93 81T81 142Q81 215 81 288T81 435Q81 452 81 468T81 502T81 536Q111 536 140 536T198
536ZM401 536Q431 536 460 536T518 536Q518 436 518 337T518 137Q518 128 520 122T526 112Q534 104 546 104Q551 104 556 104T566 104H573Q573 78 573 53T573 1Q573 -2 572 -4T568 -8T562 -10H526Q482 -10 452 6T406 49T390 111Q390 214 390 317T390 525Q390 528
391 530T395 534T401 536Z" />
<glyph unicode="&#xb6;" horiz-adv-x="600" d="M303 589Q274 589 254 579T223 546T212 490V377Q212 349 219 334T240 312T278 306H314V213Q294 213 277 213T245 213H217Q161 213 122 237T63 303T43 401V487Q43 556 69 603T145 675T263 700H563Q565 700 567 700T571
697Q573 696 573 694T574 689Q574 655 574 637T574 608T574 589H563Q531 589 486 589T394 589T303 589ZM286 642H328Q332 642 334 641T337 637T339 631Q339 540 339 444T339 247T339 47T339 -150Q316 -150 295 -150T250 -150Q245 -150 242 -147T239 -139Q239 -74
239 -9T239 121T239 251T239 381T239 512T239 642H286ZM469 642H513Q517 642 519 641T522 637T524 631Q524 547 524 463T524 295T524 127T524 -40Q524 -70 524 -98T524 -150Q501 -150 480 -150T436 -150Q431 -150 428 -147T425 -139Q425 -61 425 17T425 174T425
330T425 486T425 642H469Z" />
<glyph unicode="&#xb7;" horiz-adv-x="350" d="M256 234Q230 234 206 234T157 234T105 234Q102 234 100 235T96 239T94 245V398Q121 398 145 398T194 398T245 398Q249 398 251 397T254 393T256 387V234Z" />
<glyph unicode="&#xb8;" horiz-adv-x="600" d="M333 46Q331 37 329 28T324 9T320 -8T316 -24L314 -34Q359 -35 385 -59T412 -126Q412 -181 376 -211T269 -241Q235 -241 215 -238T186 -227T177 -210Q177 -196 177 -183T177 -159T177 -137H189Q202 -143 217 -147T254
-151Q276 -151 291 -142T306 -112Q306 -92 293 -83T249 -72Q244 -72 241 -69T240 -59Q245 -46 249 -34T257 -11T265 10T273 32Q276 37 280 40T297 45T333 46Z" />
<glyph unicode="&#xb9;" horiz-adv-x="400" d="M61 451H328Q333 451 336 448T339 440Q339 436 339 425T339 400T339 375T339 360H72Q67 360 64 363T61 371Q61 378 61 386T61 404T61 427T61 451ZM254 396H160L165 413Q165 418 165 423T165 434T165 442Q165 444
165 466T165 520T165 589T165 659T165 713L185 683H133L159 709Q151 683 143 663T124 628T99 597Q87 584 82 581T73 578Q70 578 69 579T67 585V701Q78 710 90 721T113 743Q126 754 138 765T161 786Q167 786 178 786T203 786T228 786T243 786Q248 786 251 783T254
775Q254 773 254 745T254 675T254 586T254 497T254 427T254 396Z" />
<glyph unicode="&#xba;" horiz-adv-x="600" d="M301 762Q362 762 407 736T478 665T504 556V491Q504 431 478 386T405 315T299 289Q237 289 192 314T121 386T96 495V560Q96 620 122 665T195 736T301 762ZM305 667Q270 667 246 654T210 617T197 563V490Q197 464
203 444T223 410Q236 398 253 391T295 384Q330 384 354 397T390 434T403 488V560Q403 586 398 605T381 637Q369 651 350 658T305 667Z" />
<glyph unicode="&#xbb;" horiz-adv-x="600" d="M273 504V522Q296 522 319 522T364 522Q374 522 378 520T390 510Q394 506 410 489T448 449T492 403T532 361T555 337Q562 330 563 326T565 315Q565 305 565 295T565 275Q542 250 516 223T464 168T419 120T388 88Q381
81 376 80T362 78Q340 78 318 78T273 78V96Q315 140 347 175T408 240T466 301Q439 331 411 359T350 422T273 504ZM43 504V522Q66 522 89 522T134 522Q144 522 148 520T160 510Q164 506 180 489T218 449T262 403T302 361T325 337Q332 330 333 326T335 315Q335 305
335 295T335 275Q312 250 286 223T234 168T189 120T158 88Q151 81 146 80T132 78Q110 78 88 78T43 78V96Q85 140 117 175T178 240T236 301Q209 331 181 359T120 422T43 504Z" />
<glyph unicode="&#xbc;" horiz-adv-x="800" d="M428 412Q433 422 444 445T468 498T496 562T524 625T548 678T564 710Q568 710 583 710T617 710T652 710T672 710Q678 710 679 707T678 697Q673 687 662 666T636 617T606 558T576 499T550 450T533 419Q531 415 529
414T522 412Q519 412 506 412T475 412T445 412T428 412ZM372 289Q367 279 356 256T332 203T304 139T276 76T252 24T236 -9Q232 -9 217 -9T183 -9T148 -9T128 -9Q122 -9 121 -6T122 4Q127 14 138 35T164 84T194 143T224 202T250 251T267 282Q269 287 271 288T278
289Q281 289 294 289T325 289T355 289T372 289ZM712 -86Q708 -86 698 -86T675 -86T652 -86T637 -86Q632 -86 629 -83T626 -75V94Q626 96 628 108T634 135T640 165T644 184H701Q706 184 709 181T712 173V-35Q712 -42 712 -60T712 -86ZM758 -1H453Q448 -1 445 2T442
10V69Q442 69 449 88T469 136T494 197T520 260T541 310T551 332Q554 337 557 338T565 340Q569 340 580 340T605 340T630 340T646 340V328Q645 325 636 306T615 258T589 198T563 138T541 89T529 64L542 117V60L528 75Q545 81 560 84T593 88T636 90H747Q752 90 755
87T758 79Q758 75 758 64T758 39T758 14T758 -1ZM61 451H328Q333 451 336 448T339 440Q339 436 339 425T339 400T339 375T339 360H72Q67 360 64 363T61 371Q61 378 61 386T61 404T61 427T61 451ZM254 396H160L165 413Q165 418 165 423T165 434T165 442Q165 444
165 466T165 520T165 589T165 659T165 713L185 683H133L159 709Q151 683 143 663T124 628T99 597Q87 584 82 581T73 578Q70 578 69 579T67 585V701Q78 710 90 721T113 743Q126 754 138 765T161 786Q167 786 178 786T203 786T228 786T243 786Q248 786 251 783T254
775Q254 773 254 745T254 675T254 586T254 497T254 427T254 396Z" />
<glyph unicode="&#xbd;" horiz-adv-x="600" d="M362 405Q366 415 374 438T392 493T412 558T433 623T451 678T464 710Q468 710 482 710T514 710T546 710T565 710Q571 710 573 707T573 697Q569 687 559 666T536 615T510 555T483 494T460 444T445 412Q443 408 441
407T435 405Q430 405 414 405T383 405T362 405ZM238 296Q234 286 226 262T207 207T187 143T166 78T149 24T136 -9Q132 -9 119 -9T88 -9T56 -9T35 -9Q29 -9 27 -6T27 4Q31 13 41 35T64 86T90 146T117 206T140 257T155 289Q157 294 159 295T165 296Q171 296 186 296T216
296T238 296ZM556 -86Q554 -86 534 -86T485 -86T423 -86T361 -86T312 -86T289 -86Q286 -86 284 -85T280 -81T278 -75V-6Q278 29 286 58T318 110T383 148Q418 161 435 170T459 190T466 215Q466 227 463 234T453 247Q448 253 435 256T400 259Q367 259 342 253T297
237H285Q285 241 285 252T285 277T285 303T285 318Q285 322 286 325T294 331Q306 338 336 344T410 350Q461 350 492 335T539 294T555 231V224Q555 192 544 166T508 120T436 84Q404 73 388 61T366 30T355 -19L360 44V-30L340 -6Q365 1 391 3T460 6H545Q550 6 553
3T556 -5Q556 -9 556 -20T556 -45T556 -70T556 -86ZM24 451H291Q296 451 299 448T302 440Q302 436 302 425T302 400T302 375T302 360H35Q30 360 27 363T24 371Q24 378 24 386T24 404T24 427T24 451ZM217 396H123L128 413Q128 418 128 423T128 434T128 442Q128 444
128 466T128 520T128 589T128 659T128 713L147 683H96L122 709Q114 683 106 663T87 628T62 597Q50 584 45 581T36 578Q33 578 32 579T30 585V701Q40 710 52 721T76 743Q89 754 101 765T124 786Q130 786 141 786T166 786T191 786T206 786Q211 786 214 783T217 775Q217
773 217 745T217 675T217 586T217 497T217 427T217 396Z" />
<glyph unicode="&#xbe;" horiz-adv-x="800" d="M428 412Q433 422 444 445T468 498T496 562T524 625T548 678T564 710Q568 710 583 710T617 710T652 710T672 710Q678 710 679 707T678 697Q673 687 662 666T636 617T606 558T576 499T550 450T533 419Q531 415 529
414T522 412Q519 412 506 412T475 412T445 412T428 412ZM372 289Q367 279 356 256T332 203T304 139T276 76T252 24T236 -9Q232 -9 217 -9T183 -9T148 -9T128 -9Q122 -9 121 -6T122 4Q127 14 138 35T164 84T194 143T224 202T250 251T267 282Q269 287 271 288T278
289Q281 289 294 289T325 289T355 289T372 289ZM712 -86Q708 -86 698 -86T675 -86T652 -86T637 -86Q632 -86 629 -83T626 -75V94Q626 96 628 108T634 135T640 165T644 184H701Q706 184 709 181T712 173V-35Q712 -42 712 -60T712 -86ZM758 -1H453Q448 -1 445 2T442
10V69Q442 69 449 88T469 136T494 197T520 260T541 310T551 332Q554 337 557 338T565 340Q569 340 580 340T605 340T630 340T646 340V328Q645 325 636 306T615 258T589 198T563 138T541 89T529 64L542 117V60L528 75Q545 81 560 84T593 88T636 90H747Q752 90 755
87T758 79Q758 75 758 64T758 39T758 14T758 -1ZM336 683Q336 646 312 615T232 576L263 599V552L231 573Q272 569 295 554T329 517T340 469V463Q340 425 322 400T272 363T193 350Q143 350 113 357T67 374Q63 377 62 380T61 389Q61 393 61 403T61 427T61 450T61
465H73Q96 452 123 447T182 441Q222 441 239 452T256 487Q256 502 246 513T207 529T127 535Q122 535 119 538T115 547Q115 552 115 565T115 592T115 611Q168 611 198 615T240 631T252 661Q252 683 235 693T179 704Q149 704 124 698T78 682H66Q66 686 66 697T66
722T66 747T66 762Q66 766 67 769T75 776Q87 782 114 789T184 796Q241 796 274 782T321 743T336 689V683Z" />
<glyph unicode="&#xbf;" horiz-adv-x="600" d="M230 544Q270 544 313 544T397 544Q401 544 403 543T406 539T408 533V375Q368 375 325 375T241 375Q238 375 236 376T232 380T230 386V544ZM304 -184Q244 -184 200 -171T128 -135T86 -82T72 -19V11Q72 48 80 75T110
126T170 175L204 199Q229 215 241 226T257 250T262 282V289H373Q377 289 379 288T383 284T384 278V257Q384 229 376 207T347 164T287 116L258 96Q231 77 217 64T197 39T192 8Q192 0 194 -7T201 -20Q208 -42 233 -53T305 -64Q361 -64 407 -52T500 -10H518Q518 -38
518 -66T518 -122Q518 -125 517 -127T514 -132Q500 -146 470 -158T396 -177T304 -184Z" />
<glyph unicode="&#xc0;" horiz-adv-x="650" d="M148 279H377Q391 279 405 279T432 279L465 288L478 230L490 173H158Q155 173 153 174T149 178T147 184L148 279ZM156 0Q129 0 101 0T45 0Q42 0 40 1T37 6T37 13Q45 43 57 86T83 182T112 293T142 409T172 522T199
623T221 703Q272 703 326 703T423 703Q427 703 429 702T432 698T435 692Q451 631 469 565T505 428T544 282T584 126Q591 95 599 64T614 0Q588 0 559 0T504 0Q498 0 495 1T490 7T486 19Q464 103 445 178T408 318T377 440T353 542T334 626L370 604H285L320 626Q312
589 301 544T275 442T242 319T203 173T156 0ZM275 947Q294 916 310 889T344 834T379 776Q364 776 351 776T323 776T282 776Q276 776 272 778T266 782Q241 810 224 829T194 863T167 895T134 932Q130 937 132 942T140 947Q168 947 186 947T223 947T275 947Z" />
<glyph unicode="&#xc1;" horiz-adv-x="650" d="M148 279H377Q391 279 405 279T432 279L465 288L478 230L490 173H158Q155 173 153 174T149 178T147 184L148 279ZM156 0Q129 0 101 0T45 0Q42 0 40 1T37 6T37 13Q45 43 57 86T83 182T112 293T142 409T172 522T199
623T221 703Q272 703 326 703T423 703Q427 703 429 702T432 698T435 692Q451 631 469 565T505 428T544 282T584 126Q591 95 599 64T614 0Q588 0 559 0T504 0Q498 0 495 1T490 7T486 19Q464 103 445 178T408 318T377 440T353 542T334 626L370 604H285L320 626Q312
589 301 544T275 442T242 319T203 173T156 0ZM376 946Q410 946 428 946T464 946T509 946Q515 946 517 941T516 931Q497 910 483 894T456 863T426 828T383 781Q381 779 377 777T367 775Q343 775 328 775T300 775T272 775Q291 805 307 832T341 887T376 946Z" />
<glyph unicode="&#xc2;" horiz-adv-x="650" d="M148 279H377Q391 279 405 279T432 279L465 288L478 230L490 173H158Q155 173 153 174T149 178T147 184L148 279ZM156 0Q129 0 101 0T45 0Q42 0 40 1T37 6T37 13Q45 43 57 86T83 182T112 293T142 409T172 522T199
623T221 703Q272 703 326 703T423 703Q427 703 429 702T432 698T435 692Q451 631 469 565T505 428T544 282T584 126Q591 95 599 64T614 0Q588 0 559 0T504 0Q498 0 495 1T490 7T486 19Q464 103 445 178T408 318T377 440T353 542T334 626L370 604H285L320 626Q312
589 301 544T275 442T242 319T203 173T156 0ZM259 946Q272 946 295 946T342 946T378 946Q385 946 391 943T411 926Q419 919 436 902T475 864T520 819T564 775Q541 775 511 775T457 775Q446 775 441 777T428 785Q413 798 382 823T307 889L359 869Q343 869 327 869T294
869L345 891Q302 852 269 825T210 775H109Q105 775 103 775T99 778T98 782Q98 786 101 790T119 808Q132 821 150 839T189 876T227 914T259 946Z" />
<glyph unicode="&#xc3;" horiz-adv-x="650" d="M148 279H377Q391 279 405 279T432 279L465 288L478 230L490 173H158Q155 173 153 174T149 178T147 184L148 279ZM156 0Q129 0 101 0T45 0Q42 0 40 1T37 6T37 13Q45 43 57 86T83 182T112 293T142 409T172 522T199
623T221 703Q272 703 326 703T423 703Q427 703 429 702T432 698T435 692Q451 631 469 565T505 428T544 282T584 126Q591 95 599 64T614 0Q588 0 559 0T504 0Q498 0 495 1T490 7T486 19Q464 103 445 178T408 318T377 440T353 542T334 626L370 604H285L320 626Q312
589 301 544T275 442T242 319T203 173T156 0ZM428 879Q452 879 470 888T506 921H523Q523 898 523 877T523 837Q523 829 522 825T516 816Q500 799 479 789T424 779Q392 779 367 788T318 808T271 828T222 837Q198 837 180 827T144 795H127Q127 818 127 839T127 879Q127
885 128 889T134 900Q150 916 171 926T226 937Q258 937 284 928T333 908T379 888T428 879Z" />
<glyph unicode="&#xc4;" horiz-adv-x="650" d="M148 279H377Q391 279 405 279T432 279L465 288L478 230L490 173H158Q155 173 153 174T149 178T147 184L148 279ZM156 0Q129 0 101 0T45 0Q42 0 40 1T37 6T37 13Q45 43 57 86T83 182T112 293T142 409T172 522T199
623T221 703Q272 703 326 703T423 703Q427 703 429 702T432 698T435 692Q451 631 469 565T505 428T544 282T584 126Q591 95 599 64T614 0Q588 0 559 0T504 0Q498 0 495 1T490 7T486 19Q464 103 445 178T408 318T377 440T353 542T334 626L370 604H285L320 626Q312
589 301 544T275 442T242 319T203 173T156 0ZM151 921Q181 921 212 921T274 921Q278 921 280 920T283 916T285 910V794Q255 794 224 794T162 794Q159 794 157 795T153 799T151 805V921ZM365 921Q395 921 426 921T488 921Q492 921 494 920T497 916T499 910V794Q469
794 438 794T376 794Q373 794 371 795T367 799T365 805V921Z" />
<glyph unicode="&#xc5;" horiz-adv-x="650" d="M148 279H377Q391 279 405 279T432 279L465 288L478 230L490 173H158Q155 173 153 174T149 178T147 184L148 279ZM156 0Q129 0 101 0T45 0Q42 0 40 1T37 6T37 13Q45 43 57 86T83 182T112 293T142 409T172 522T199
623T221 703Q272 703 326 703T423 703Q427 703 429 702T432 698T435 692Q451 631 469 565T505 428T544 282T584 126Q591 95 599 64T614 0Q588 0 559 0T504 0Q498 0 495 1T490 7T486 19Q464 103 445 178T408 318T377 440T353 542T334 626L370 604H285L320 626Q312
589 301 544T275 442T242 319T203 173T156 0ZM326 898Q377 898 413 883T469 841T488 777V751Q488 715 469 688T413 645T325 630Q274 630 238 645T181 687T161 751V777Q161 814 181 841T237 883T326 898ZM325 822Q294 822 277 809T260 773V756Q260 744 265 735T278
719Q286 713 298 710T325 707Q356 707 373 720T390 756V773Q390 784 386 793T373 808Q365 815 353 818T325 822Z" />
<glyph unicode="&#xc6;" horiz-adv-x="800" d="M137 0Q118 0 100 0T62 0T24 0Q21 0 17 3T15 13Q43 95 74 182T136 357T196 532T254 700Q273 700 292 700T330 700T369 700H740Q745 700 748 697T751 689Q751 664 751 639T751 588H315L354 616Q326 538 299 460T244
304T190 150T137 0ZM365 615H492L487 599Q487 591 487 583T487 566Q487 509 487 453T487 339T487 225T487 112H740Q745 112 748 109T751 101Q751 76 751 51T751 0H376Q373 0 371 0T367 3T365 7Q365 84 365 159T365 311T365 463T365 615ZM154 259H339Q349 259 358
259T377 259L388 261V151H165Q161 151 158 154T154 162V259ZM396 405H700Q705 405 708 402T711 394Q711 369 711 346T711 298H396V405Z" />
<glyph unicode="&#xc7;" horiz-adv-x="600" d="M338 -20Q269 -20 216 -2T128 51T75 136T57 252V456Q57 516 75 564T128 647T213 701T329 720Q380 720 419 711T487 687T532 655Q535 653 535 651T536 646T537 639Q537 603 537 558T537 470Q512 470 486 470T435 470Q430
470 427 473T424 481Q424 500 424 519T424 562T424 614L450 571Q423 590 394 597T327 605Q284 605 252 589T203 539T186 453V262Q186 216 195 183T226 129Q246 109 275 101T339 93Q395 93 437 106T525 151H542Q542 138 542 126T542 102T542 78T542 53Q542 48 541
45T537 38Q521 22 492 9T424 -12T338 -20ZM436 -126Q436 -181 400 -211T293 -241Q259 -241 239 -238T210 -227T201 -210Q201 -196 201 -183T201 -159T201 -137H213Q226 -143 241 -147T278 -151Q300 -151 315 -142T330 -112Q330 -92 317 -83T273 -72Q268 -72 265
-69T264 -59Q269 -46 273 -34T281 -11T289 10T297 32Q300 37 304 40T321 45T357 46Q355 37 353 28T348 9T344 -8T340 -23L338 -34Q383 -35 409 -59T436 -126Z" />
<glyph unicode="&#xc8;" horiz-adv-x="550" d="M27 700H486Q489 700 491 699T495 695T497 689Q497 662 497 640T497 591H38Q35 591 33 592T29 596T27 602Q27 629 27 651T27 700ZM157 405H429Q432 405 434 404T438 400T440 394Q440 376 440 361T440 331T440 300H157V405ZM91
0Q89 0 87 1T83 3T80 7T79 11Q79 45 79 99T79 220T79 359T79 503T79 638H214L207 617Q207 595 207 572T207 525Q207 476 207 424T207 319T207 213T207 109H486Q491 109 494 106T497 98Q497 72 497 49T497 0H91ZM214 947Q233 916 249 889T283 834T318 776Q303 776
290 776T262 776T221 776Q215 776 211 778T205 782Q180 810 163 829T133 863T106 895T73 932Q69 937 71 942T79 947Q107 947 125 947T162 947T214 947Z" />
<glyph unicode="&#xc9;" horiz-adv-x="550" d="M27 700H486Q489 700 491 699T495 695T497 689Q497 662 497 640T497 591H38Q35 591 33 592T29 596T27 602Q27 629 27 651T27 700ZM157 405H429Q432 405 434 404T438 400T440 394Q440 376 440 361T440 331T440 300H157V405ZM91
0Q89 0 87 1T83 3T80 7T79 11Q79 45 79 99T79 220T79 359T79 503T79 638H214L207 617Q207 595 207 572T207 525Q207 476 207 424T207 319T207 213T207 109H486Q491 109 494 106T497 98Q497 72 497 49T497 0H91ZM315 946Q349 946 367 946T403 946T448 946Q454 946
456 941T455 931Q436 910 422 894T395 863T365 828T322 781Q320 779 316 777T306 775Q282 775 267 775T239 775T211 775Q230 805 246 832T280 887T315 946Z" />
<glyph unicode="&#xca;" horiz-adv-x="550" d="M27 700H486Q489 700 491 699T495 695T497 689Q497 662 497 640T497 591H38Q35 591 33 592T29 596T27 602Q27 629 27 651T27 700ZM157 405H429Q432 405 434 404T438 400T440 394Q440 376 440 361T440 331T440 300H157V405ZM91
0Q89 0 87 1T83 3T80 7T79 11Q79 45 79 99T79 220T79 359T79 503T79 638H214L207 617Q207 595 207 572T207 525Q207 476 207 424T207 319T207 213T207 109H486Q491 109 494 106T497 98Q497 72 497 49T497 0H91ZM198 946Q211 946 234 946T281 946T317 946Q324 946
330 943T350 926Q358 919 375 902T414 864T459 819T503 775Q480 775 450 775T396 775Q385 775 380 777T367 785Q352 798 321 823T246 889L298 869Q282 869 266 869T233 869L284 891Q241 852 208 825T149 775H48Q44 775 42 775T38 778T37 782Q37 786 40 790T58 808Q71
821 89 839T128 876T166 914T198 946Z" />
<glyph unicode="&#xcb;" horiz-adv-x="550" d="M27 700H486Q489 700 491 699T495 695T497 689Q497 662 497 640T497 591H38Q35 591 33 592T29 596T27 602Q27 629 27 651T27 700ZM157 405H429Q432 405 434 404T438 400T440 394Q440 376 440 361T440 331T440 300H157V405ZM91
0Q89 0 87 1T83 3T80 7T79 11Q79 45 79 99T79 220T79 359T79 503T79 638H214L207 617Q207 595 207 572T207 525Q207 476 207 424T207 319T207 213T207 109H486Q491 109 494 106T497 98Q497 72 497 49T497 0H91ZM90 921Q120 921 151 921T213 921Q217 921 219 920T222
916T224 910V794Q194 794 163 794T101 794Q98 794 96 795T92 799T90 805V921ZM304 921Q334 921 365 921T427 921Q431 921 433 920T436 916T438 910V794Q408 794 377 794T315 794Q312 794 310 795T306 799T304 805V921Z" />
<glyph unicode="&#xcc;" horiz-adv-x="500" d="M314 66H182L186 102Q186 119 186 140T186 178Q186 235 186 292T186 405T186 519T186 634H319L314 598Q314 582 314 563T314 526Q314 469 314 412T314 296T314 181T314 66ZM427 0H84Q82 0 80 1T77 3T74 7T73 11Q73
29 73 44T73 76T73 109H416Q419 109 421 108T425 104T427 98Q427 81 427 65T427 34T427 0ZM73 700H416Q421 700 424 697T427 689Q427 676 427 664T427 640T427 616T427 591H84Q80 591 77 594T73 602Q73 615 73 627T73 651T73 675T73 700ZM200 947Q219 916 235 889T269
834T304 776Q289 776 276 776T248 776T207 776Q201 776 197 778T191 782Q166 810 149 829T119 863T92 895T59 932Q55 937 57 942T65 947Q93 947 111 947T148 947T200 947Z" />
<glyph unicode="&#xcd;" horiz-adv-x="500" d="M314 66H182L186 102Q186 119 186 140T186 178Q186 235 186 292T186 405T186 519T186 634H319L314 598Q314 582 314 563T314 526Q314 469 314 412T314 296T314 181T314 66ZM427 0H84Q82 0 80 1T77 3T74 7T73 11Q73
29 73 44T73 76T73 109H416Q419 109 421 108T425 104T427 98Q427 81 427 65T427 34T427 0ZM73 700H416Q421 700 424 697T427 689Q427 676 427 664T427 640T427 616T427 591H84Q80 591 77 594T73 602Q73 615 73 627T73 651T73 675T73 700ZM301 946Q335 946 353 946T389
946T434 946Q440 946 442 941T441 931Q422 910 408 894T381 863T351 828T308 781Q306 779 302 777T292 775Q268 775 253 775T225 775T197 775Q216 805 232 832T266 887T301 946Z" />
<glyph unicode="&#xce;" horiz-adv-x="500" d="M314 66H182L186 102Q186 119 186 140T186 178Q186 235 186 292T186 405T186 519T186 634H319L314 598Q314 582 314 563T314 526Q314 469 314 412T314 296T314 181T314 66ZM427 0H84Q82 0 80 1T77 3T74 7T73 11Q73
29 73 44T73 76T73 109H416Q419 109 421 108T425 104T427 98Q427 81 427 65T427 34T427 0ZM73 700H416Q421 700 424 697T427 689Q427 676 427 664T427 640T427 616T427 591H84Q80 591 77 594T73 602Q73 615 73 627T73 651T73 675T73 700ZM184 946Q197 946 220 946T267
946T303 946Q310 946 316 943T336 926Q344 919 361 902T400 864T445 819T489 775Q466 775 436 775T382 775Q371 775 366 777T353 785Q338 798 307 823T232 889L284 869Q268 869 252 869T219 869L270 891Q227 852 194 825T135 775H34Q30 775 28 775T24 778T23 782Q23
786 26 790T44 808Q57 821 75 839T114 876T152 914T184 946Z" />
<glyph unicode="&#xcf;" horiz-adv-x="500" d="M314 66H182L186 102Q186 119 186 140T186 178Q186 235 186 292T186 405T186 519T186 634H319L314 598Q314 582 314 563T314 526Q314 469 314 412T314 296T314 181T314 66ZM427 0H84Q82 0 80 1T77 3T74 7T73 11Q73
29 73 44T73 76T73 109H416Q419 109 421 108T425 104T427 98Q427 81 427 65T427 34T427 0ZM73 700H416Q421 700 424 697T427 689Q427 676 427 664T427 640T427 616T427 591H84Q80 591 77 594T73 602Q73 615 73 627T73 651T73 675T73 700ZM76 921Q106 921 137 921T199
921Q203 921 205 920T208 916T210 910V794Q180 794 149 794T87 794Q84 794 82 795T78 799T76 805V921ZM290 921Q320 921 351 921T413 921Q417 921 419 920T422 916T424 910V794Q394 794 363 794T301 794Q298 794 296 795T292 799T290 805V921Z" />
<glyph unicode="&#xd0;" horiz-adv-x="650" d="M15 401H325Q330 401 333 398T336 390Q336 370 336 351T336 311H26Q21 311 18 314T15 322Q15 343 15 362T15 401ZM589 240Q589 182 572 137T522 62T444 16T342 0Q319 0 290 0T231 0T172 0T123 0T93 0Q89 0 86 3T82
11Q82 89 82 167T82 325T82 482T82 639H220L211 618Q211 591 211 561T211 503Q211 453 211 405T211 309T211 213T211 114Q224 114 247 114T296 114T339 114Q386 114 414 129T455 174T468 248V452Q468 478 465 498T454 533T435 559Q424 569 411 575T379 583T337
586Q304 586 266 586T187 586T109 586T41 586Q38 586 36 587T32 591T30 597Q30 621 30 648T30 700Q61 700 99 700T178 700T259 700T335 700Q401 700 449 684T529 637T574 562T589 461V240Z" />
<glyph unicode="&#xd1;" horiz-adv-x="650" d="M180 0Q153 0 125 0T70 0Q67 0 65 1T61 5T59 11Q59 84 59 156T59 300T59 444T59 588Q59 616 59 644T59 700Q78 700 103 700T154 700T198 700Q203 700 206 699T213 692T224 672Q245 634 266 593T310 510T356 423T402
335T448 247T492 159L452 187H518L499 173Q492 219 487 260T479 339T474 414T471 486T470 559Q470 590 470 626T470 700Q498 700 525 700T580 700Q585 700 588 697T591 689Q591 618 591 547T591 405T591 262T591 120Q591 90 591 60T591 0Q573 0 553 0T512 0T475
0Q469 0 462 4T443 28Q401 101 364 169T292 302T226 431T160 562L203 527H137L155 546Q162 497 166 453T173 369T177 292T179 223T180 162Q179 124 179 83T180 0ZM453 879Q477 879 495 888T531 921H548Q548 898 548 877T548 837Q548 829 547 825T541 816Q525 799
504 789T449 779Q417 779 392 788T343 808T296 828T247 837Q223 837 205 827T169 795H152Q152 818 152 839T152 879Q152 885 153 889T159 900Q175 916 196 926T251 937Q283 937 309 928T358 908T404 888T453 879Z" />
<glyph unicode="&#xd2;" horiz-adv-x="650" d="M325 720Q400 720 459 689T554 597T589 442V247Q589 160 554 101T460 11T325 -20Q252 -20 192 10T97 101T61 248V442Q61 535 97 596T193 689T325 720ZM182 254Q182 198 196 168T227 122Q243 109 268 100T328 91Q369
91 400 109T450 165T468 256V453Q468 485 464 508T450 548T428 577Q412 593 387 602T327 611Q277 611 245 591T198 536T182 453V254ZM275 947Q294 916 310 889T344 834T379 776Q364 776 351 776T323 776T282 776Q276 776 272 778T266 782Q241 810 224 829T194 863T167
895T134 932Q130 937 132 942T140 947Q168 947 186 947T223 947T275 947Z" />
<glyph unicode="&#xd3;" horiz-adv-x="650" d="M325 720Q400 720 459 689T554 597T589 442V247Q589 160 554 101T460 11T325 -20Q252 -20 192 10T97 101T61 248V442Q61 535 97 596T193 689T325 720ZM182 254Q182 198 196 168T227 122Q243 109 268 100T328 91Q369
91 400 109T450 165T468 256V453Q468 485 464 508T450 548T428 577Q412 593 387 602T327 611Q277 611 245 591T198 536T182 453V254ZM376 946Q410 946 428 946T464 946T509 946Q515 946 517 941T516 931Q497 910 483 894T456 863T426 828T383 781Q381 779 377 777T367
775Q343 775 328 775T300 775T272 775Q291 805 307 832T341 887T376 946Z" />
<glyph unicode="&#xd4;" horiz-adv-x="650" d="M325 720Q400 720 459 689T554 597T589 442V247Q589 160 554 101T460 11T325 -20Q252 -20 192 10T97 101T61 248V442Q61 535 97 596T193 689T325 720ZM182 254Q182 198 196 168T227 122Q243 109 268 100T328 91Q369
91 400 109T450 165T468 256V453Q468 485 464 508T450 548T428 577Q412 593 387 602T327 611Q277 611 245 591T198 536T182 453V254ZM259 946Q272 946 295 946T342 946T378 946Q385 946 391 943T411 926Q419 919 436 902T475 864T520 819T564 775Q541 775 511 775T457
775Q446 775 441 777T428 785Q413 798 382 823T307 889L359 869Q343 869 327 869T294 869L345 891Q302 852 269 825T210 775H109Q105 775 103 775T99 778T98 782Q98 786 101 790T119 808Q132 821 150 839T189 876T227 914T259 946Z" />
<glyph unicode="&#xd5;" horiz-adv-x="650" d="M325 720Q400 720 459 689T554 597T589 442V247Q589 160 554 101T460 11T325 -20Q252 -20 192 10T97 101T61 248V442Q61 535 97 596T193 689T325 720ZM182 254Q182 198 196 168T227 122Q243 109 268 100T328 91Q369
91 400 109T450 165T468 256V453Q468 485 464 508T450 548T428 577Q412 593 387 602T327 611Q277 611 245 591T198 536T182 453V254ZM428 879Q452 879 470 888T506 921H523Q523 898 523 877T523 837Q523 829 522 825T516 816Q500 799 479 789T424 779Q392 779 367
788T318 808T271 828T222 837Q198 837 180 827T144 795H127Q127 818 127 839T127 879Q127 885 128 889T134 900Q150 916 171 926T226 937Q258 937 284 928T333 908T379 888T428 879Z" />
<glyph unicode="&#xd6;" horiz-adv-x="650" d="M325 720Q400 720 459 689T554 597T589 442V247Q589 160 554 101T460 11T325 -20Q252 -20 192 10T97 101T61 248V442Q61 535 97 596T193 689T325 720ZM182 254Q182 198 196 168T227 122Q243 109 268 100T328 91Q369
91 400 109T450 165T468 256V453Q468 485 464 508T450 548T428 577Q412 593 387 602T327 611Q277 611 245 591T198 536T182 453V254ZM151 921Q181 921 212 921T274 921Q278 921 280 920T283 916T285 910V794Q255 794 224 794T162 794Q159 794 157 795T153 799T151
805V921ZM365 921Q395 921 426 921T488 921Q492 921 494 920T497 916T499 910V794Q469 794 438 794T376 794Q373 794 371 795T367 799T365 805V921Z" />
<glyph unicode="&#xd7;" horiz-adv-x="600" d="M173 506Q176 506 179 503Q258 424 344 338T508 174Q491 157 471 137T431 97Q430 96 429 95T425 94Q424 94 423 95T419 97Q368 149 311 205T198 318T90 426Q106 442 126 462T167 503Q169 505 170 505T173 506ZM90
174Q167 251 253 337T419 503Q421 505 422 505T425 506Q427 506 428 506T431 503Q435 499 446 488T470 464T494 440T508 426Q457 375 401 318T288 205T179 97Q178 96 177 95T173 94Q172 94 171 95T167 97Q163 101 152 112T128 136T104 160T90 174Z" />
<glyph unicode="&#xd8;" horiz-adv-x="650" d="M580 776Q554 724 530 674T480 575L498 535H418L434 548Q431 513 422 474T397 397Q376 350 355 302T312 206T268 110Q260 93 250 77T232 43Q222 22 213 4T197 -31T181 -64Q177 -73 174 -74T164 -76Q159 -76 145 -76T115
-76T85 -76T67 -76Q78 -52 92 -23T119 33T140 78L180 166H232L216 146Q219 172 224 200T239 256T260 311Q283 362 307 414T353 515T395 604Q403 621 408 637T421 669Q433 696 443 718T462 757Q468 770 472 773T486 776Q502 776 517 776T548 776T580 776ZM325 720Q400
720 459 689T554 597T589 442V247Q589 160 554 101T460 11T325 -20Q252 -20 192 10T97 101T61 248V442Q61 535 97 596T193 689T325 720ZM182 254Q182 198 196 168T227 122Q243 109 268 100T328 91Q369 91 400 109T450 165T468 256V453Q468 485 464 508T450 548T428
577Q412 593 387 602T327 611Q277 611 245 591T198 536T182 453V254Z" />
<glyph unicode="&#xd9;" horiz-adv-x="650" d="M574 0Q555 0 536 0T497 0T457 0Q455 0 453 0T450 2T448 4T447 7T446 11Q446 97 446 183T446 355T446 528T446 700Q466 700 485 700T524 700T563 700Q566 700 568 699T572 695T574 689Q574 617 574 544T574 398T574
253T574 107Q574 79 574 52T574 0ZM243 -13Q199 -13 168 -1T116 35T85 93T74 172Q74 237 74 307T74 452T74 600Q74 625 74 650T74 700Q104 700 133 700T191 700Q195 700 197 699T200 695T202 689Q202 605 202 518T202 345T202 180Q202 139 221 120T279 100Q314
100 346 113T408 156T468 234V94H426Q406 60 379 36T318 0T243 -13ZM274 947Q293 916 309 889T343 834T378 776Q363 776 350 776T322 776T281 776Q275 776 271 778T265 782Q240 810 223 829T193 863T166 895T133 932Q129 937 131 942T139 947Q167 947 185 947T222
947T274 947Z" />
<glyph unicode="&#xda;" horiz-adv-x="650" d="M574 0Q555 0 536 0T497 0T457 0Q455 0 453 0T450 2T448 4T447 7T446 11Q446 97 446 183T446 355T446 528T446 700Q466 700 485 700T524 700T563 700Q566 700 568 699T572 695T574 689Q574 617 574 544T574 398T574
253T574 107Q574 79 574 52T574 0ZM243 -13Q199 -13 168 -1T116 35T85 93T74 172Q74 237 74 307T74 452T74 600Q74 625 74 650T74 700Q104 700 133 700T191 700Q195 700 197 699T200 695T202 689Q202 605 202 518T202 345T202 180Q202 139 221 120T279 100Q314
100 346 113T408 156T468 234V94H426Q406 60 379 36T318 0T243 -13ZM375 946Q409 946 427 946T463 946T508 946Q514 946 516 941T515 931Q496 910 482 894T455 863T425 828T382 781Q380 779 376 777T366 775Q342 775 327 775T299 775T271 775Q290 805 306 832T340
887T375 946Z" />
<glyph unicode="&#xdb;" horiz-adv-x="650" d="M574 0Q555 0 536 0T497 0T457 0Q455 0 453 0T450 2T448 4T447 7T446 11Q446 97 446 183T446 355T446 528T446 700Q466 700 485 700T524 700T563 700Q566 700 568 699T572 695T574 689Q574 617 574 544T574 398T574
253T574 107Q574 79 574 52T574 0ZM243 -13Q199 -13 168 -1T116 35T85 93T74 172Q74 237 74 307T74 452T74 600Q74 625 74 650T74 700Q104 700 133 700T191 700Q195 700 197 699T200 695T202 689Q202 605 202 518T202 345T202 180Q202 139 221 120T279 100Q314
100 346 113T408 156T468 234V94H426Q406 60 379 36T318 0T243 -13ZM258 946Q271 946 294 946T341 946T377 946Q384 946 390 943T410 926Q418 919 435 902T474 864T519 819T563 775Q540 775 510 775T456 775Q445 775 440 777T427 785Q412 798 381 823T306 889L358
869Q342 869 326 869T293 869L344 891Q301 852 268 825T209 775H108Q104 775 102 775T98 778T97 782Q97 786 100 790T118 808Q131 821 149 839T188 876T226 914T258 946Z" />
<glyph unicode="&#xdc;" horiz-adv-x="650" d="M574 0Q555 0 536 0T497 0T457 0Q455 0 453 0T450 2T448 4T447 7T446 11Q446 97 446 183T446 355T446 528T446 700Q466 700 485 700T524 700T563 700Q566 700 568 699T572 695T574 689Q574 617 574 544T574 398T574
253T574 107Q574 79 574 52T574 0ZM243 -13Q199 -13 168 -1T116 35T85 93T74 172Q74 237 74 307T74 452T74 600Q74 625 74 650T74 700Q104 700 133 700T191 700Q195 700 197 699T200 695T202 689Q202 605 202 518T202 345T202 180Q202 139 221 120T279 100Q314
100 346 113T408 156T468 234V94H426Q406 60 379 36T318 0T243 -13ZM150 921Q180 921 211 921T273 921Q277 921 279 920T282 916T284 910V794Q254 794 223 794T161 794Q158 794 156 795T152 799T150 805V921ZM364 921Q394 921 425 921T487 921Q491 921 493 920T496
916T498 910V794Q468 794 437 794T375 794Q372 794 370 795T366 799T364 805V921Z" />
<glyph unicode="&#xdd;" horiz-adv-x="650" d="M390 0Q370 0 351 0T312 0T273 0Q270 0 268 1T264 5T262 11Q262 83 262 158T262 306H390Q390 274 390 239T390 168T390 100Q390 75 390 50T390 0ZM25 700Q56 700 86 700T144 700Q151 700 155 699T162 693T169 680Q193
635 214 592T256 505T294 415T330 317L295 351H365L328 317Q346 371 364 417T401 508T443 599T493 700Q523 700 552 700T607 700Q616 700 619 695T617 678Q595 636 572 591T524 500T475 408T426 315T378 226Q341 226 320 226T288 227T274 230T268 237Q259 252 240
289T194 377T138 484T79 597T25 700ZM375 946Q409 946 427 946T463 946T508 946Q514 946 516 941T515 931Q496 910 482 894T455 863T425 828T382 781Q380 779 376 777T366 775Q342 775 327 775T299 775T271 775Q290 805 306 832T340 887T375 946Z" />
<glyph unicode="&#xde;" horiz-adv-x="600" d="M74 700Q103 700 132 700T190 700Q195 700 198 697T201 689Q201 603 201 517T201 345T201 172T201 0Q172 0 143 0T85 0Q82 0 80 1T76 5T74 11Q74 84 74 157T74 303T74 449T74 595Q74 622 74 648T74 700ZM145 588Q185
588 225 588T306 588Q365 588 409 576T483 537T527 472T542 381V325Q542 278 528 240T485 176T418 136T329 122Q287 122 244 122T156 122L145 116V236Q189 236 233 236T322 236Q352 236 372 246T403 277T414 326V382Q414 406 409 422T393 450Q381 462 361 468T310
474Q285 474 260 474T209 474Q197 474 184 474T156 474Q151 474 148 477T145 485Q145 511 145 536T145 588Z" />
<glyph unicode="&#xdf;" horiz-adv-x="600" d="M312 767Q362 767 401 758T468 731T510 684T525 618V598Q525 574 520 553T502 513T468 477L437 449Q412 428 404 417T395 395Q395 384 404 374T436 347L468 324Q503 298 522 276T548 227T556 166V151Q556 102 536
66T478 11T388 -9Q339 -9 311 1T276 19Q275 21 275 22T274 27Q274 54 274 81T274 135H291Q311 120 330 114T381 108Q398 108 410 112T430 125Q437 133 441 144T445 169Q445 184 441 196T423 223T380 257L343 285Q309 310 296 335T282 388V402Q282 422 288 439T307
473T339 507L381 543Q397 557 405 566T416 584T419 604Q419 627 398 639T323 652Q287 652 264 646T227 627Q219 619 214 608T205 581T202 546Q202 490 202 435T202 324T202 212T202 101Q202 84 202 68T202 34T202 0Q175 0 148 0T92 0Q89 0 87 1T83 5T81 11Q81 81
81 152T81 293T81 434T81 575Q81 632 109 675T189 743T312 767Z" />
<glyph unicode="&#xe0;" horiz-adv-x="600" d="M506 344Q506 319 506 294T506 243T506 191T506 141Q506 131 507 124T514 113Q517 109 523 107T538 105Q540 105 542 105T548 105H566Q566 82 566 59T566 11Q566 6 563 3T555 0Q550 0 534 0T504 0Q477 0 456 8T419
32T394 70T385 121Q385 153 385 187T385 253Q385 270 385 286T385 318T385 350Q385 382 374 400T340 426T275 434Q246 434 220 432T168 424T116 409H99Q99 432 99 456T99 503Q99 507 100 509T102 513Q107 518 134 526T199 540T275 546Q336 546 379 535T451 499T492
437T506 344ZM181 148Q181 124 195 111T238 97Q267 97 294 104T349 128T403 172V86H374Q359 55 336 34T280 1T210 -10Q164 -10 131 8T79 58T60 133V167Q60 200 71 226T102 271T152 300T217 311Q252 311 285 311T349 311T410 311Q418 311 422 297T428 264T429 233Q395
233 365 233T303 233T238 233Q223 233 213 230T194 218Q188 212 185 203T181 182V148ZM247 812Q266 780 284 749T321 686T358 624Q336 624 313 624T263 624Q257 624 253 626T246 632Q218 665 195 691T151 742T104 796Q100 801 102 806T111 812Q136 812 157 812T200
812T247 812Z" />
<glyph unicode="&#xe1;" horiz-adv-x="600" d="M506 344Q506 319 506 294T506 243T506 191T506 141Q506 131 507 124T514 113Q517 109 523 107T538 105Q540 105 542 105T548 105H566Q566 82 566 59T566 11Q566 6 563 3T555 0Q550 0 534 0T504 0Q477 0 456 8T419
32T394 70T385 121Q385 153 385 187T385 253Q385 270 385 286T385 318T385 350Q385 382 374 400T340 426T275 434Q246 434 220 432T168 424T116 409H99Q99 432 99 456T99 503Q99 507 100 509T102 513Q107 518 134 526T199 540T275 546Q336 546 379 535T451 499T492
437T506 344ZM181 148Q181 124 195 111T238 97Q267 97 294 104T349 128T403 172V86H374Q359 55 336 34T280 1T210 -10Q164 -10 131 8T79 58T60 133V167Q60 200 71 226T102 271T152 300T217 311Q252 311 285 311T349 311T410 311Q418 311 422 297T428 264T429 233Q395
233 365 233T303 233T238 233Q223 233 213 230T194 218Q188 212 185 203T181 182V148ZM358 812Q396 812 426 812T494 812Q500 812 502 807T500 796Q476 767 455 742T410 691T358 632Q356 629 352 627T341 624Q316 624 293 624T247 624Q266 654 284 685T321 748T358
812Z" />
<glyph unicode="&#xe2;" horiz-adv-x="600" d="M506 344Q506 319 506 294T506 243T506 191T506 141Q506 131 507 124T514 113Q517 109 523 107T538 105Q540 105 542 105T548 105H566Q566 82 566 59T566 11Q566 6 563 3T555 0Q550 0 534 0T504 0Q477 0 456 8T419
32T394 70T385 121Q385 153 385 187T385 253Q385 270 385 286T385 318T385 350Q385 382 374 400T340 426T275 434Q246 434 220 432T168 424T116 409H99Q99 432 99 456T99 503Q99 507 100 509T102 513Q107 518 134 526T199 540T275 546Q336 546 379 535T451 499T492
437T506 344ZM181 148Q181 124 195 111T238 97Q267 97 294 104T349 128T403 172V86H374Q359 55 336 34T280 1T210 -10Q164 -10 131 8T79 58T60 133V167Q60 200 71 226T102 271T152 300T217 311Q252 311 285 311T349 311T410 311Q418 311 422 297T428 264T429 233Q395
233 365 233T303 233T238 233Q223 233 213 230T194 218Q188 212 185 203T181 182V148ZM257 814Q276 814 295 814T334 814Q342 814 347 810T365 792Q372 783 390 763T431 715T477 661T519 612Q496 612 473 612T427 612Q416 612 411 614T398 623Q386 635 358 664T283
740L332 719H273L320 742Q276 696 247 666T193 612H107Q103 612 101 613T97 616T96 621Q96 626 99 630T115 649Q127 663 146 685T187 733T228 780T257 814Z" />
<glyph unicode="&#xe3;" horiz-adv-x="600" d="M506 344Q506 319 506 294T506 243T506 191T506 141Q506 131 507 124T514 113Q517 109 523 107T538 105Q540 105 542 105T548 105H566Q566 82 566 59T566 11Q566 6 563 3T555 0Q550 0 534 0T504 0Q477 0 456 8T419
32T394 70T385 121Q385 153 385 187T385 253Q385 270 385 286T385 318T385 350Q385 382 374 400T340 426T275 434Q246 434 220 432T168 424T116 409H99Q99 432 99 456T99 503Q99 507 100 509T102 513Q107 518 134 526T199 540T275 546Q336 546 379 535T451 499T492
437T506 344ZM181 148Q181 124 195 111T238 97Q267 97 294 104T349 128T403 172V86H374Q359 55 336 34T280 1T210 -10Q164 -10 131 8T79 58T60 133V167Q60 200 71 226T102 271T152 300T217 311Q252 311 285 311T349 311T410 311Q418 311 422 297T428 264T429 233Q395
233 365 233T303 233T238 233Q223 233 213 230T194 218Q188 212 185 203T181 182V148ZM391 738Q419 738 442 751T483 789H500Q500 775 500 760T500 731T500 705Q500 698 499 694T493 682Q477 662 449 650T387 638Q355 638 334 646T294 664T257 683T213 691Q185
691 162 678T121 640H104Q104 655 104 670T104 699T104 724Q104 731 105 735T111 747Q127 767 155 779T217 791Q249 791 270 783T310 765T347 746T391 738Z" />
<glyph unicode="&#xe4;" horiz-adv-x="600" d="M506 344Q506 319 506 294T506 243T506 191T506 141Q506 131 507 124T514 113Q517 109 523 107T538 105Q540 105 542 105T548 105H566Q566 82 566 59T566 11Q566 6 563 3T555 0Q550 0 534 0T504 0Q477 0 456 8T419
32T394 70T385 121Q385 153 385 187T385 253Q385 270 385 286T385 318T385 350Q385 382 374 400T340 426T275 434Q246 434 220 432T168 424T116 409H99Q99 432 99 456T99 503Q99 507 100 509T102 513Q107 518 134 526T199 540T275 546Q336 546 379 535T451 499T492
437T506 344ZM181 148Q181 124 195 111T238 97Q267 97 294 104T349 128T403 172V86H374Q359 55 336 34T280 1T210 -10Q164 -10 131 8T79 58T60 133V167Q60 200 71 226T102 271T152 300T217 311Q252 311 285 311T349 311T410 311Q418 311 422 297T428 264T429 233Q395
233 365 233T303 233T238 233Q223 233 213 230T194 218Q188 212 185 203T181 182V148ZM128 761Q158 761 189 761T251 761Q255 761 257 760T260 756T262 750V627Q232 627 201 627T139 627Q136 627 134 628T130 632T128 638V761ZM342 761Q372 761 403 761T465 761Q469
761 471 760T474 756T476 750V627Q446 627 415 627T353 627Q350 627 348 628T344 632T342 638V761Z" />
<glyph unicode="&#xe5;" horiz-adv-x="600" d="M506 344Q506 319 506 294T506 243T506 191T506 141Q506 131 507 124T514 113Q517 109 523 107T538 105Q540 105 542 105T548 105H566Q566 82 566 59T566 11Q566 6 563 3T555 0Q550 0 534 0T504 0Q477 0 456 8T419
32T394 70T385 121Q385 153 385 187T385 253Q385 270 385 286T385 318T385 350Q385 382 374 400T340 426T275 434Q246 434 220 432T168 424T116 409H99Q99 432 99 456T99 503Q99 507 100 509T102 513Q107 518 134 526T199 540T275 546Q336 546 379 535T451 499T492
437T506 344ZM181 148Q181 124 195 111T238 97Q267 97 294 104T349 128T403 172V86H374Q359 55 336 34T280 1T210 -10Q164 -10 131 8T79 58T60 133V167Q60 200 71 226T102 271T152 300T217 311Q252 311 285 311T349 311T410 311Q418 311 422 297T428 264T429 233Q395
233 365 233T303 233T238 233Q223 233 213 230T194 218Q188 212 185 203T181 182V148ZM302 859Q343 859 373 845T419 805T435 743V715Q435 663 399 632T302 600Q241 600 205 631T169 715V743Q169 779 185 804T231 844T302 859ZM302 788Q277 788 263 775T249 738V720Q249
709 252 700T262 685Q269 678 279 675T302 671Q327 671 341 684T355 720V738Q355 749 352 758T343 773Q336 780 326 784T302 788Z" />
<glyph unicode="&#xe6;" horiz-adv-x="850" d="M241 547Q291 547 329 534T396 496T441 432L409 469H450L418 432Q439 487 482 517T586 547Q644 547 686 525T751 457T774 340Q774 316 774 292T774 244Q774 241 773 239T770 235T764 233Q729 233 694 233T624 233T553
233T482 233L441 231V311Q470 311 496 311T547 311T598 311T653 311Q653 314 653 317T653 325T653 333Q653 361 648 380T633 412Q623 423 607 428T570 433Q542 433 523 422T494 388T485 337V208Q485 180 494 160T522 127Q541 113 568 106T627 99Q654 99 675 102T715
111T754 126H771Q771 102 771 78T771 29Q771 27 771 24T766 19Q752 9 718 -1T625 -11Q573 -11 531 3T459 44T412 109L444 75H402L437 109Q418 71 387 45T316 4T227 -10Q171 -10 134 9T79 61T60 133V174Q60 205 71 232T102 278T152 309T219 321Q264 321 298 315T356
299T391 283H414V226Q382 229 352 231T296 235T247 236Q225 236 214 232T195 221Q188 214 185 204T181 182V159Q181 127 198 114T246 100H251Q286 100 312 111T351 143T365 192V341Q365 373 352 393T310 422T235 432Q200 432 167 426T99 409H82Q82 435 82 459T82
509Q82 511 83 513T85 517Q91 524 113 530T167 542T241 547Z" />
<glyph unicode="&#xe7;" horiz-adv-x="500" d="M309 547Q347 547 375 542T421 531T444 517Q447 515 447 513T448 508Q448 483 448 458T448 407H430Q405 419 375 426T309 433Q271 433 243 419T200 376T185 301V232Q185 198 194 173T220 132Q236 117 258 110T309
103Q334 103 355 106T394 114T430 127H448Q448 102 448 77T448 26Q448 24 448 22T445 18Q439 12 422 5T376 -6T309 -11Q251 -11 205 4T127 50T78 125T61 226V304Q61 378 92 432T180 517T309 547ZM318 45Q316 36 314 27T309 8T305 -9T301 -25L299 -35Q344 -36 370
-60T397 -127Q397 -182 361 -212T254 -242Q220 -242 200 -239T171 -228T162 -211Q162 -197 162 -184T162 -160T162 -138H174Q187 -144 202 -148T239 -152Q261 -152 276 -143T291 -113Q291 -93 278 -84T234 -73Q229 -73 226 -70T225 -60Q230 -47 234 -35T242 -12T250
9T258 31Q261 36 265 39T282 44T318 45Z" />
<glyph unicode="&#xe8;" horiz-adv-x="600" d="M302 547Q368 547 418 521T496 445T524 324V244Q524 241 523 239T520 235T514 234H274Q258 234 241 234T206 234H169L162 311H407Q407 316 407 319T407 328Q407 360 400 383T379 420Q366 433 347 439T302 445Q248
445 220 418T192 326V211Q192 183 199 163T219 128Q237 110 265 102T331 94Q368 94 395 98T447 109T495 125H513Q513 103 513 80T513 35Q513 33 512 31T509 27Q500 18 473 9T408 -5T329 -11Q266 -11 218 3T137 47T88 117T71 211V322Q71 376 87 417T135 488T209
532T302 547ZM247 815Q266 783 284 752T321 689T358 627Q336 627 313 627T263 627Q257 627 253 629T246 635Q218 668 195 694T151 745T104 799Q100 804 102 809T111 815Q136 815 157 815T200 815T247 815Z" />
<glyph unicode="&#xe9;" horiz-adv-x="600" d="M302 547Q368 547 418 521T496 445T524 324V244Q524 241 523 239T520 235T514 234H274Q258 234 241 234T206 234H169L162 311H407Q407 316 407 319T407 328Q407 360 400 383T379 420Q366 433 347 439T302 445Q248
445 220 418T192 326V211Q192 183 199 163T219 128Q237 110 265 102T331 94Q368 94 395 98T447 109T495 125H513Q513 103 513 80T513 35Q513 33 512 31T509 27Q500 18 473 9T408 -5T329 -11Q266 -11 218 3T137 47T88 117T71 211V322Q71 376 87 417T135 488T209
532T302 547ZM358 815Q396 815 426 815T494 815Q500 815 502 810T500 799Q476 770 455 745T410 694T358 635Q356 632 352 630T341 627Q316 627 293 627T247 627Q266 657 284 688T321 751T358 815Z" />
<glyph unicode="&#xea;" horiz-adv-x="600" d="M302 547Q368 547 418 521T496 445T524 324V244Q524 241 523 239T520 235T514 234H274Q258 234 241 234T206 234H169L162 311H407Q407 316 407 319T407 328Q407 360 400 383T379 420Q366 433 347 439T302 445Q248
445 220 418T192 326V211Q192 183 199 163T219 128Q237 110 265 102T331 94Q368 94 395 98T447 109T495 125H513Q513 103 513 80T513 35Q513 33 512 31T509 27Q500 18 473 9T408 -5T329 -11Q266 -11 218 3T137 47T88 117T71 211V322Q71 376 87 417T135 488T209
532T302 547ZM257 817Q276 817 295 817T334 817Q342 817 347 813T365 795Q372 786 390 766T431 718T477 664T519 615Q496 615 473 615T427 615Q416 615 411 617T398 626Q386 638 358 667T283 743L332 722H273L320 745Q276 699 247 669T193 615H107Q103 615 101
616T97 619T96 624Q96 629 99 633T115 652Q127 666 146 688T187 736T228 783T257 817Z" />
<glyph unicode="&#xeb;" horiz-adv-x="600" d="M302 547Q368 547 418 521T496 445T524 324V244Q524 241 523 239T520 235T514 234H274Q258 234 241 234T206 234H169L162 311H407Q407 316 407 319T407 328Q407 360 400 383T379 420Q366 433 347 439T302 445Q248
445 220 418T192 326V211Q192 183 199 163T219 128Q237 110 265 102T331 94Q368 94 395 98T447 109T495 125H513Q513 103 513 80T513 35Q513 33 512 31T509 27Q500 18 473 9T408 -5T329 -11Q266 -11 218 3T137 47T88 117T71 211V322Q71 376 87 417T135 488T209
532T302 547ZM128 764Q158 764 189 764T251 764Q255 764 257 763T260 759T262 753V630Q232 630 201 630T139 630Q136 630 134 631T130 635T128 641V764ZM342 764Q372 764 403 764T465 764Q469 764 471 763T474 759T476 753V630Q446 630 415 630T353 630Q350 630
348 631T344 635T342 641V764Z" />
<glyph unicode="&#xec;" horiz-adv-x="350" d="M131 11Q131 42 131 83T131 172T131 266T131 355T131 427H122Q115 427 107 427T90 427T72 427T55 427Q50 427 47 430T44 438Q44 462 44 487T44 536Q60 536 81 536T124 536T168 536T209 536T241 536Q245 536 247 535T250
531T252 525Q252 477 252 422T252 311T252 200T252 95Q252 80 252 64T252 32T252 0Q223 0 198 0T142 0Q137 0 134 3T131 11ZM133 815Q152 783 170 752T207 689T244 627Q222 627 199 627T149 627Q143 627 139 629T132 635Q104 668 81 694T37 745T-10 799Q-14 804
-12 809T-3 815Q22 815 43 815T86 815T133 815Z" />
<glyph unicode="&#xed;" horiz-adv-x="350" d="M131 11Q131 42 131 83T131 172T131 266T131 355T131 427H122Q115 427 107 427T90 427T72 427T55 427Q50 427 47 430T44 438Q44 462 44 487T44 536Q60 536 81 536T124 536T168 536T209 536T241 536Q245 536 247 535T250
531T252 525Q252 477 252 422T252 311T252 200T252 95Q252 80 252 64T252 32T252 0Q223 0 198 0T142 0Q137 0 134 3T131 11ZM244 815Q282 815 312 815T380 815Q386 815 388 810T386 799Q362 770 341 745T296 694T244 635Q242 632 238 630T227 627Q202 627 179 627T133
627Q152 657 170 688T207 751T244 815Z" />
<glyph unicode="&#xee;" horiz-adv-x="350" d="M131 11Q131 42 131 83T131 172T131 266T131 355T131 427H122Q115 427 107 427T90 427T72 427T55 427Q50 427 47 430T44 438Q44 462 44 487T44 536Q60 536 81 536T124 536T168 536T209 536T241 536Q245 536 247 535T250
531T252 525Q252 477 252 422T252 311T252 200T252 95Q252 80 252 64T252 32T252 0Q223 0 198 0T142 0Q137 0 134 3T131 11ZM143 817Q162 817 181 817T220 817Q228 817 233 813T251 795Q258 786 276 766T317 718T363 664T405 615Q382 615 359 615T313 615Q302 615
297 617T284 626Q272 638 244 667T169 743L218 722H159L206 745Q162 699 133 669T79 615H-7Q-11 615 -13 616T-17 619T-18 624Q-18 629 -15 633T1 652Q13 666 32 688T73 736T114 783T143 817Z" />
<glyph unicode="&#xef;" horiz-adv-x="350" d="M131 11Q131 42 131 83T131 172T131 266T131 355T131 427H122Q115 427 107 427T90 427T72 427T55 427Q50 427 47 430T44 438Q44 462 44 487T44 536Q60 536 81 536T124 536T168 536T209 536T241 536Q245 536 247 535T250
531T252 525Q252 477 252 422T252 311T252 200T252 95Q252 80 252 64T252 32T252 0Q223 0 198 0T142 0Q137 0 134 3T131 11ZM14 764Q44 764 75 764T137 764Q141 764 143 763T146 759T148 753V630Q118 630 87 630T25 630Q22 630 20 631T16 635T14 641V764ZM228 764Q258
764 289 764T351 764Q355 764 357 763T360 759T362 753V630Q332 630 301 630T239 630Q236 630 234 631T230 635T228 641V764Z" />
<glyph unicode="&#xf0;" horiz-adv-x="600" d="M542 740Q542 722 542 705T542 669Q542 664 541 661T538 655T529 651L398 615Q388 613 375 613T350 612T326 608L117 551Q117 570 117 587T117 621Q117 630 120 633T131 639L271 676Q285 680 298 681T323 682T344
684L542 740ZM247 498Q297 498 328 485T384 445H426V327Q396 359 363 376T283 394Q252 394 230 381T196 343T185 285V216Q185 198 188 182T198 152T215 128Q229 116 249 109T294 102Q334 102 361 117T401 161T415 225V321Q415 369 407 409T380 487T334 563T265
643T173 735V753Q205 753 238 753T303 753Q308 753 312 752T323 745Q369 698 404 656T465 574T505 494T528 411T536 321V229Q536 158 506 104T421 19T299 -11Q228 -11 175 16T93 92T64 207V295Q64 356 88 401T153 472T247 498Z" />
<glyph unicode="&#xf1;" horiz-adv-x="600" d="M527 0Q498 0 473 0T417 0Q414 0 412 1T408 5T406 11Q406 71 406 130T406 250T406 369Q406 401 392 416T347 431Q329 431 309 426T267 408T225 379T187 338V448H220Q241 478 266 500T322 534T386 547Q419 547 445
537T489 506T517 457T527 394Q527 346 527 297T527 199T527 101Q527 75 527 50T527 0ZM202 0Q183 0 166 0T130 0T93 0Q90 0 88 0T85 2T83 6T82 11Q82 65 82 118T82 224T82 330T82 437Q82 467 82 492T82 536Q104 536 122 536T157 536T191 536Q195 536 197 535T200
531T202 525Q202 438 202 351T202 176T202 0ZM389 741Q417 741 440 754T481 792H498Q498 778 498 763T498 734T498 708Q498 701 497 697T491 685Q475 665 447 653T385 641Q353 641 332 649T292 667T255 686T211 694Q183 694 160 681T119 643H102Q102 658 102 673T102
702T102 727Q102 734 103 738T109 750Q125 770 153 782T215 794Q247 794 268 786T308 768T345 749T389 741Z" />
<glyph unicode="&#xf2;" horiz-adv-x="600" d="M300 547Q353 547 396 531T471 484T520 413T538 322V217Q538 149 508 98T424 18T300 -11Q247 -11 203 5T128 52T80 123T62 214V319Q62 387 92 438T177 518T300 547ZM303 438Q264 438 238 423T197 380T183 314V221Q183
192 191 169T216 129Q230 114 251 106T297 98Q336 98 362 113T403 157T417 222V315Q417 347 409 370T386 409Q371 423 351 430T303 438ZM244 815Q263 783 281 752T318 689T355 627Q333 627 310 627T260 627Q254 627 250 629T243 635Q215 668 192 694T148 745T101
799Q97 804 99 809T108 815Q133 815 154 815T197 815T244 815Z" />
<glyph unicode="&#xf3;" horiz-adv-x="600" d="M300 547Q353 547 396 531T471 484T520 413T538 322V217Q538 149 508 98T424 18T300 -11Q247 -11 203 5T128 52T80 123T62 214V319Q62 387 92 438T177 518T300 547ZM303 438Q264 438 238 423T197 380T183 314V221Q183
192 191 169T216 129Q230 114 251 106T297 98Q336 98 362 113T403 157T417 222V315Q417 347 409 370T386 409Q371 423 351 430T303 438ZM355 815Q393 815 423 815T491 815Q497 815 499 810T497 799Q473 770 452 745T407 694T355 635Q353 632 349 630T338 627Q313
627 290 627T244 627Q263 657 281 688T318 751T355 815Z" />
<glyph unicode="&#xf4;" horiz-adv-x="600" d="M300 547Q353 547 396 531T471 484T520 413T538 322V217Q538 149 508 98T424 18T300 -11Q247 -11 203 5T128 52T80 123T62 214V319Q62 387 92 438T177 518T300 547ZM303 438Q264 438 238 423T197 380T183 314V221Q183
192 191 169T216 129Q230 114 251 106T297 98Q336 98 362 113T403 157T417 222V315Q417 347 409 370T386 409Q371 423 351 430T303 438ZM254 817Q273 817 292 817T331 817Q339 817 344 813T362 795Q369 786 387 766T428 718T474 664T516 615Q493 615 470 615T424
615Q413 615 408 617T395 626Q383 638 355 667T280 743L329 722H270L317 745Q273 699 244 669T190 615H104Q100 615 98 616T94 619T93 624Q93 629 96 633T112 652Q124 666 143 688T184 736T225 783T254 817Z" />
<glyph unicode="&#xf5;" horiz-adv-x="600" d="M300 547Q353 547 396 531T471 484T520 413T538 322V217Q538 149 508 98T424 18T300 -11Q247 -11 203 5T128 52T80 123T62 214V319Q62 387 92 438T177 518T300 547ZM303 438Q264 438 238 423T197 380T183 314V221Q183
192 191 169T216 129Q230 114 251 106T297 98Q336 98 362 113T403 157T417 222V315Q417 347 409 370T386 409Q371 423 351 430T303 438ZM388 741Q416 741 439 754T480 792H497Q497 778 497 763T497 734T497 708Q497 701 496 697T490 685Q474 665 446 653T384 641Q352
641 331 649T291 667T254 686T210 694Q182 694 159 681T118 643H101Q101 658 101 673T101 702T101 727Q101 734 102 738T108 750Q124 770 152 782T214 794Q246 794 267 786T307 768T344 749T388 741Z" />
<glyph unicode="&#xf6;" horiz-adv-x="600" d="M300 547Q353 547 396 531T471 484T520 413T538 322V217Q538 149 508 98T424 18T300 -11Q247 -11 203 5T128 52T80 123T62 214V319Q62 387 92 438T177 518T300 547ZM303 438Q264 438 238 423T197 380T183 314V221Q183
192 191 169T216 129Q230 114 251 106T297 98Q336 98 362 113T403 157T417 222V315Q417 347 409 370T386 409Q371 423 351 430T303 438ZM125 764Q155 764 186 764T248 764Q252 764 254 763T257 759T259 753V630Q229 630 198 630T136 630Q133 630 131 631T127 635T125
641V764ZM339 764Q369 764 400 764T462 764Q466 764 468 763T471 759T473 753V630Q443 630 412 630T350 630Q347 630 345 631T341 635T339 641V764Z" />
<glyph unicode="&#xf7;" horiz-adv-x="600" d="M65 357H524Q529 357 532 354T535 346Q535 319 535 295T535 243H76Q73 243 71 244T67 248T65 254Q65 282 65 306T65 357ZM222 566Q249 566 272 566T318 566T367 566Q371 566 373 565T376 561T378 555V432Q352 432
329 432T283 432T233 432Q230 432 228 433T224 437T222 443V566ZM222 168Q249 168 272 168T318 168T367 168Q371 168 373 167T376 163T378 157V34Q352 34 329 34T283 34T233 34Q230 34 228 35T224 39T222 45V168Z" />
<glyph unicode="&#xf8;" horiz-adv-x="600" d="M516 600Q504 578 493 557T470 515T448 474L460 376H374L386 393Q384 367 376 338T353 283Q325 230 296 176T237 69Q237 63 237 57T238 44Q229 26 219 9T201 -25T186 -54Q182 -60 180 -61T171 -63Q167 -63 154 -63T126
-63T99 -63T82 -63Q91 -46 103 -24T126 21T145 56L169 162H221L213 147Q217 167 222 188T236 231T256 274Q285 326 313 376T367 473Q366 478 364 483T360 493Q372 517 383 539T404 582Q409 594 413 597T425 600Q432 600 445 600T472 600T498 600T516 600ZM300 547Q353
547 396 531T471 484T520 413T538 322V217Q538 149 508 98T424 18T300 -11Q247 -11 203 5T128 52T80 123T62 214V319Q62 387 92 438T177 518T300 547ZM303 438Q264 438 238 423T197 380T183 314V221Q183 192 191 169T216 129Q230 114 251 106T297 98Q336 98 362
113T403 157T417 222V315Q417 347 409 370T386 409Q371 423 351 430T303 438Z" />
<glyph unicode="&#xf9;" horiz-adv-x="600" d="M191 536Q195 536 197 535T200 531T202 525Q202 480 202 434T202 342T202 252T202 167Q202 140 216 126T255 111Q278 111 299 116T340 131T378 158T415 198V87H382Q362 57 339 35T288 1T222 -11Q191 -11 165 -1T120
30T92 77T81 138Q81 183 81 228T81 318T81 407Q81 439 81 471T81 536Q109 536 136 536T191 536ZM508 536Q512 536 514 535T517 531T519 525Q519 454 519 383T519 241T519 99Q519 79 519 61T519 28T519 0Q500 0 481 0T445 0T410 0Q407 0 405 1T401 5T399 11Q399
99 399 186T399 361T399 536Q418 536 436 536T472 536T508 536ZM245 815Q264 783 282 752T319 689T356 627Q334 627 311 627T261 627Q255 627 251 629T244 635Q216 668 193 694T149 745T102 799Q98 804 100 809T109 815Q134 815 155 815T198 815T245 815Z" />
<glyph unicode="&#xfa;" horiz-adv-x="600" d="M191 536Q195 536 197 535T200 531T202 525Q202 480 202 434T202 342T202 252T202 167Q202 140 216 126T255 111Q278 111 299 116T340 131T378 158T415 198V87H382Q362 57 339 35T288 1T222 -11Q191 -11 165 -1T120
30T92 77T81 138Q81 183 81 228T81 318T81 407Q81 439 81 471T81 536Q109 536 136 536T191 536ZM508 536Q512 536 514 535T517 531T519 525Q519 454 519 383T519 241T519 99Q519 79 519 61T519 28T519 0Q500 0 481 0T445 0T410 0Q407 0 405 1T401 5T399 11Q399
99 399 186T399 361T399 536Q418 536 436 536T472 536T508 536ZM356 815Q394 815 424 815T492 815Q498 815 500 810T498 799Q474 770 453 745T408 694T356 635Q354 632 350 630T339 627Q314 627 291 627T245 627Q264 657 282 688T319 751T356 815Z" />
<glyph unicode="&#xfb;" horiz-adv-x="600" d="M191 536Q195 536 197 535T200 531T202 525Q202 480 202 434T202 342T202 252T202 167Q202 140 216 126T255 111Q278 111 299 116T340 131T378 158T415 198V87H382Q362 57 339 35T288 1T222 -11Q191 -11 165 -1T120
30T92 77T81 138Q81 183 81 228T81 318T81 407Q81 439 81 471T81 536Q109 536 136 536T191 536ZM508 536Q512 536 514 535T517 531T519 525Q519 454 519 383T519 241T519 99Q519 79 519 61T519 28T519 0Q500 0 481 0T445 0T410 0Q407 0 405 1T401 5T399 11Q399
99 399 186T399 361T399 536Q418 536 436 536T472 536T508 536ZM255 817Q274 817 293 817T332 817Q340 817 345 813T363 795Q370 786 388 766T429 718T475 664T517 615Q494 615 471 615T425 615Q414 615 409 617T396 626Q384 638 356 667T281 743L330 722H271L318
745Q274 699 245 669T191 615H105Q101 615 99 616T95 619T94 624Q94 629 97 633T113 652Q125 666 144 688T185 736T226 783T255 817Z" />
<glyph unicode="&#xfc;" horiz-adv-x="600" d="M191 536Q195 536 197 535T200 531T202 525Q202 480 202 434T202 342T202 252T202 167Q202 140 216 126T255 111Q278 111 299 116T340 131T378 158T415 198V87H382Q362 57 339 35T288 1T222 -11Q191 -11 165 -1T120
30T92 77T81 138Q81 183 81 228T81 318T81 407Q81 439 81 471T81 536Q109 536 136 536T191 536ZM508 536Q512 536 514 535T517 531T519 525Q519 454 519 383T519 241T519 99Q519 79 519 61T519 28T519 0Q500 0 481 0T445 0T410 0Q407 0 405 1T401 5T399 11Q399
99 399 186T399 361T399 536Q418 536 436 536T472 536T508 536ZM126 764Q156 764 187 764T249 764Q253 764 255 763T258 759T260 753V630Q230 630 199 630T137 630Q134 630 132 631T128 635T126 641V764ZM340 764Q370 764 401 764T463 764Q467 764 469 763T472
759T474 753V630Q444 630 413 630T351 630Q348 630 346 631T342 635T340 641V764Z" />
<glyph unicode="&#xfd;" horiz-adv-x="600" d="M545 536Q550 536 554 532T557 520Q536 446 517 377T478 240T439 100T399 -49Q385 -102 362 -135T304 -184T217 -200Q205 -200 189 -200T156 -200T129 -200T115 -200Q110 -200 107 -198T104 -189V-94H122Q143 -94
163 -94T204 -94Q238 -94 259 -78T289 -26Q296 -1 307 44T334 148T367 273T401 407T434 536Q447 536 460 536T487 536T515 536T545 536ZM159 536Q169 536 172 533T179 523Q198 456 213 405T242 311T267 235T287 168T305 104H359L337 28H243Q234 28 228 30T218 40T207
61Q201 77 188 113T158 199T120 308T80 425T43 536Q57 536 71 536T99 536T129 536T159 536ZM367 815Q405 815 435 815T503 815Q509 815 511 810T509 799Q485 770 464 745T419 694T367 635Q365 632 361 630T350 627Q325 627 302 627T256 627Q275 657 293 688T330
751T367 815Z" />
<glyph unicode="&#xfe;" horiz-adv-x="600" d="M82 725Q101 725 119 725T155 725T191 725Q195 725 197 724T200 720T202 714Q202 634 202 542T202 352T202 156T202 -34T202 -206Q184 -206 166 -206T130 -206T93 -206Q90 -206 88 -205T84 -201T82 -195Q82 -137
82 -70T82 69T82 214T82 360T82 499T82 624Q82 651 82 676T82 725ZM371 547Q423 547 460 524T518 456T539 350V192Q539 144 527 107T493 43T438 4T365 -10Q334 -10 308 -1T259 27T219 66H192V166Q213 146 235 133T280 113T328 106Q358 106 378 118T408 154T418
213V326Q418 354 413 374T396 406Q386 419 370 425T335 431Q311 431 286 421T237 392T189 344V461H219Q237 489 261 508T312 537T371 547Z" />
<glyph unicode="&#xff;" horiz-adv-x="600" d="M545 536Q550 536 554 532T557 520Q536 446 517 377T478 240T439 100T399 -49Q385 -102 362 -135T304 -184T217 -200Q205 -200 189 -200T156 -200T129 -200T115 -200Q110 -200 107 -198T104 -189V-94H122Q143 -94
163 -94T204 -94Q238 -94 259 -78T289 -26Q296 -1 307 44T334 148T367 273T401 407T434 536Q447 536 460 536T487 536T515 536T545 536ZM159 536Q169 536 172 533T179 523Q198 456 213 405T242 311T267 235T287 168T305 104H359L337 28H243Q234 28 228 30T218 40T207
61Q201 77 188 113T158 199T120 308T80 425T43 536Q57 536 71 536T99 536T129 536T159 536ZM137 764Q167 764 198 764T260 764Q264 764 266 763T269 759T271 753V630Q241 630 210 630T148 630Q145 630 143 631T139 635T137 641V764ZM351 764Q381 764 412 764T474
764Q478 764 480 763T483 759T485 753V630Q455 630 424 630T362 630Q359 630 357 631T353 635T351 641V764Z" />
<glyph unicode="&#x2013;" horiz-adv-x="600" d="M50 358H539Q543 358 545 357T548 353T550 347Q550 320 550 295T550 242H61Q58 242 56 243T52 247T50 253Q50 280 50 305T50 358Z" />
<glyph unicode="&#x2014;" horiz-adv-x="600" d="M-11 358H600Q604 358 606 357T609 353T611 347Q611 320 611 295T611 242H0Q-3 242 -5 243T-9 247T-11 253Q-11 280 -11 305T-11 358Z" />
<glyph unicode="&#x2018;" horiz-adv-x="350" d="M184 750Q221 750 252 750T306 750Q294 697 283 646T259 544T235 441Q209 441 188 441T148 441T110 441T68 441Q64 441 62 442T59 447T60 453Q78 497 97 546T136 645T174 743Q176 748 178 749T184 750Z" />
<glyph unicode="&#x2019;" horiz-adv-x="350" d="M198 441Q161 441 130 441T76 441Q88 494 100 545T123 647T147 750Q173 750 194 750T234 750T272 750T314 750Q318 750 320 749T323 744T322 737Q305 693 286 645T246 546T208 448Q207 444 205 443T198 441Z" />
<glyph unicode="&#x201a;" horiz-adv-x="350" d="M198 -106Q161 -106 130 -106T76 -106Q88 -53 100 -2T123 101T147 204Q173 204 194 204T234 204T272 204T314 204Q318 204 320 203T323 198T322 191Q305 147 286 98T246 -1T208 -98Q207 -103 205 -104T198 -106Z" />
<glyph unicode="&#x201c;" horiz-adv-x="600" d="M306 741Q297 702 288 663T270 586T252 510T234 432Q207 432 188 432T154 432T121 432T81 432Q75 432 73 435T73 445Q88 482 102 518T130 589T158 661T187 734Q189 739 191 740T197 741Q216 741 231 741T259 741T283
741T306 741ZM541 741Q532 702 523 663T505 586T487 510T469 432Q443 432 424 432T389 432T356 432T316 432Q310 432 308 435T308 445Q323 482 337 518T366 589T394 661T423 734Q425 739 427 740T433 741Q452 741 466 741T494 741T518 741T541 741Z" />
<glyph unicode="&#x201d;" horiz-adv-x="600" d="M319 432Q328 472 337 510T355 587T373 664T391 741Q417 741 436 741T471 741T504 741T544 741Q550 741 552 738T552 728Q537 691 523 655T495 584T467 512T437 439Q436 435 434 434T427 432Q408 432 394 432T366
432T342 432T319 432ZM84 432Q93 472 102 510T120 587T138 664T156 741Q182 741 201 741T235 741T268 741T308 741Q314 741 316 738T316 728Q301 691 287 655T259 584T231 512T202 439Q201 435 199 434T192 432Q173 432 158 432T131 432T107 432T84 432Z" />
<glyph unicode="&#x201e;" horiz-adv-x="600" d="M319 -113Q328 -73 337 -35T355 42T373 119T391 196Q417 196 436 196T471 196T504 196T544 196Q550 196 552 193T552 183Q537 146 523 110T495 39T467 -33T437 -106Q436 -110 434 -111T427 -113Q408 -113 394 -113T366
-113T342 -113T319 -113ZM84 -113Q93 -73 102 -35T120 42T138 119T156 196Q182 196 201 196T235 196T268 196T308 196Q314 196 316 193T316 183Q301 146 287 110T259 39T231 -33T202 -106Q201 -110 199 -111T192 -113Q173 -113 158 -113T131 -113T107 -113T84 -113Z"
/>
<glyph unicode="&#x2022;" horiz-adv-x="600" d="M435 165Q410 165 376 165T306 165T236 165T176 165Q171 165 168 168T165 176V436Q191 436 224 436T294 436T365 436T424 436Q429 436 432 433T435 425V165Z" />
<glyph unicode="&#x2039;" horiz-adv-x="400" d="M361 96V78Q331 78 301 78T241 78Q231 78 227 80T215 90Q211 94 195 111T157 151T113 197T73 239T50 263Q43 271 42 275T40 285Q40 295 40 305T40 325Q63 350 89 377T141 432T186 480T217 512Q224 519 229 520T243
522Q273 522 302 522T361 522V504Q319 461 286 426T225 360T168 299Q196 269 223 241T283 178T361 96Z" />
<glyph unicode="&#x203a;" horiz-adv-x="400" d="M40 505V523Q70 523 100 523T160 523Q170 523 174 521T186 511Q190 507 206 490T244 450T288 404T328 362T351 338Q358 331 359 327T361 316Q361 306 361 296T361 276Q338 251 312 224T260 169T215 121T184 89Q177
82 172 81T158 79Q128 79 99 79T40 79V96Q82 141 115 175T176 240T233 302Q206 331 179 360T118 423T40 505Z" />
</font>
</defs>
</svg>
