<?xml version="1.0" standalone="no"?>
<!DOCTYPE svg PUBLIC "-//W3C//DTD SVG 1.1//EN" "http://www.w3.org/Graphics/SVG/1.1/DTD/svg11.dtd">
<svg xmlns="http://www.w3.org/2000/svg">
<defs >
<font id="Play" horiz-adv-x="591" ><font-face
    font-family="Play"
    units-per-em="1000"
    panose-1="0 0 8 0 0 0 0 0 0 0"
    ascent="937"
    descent="-220"
    alphabetic="0" />
<glyph unicode=" " glyph-name="space" horiz-adv-x="230" />
<glyph unicode="!" glyph-name="exclam" horiz-adv-x="295" d="M60 649H235L192 188H103L60 649ZM70 138H226V0H70V138Z" />
<glyph unicode="&quot;" glyph-name="quotedbl" horiz-adv-x="443" d="M67 649H185V399H67V649ZM257 649H376V399H257V649Z" />
<glyph unicode="#" glyph-name="numbersign" horiz-adv-x="580" d="M146 193H60V272H162L184 376H60V456H200L237 639H323L286 456H350L387 639H473L436 456H520V376H419L398 272H520V193H382L343 0H257L296 193H232L193 0H107L146 193ZM312 272L334 376H269L248
272H312Z" />
<glyph unicode="$" glyph-name="dollar" horiz-adv-x="606" d="M260 -10Q179 -8 46 8V123Q119 110 155 106Q209 97 260 97V263H241Q33 263 33 433V467Q33 544 87 583T260 630V702H354V632Q462 627 541 619V512Q411 528 354 529V381H367Q477 381 525 340T573 215V185Q573
95 517 50T354 -6V-140H260V-10ZM260 528Q216 525 200 515T183 481V425Q183 383 260 381V528ZM422 113T422 153V209Q422 234 408 247T354 263V102Q422 113 422 153Z" />
<glyph unicode="%" glyph-name="percent" horiz-adv-x="855" d="M549 659H636L312 -10H225L549 659ZM144 279T109 288T55 322T37 394V513Q37 545 47 570T73 609Q87 621 110 628T156 639Q182 641 204 641Q235 641 254 639T296 630Q320 622 335 609T360 572Q370
548 370 513V394Q370 347 353 323T300 289T204 279Q144 279 109 288ZM259 355T259 384V531Q259 565 204 565Q148 565 148 531V384Q148 367 161 361T204 355Q259 355 259 384ZM592 -10T557 -1T503 33T485 105V224Q485 256 495 281T521 320Q535 332 558 339T604 350Q630
352 652 352Q683 352 702 350T744 341Q768 333 783 320T808 283Q818 259 818 224V105Q818 58 801 34T748 0T652 -10Q592 -10 557 -1ZM707 66T707 95V242Q707 276 652 276Q596 276 596 242V95Q596 66 652 66Q707 66 707 95Z" />
<glyph unicode="&amp;" glyph-name="ampersand" horiz-adv-x="656" d="M181 -10T116 22T50 122V243Q50 323 180 363L150 395Q119 429 119 467V546Q119 602 169 630T311 659Q373 659 477 642V543Q386 564 317 564Q260 564 260 533V494Q260 472 269 461L479 230V379H611V218Q611
162 575 124L594 103Q602 95 612 95H656V0H564Q516 0 496 21L489 28Q415 -10 296 -10Q181 -10 116 22ZM394 86T423 99L233 305Q200 293 200 267V145Q200 116 224 101Q248 86 314 86Q394 86 423 99Z" />
<glyph unicode="&apos;" glyph-name="quotesingle" horiz-adv-x="256" d="M69 649H187V399H69V649Z" />
<glyph unicode="(" glyph-name="parenleft" horiz-adv-x="348" d="M70 57T70 276Q70 389 102 485T201 679H337Q213 474 213 276Q213 72 338 -127H201Q70 57 70 276Z" />
<glyph unicode=")" glyph-name="parenright" horiz-adv-x="348" d="M125 72T125 276Q125 474 1 679H137Q204 582 236 486T268 276Q268 57 137 -127H0Q125 72 125 276Z" />
<glyph unicode="*" glyph-name="asterisk" horiz-adv-x="446" d="M79 372L156 457L44 481L78 581L183 537L172 649H278L268 538L369 581L401 481L292 457L367 371L278 312L223 407L167 312L79 372Z" />
<glyph unicode="+" glyph-name="plus" horiz-adv-x="580" d="M239 264H70V365H239V544H340V365H510V264H340V84H239V264Z" />
<glyph unicode="," glyph-name="comma" horiz-adv-x="256" d="M65 138H217L123 -112H19L65 138Z" />
<glyph unicode="-" glyph-name="hyphen" horiz-adv-x="388" d="M40 342H348V230H40V342Z" />
<glyph unicode="." glyph-name="period" horiz-adv-x="256" d="M50 138H206V0H50V138Z" />
<glyph unicode="/" glyph-name="slash" horiz-adv-x="431" d="M334 659H421L97 -10H10L334 659Z" />
<glyph unicode="0" glyph-name="zero" horiz-adv-x="580" d="M245 -10T217 -7T156 5Q122 15 101 33T66 87Q51 121 51 169V480Q51 526 65 561T101 616Q120 633 153 643T219 657Q257 659 289 659Q334 659 361 657T421 644Q457 633 478 615T514 563Q529 529 529 480V169Q529
123 515 88T478 34Q458 17 424 6T358 -7Q330 -10 289 -10Q245 -10 217 -7ZM333 84T351 89T375 110T381 159V490Q381 524 375 539T351 559T291 565Q248 565 230 560T205 539T199 490V159Q199 125 205 110T229 90T291 84Q333 84 351 89Z" />
<glyph unicode="1" glyph-name="one" horiz-adv-x="580" d="M262 496L85 398V521L290 649H408V0H262V496Z" />
<glyph unicode="2" glyph-name="two" horiz-adv-x="580" d="M58 148Q58 202 88 242T166 303Q204 320 255 337Q306 354 334 373T362 418V501Q362 532 337 542Q310 553 253 553Q184 553 71 528V638Q171 659 280 659Q398 659 455 623T513 503V413Q513 362 483 325T404
268Q359 249 312 234Q261 216 232 194T202 142V109H514V0H58V148Z" />
<glyph unicode="3" glyph-name="three" horiz-adv-x="580" d="M181 -10T47 5V121L79 115Q98 111 100 110L134 104Q146 102 185 98Q215 95 246 95Q304 95 326 109T349 162V237Q349 284 248 284H130V384H248Q326 384 326 441V504Q326 525 318 536T290 553T229 558Q172
558 53 546V650Q189 659 245 659Q367 659 421 631T476 532V425Q476 396 459 376T414 348Q502 317 502 251V145Q502 62 445 26T265 -10Q181 -10 47 5Z" />
<glyph unicode="4" glyph-name="four" horiz-adv-x="580" d="M326 131H26V246L293 649H458V236H528V131H458V0H326V131ZM326 236V511L151 236H326Z" />
<glyph unicode="5" glyph-name="five" horiz-adv-x="580" d="M199 -10T61 1V122Q185 99 248 99Q303 99 328 111T353 151V248Q353 275 335 286T276 298H76V649H486V537H222V405H324Q382 405 437 383Q467 370 485 343T503 280V144Q503 105 488 75T450 28Q430 13
397 4T332 -8Q296 -10 268 -10Q199 -10 61 1Z" />
<glyph unicode="6" glyph-name="six" horiz-adv-x="580" d="M244 -10T216 -7T157 6Q123 17 103 35T69 87Q55 123 55 169V471Q55 519 71 556T114 614Q136 631 173 642T245 657Q283 659 314 659Q357 659 494 649V542Q359 558 301 558Q253 558 233 553T207 534T200
482V405H307Q361 405 385 404T439 394Q471 386 486 372T514 328Q525 298 525 257V169Q525 123 511 89T475 35Q455 17 423 6T358 -7Q330 -10 289 -10Q244 -10 216 -7ZM335 87T352 92T375 111T380 162V256Q380 280 374 290T350 305T290 309H200V161Q200 127 205 112T229
92T291 87Q335 87 352 92Z" />
<glyph unicode="7" glyph-name="seven" horiz-adv-x="580" d="M355 535H40V649H516V549L267 0H105L355 535Z" />
<glyph unicode="8" glyph-name="eight" horiz-adv-x="580" d="M161 -10T102 22T42 133V245Q42 277 74 305T150 343V347Q116 351 90 375T64 430V523Q64 593 115 626T290 659Q413 659 464 626T516 523V430Q516 399 490 375T430 347V343Q474 333 506 305T538 245V133Q538
52 477 21Q416 -10 290 -10Q161 -10 102 22ZM334 382T351 394T369 435V510Q369 539 352 551T290 564Q246 564 229 552T211 510V435Q211 409 228 395Q244 382 290 382Q334 382 351 394ZM333 85T352 90T378 107T385 145V233Q385 262 368 276Q351 289 291 289Q234
289 215 277T195 233V145Q195 119 201 107T227 90T290 85Q333 85 352 90Z" />
<glyph unicode="9" glyph-name="nine" horiz-adv-x="580" d="M185 -10T86 0V104Q214 90 269 90Q320 90 343 97T373 123T381 183V244H273Q219 244 195 245T141 255Q110 263 94 278T66 322Q55 352 55 392V480Q55 526 69 560T105 615Q125 632 157 643T222 657Q260
659 291 659Q338 659 365 657T424 644Q457 633 477 615T512 562Q526 526 526 480V178Q526 77 466 34T271 -10Q185 -10 86 0ZM381 341V493Q381 527 376 540T353 557T289 561Q247 561 230 557T206 539T200 493V394Q200 370 206 360T230 345T290 341H381Z" />
<glyph unicode=":" glyph-name="colon" horiz-adv-x="256" d="M50 484H206V346H50V484ZM50 138H206V0H50V138Z" />
<glyph unicode=";" glyph-name="semicolon" horiz-adv-x="256" d="M50 484H206V346H50V484ZM65 138H217L123 -112H19L65 138Z" />
<glyph unicode="&lt;" glyph-name="less" horiz-adv-x="580" d="M70 259V371L510 524V413L184 315L510 217V106L70 259Z" />
<glyph unicode="=" glyph-name="equal" horiz-adv-x="580" d="M70 465H510V364H70V465ZM70 265H510V164H70V265Z" />
<glyph unicode="&gt;" glyph-name="greater" horiz-adv-x="580" d="M70 217L396 315L70 413V524L510 371V259L70 106V217Z" />
<glyph unicode="?" glyph-name="question" horiz-adv-x="529" d="M181 246Q181 283 196 311T236 358Q254 371 282 388Q337 422 337 463V510Q337 538 318 548Q299 558 239 558Q193 558 40 534V643Q164 659 258 659Q309 659 340 657T401 646Q431 637 449 623T478
583Q489 556 489 523V427Q489 399 473 375T429 332Q395 310 378 300Q317 262 317 233V188H181V246ZM171 138H327V0H171V138Z" />
<glyph unicode="@" glyph-name="at" horiz-adv-x="787" d="M56 -10T56 166V473Q56 511 72 542T118 594Q176 634 253 647Q322 659 388 659Q444 659 495 652T603 628Q663 610 698 570T733 474V231Q733 148 604 148H573Q536 148 505 158T469 183Q453 146 375 146Q315
146 284 156T240 191T226 268V381Q226 430 241 456T291 492T395 502Q463 502 496 492T541 457T554 381V238Q554 224 562 219T593 214Q615 214 622 218T630 238V471Q630 581 389 581Q352 581 328 580T272 572Q237 565 216 554T180 522Q164 500 164 471V174Q164 66
390 66Q456 66 630 90V13Q454 -10 388 -10Q56 -10 56 166ZM397 214Q423 214 433 217T447 232T451 271V375Q451 405 447 417T432 434T392 438Q365 438 354 434T338 417T334 375V261Q334 237 337 228T349 217T386 214H397Z" />
<glyph unicode="A" glyph-name="A" horiz-adv-x="668" d="M242 649H432L666 0H508L450 171H213L156 0H2L242 649ZM416 275L334 519H330L248 275H416Z" />
<glyph unicode="B" glyph-name="B" horiz-adv-x="635" d="M70 649H333Q426 649 476 636T548 593T569 510V430Q569 403 548 379T497 346V341Q535 337 566 309T598 245V145Q598 66 535 33T340 0H70V649ZM333 385Q370 385 388 391T412 410T419 450V482Q419 505 413
516T389 533T330 538H226V385H333ZM337 111Q394 111 418 124T442 166V218Q442 254 424 269T358 284H226V111H337Z" />
<glyph unicode="C" glyph-name="C" horiz-adv-x="597" d="M313 -10T279 -6T203 9Q157 21 127 40T77 95Q56 130 56 178V463Q56 659 357 659Q434 659 563 637V520Q447 548 359 548Q322 548 302 546T259 536Q212 520 212 465V189Q212 101 373 101Q442 101 567 130V12Q460
-10 357 -10Q313 -10 279 -6Z" />
<glyph unicode="D" glyph-name="D" horiz-adv-x="710" d="M70 649H346Q460 649 526 632T623 571T654 452V188Q654 114 625 74T530 17T347 0H70V649ZM340 111Q404 111 436 116T483 138T498 188V455Q498 501 462 519T345 538H226V111H340Z" />
<glyph unicode="E" glyph-name="E" horiz-adv-x="610" d="M70 649H565V538H226V389H532V278H226V111H575V0H70V649Z" />
<glyph unicode="F" glyph-name="F" horiz-adv-x="610" d="M70 649H575V538H226V379H542V268H226V0H70V649Z" />
<glyph unicode="G" glyph-name="G" horiz-adv-x="705" d="M323 -10T280 -5T195 12Q150 24 121 44T74 98Q56 133 56 178V448Q56 497 76 536T130 599Q162 620 206 635T294 655Q330 659 381 659Q519 659 645 638V520Q529 548 381 548Q212 548 212 450V189Q212 141
257 121T395 101Q444 101 500 116V267H394V369H649V32Q599 14 522 2T379 -10Q323 -10 280 -5Z" />
<glyph unicode="H" glyph-name="H" horiz-adv-x="728" d="M70 649H226V389H502V649H658V0H502V278H226V0H70V649Z" />
<glyph unicode="I" glyph-name="I" horiz-adv-x="296" d="M70 649H226V0H70V649Z" />
<glyph unicode="J" glyph-name="J" horiz-adv-x="445" d="M86 -10T19 0V114Q90 101 142 101Q221 101 221 172V649H377V177Q377 75 322 33T154 -10Q86 -10 19 0Z" />
<glyph unicode="K" glyph-name="K" horiz-adv-x="682" d="M70 649H226V0H70V649ZM230 344L473 649H656L410 347L683 0H493L230 344Z" />
<glyph unicode="L" glyph-name="L" horiz-adv-x="580" d="M70 649H226V111H545V0H70V649Z" />
<glyph unicode="M" glyph-name="M" horiz-adv-x="889" d="M70 649H292L452 185L610 649H819V0H678V480H675L511 0H386L217 480H213V0H70V649Z" />
<glyph unicode="N" glyph-name="N" horiz-adv-x="751" d="M70 649H228L542 206V649H681V0H523L209 450V0H70V649Z" />
<glyph unicode="O" glyph-name="O" horiz-adv-x="728" d="M309 -10T264 -3T169 21Q116 39 86 79T56 178V462Q56 510 77 548T133 608Q163 627 207 640T289 656Q324 659 363 659Q409 659 443 656T519 641Q567 627 598 607T650 551Q672 514 672 462V178Q672 124 644
85T565 26Q475 -10 363 -10Q309 -10 264 -3ZM398 101T420 103T467 113Q491 120 503 136T516 178V463Q516 509 479 528T364 548Q286 548 249 529T212 463V178Q212 153 225 137T263 113Q287 106 309 104T365 101Q398 101 420 103Z" />
<glyph unicode="P" glyph-name="P" horiz-adv-x="627" d="M70 649H330Q425 649 480 636T561 591T587 500V377Q587 313 560 277T473 226T312 211H226V0H70V649ZM325 318Q386 318 411 332T436 382V486Q436 518 412 528Q389 538 323 538H226V318H325Z" />
<glyph unicode="Q" glyph-name="Q" horiz-adv-x="740" d="M309 -10T264 -3T169 21Q116 39 86 79T56 178V462Q56 510 77 548T133 608Q163 627 207 640T289 656Q324 659 363 659Q409 659 443 656T519 641Q567 627 598 607T650 551Q672 514 672 462V285Q672 137 590
112H732V0H519Q508 0 451 -5Q394 -10 363 -10Q309 -10 264 -3ZM398 101T420 103T467 113Q491 120 503 136T516 178V463Q516 509 479 528T364 548Q286 548 249 529T212 463V178Q212 153 225 137T263 113Q287 106 309 104T365 101Q398 101 420 103Z" />
<glyph unicode="R" glyph-name="R" horiz-adv-x="668" d="M70 649H362Q492 649 550 618T608 512V398Q608 341 568 309T460 267L648 0H468L298 255H226V0H70V649ZM360 358Q415 358 435 372T455 429V475Q455 511 434 524T360 538H226V358H360Z" />
<glyph unicode="S" glyph-name="S" horiz-adv-x="606" d="M187 -10T50 8V127Q220 101 282 101Q412 101 412 168V210Q412 242 394 259T327 276H251Q37 276 37 446V494Q37 579 108 619T333 659Q413 659 536 646V530Q385 548 328 548Q249 548 222 535Q193 521 193
491V445Q193 394 279 394H357Q468 394 518 353T568 228V185Q568 69 485 28Q445 7 397 -1T280 -10Q187 -10 50 8Z" />
<glyph unicode="T" glyph-name="T" horiz-adv-x="595" d="M220 538H20V649H575V538H376V0H220V538Z" />
<glyph unicode="U" glyph-name="U" horiz-adv-x="699" d="M68 -10T68 178V649H224V178Q224 134 252 118T351 101Q420 101 447 117T475 178V649H631V178Q631 -10 349 -10Q68 -10 68 178Z" />
<glyph unicode="V" glyph-name="V" horiz-adv-x="664" d="M0 649H158L332 130H336L510 649H664L424 0H233L0 649Z" />
<glyph unicode="W" glyph-name="W" horiz-adv-x="985" d="M8 649H170L296 175L422 649H567L703 175L819 649H977L769 0H615L491 471L363 0H209L8 649Z" />
<glyph unicode="X" glyph-name="X" horiz-adv-x="677" d="M249 331L20 649H200L339 433L477 649H657L428 331L668 0H487L339 230L190 0H10L249 331Z" />
<glyph unicode="Y" glyph-name="Y" horiz-adv-x="644" d="M243 260L8 649H185L322 395L458 649H636L399 262V0H243V260Z" />
<glyph unicode="Z" glyph-name="Z" horiz-adv-x="612" d="M40 95L378 538H50V649H570V555L232 112H576V0H40V95Z" />
<glyph unicode="[" glyph-name="bracketleft" horiz-adv-x="372" d="M100 736H362V649H243V-103H362V-190H100V736Z" />
<glyph unicode="\" glyph-name="backslash" horiz-adv-x="431" d="M10 659H97L421 -10H334L10 659Z" />
<glyph unicode="]" glyph-name="bracketright" horiz-adv-x="372" d="M10 -103H129V649H10V736H272V-190H10V-103Z" />
<glyph unicode="^" glyph-name="asciicircum" horiz-adv-x="341" d="M76 680H263L321 453H223L170 640L118 453H20L76 680Z" />
<glyph unicode="_" glyph-name="underscore" horiz-adv-x="580" d="M71 -60H509V-161H71V-60Z" />
<glyph unicode="`" glyph-name="grave" horiz-adv-x="449" d="M100 680H259L349 553H225L100 680Z" />
<glyph unicode="a" glyph-name="a" horiz-adv-x="564" d="M133 -10T100 2T53 47T39 145Q39 203 53 236T100 283T190 298H354V331Q354 362 346 377T315 398T247 404Q185 404 77 392V484Q156 494 262 494Q355 494 405 480T478 432T500 333V0H357V44Q340 15 311 3Q282
-10 201 -10Q133 -10 100 2ZM302 81T321 84Q335 86 340 90T350 103Q354 110 354 124V218H254Q220 218 206 214T187 196T182 148Q182 115 187 102T206 85T258 81Q302 81 321 84Z" />
<glyph unicode="b" glyph-name="b" horiz-adv-x="610" d="M217 -10T164 9T87 67T64 172V700H210V436Q223 469 258 481T367 494Q430 494 468 484T527 452Q546 430 553 404T560 331V172Q560 74 501 32T309 -10Q217 -10 164 9ZM354 81T376 87T406 108T414 153V332Q414
365 407 379T379 399T310 404Q269 404 248 397T218 375T210 332V153Q210 123 217 108T246 87T311 81Q354 81 376 87Z" />
<glyph unicode="c" glyph-name="c" horiz-adv-x="482" d="M262 -10T240 -9T186 -3Q154 1 134 11T91 41Q50 75 50 157V318Q50 384 80 428Q91 444 112 457T156 479Q174 485 204 489T257 494H310Q366 494 457 476V380Q354 404 299 404Q198 404 198 336V158Q198 81
309 81Q363 81 464 103V7Q373 -10 300 -10Q262 -10 240 -9Z" />
<glyph unicode="d" glyph-name="d" horiz-adv-x="608" d="M164 -10T123 2T66 50T50 159V348Q50 428 95 461T243 494Q291 494 318 489T363 470T398 430V700H544V0H403V55Q385 26 371 15T330 -3Q303 -10 250 -10Q164 -10 123 2ZM336 81T359 86T390 104T398 145V340Q398
365 390 378T360 398T295 404Q249 404 229 399T203 380T196 335V150Q196 122 202 108T228 87T287 81Q336 81 359 86Z" />
<glyph unicode="e" glyph-name="e" horiz-adv-x="559" d="M50 -10T50 147V321Q50 412 108 453T289 494Q404 494 457 455T511 321V203H197V159Q197 117 227 99T335 81Q407 81 497 102V9Q408 -10 307 -10Q50 -10 50 147ZM372 286V356Q372 380 353 392T287 404Q234
404 216 392Q197 379 197 356V286H372Z" />
<glyph unicode="f" glyph-name="f" horiz-adv-x="388" d="M101 394H10V484H101V557Q101 616 120 649T180 696T289 710Q326 710 398 702V612Q334 620 312 620Q275 620 261 609T247 565V484H380V394H247V0H101V394Z" />
<glyph unicode="g" glyph-name="g" horiz-adv-x="608" d="M142 -220T85 -213V-115Q179 -128 260 -128Q334 -128 366 -104T398 -24V54Q380 28 363 15T319 -4T243 -10Q172 -10 130 3T69 48T50 136V325Q50 392 67 428T127 479T250 494Q302 494 330 488Q357 482 371
470T403 429V484H544V-26Q544 -129 474 -174T260 -220Q142 -220 85 -213ZM338 81T359 87T389 106T398 145V340Q398 367 390 380T359 399T287 404Q247 404 228 398T203 378T196 335V150Q196 119 202 106T229 87T295 81Q338 81 359 87Z" />
<glyph unicode="h" glyph-name="h" horiz-adv-x="595" d="M64 700H210V425Q224 494 363 494Q456 494 493 461T531 355V0H385V338Q385 366 380 379T358 398T307 404Q264 404 244 399T217 381T210 338V0H64V700Z" />
<glyph unicode="i" glyph-name="i" horiz-adv-x="282" d="M68 659H214V541H68V659ZM68 484H214V0H68V484Z" />
<glyph unicode="j" glyph-name="j" horiz-adv-x="274" d="M64 659H210V541H64V659ZM-38 -218V-123Q-34 -124 -20 -124Q18 -124 35 -119T58 -96T64 -40V484H210V-73Q210 -156 162 -188T9 -220L-38 -218Z" />
<glyph unicode="k" glyph-name="k" horiz-adv-x="540" d="M64 700H210V0H64V700ZM216 272L375 484H542L374 273L556 0H391L216 272Z" />
<glyph unicode="l" glyph-name="l" horiz-adv-x="282" d="M68 700H214V0H68V700Z" />
<glyph unicode="m" glyph-name="m" horiz-adv-x="876" d="M64 484H210V425Q224 494 353 494Q421 494 456 477T503 422Q515 460 549 477T654 494Q717 494 751 480T798 435T812 355V0H666V335Q666 367 662 380T645 399T598 404Q557 404 540 399T517 381T511 335V0H365V335Q365
367 361 380T344 399T297 404Q256 404 239 399T216 381T210 335V0H64V484Z" />
<glyph unicode="n" glyph-name="n" horiz-adv-x="595" d="M64 484H208V425Q225 494 363 494Q456 494 493 461T531 355V0H385V336Q385 364 380 378T358 398T307 404Q264 404 244 399T217 379T210 336V0H64V484Z" />
<glyph unicode="o" glyph-name="o" horiz-adv-x="592" d="M251 -10T222 -7T160 5Q124 15 102 33T65 86Q50 119 50 166V309Q50 357 65 393T104 449Q125 466 159 477T227 492Q265 494 296 494Q342 494 369 492T430 479Q466 468 488 449T527 395Q542 359 542 309V166Q542
121 528 87T490 34Q470 17 436 7T368 -7Q338 -10 296 -10Q251 -10 222 -7ZM337 81T358 87T387 108T396 149V332Q396 372 375 388T296 404Q238 404 217 388T196 332V149Q196 122 204 108T234 88T296 81Q337 81 358 87Z" />
<glyph unicode="p" glyph-name="p" horiz-adv-x="609" d="M64 484H202V436Q215 468 253 481T366 494Q429 494 467 484T526 452Q545 430 552 404T559 331V172Q559 100 538 61T474 6T355 -10Q283 -10 251 2T210 49V-208H64V484ZM353 81T375 87T405 108T413 153V332Q413
365 406 379T378 399T309 404Q268 404 247 397T218 375T210 332V153Q210 123 217 108T246 87T310 81Q353 81 375 87Z" />
<glyph unicode="q" glyph-name="q" horiz-adv-x="608" d="M398 55Q381 26 366 13T326 -5T250 -10Q164 -10 123 2T66 50T50 159V328Q50 397 70 431T142 480T297 494Q360 494 400 490T467 475Q497 462 511 450T533 415Q540 391 542 371T544 310V-208H398V55ZM336
81T359 86T390 104T398 145V337Q398 362 390 376T359 397T295 404Q249 404 229 399T203 381T196 337V150Q196 122 202 108T228 87T287 81Q336 81 359 86Z" />
<glyph unicode="r" glyph-name="r" horiz-adv-x="397" d="M64 484H203V399Q203 422 222 444T270 480T329 494H381V373H331Q269 373 240 354T210 291V0H64V484Z" />
<glyph unicode="s" glyph-name="s" horiz-adv-x="525" d="M167 -10T54 5V102Q193 81 247 81Q293 81 315 90T337 123V153Q337 178 323 188T268 199H205Q128 199 86 229T44 319V378Q44 441 104 467T285 494Q333 494 457 485V392Q301 404 281 404Q222 404 204 396Q188
387 188 363V337Q188 324 201 315T239 305H303Q481 305 481 189V128Q481 93 468 67T434 26Q414 12 383 4T317 -7Q286 -10 245 -10Q167 -10 54 5Z" />
<glyph unicode="t" glyph-name="t" horiz-adv-x="407" d="M269 -10T244 -7T194 5Q166 14 149 30T120 74Q108 103 108 141V394H10V484H108V624H254V484H387V394H254V166Q254 131 260 114T283 89T335 81Q349 81 387 86V-5Q340 -10 306 -10Q269 -10 244 -7Z" />
<glyph unicode="u" glyph-name="u" horiz-adv-x="595" d="M139 -10T102 23T64 129V484H210V149Q210 121 215 107T237 87T288 81Q331 81 351 86T378 106T385 149V484H531V0H387V59Q371 -10 232 -10Q139 -10 102 23Z" />
<glyph unicode="v" glyph-name="v" horiz-adv-x="510" d="M0 484H155L261 149L363 484H510L332 0H184L0 484Z" />
<glyph unicode="w" glyph-name="w" horiz-adv-x="822" d="M8 484H157L247 133L343 484H486L586 133L672 484H814L656 0H508L412 327L318 0H170L8 484Z" />
<glyph unicode="x" glyph-name="x" horiz-adv-x="568" d="M200 248L20 484H189L284 345L380 484H549L368 248L559 0H390L284 152L179 0H10L200 248Z" />
<glyph unicode="y" glyph-name="y" horiz-adv-x="534" d="M201 4L8 484H167L276 142L375 484H526L261 -208H113L201 4Z" />
<glyph unicode="z" glyph-name="z" horiz-adv-x="512" d="M40 78L284 389H50V484H470V406L226 95H476V0H40V78Z" />
<glyph unicode="{" glyph-name="braceleft" horiz-adv-x="384" d="M227 -190T203 -184T154 -161Q128 -143 114 -107T100 -18V172Q100 213 96 228T79 248T31 253H8V345H31Q66 345 79 350T96 370T100 426V564Q100 617 114 653T154 707Q179 724 203 730T261 736H364V649H304Q278
649 261 632T243 584V441Q243 379 226 348T164 301V297Q209 282 226 251T243 157V-38Q243 -68 260 -85T304 -103H364V-190H261Q227 -190 203 -184Z" />
<glyph unicode="|" glyph-name="bar" horiz-adv-x="265" d="M104 659H161V-10H104V659Z" />
<glyph unicode="}" glyph-name="braceright" horiz-adv-x="384" d="M20 -103H80Q106 -103 123 -86T141 -38V157Q141 220 158 251T220 297V301Q175 316 158 347T141 441V584Q141 614 124 631T80 649H20V736H123Q157 736 182 730T231 707Q284 671 284 564V426Q284
385 288 370T305 350T353 345H376V253H353Q318 253 305 248T288 228T284 172V-18Q284 -125 231 -161Q207 -178 182 -184T123 -190H20V-103Z" />
<glyph unicode="~" glyph-name="asciitilde" horiz-adv-x="580" d="M68 326Q106 371 190 371Q227 371 299 342Q370 312 393 312Q474 312 512 374V273Q476 227 389 227Q358 227 287 257Q215 286 186 286Q144 286 117 272T68 225V326Z" />
<glyph unicode="&#xa0;" glyph-name="uni00A0" horiz-adv-x="230" />
<glyph unicode="&#xa1;" glyph-name="exclamdown" horiz-adv-x="295" d="M70 484H226V346H70V484ZM103 296H192L235 -165H60L103 296Z" />
<glyph unicode="&#xa2;" glyph-name="cent" horiz-adv-x="464" d="M244 73Q205 74 179 77T124 90Q94 100 76 117T45 166Q32 196 32 240V401Q32 510 98 546Q130 563 162 569T244 577V659H326V575Q372 572 439 559V462Q336 486 272 486Q229 486 211 483T187 467T180
426V218Q180 183 200 175Q220 166 282 166Q345 166 446 188V90Q388 79 326 75V-10H244V73Z" />
<glyph unicode="&#xa3;" glyph-name="sterling" horiz-adv-x="580" d="M42 111H143V283H42V385H143V460Q143 522 158 562T205 623Q236 643 273 651T371 659Q418 659 490 651V550Q431 559 395 559Q343 559 323 554T296 533T289 475V385H460V283H289V111H538V0H42V111Z" />
<glyph unicode="&#xa4;" glyph-name="currency" horiz-adv-x="520" d="M177 89T100 148L46 94L20 120L74 174Q12 251 12 337Q12 423 74 500L20 554L46 580L100 526Q177 585 258 585Q348 585 421 528L475 582L501 556L447 502Q509 425 509 339Q509 253 447 176L501
122L475 96L421 150Q344 89 258 89Q177 89 100 148ZM318 129T366 157T441 234T469 339Q469 394 441 441T366 517T263 545Q205 545 157 518T80 443T52 337Q52 280 80 233T156 157T262 129Q318 129 366 157Z" />
<glyph unicode="&#xa5;" glyph-name="yen" horiz-adv-x="647" d="M247 95H55V196H247V263H55V364H185L10 649H187L324 395L460 649H638L461 364H593V263H400V196H593V95H400V0H247V95Z" />
<glyph unicode="&#xa6;" glyph-name="brokenbar" horiz-adv-x="265" d="M105 649H160V298H105V649ZM105 161H160V-190H105V161Z" />
<glyph unicode="&#xa7;" glyph-name="section" horiz-adv-x="580" d="M194 -115T68 -101V8Q190 -13 274 -13Q316 -13 344 -7Q377 -1 377 26V74Q377 88 369 98Q358 111 316 111H229Q139 111 89 143T38 237V317Q38 342 58 366T104 400Q85 410 72 430T58 471V537Q58
602 121 630T312 659Q335 659 497 650V548Q336 560 308 560Q261 560 235 554Q210 548 207 543Q203 539 203 529V478Q203 449 265 449H360Q448 449 495 416T542 316V269Q542 234 522 202T475 161Q495 155 508 135T522 92V30Q522 -17 501 -47T441 -92Q402 -105 365
-110T272 -115Q194 -115 68 -101ZM342 216Q377 216 387 223Q397 229 397 245V317Q397 345 326 345H217Q183 345 183 319V235Q183 216 238 216H342Z" />
<glyph unicode="&#xa8;" glyph-name="dieresis" horiz-adv-x="516" d="M100 683H226V565H100V683ZM290 683H416V565H290V683Z" />
<glyph unicode="&#xa9;" glyph-name="copyright" horiz-adv-x="777" d="M346 -10T306 -6T221 9Q169 21 134 40T75 90Q50 122 50 166V473Q50 512 67 543T114 594Q176 634 254 647Q327 659 392 659Q438 659 476 655T560 640Q612 627 646 608T703 555Q727 521 727
474V166Q727 125 704 92T643 39Q608 22 561 10T472 -6Q436 -10 392 -10Q346 -10 306 -6ZM430 72T451 73T504 80Q540 85 562 95T601 126Q618 146 618 174V471Q618 581 393 581Q158 581 158 471V174Q158 72 394 72Q430 72 451 73ZM331 152T297 163T248 200T233 273V389Q233
451 271 480T392 510Q474 510 507 484T541 399V372H438V391Q438 411 435 419T422 431T389 434Q361 434 351 424T341 381V281Q341 257 344 246T357 232T389 228Q413 228 422 230T435 241T438 271V291H541V263Q541 204 509 178T392 152Q331 152 297 163Z" />
<glyph unicode="&#xaa;" glyph-name="ordfeminine" horiz-adv-x="327" d="M77 407T57 423T37 484Q37 526 57 543T122 561H204V592Q204 604 196 608T166 613L56 609V655Q131 659 173 659Q236 659 262 641T288 578V412H206V434Q197 418 182 413T128 407Q77 407 57
423ZM185 448T195 451Q204 454 204 469V521H154Q131 521 125 514T118 483Q118 459 124 454T157 448Q185 448 195 451ZM39 376H287V310H39V376Z" />
<glyph unicode="&#xab;" glyph-name="guillemotleft" horiz-adv-x="526" d="M40 262L140 454H266L174 262L266 70H140L40 262ZM260 262L360 454H486L394 262L486 70H360L260 262Z" />
<glyph unicode="&#xac;" glyph-name="logicalnot" horiz-adv-x="580" d="M409 264H70V365H510V84H409V264Z" />
<glyph unicode="&#xad;" glyph-name="uni00AD" horiz-adv-x="388" d="M40 342H348V230H40V342Z" />
<glyph unicode="&#xae;" glyph-name="registered" horiz-adv-x="777" d="M346 -10T306 -6T221 9Q169 21 134 40T75 90Q50 122 50 166V473Q50 512 67 543T114 594Q176 634 254 647Q327 659 392 659Q438 659 476 655T560 640Q612 627 646 608T703 555Q727 521 727
474V166Q727 125 704 92T643 39Q608 22 561 10T472 -6Q436 -10 392 -10Q346 -10 306 -6ZM430 72T451 73T504 80Q540 85 562 95T601 126Q618 146 618 174V471Q618 581 393 581Q158 581 158 471V174Q158 72 394 72Q430 72 451 73ZM251 509H398Q453 509 482 502T523
479T535 433V368Q535 334 519 319T464 293L549 140H443L371 286H349V140H251V509ZM396 344Q423 344 430 351T437 383V417Q437 438 430 444T401 451H349V344H396Z" />
<glyph unicode="&#xaf;" glyph-name="overscore" horiz-adv-x="478" d="M100 649H378V560H100V649Z" />
<glyph unicode="&#xb0;" glyph-name="degree" horiz-adv-x="454" d="M183 319T155 323T98 338Q40 361 40 434V543Q40 574 52 598T83 636Q98 646 126 652T177 660Q189 661 227 661Q263 661 280 660T325 653Q355 647 371 636T401 601Q414 578 414 543V434Q414 361
357 338Q329 327 300 323T227 319Q183 319 155 323ZM272 395T288 404Q303 412 303 434V541Q303 568 288 576T227 585Q181 585 166 577T151 541V434Q151 411 167 404Q182 395 227 395Q272 395 288 404Z" />
<glyph unicode="&#xb1;" glyph-name="plusminus" horiz-adv-x="580" d="M239 264H70V365H239V544H340V365H510V264H340V134H239V264ZM70 101H510V0H70V101Z" />
<glyph unicode="&#xb2;" glyph-name="uni00B2" horiz-adv-x="378" d="M27 361Q27 393 46 417T94 454Q126 467 150 475Q183 486 200 495T217 518V556Q217 577 162 577Q137 577 35 560V642Q112 655 180 655Q261 655 300 633T339 557V515Q339 478 311 451T242 414Q200
404 172 390T144 358V353H340V273H27V361Z" />
<glyph unicode="&#xb3;" glyph-name="uni00B3" horiz-adv-x="378" d="M103 269T51 276Q43 276 36 277L22 278V366L52 360Q114 347 159 347Q189 347 200 353T211 377V411Q211 429 160 429H73V504H160Q196 504 196 529V557Q196 571 187 575Q177 580 149 580Q109
580 24 572V650L66 652Q103 655 158 655Q243 655 280 638T317 573V520Q317 496 291 476Q333 457 333 419V368Q333 315 295 292T171 269Q103 269 51 276Z" />
<glyph unicode="&#xb4;" glyph-name="acute" horiz-adv-x="449" d="M190 680H349L224 553H100L190 680Z" />
<glyph unicode="&#xb5;" glyph-name="uni00B5" horiz-adv-x="595" d="M64 484H210V149Q210 121 215 107T237 87T288 81Q331 81 351 86T378 106T385 149V484H531V0H387V59Q371 -10 232 -10L210 -8V-208H64V484Z" />
<glyph unicode="&#xb6;" glyph-name="paragraph" horiz-adv-x="459" d="M199 352Q130 352 97 363T52 405T40 501Q40 560 49 591T82 636T147 649H419V633L396 616Q375 600 375 579V0H322V606H252V0H199V352Z" />
<glyph unicode="&#xb7;" glyph-name="middot" horiz-adv-x="256" d="M50 400H197V262H50V400Z" />
<glyph unicode="&#xb8;" glyph-name="cedilla" horiz-adv-x="411" d="M135 -220T100 -197L122 -151Q152 -169 184 -169Q231 -169 231 -134Q231 -96 156 -96H116Q117 -93 148 -48Q179 -3 180 0H250L214 -50Q258 -53 284 -72T311 -129Q311 -172 276 -196T191 -220Q135
-220 100 -197Z" />
<glyph unicode="&#xb9;" glyph-name="uni00B9" horiz-adv-x="378" d="M153 536L42 479V571L179 649H272V273H153V536Z" />
<glyph unicode="&#xba;" glyph-name="ordmasculine" horiz-adv-x="347" d="M145 407T126 409T86 420Q40 437 40 495V566Q40 627 87 646Q108 654 127 656T174 659Q202 659 221 657T262 646Q308 628 308 566V495Q308 437 262 420Q241 412 222 410T174 407Q145 407
126 409ZM204 451T214 457T224 483V580Q224 601 214 608T174 616Q145 616 135 609T124 580V483Q124 464 134 458T174 451Q204 451 214 457ZM50 376H298V310H50V376Z" />
<glyph unicode="&#xbb;" glyph-name="guillemotright" horiz-adv-x="526" d="M132 262L40 454H166L266 262L166 70H40L132 262ZM352 262L260 454H386L486 262L386 70H260L352 262Z" />
<glyph unicode="&#xbc;" glyph-name="onequarter" horiz-adv-x="956" d="M225 536L114 479V571L251 649H344V273H225V536ZM624 649H725L333 0H232L624 649ZM750 68H562V144L735 376H860V146H903V68H860V0H750V68ZM750 146V267L664 146H750Z" />
<glyph unicode="&#xbd;" glyph-name="onehalf" horiz-adv-x="956" d="M225 536L114 479V571L251 649H344V273H225V536ZM624 649H725L333 0H232L624 649ZM581 88Q581 120 600 144T648 181Q679 194 704 202Q737 213 754 222T771 245V283Q771 304 716 304Q691 304
589 287V369Q666 382 734 382Q815 382 854 360T893 284V242Q893 205 865 178T796 141Q754 131 726 117T698 85V80H894V0H581V88Z" />
<glyph unicode="&#xbe;" glyph-name="threequarters" horiz-adv-x="956" d="M103 269T51 276Q43 276 36 277L22 278V366L52 360Q114 347 159 347Q189 347 200 353T211 377V411Q211 429 160 429H73V504H160Q196 504 196 529V557Q196 571 187 575Q177 580 149 580Q109
580 24 572V650L66 652Q103 655 158 655Q243 655 280 638T317 573V520Q317 496 291 476Q333 457 333 419V368Q333 315 295 292T171 269Q103 269 51 276ZM624 649H725L333 0H232L624 649ZM750 68H562V144L735 376H860V146H903V68H860V0H750V68ZM750 146V267L664
146H750Z" />
<glyph unicode="&#xbf;" glyph-name="questiondown" horiz-adv-x="529" d="M202 484H358V346H202V484ZM220 -175T189 -172T129 -161Q98 -153 80 -139T51 -99Q40 -72 40 -39V57Q40 85 56 109T101 152L152 185Q212 220 212 251V296H348V238Q348 202 333 174T293
127Q268 108 247 96Q192 62 192 21V-26Q192 -53 211 -63Q231 -74 290 -74Q336 -74 489 -50V-159Q365 -175 271 -175Q220 -175 189 -172Z" />
<glyph unicode="&#xc0;" glyph-name="Agrave" horiz-adv-x="668" d="M242 649H432L666 0H508L450 171H213L156 0H2L242 649ZM416 275L334 519H330L248 275H416ZM168 840H327L417 713H293L168 840Z" />
<glyph unicode="&#xc1;" glyph-name="Aacute" horiz-adv-x="668" d="M242 649H432L666 0H508L450 171H213L156 0H2L242 649ZM416 275L334 519H330L248 275H416ZM374 840H533L408 713H284L374 840Z" />
<glyph unicode="&#xc2;" glyph-name="Acircumflex" horiz-adv-x="668" d="M242 649H432L666 0H508L450 171H213L156 0H2L242 649ZM416 275L334 519H330L248 275H416ZM239 840H426L484 713H386L333 800L281 713H183L239 840Z" />
<glyph unicode="&#xc3;" glyph-name="Atilde" horiz-adv-x="668" d="M242 649H432L666 0H508L450 171H213L156 0H2L242 649ZM416 275L334 519H330L248 275H416ZM363 716T319 737L277 757Q242 757 241 727H168Q169 784 198 808T284 833Q313 833 350 814Q387 795
394 795Q427 795 427 830H499Q497 716 389 716Q363 716 319 737Z" />
<glyph unicode="&#xc4;" glyph-name="Adieresis" horiz-adv-x="668" d="M175 833H301V715H175V833ZM365 833H491V715H365V833ZM242 649H432L666 0H508L450 171H213L156 0H2L242 649ZM416 275L334 519H330L248 275H416Z" />
<glyph unicode="&#xc5;" glyph-name="Aring" horiz-adv-x="652" d="M214 571Q176 594 176 649V681Q176 752 227 771Q252 780 274 782T335 785Q374 785 396 783T443 771Q494 752 494 681V649Q494 596 460 574L667 0H509L451 171H214L156 0H3L214 571ZM377 603T391
610T405 642V679Q405 699 400 708T381 720T335 723Q303 723 289 720T270 708T265 679V642Q265 618 279 611T335 603Q377 603 391 610ZM417 275L335 519H330L248 275H417Z" />
<glyph unicode="&#xc6;" glyph-name="AE" horiz-adv-x="990" d="M330 649H945V538H623V389H912V278H623V111H955V0H470V171H245L166 0H0L330 649ZM470 275V538H413L292 275H470Z" />
<glyph unicode="&#xc7;" glyph-name="Ccedilla" horiz-adv-x="597" d="M278 -220T243 -197L265 -151Q295 -169 327 -169Q374 -169 374 -134Q374 -96 299 -96H259L271 -76Q275 -71 297 -39L317 -9Q56 5 56 178V463Q56 659 357 659Q434 659 563 637V520Q447 548
359 548Q322 548 302 546T259 536Q212 520 212 465V189Q212 101 373 101Q442 101 567 130V12Q459 -9 386 -10L357 -50Q401 -53 427 -72T454 -129Q454 -172 419 -196T334 -220Q278 -220 243 -197Z" />
<glyph unicode="&#xc8;" glyph-name="Egrave" horiz-adv-x="610" d="M70 649H565V538H226V389H532V278H226V111H575V0H70V649ZM139 840H298L388 713H264L139 840Z" />
<glyph unicode="&#xc9;" glyph-name="Eacute" horiz-adv-x="610" d="M70 649H565V538H226V389H532V278H226V111H575V0H70V649ZM345 840H504L379 713H255L345 840Z" />
<glyph unicode="&#xca;" glyph-name="Ecircumflex" horiz-adv-x="610" d="M70 649H565V538H226V389H532V278H226V111H575V0H70V649ZM210 840H397L455 713H357L304 800L252 713H154L210 840Z" />
<glyph unicode="&#xcb;" glyph-name="Edieresis" horiz-adv-x="610" d="M147 848H273V730H147V848ZM337 848H463V730H337V848ZM70 649H565V538H226V389H532V278H226V111H575V0H70V649Z" />
<glyph unicode="&#xcc;" glyph-name="Igrave" horiz-adv-x="296" d="M70 649H226V0H70V649ZM-18 840H141L231 713H107L-18 840Z" />
<glyph unicode="&#xcd;" glyph-name="Iacute" horiz-adv-x="296" d="M70 649H226V0H70V649ZM188 840H347L222 713H98L188 840Z" />
<glyph unicode="&#xce;" glyph-name="Icircumflex" horiz-adv-x="296" d="M54 845H241L299 718H201L148 805L96 718H-2L54 845ZM70 649H226V0H70V649Z" />
<glyph unicode="&#xcf;" glyph-name="Idieresis" horiz-adv-x="296" d="M-10 848H116V730H-10V848ZM180 848H306V730H180V848ZM70 649H226V0H70V649Z" />
<glyph unicode="&#xd0;" glyph-name="Eth" horiz-adv-x="677" d="M70 284H10V385H70V649H346Q460 649 526 632T623 571T654 452V188Q654 114 625 74T530 17T347 0H70V284ZM340 111Q404 111 436 116T483 138T498 188V455Q498 501 462 519T345 538H226V385H348V284H226V111H340Z"
/>
<glyph unicode="&#xd1;" glyph-name="Ntilde" horiz-adv-x="751" d="M231 775Q238 803 263 828T322 854Q345 854 384 839Q422 824 438 824Q466 824 479 857L520 833Q512 804 487 778T429 751Q406 751 364 768Q325 784 313 784Q285 784 271 751L231 775ZM70 649H228L542
206V649H681V0H523L209 450V0H70V649Z" />
<glyph unicode="&#xd2;" glyph-name="Ograve" horiz-adv-x="728" d="M309 -10T264 -3T169 21Q116 39 86 79T56 178V462Q56 510 77 548T133 608Q163 627 207 640T289 656Q324 659 363 659Q409 659 443 656T519 641Q567 627 598 607T650 551Q672 514 672 462V178Q672
124 644 85T565 26Q475 -10 363 -10Q309 -10 264 -3ZM398 101T420 103T467 113Q491 120 503 136T516 178V463Q516 509 479 528T364 548Q286 548 249 529T212 463V178Q212 153 225 137T263 113Q287 106 309 104T365 101Q398 101 420 103ZM198 840H357L447 713H323L198
840Z" />
<glyph unicode="&#xd3;" glyph-name="Oacute" horiz-adv-x="728" d="M309 -10T264 -3T169 21Q116 39 86 79T56 178V462Q56 510 77 548T133 608Q163 627 207 640T289 656Q324 659 363 659Q409 659 443 656T519 641Q567 627 598 607T650 551Q672 514 672 462V178Q672
124 644 85T565 26Q475 -10 363 -10Q309 -10 264 -3ZM398 101T420 103T467 113Q491 120 503 136T516 178V463Q516 509 479 528T364 548Q286 548 249 529T212 463V178Q212 153 225 137T263 113Q287 106 309 104T365 101Q398 101 420 103ZM404 840H563L438 713H314L404
840Z" />
<glyph unicode="&#xd4;" glyph-name="Ocircumflex" horiz-adv-x="728" d="M309 -10T264 -3T169 21Q116 39 86 79T56 178V462Q56 510 77 548T133 608Q163 627 207 640T289 656Q324 659 363 659Q409 659 443 656T519 641Q567 627 598 607T650 551Q672 514 672 462V178Q672
124 644 85T565 26Q475 -10 363 -10Q309 -10 264 -3ZM398 101T420 103T467 113Q491 120 503 136T516 178V463Q516 509 479 528T364 548Q286 548 249 529T212 463V178Q212 153 225 137T263 113Q287 106 309 104T365 101Q398 101 420 103ZM269 840H456L514 713H416L363
800L311 713H213L269 840Z" />
<glyph unicode="&#xd5;" glyph-name="Otilde" horiz-adv-x="728" d="M309 -10T264 -3T169 21Q116 39 86 79T56 178V462Q56 510 77 548T133 608Q163 627 207 640T289 656Q324 659 363 659Q409 659 443 656T519 641Q567 627 598 607T650 551Q672 514 672 462V178Q672
124 644 85T565 26Q475 -10 363 -10Q309 -10 264 -3ZM398 101T420 103T467 113Q491 120 503 136T516 178V463Q516 509 479 528T364 548Q286 548 249 529T212 463V178Q212 153 225 137T263 113Q287 106 309 104T365 101Q398 101 420 103ZM393 716T349 737L307 757Q272
757 271 727H198Q199 784 228 808T314 833Q343 833 380 814Q417 795 424 795Q457 795 457 830H529Q527 716 419 716Q393 716 349 737Z" />
<glyph unicode="&#xd6;" glyph-name="Odieresis" horiz-adv-x="728" d="M206 848H332V730H206V848ZM396 848H522V730H396V848ZM309 -10T264 -3T169 21Q116 39 86 79T56 178V462Q56 510 77 548T133 608Q163 627 207 640T289 656Q324 659 363 659Q409 659 443 656T519
641Q567 627 598 607T650 551Q672 514 672 462V178Q672 124 644 85T565 26Q475 -10 363 -10Q309 -10 264 -3ZM398 101T420 103T467 113Q491 120 503 136T516 178V463Q516 509 479 528T364 548Q286 548 249 529T212 463V178Q212 153 225 137T263 113Q287 106 309
104T365 101Q398 101 420 103Z" />
<glyph unicode="&#xd7;" glyph-name="multiply" horiz-adv-x="580" d="M289 242L142 95L70 166L218 314L70 462L142 533L289 385L438 534L509 462L361 314L509 166L438 94L289 242Z" />
<glyph unicode="&#xd8;" glyph-name="Oslash" horiz-adv-x="728" d="M309 -10T264 -3T169 21Q116 39 86 79T56 178V462Q56 510 77 548T133 608Q163 627 207 640T289 656Q324 659 363 659Q409 659 443 656T519 641Q567 627 598 607T650 551Q672 514 672 462V178Q672
124 644 85T565 26Q475 -10 363 -10Q309 -10 264 -3ZM468 533Q434 548 364 548Q286 548 249 529T212 463V189L468 533ZM398 101T420 103T467 113Q491 120 503 136T516 178V463L256 115Q292 101 365 101Q398 101 420 103Z" />
<glyph unicode="&#xd9;" glyph-name="Ugrave" horiz-adv-x="699" d="M68 -10T68 178V649H224V178Q224 134 252 118T351 101Q420 101 447 117T475 178V649H631V178Q631 -10 349 -10Q68 -10 68 178ZM184 840H343L433 713H309L184 840Z" />
<glyph unicode="&#xda;" glyph-name="Uacute" horiz-adv-x="699" d="M68 -10T68 178V649H224V178Q224 134 252 118T351 101Q420 101 447 117T475 178V649H631V178Q631 -10 349 -10Q68 -10 68 178ZM390 840H549L424 713H300L390 840Z" />
<glyph unicode="&#xdb;" glyph-name="Ucircumflex" horiz-adv-x="699" d="M255 845H442L500 718H402L349 805L297 718H199L255 845ZM68 -10T68 178V649H224V178Q224 134 252 118T351 101Q420 101 447 117T475 178V649H631V178Q631 -10 349 -10Q68 -10 68 178Z" />
<glyph unicode="&#xdc;" glyph-name="Udieresis" horiz-adv-x="699" d="M191 848H317V730H191V848ZM381 848H507V730H381V848ZM68 -10T68 178V649H224V178Q224 134 252 118T351 101Q420 101 447 117T475 178V649H631V178Q631 -10 349 -10Q68 -10 68 178Z" />
<glyph unicode="&#xdd;" glyph-name="Yacute" horiz-adv-x="644" d="M243 260L8 649H185L322 395L458 649H636L399 262V0H243V260ZM362 840H521L396 713H272L362 840Z" />
<glyph unicode="&#xde;" glyph-name="Thorn" horiz-adv-x="627" d="M70 649H226V539H330Q388 539 429 534T508 514Q587 483 587 395V271Q587 105 312 105H226V0H70V649ZM325 208Q436 208 436 271V390Q436 420 413 429Q389 437 323 437H226V208H325Z" />
<glyph unicode="&#xdf;" glyph-name="germandbls" horiz-adv-x="639" d="M64 569Q64 625 82 652T157 694Q212 710 324 710Q451 710 505 676T560 569V450Q560 423 539 399T489 366L488 361Q526 357 557 329T589 265V145Q589 66 526 33T331 0H277V111H331Q394 111
419 122Q442 133 442 167V245Q442 271 435 283T409 300T352 304H277V402H327Q379 402 399 414T419 460V555Q419 586 400 597T324 609Q252 609 231 600Q210 590 210 555V0H64V569Z" />
<glyph unicode="&#xe0;" glyph-name="agrave" horiz-adv-x="564" d="M133 -10T100 2T53 47T39 145Q39 203 53 236T100 283T190 298H354V331Q354 362 346 377T315 398T247 404Q185 404 77 392V484Q156 494 262 494Q355 494 405 480T478 432T500 333V0H357V44Q340
15 311 3Q282 -10 201 -10Q133 -10 100 2ZM302 81T321 84Q335 86 340 90T350 103Q354 110 354 124V218H254Q220 218 206 214T187 196T182 148Q182 115 187 102T206 85T258 81Q302 81 321 84ZM95 680H254L344 553H220L95 680Z" />
<glyph unicode="&#xe1;" glyph-name="aacute" horiz-adv-x="564" d="M133 -10T100 2T53 47T39 145Q39 203 53 236T100 283T190 298H354V331Q354 362 346 377T315 398T247 404Q185 404 77 392V484Q156 494 262 494Q355 494 405 480T478 432T500 333V0H357V44Q340
15 311 3Q282 -10 201 -10Q133 -10 100 2ZM302 81T321 84Q335 86 340 90T350 103Q354 110 354 124V218H254Q220 218 206 214T187 196T182 148Q182 115 187 102T206 85T258 81Q302 81 321 84ZM317 680H476L351 553H227L317 680Z" />
<glyph unicode="&#xe2;" glyph-name="acircumflex" horiz-adv-x="564" d="M133 -10T100 2T53 47T39 145Q39 203 53 236T100 283T190 298H354V331Q354 362 346 377T315 398T247 404Q185 404 77 392V484Q156 494 262 494Q355 494 405 480T478 432T500 333V0H357V44Q340
15 311 3Q282 -10 201 -10Q133 -10 100 2ZM302 81T321 84Q335 86 340 90T350 103Q354 110 354 124V218H254Q220 218 206 214T187 196T182 148Q182 115 187 102T206 85T258 81Q302 81 321 84ZM187 680H374L432 553H334L281 640L229 553H131L187 680Z" />
<glyph unicode="&#xe3;" glyph-name="atilde" horiz-adv-x="564" d="M133 -10T100 2T53 47T39 145Q39 203 53 236T100 283T190 298H354V331Q354 362 346 377T315 398T247 404Q185 404 77 392V484Q156 494 262 494Q355 494 405 480T478 432T500 333V0H357V44Q340
15 311 3Q282 -10 201 -10Q133 -10 100 2ZM302 81T321 84Q335 86 340 90T350 103Q354 110 354 124V218H254Q220 218 206 214T187 196T182 148Q182 115 187 102T206 85T258 81Q302 81 321 84ZM137 580Q144 608 169 633T228 659Q251 659 290 644Q328 629 344 629Q371
629 385 662L426 638Q418 609 393 583T335 556Q312 556 270 573Q231 589 219 589Q190 589 177 556L137 580Z" />
<glyph unicode="&#xe4;" glyph-name="adieresis" horiz-adv-x="564" d="M124 683H250V565H124V683ZM314 683H440V565H314V683ZM133 -10T100 2T53 47T39 145Q39 203 53 236T100 283T190 298H354V331Q354 362 346 377T315 398T247 404Q185 404 77 392V484Q156 494
262 494Q355 494 405 480T478 432T500 333V0H357V44Q340 15 311 3Q282 -10 201 -10Q133 -10 100 2ZM302 81T321 84Q335 86 340 90T350 103Q354 110 354 124V218H254Q220 218 206 214T187 196T182 148Q182 115 187 102T206 85T258 81Q302 81 321 84Z" />
<glyph unicode="&#xe5;" glyph-name="aring" horiz-adv-x="564" d="M244 553T223 555T179 567Q133 584 133 651V663Q133 691 141 711T162 743Q173 753 194 759T235 766Q247 767 282 767Q316 767 332 766T369 759Q390 753 402 743T423 712Q431 691 431 663V651Q431
584 386 567Q363 558 342 556T282 553Q244 553 223 555ZM324 605T338 612T352 644V671Q352 691 347 700T328 712T282 715Q250 715 236 712T217 700T212 671V644Q212 620 226 613T282 605Q324 605 338 612ZM133 -10T100 2T53 47T39 145Q39 203 53 236T100 283T190
298H354V331Q354 362 346 377T315 398T247 404Q185 404 77 392V484Q156 494 262 494Q355 494 405 480T478 432T500 333V0H357V44Q340 15 311 3Q282 -10 201 -10Q133 -10 100 2ZM302 81T321 84Q335 86 340 90T350 103Q354 110 354 124V218H254Q220 218 206 214T187
196T182 148Q182 115 187 102T206 85T258 81Q302 81 321 84Z" />
<glyph unicode="&#xe6;" glyph-name="ae" horiz-adv-x="845" d="M133 -10T100 2T53 47T39 145Q39 203 53 236T100 283T190 298H354V331Q354 362 346 377T315 398T247 404Q185 404 77 392V484Q156 494 262 494Q374 494 423 463Q475 494 578 494Q692 494 744 455T797
321V203H488V159Q488 116 517 99T624 81Q694 81 784 102V9Q695 -10 596 -10Q422 -10 374 67Q358 36 339 20T289 -3T201 -10Q133 -10 100 2ZM659 286V356Q659 381 641 392T576 404Q523 404 506 392Q488 380 488 356V286H659ZM302 81T321 84Q335 86 340 90T350 103Q354
110 354 124V218H254Q220 218 206 214T187 196T182 148Q182 115 187 102T206 85T258 81Q302 81 321 84Z" />
<glyph unicode="&#xe7;" glyph-name="ccedilla" horiz-adv-x="482" d="M212 -220T177 -197L199 -151Q229 -169 261 -169Q308 -169 308 -134Q308 -96 233 -96H193L205 -77Q209 -71 215 -62T231 -39L251 -9Q207 -8 176 -1T114 22Q50 56 50 157V318Q50 384 80 428Q91
444 112 457T156 479Q174 485 204 489T257 494H310Q366 494 457 476V380Q354 404 299 404Q198 404 198 336V158Q198 81 309 81Q363 81 464 103V7Q385 -7 320 -9L291 -50Q335 -53 361 -72T388 -129Q388 -172 353 -196T268 -220Q212 -220 177 -197Z" />
<glyph unicode="&#xe8;" glyph-name="egrave" horiz-adv-x="559" d="M50 -10T50 147V321Q50 412 108 453T289 494Q404 494 457 455T511 321V203H197V159Q197 117 227 99T335 81Q407 81 497 102V9Q408 -10 307 -10Q50 -10 50 147ZM372 286V356Q372 380 353 392T287
404Q234 404 216 392Q197 379 197 356V286H372ZM93 680H252L342 553H218L93 680Z" />
<glyph unicode="&#xe9;" glyph-name="eacute" horiz-adv-x="559" d="M50 -10T50 147V321Q50 412 108 453T289 494Q404 494 457 455T511 321V203H197V159Q197 117 227 99T335 81Q407 81 497 102V9Q408 -10 307 -10Q50 -10 50 147ZM372 286V356Q372 380 353 392T287
404Q234 404 216 392Q197 379 197 356V286H372ZM315 680H474L349 553H225L315 680Z" />
<glyph unicode="&#xea;" glyph-name="ecircumflex" horiz-adv-x="559" d="M50 -10T50 147V321Q50 412 108 453T289 494Q404 494 457 455T511 321V203H197V159Q197 117 227 99T335 81Q407 81 497 102V9Q408 -10 307 -10Q50 -10 50 147ZM372 286V356Q372 380 353
392T287 404Q234 404 216 392Q197 379 197 356V286H372ZM185 680H372L430 553H332L279 640L227 553H129L185 680Z" />
<glyph unicode="&#xeb;" glyph-name="edieresis" horiz-adv-x="559" d="M121 683H247V565H121V683ZM311 683H437V565H311V683ZM50 -10T50 147V321Q50 412 108 453T289 494Q404 494 457 455T511 321V203H197V159Q197 117 227 99T335 81Q407 81 497 102V9Q408 -10
307 -10Q50 -10 50 147ZM372 286V356Q372 380 353 392T287 404Q234 404 216 392Q197 379 197 356V286H372Z" />
<glyph unicode="&#xec;" glyph-name="igrave" horiz-adv-x="282" d="M68 484H214V0H68V484ZM-46 680H113L203 553H79L-46 680Z" />
<glyph unicode="&#xed;" glyph-name="iacute" horiz-adv-x="282" d="M68 484H214V0H68V484ZM176 680H335L210 553H86L176 680Z" />
<glyph unicode="&#xee;" glyph-name="icircumflex" horiz-adv-x="282" d="M47 680H234L292 553H194L141 640L89 553H-9L47 680ZM68 484H214V0H68V484Z" />
<glyph unicode="&#xef;" glyph-name="idieresis" horiz-adv-x="282" d="M-17 683H109V565H-17V683ZM173 683H299V565H173V683ZM68 484H214V0H68V484Z" />
<glyph unicode="&#xf0;" glyph-name="eth" horiz-adv-x="592" d="M251 -10T222 -7T160 5Q124 15 102 33T65 86Q50 119 50 166V309Q50 357 65 393T104 449Q125 466 159 477T227 492Q265 494 296 494Q344 494 376 490Q351 536 316 584L219 555V622L272 638Q259 653
212 700H354Q369 686 383 671L480 700V633L430 618Q542 479 542 321V166Q542 121 528 87T490 34Q470 17 436 7T368 -7Q338 -10 296 -10Q251 -10 222 -7ZM337 81T358 87T387 108T396 149V332Q396 372 375 388T296 404Q238 404 217 388T196 332V149Q196 122 204 108T234
88T296 81Q337 81 358 87Z" />
<glyph unicode="&#xf1;" glyph-name="ntilde" horiz-adv-x="595" d="M153 610Q160 638 185 663T244 689Q267 689 306 674Q343 659 360 659Q388 659 401 692L442 668Q434 639 409 613T351 586Q328 586 286 603Q247 619 235 619Q207 619 193 586L153 610ZM64 484H208V425Q225
494 363 494Q456 494 493 461T531 355V0H385V336Q385 364 380 378T358 398T307 404Q264 404 244 399T217 379T210 336V0H64V484Z" />
<glyph unicode="&#xf2;" glyph-name="ograve" horiz-adv-x="592" d="M251 -10T222 -7T160 5Q124 15 102 33T65 86Q50 119 50 166V309Q50 357 65 393T104 449Q125 466 159 477T227 492Q265 494 296 494Q342 494 369 492T430 479Q466 468 488 449T527 395Q542 359
542 309V166Q542 121 528 87T490 34Q470 17 436 7T368 -7Q338 -10 296 -10Q251 -10 222 -7ZM337 81T358 87T387 108T396 149V332Q396 372 375 388T296 404Q238 404 217 388T196 332V149Q196 122 204 108T234 88T296 81Q337 81 358 87ZM109 680H268L358 553H234L109
680Z" />
<glyph unicode="&#xf3;" glyph-name="oacute" horiz-adv-x="592" d="M251 -10T222 -7T160 5Q124 15 102 33T65 86Q50 119 50 166V309Q50 357 65 393T104 449Q125 466 159 477T227 492Q265 494 296 494Q342 494 369 492T430 479Q466 468 488 449T527 395Q542 359
542 309V166Q542 121 528 87T490 34Q470 17 436 7T368 -7Q338 -10 296 -10Q251 -10 222 -7ZM337 81T358 87T387 108T396 149V332Q396 372 375 388T296 404Q238 404 217 388T196 332V149Q196 122 204 108T234 88T296 81Q337 81 358 87ZM331 680H490L365 553H241L331
680Z" />
<glyph unicode="&#xf4;" glyph-name="ocircumflex" horiz-adv-x="592" d="M251 -10T222 -7T160 5Q124 15 102 33T65 86Q50 119 50 166V309Q50 357 65 393T104 449Q125 466 159 477T227 492Q265 494 296 494Q342 494 369 492T430 479Q466 468 488 449T527 395Q542
359 542 309V166Q542 121 528 87T490 34Q470 17 436 7T368 -7Q338 -10 296 -10Q251 -10 222 -7ZM337 81T358 87T387 108T396 149V332Q396 372 375 388T296 404Q238 404 217 388T196 332V149Q196 122 204 108T234 88T296 81Q337 81 358 87ZM201 680H388L446 553H348L295
640L243 553H145L201 680Z" />
<glyph unicode="&#xf5;" glyph-name="otilde" horiz-adv-x="592" d="M251 -10T222 -7T160 5Q124 15 102 33T65 86Q50 119 50 166V309Q50 357 65 393T104 449Q125 466 159 477T227 492Q265 494 296 494Q342 494 369 492T430 479Q466 468 488 449T527 395Q542 359
542 309V166Q542 121 528 87T490 34Q470 17 436 7T368 -7Q338 -10 296 -10Q251 -10 222 -7ZM337 81T358 87T387 108T396 149V332Q396 372 375 388T296 404Q238 404 217 388T196 332V149Q196 122 204 108T234 88T296 81Q337 81 358 87ZM151 580Q158 608 183 633T242
659Q265 659 304 644Q342 629 358 629Q385 629 399 662L440 638Q432 609 407 583T349 556Q326 556 284 573Q245 589 233 589Q204 589 191 556L151 580Z" />
<glyph unicode="&#xf6;" glyph-name="odieresis" horiz-adv-x="592" d="M138 683H264V565H138V683ZM328 683H454V565H328V683ZM251 -10T222 -7T160 5Q124 15 102 33T65 86Q50 119 50 166V309Q50 357 65 393T104 449Q125 466 159 477T227 492Q265 494 296 494Q342
494 369 492T430 479Q466 468 488 449T527 395Q542 359 542 309V166Q542 121 528 87T490 34Q470 17 436 7T368 -7Q338 -10 296 -10Q251 -10 222 -7ZM337 81T358 87T387 108T396 149V332Q396 372 375 388T296 404Q238 404 217 388T196 332V149Q196 122 204 108T234
88T296 81Q337 81 358 87Z" />
<glyph unicode="&#xf7;" glyph-name="divide" horiz-adv-x="580" d="M222 554H358V426H222V554ZM70 365H510V264H70V365ZM222 198H358V70H222V198Z" />
<glyph unicode="&#xf8;" glyph-name="oslash" horiz-adv-x="597" d="M253 -10T224 -7T161 5Q125 15 103 33T66 86Q50 118 50 166V309Q50 357 65 393T105 449Q126 466 160 477T228 492Q266 494 298 494Q345 494 372 492T433 479Q469 468 491 449T530 395Q546 360
546 309V166Q546 121 531 87T493 34Q473 17 438 7T370 -7Q340 -10 298 -10Q253 -10 224 -7ZM359 404Q339 411 298 411Q239 411 218 395T196 338V151L359 404ZM340 75T361 80T391 100T400 141V330L239 80Q257 75 298 75Q340 75 361 80Z" />
<glyph unicode="&#xf9;" glyph-name="ugrave" horiz-adv-x="595" d="M139 -10T102 23T64 129V484H210V149Q210 121 215 107T237 87T288 81Q331 81 351 86T378 106T385 149V484H531V0H387V59Q371 -10 232 -10Q139 -10 102 23ZM111 680H270L360 553H236L111 680Z" />
<glyph unicode="&#xfa;" glyph-name="uacute" horiz-adv-x="595" d="M139 -10T102 23T64 129V484H210V149Q210 121 215 107T237 87T288 81Q331 81 351 86T378 106T385 149V484H531V0H387V59Q371 -10 232 -10Q139 -10 102 23ZM333 680H492L367 553H243L333 680Z" />
<glyph unicode="&#xfb;" glyph-name="ucircumflex" horiz-adv-x="595" d="M203 680H390L448 553H350L297 640L245 553H147L203 680ZM139 -10T102 23T64 129V484H210V149Q210 121 215 107T237 87T288 81Q331 81 351 86T378 106T385 149V484H531V0H387V59Q371 -10
232 -10Q139 -10 102 23Z" />
<glyph unicode="&#xfc;" glyph-name="udieresis" horiz-adv-x="595" d="M139 683H265V565H139V683ZM329 683H455V565H329V683ZM139 -10T102 23T64 129V484H210V149Q210 121 215 107T237 87T288 81Q331 81 351 86T378 106T385 149V484H531V0H387V59Q371 -10 232
-10Q139 -10 102 23Z" />
<glyph unicode="&#xfd;" glyph-name="yacute" horiz-adv-x="534" d="M201 4L8 484H167L276 142L375 484H526L261 -208H113L201 4ZM302 680H461L336 553H212L302 680Z" />
<glyph unicode="&#xfe;" glyph-name="thorn" horiz-adv-x="613" d="M64 700H210V450Q242 494 366 494Q429 494 467 484T526 452Q545 430 552 404T559 331V172Q559 100 538 61T474 6T355 -10Q283 -10 251 2T210 49V-209H64V700ZM353 81T375 87T405 108T413 153V332Q413
365 406 379T378 399T309 404Q268 404 247 397T218 375T210 332V153Q210 123 217 108T246 87T310 81Q353 81 375 87Z" />
<glyph unicode="&#xff;" glyph-name="ydieresis" horiz-adv-x="534" d="M201 4L8 484H167L276 142L375 484H526L261 -208H113L201 4ZM109 683H235V565H109V683ZM299 683H425V565H299V683Z" />
<glyph unicode="&#x2013;" glyph-name="endash" horiz-adv-x="580" d="M71 340H509V239H71V340Z" />
<glyph unicode="&#x2014;" glyph-name="emdash" horiz-adv-x="818" d="M40 340H778V239H40V340Z" />
<glyph unicode="&#x2018;" glyph-name="quoteleft" horiz-adv-x="256" d="M123 649H227L181 429H29L123 649Z" />
<glyph unicode="&#x2019;" glyph-name="quoteright" horiz-adv-x="256" d="M91 649H243L149 429H45L91 649Z" />
<glyph unicode="&#x201a;" glyph-name="quotesinglbase" horiz-adv-x="256" d="M66 111H218L124 -109H20L66 111Z" />
<glyph unicode="&#x201c;" glyph-name="quotedblleft" horiz-adv-x="476" d="M123 649H227L181 429H29L123 649ZM343 649H447L401 429H249L343 649Z" />
<glyph unicode="&#x201d;" glyph-name="quotedblright" horiz-adv-x="466" d="M91 649H243L149 429H45L91 649ZM301 649H453L359 429H255L301 649Z" />
<glyph unicode="&#x201e;" glyph-name="quotedblbase" horiz-adv-x="476" d="M66 111H218L124 -109H20L66 111ZM286 111H438L344 -109H240L286 111Z" />
<glyph unicode="&#x2022;" glyph-name="bullet" horiz-adv-x="479" d="M189 104T147 128T80 195T55 289Q55 340 79 382T146 448T239 473Q315 473 370 420Q424 366 424 289Q424 238 399 196T332 129T240 104Q189 104 147 128Z" />
<glyph unicode="&#x2039;" glyph-name="guilsinglleft" horiz-adv-x="306" d="M40 262L140 454H266L174 262L266 70H140L40 262Z" />
<glyph unicode="&#x203a;" glyph-name="guilsinglright" horiz-adv-x="306" d="M132 262L40 454H166L266 262L166 70H40L132 262Z" />
</font>
</defs>
</svg>
