<?xml version="1.0" standalone="no"?>
<!DOCTYPE svg PUBLIC "-//W3C//DTD SVG 1.1//EN" "http://www.w3.org/Graphics/SVG/1.1/DTD/svg11.dtd">
<svg xmlns="http://www.w3.org/2000/svg">
<defs >
<font id="NotoSans" horiz-adv-x="625" ><font-face
    font-family="Noto Sans Black"
    units-per-em="1000"
    panose-1="2 11 10 2 4 5 4 9 2 4"
    ascent="1069"
    descent="-293"
    alphabetic="0" />
<glyph unicode=" " glyph-name="space" horiz-adv-x="260" />
<glyph unicode="!" glyph-name="exclam" horiz-adv-x="304" d="M61 252L137 714H345L221 252H61ZM97 -12Q45 -12 26 11T6 62Q6 110 35 143T125 176Q167 176 190 156T213 100Q213 44 181 16T97 -12Z" />
<glyph unicode="&quot;" glyph-name="quotedbl" horiz-adv-x="454" d="M304 456L340 714H507L430 456H304ZM89 456L124 714H291L214 456H89Z" />
<glyph unicode="#" glyph-name="numbersign" horiz-adv-x="646" d="M59 0L114 192H7L17 308H147L175 406H60L70 524H209L263 714H395L341 524H423L477 714H609L555 524H663L653 406H521L493 308H612L602 192H459L405 0H273L328 192H246L191 0H59ZM279 308H361L389
406H307L279 308Z" />
<glyph unicode="$" glyph-name="dollar" horiz-adv-x="580" d="M199 34Q138 39 97 51T30 79L27 228Q79 204 131 190T229 172L258 308Q182 337 137 380T92 492Q92 585 159 636T340 695L354 760H436L421 693Q501 686 574 650L525 519Q498 533 462 542T392 556L363
421Q450 382 487 342T525 240Q525 178 493 133T406 62T280 32L261 -59H179L199 34ZM311 554Q283 548 273 534T263 499Q263 483 269 473T289 455L311 554ZM310 175Q340 182 352 195T365 227Q365 245 356 257T332 278L310 175Z" />
<glyph unicode="%" glyph-name="percent" horiz-adv-x="930" d="M214 276Q138 276 97 318T56 444Q56 488 67 536T104 627T170 697T271 724Q349 724 388 680T427 556Q427 513 417 465T382 373T316 303T214 276ZM143 0L675 714H816L288 0H143ZM223 394Q238 394 250
411T270 455T283 511T288 565Q288 606 262 606Q249 606 237 590T216 547T202 492T197 435Q197 394 223 394ZM694 -10Q618 -10 577 32T536 158Q536 202 547 250T584 341T650 411T751 438Q829 438 868 394T907 270Q907 227 897 179T862 87T796 17T694 -10ZM703 108Q718
108 730 125T750 169T763 225T768 279Q768 320 742 320Q729 320 717 304T696 261T682 206T677 149Q677 108 703 108Z" />
<glyph unicode="&amp;" glyph-name="ampersand" horiz-adv-x="733" d="M258 -10Q142 -10 73 41T4 188Q4 270 49 320T179 398Q159 424 149 460T138 520Q138 618 200 671T373 725Q431 725 476 707T549 654T576 567Q576 497 532 448T409 357L472 266Q492 287 511
325T540 401H727Q703 316 661 246T572 128L665 0H449L428 30Q396 13 352 2T258 -10ZM335 463Q363 474 383 497T404 554Q404 571 393 583T364 596Q340 596 325 579T310 533Q310 523 315 503T335 463ZM279 140Q299 140 316 144T346 153L252 289Q219 275 207 253T195
207Q195 182 215 161T279 140Z" />
<glyph unicode="&apos;" glyph-name="quotesingle" horiz-adv-x="238" d="M89 456L124 714H291L214 456H89Z" />
<glyph unicode="(" glyph-name="parenleft" horiz-adv-x="374" d="M107 -158Q84 -117 67 -63T42 49T33 159Q33 329 97 469T283 734H441Q370 657 314 569T226 377T193 151Q193 105 200 51T219 -58T250 -158H107Z" />
<glyph unicode=")" glyph-name="parenright" horiz-adv-x="374" d="M-65 -158Q6 -81 61 7T147 200T179 425Q179 472 172 526T152 634T121 734H265Q291 690 307 636T331 526T339 417Q339 247 278 107T94 -158H-65Z" />
<glyph unicode="*" glyph-name="asterisk" horiz-adv-x="542" d="M338 269L299 417L218 298L96 388L220 500L74 541L123 677L279 596L294 767L444 737L387 575L567 590L556 443L405 463L477 311L338 269Z" />
<glyph unicode="+" glyph-name="plus" horiz-adv-x="586" d="M358 418H540V287H358V111H227V287H45V418H227V597H358V418Z" />
<glyph unicode="," glyph-name="comma" horiz-adv-x="306" d="M-51 -129Q-25 -70 -2 -3T41 116H211L215 105Q192 52 159 -11T90 -129H-51Z" />
<glyph unicode="-" glyph-name="hyphen" horiz-adv-x="329" d="M11 192L42 344H312L281 192H11Z" />
<glyph unicode="." glyph-name="period" horiz-adv-x="306" d="M85 -12Q47 -12 24 6T0 62Q0 121 35 148T119 176Q158 176 182 158T207 100Q207 36 174 12T85 -12Z" />
<glyph unicode="/" glyph-name="slash" horiz-adv-x="467" d="M-44 -10L365 724H533L124 -10H-44Z" />
<glyph unicode="0" glyph-name="zero" horiz-adv-x="580" d="M239 -10Q141 -10 86 49T31 227Q31 300 43 371T80 506T143 619T235 697T357 725Q414 725 454 704T518 648T554 570T565 480Q565 383 545 295T485 138T383 30T239 -10ZM258 144Q283 144 304 177T341
262T366 373T375 484Q375 525 366 548T335 571Q313 571 293 538T256 451T231 338T221 223Q221 183 228 164T258 144Z" />
<glyph unicode="1" glyph-name="one" horiz-adv-x="580" d="M273 390Q279 418 289 454T310 515Q296 502 277 488T246 465L147 404L73 527L376 714H528L378 0H188L273 390Z" />
<glyph unicode="2" glyph-name="two" horiz-adv-x="580" d="M-28 0L-2 125L234 338Q305 402 330 444T355 514Q355 538 343 550T310 562Q279 562 245 544T173 490L82 616Q135 666 200 695T346 724Q435 724 490 676T545 544Q545 498 529 455T471 363T357 251L257
165V159H496L463 0H-28Z" />
<glyph unicode="3" glyph-name="three" horiz-adv-x="580" d="M195 -10Q142 -10 91 0T7 29V191Q51 165 97 154T191 142Q249 142 287 162T325 230Q325 251 315 265T276 287T189 295H148L174 437H212Q282 437 323 459T364 522Q364 539 350 555T298 572Q265 572 233
561T166 531L89 652Q141 685 196 704T334 724Q430 724 490 680T550 555Q550 476 503 432T383 372V368Q449 355 483 312T517 210Q517 133 473 84T356 13T195 -10Z" />
<glyph unicode="4" glyph-name="four" horiz-adv-x="580" d="M234 0L263 138H-5L20 263L392 714H568L477 282H550L520 138H447L418 0H234ZM191 282H293L317 377Q322 394 328 415T339 455T346 480H342Q333 464 317 439T286 396L191 282Z" />
<glyph unicode="5" glyph-name="five" horiz-adv-x="580" d="M212 -10Q176 -10 136 -6T63 8T10 31V189Q46 168 96 155T188 142Q253 142 288 164T323 236Q323 270 301 294T232 319Q207 319 179 315T133 303L73 348L178 714H575L542 556H312L283 466Q296 468 305
468T320 468Q375 468 420 444T491 372T518 256Q518 166 481 107T374 19T212 -10Z" />
<glyph unicode="6" glyph-name="six" horiz-adv-x="580" d="M272 -10Q191 -10 140 22T64 113T39 249Q39 318 55 390T101 525T176 628Q219 668 262 688T356 716T474 724Q502 724 531 720T588 709L557 561Q538 566 513 569T468 573Q391 573 345 554T273 496T226
394H230Q250 426 284 451T380 477Q454 477 497 430T540 281Q540 198 509 132T418 28T272 -10ZM274 140Q299 140 315 158T339 206T348 266Q348 295 337 312T303 329Q280 329 262 311T234 263Q226 236 226 205Q226 173 239 157T274 140Z" />
<glyph unicode="7" glyph-name="seven" horiz-adv-x="580" d="M17 0L367 554H87L121 714H624L599 601L236 0H17Z" />
<glyph unicode="8" glyph-name="eight" horiz-adv-x="580" d="M262 -10Q184 -10 131 14T51 77T24 165Q24 239 65 290T186 369Q156 393 133 427T110 520Q110 575 137 621T219 696T354 725Q456 725 510 679T565 562Q565 505 530 455T428 382Q473 348 496 305T520
205Q520 104 451 47T262 -10ZM329 454Q361 466 376 491T391 539Q391 563 377 575T345 587Q322 587 305 568T287 520Q287 501 298 482T329 454ZM267 128Q299 128 321 147T343 202Q343 231 328 255T285 297Q250 278 226 251T202 188Q202 158 222 143T267 128Z" />
<glyph unicode="9" glyph-name="nine" horiz-adv-x="580" d="M155 -10Q124 -10 99 -6T52 5V158Q76 148 99 144T151 140Q243 145 294 188T364 320H360Q341 289 308 262T213 235Q138 235 96 289T53 433Q53 510 81 576T170 683T323 724Q405 724 456 691T531 599T555
465Q555 397 542 328T498 196T418 86Q372 42 307 16T155 -10ZM290 385Q313 385 330 402T358 446Q363 459 365 473T368 503Q368 533 356 553T320 574Q288 574 267 539T245 455Q245 385 290 385Z" />
<glyph unicode=":" glyph-name="colon" horiz-adv-x="306" d="M180 372Q142 372 119 390T95 447Q95 506 130 533T213 560Q253 560 277 542T302 485Q302 420 269 396T180 372ZM85 -12Q47 -12 24 6T0 62Q0 121 35 148T119 176Q158 176 182 158T207 100Q207 36 174
12T85 -12Z" />
<glyph unicode=";" glyph-name="semicolon" horiz-adv-x="306" d="M180 372Q142 372 119 390T95 447Q95 506 130 533T213 560Q253 560 277 542T302 485Q302 420 269 396T180 372ZM-57 -129Q-31 -70 -8 -3T35 116H205L209 105Q186 52 153 -11T84 -129H-57Z" />
<glyph unicode="&lt;" glyph-name="less" horiz-adv-x="586" d="M539 87L45 306V390L539 637V492L236 354L539 231V87Z" />
<glyph unicode="=" glyph-name="equal" horiz-adv-x="586" d="M45 398V529H541V398H45ZM45 175V307H541V175H45Z" />
<glyph unicode="&gt;" glyph-name="greater" horiz-adv-x="586" d="M45 231L348 354L45 492V637L539 390V306L45 87V231Z" />
<glyph unicode="?" glyph-name="question" horiz-adv-x="488" d="M122 252Q132 307 146 341T187 400T255 455Q304 487 319 504T334 539Q334 554 325 563T290 573Q263 573 224 560T137 520L79 658Q126 686 183 705T304 724Q403 724 460 680T518 559Q518 504 499
469T449 409T383 363Q345 340 327 325T300 294T282 252H122ZM163 -12Q111 -12 92 11T72 62Q72 110 101 143T191 176Q233 176 256 156T279 100Q279 44 247 16T163 -12Z" />
<glyph unicode="@" glyph-name="at" horiz-adv-x="897" d="M381 -91Q280 -91 203 -51T83 64T40 244Q40 361 77 450T178 601T324 693T498 724Q612 724 694 687T821 578T866 404Q866 320 833 251T741 142T609 101Q570 101 543 116T502 164H497Q474 133 443 117T366
101Q309 101 273 142T237 250Q237 297 253 346T302 438T385 506T504 532Q545 532 587 523T668 498L619 296Q614 274 611 259T608 229Q608 209 627 209Q654 209 679 229T721 292T738 401Q738 498 677 555T486 612Q395 612 323 568T210 445T168 256Q168 177 198 125T276
47T379 21Q427 21 491 32T613 67V-43Q572 -62 509 -76T381 -91ZM411 209Q440 209 459 234T496 326L519 419Q507 424 494 424Q463 424 440 408T402 366T380 312T373 260Q373 209 411 209Z" />
<glyph unicode="A" glyph-name="A" horiz-adv-x="676" d="M-59 0L304 714H550L610 0H424L419 134H200L139 0H-59ZM270 286H413L406 491Q405 515 405 538T405 583H402Q387 538 367 495L270 286Z" />
<glyph unicode="B" glyph-name="B" horiz-adv-x="634" d="M16 0L167 714H405Q520 714 570 670T620 558Q620 485 583 440T475 374V370Q518 356 543 321T569 234Q569 151 531 99T428 24T283 0H16ZM335 440Q385 440 403 462T422 518Q422 568 360 568H329L300 440H335ZM279
149Q323 149 350 173T377 232Q377 266 361 282T304 299H271L239 149H279Z" />
<glyph unicode="C" glyph-name="C" horiz-adv-x="630" d="M315 -10Q226 -10 167 25T80 122T51 268Q51 332 65 397T107 521T181 626T288 698T430 725Q501 725 558 708T665 661L593 512Q547 539 509 552T430 566Q387 566 353 542T294 477T257 385T244 278Q244 213
271 181T350 148Q394 148 435 159T530 192V34Q478 11 425 1T315 -10Z" />
<glyph unicode="D" glyph-name="D" horiz-adv-x="684" d="M16 0L167 714H370Q501 714 577 645T653 444Q653 306 605 207T465 54T246 0H16ZM275 158Q330 158 371 192T436 289T460 434Q460 495 434 526T360 558H325L241 158H275Z" />
<glyph unicode="E" glyph-name="E" horiz-adv-x="562" d="M16 0L167 714H591L559 559H326L303 447H520L485 292H268L240 157H473L440 0H16Z" />
<glyph unicode="F" glyph-name="F" horiz-adv-x="569" d="M16 0L167 714H588L555 559H325L297 423H510L476 267H262L207 0H16Z" />
<glyph unicode="G" glyph-name="G" horiz-adv-x="698" d="M319 -10Q198 -10 125 61T51 275Q51 361 76 441T153 586T284 687T469 725Q531 725 588 712T688 673L616 522Q585 540 548 553T467 566Q404 566 362 537T293 464T256 370T244 278Q244 211 270 180T346 149Q366
149 379 150T411 156L436 269H324L357 418H655L573 30Q522 14 461 2T319 -10Z" />
<glyph unicode="H" glyph-name="H" horiz-adv-x="714" d="M16 0L167 714H358L303 449H473L528 714H719L568 0H377L438 291H269L207 0H16Z" />
<glyph unicode="I" glyph-name="I" horiz-adv-x="426" d="M-36 0L-13 109L81 148L169 562L91 604L114 714H481L458 604L360 562L272 148L351 109L328 0H-36Z" />
<glyph unicode="J" glyph-name="J" horiz-adv-x="373" d="M-56 -225Q-81 -225 -109 -221T-160 -211V-55Q-142 -59 -122 -63T-75 -67Q-29 -67 0 -42T45 57L186 714H377L231 33Q211 -61 177 -117T87 -199T-56 -225Z" />
<glyph unicode="K" glyph-name="K" horiz-adv-x="669" d="M16 0L167 714H358L292 409L363 509L519 714H743L474 385L606 0H392L307 282L260 255L207 0H16Z" />
<glyph unicode="L" glyph-name="L" horiz-adv-x="527" d="M16 0L167 714H358L240 156H473L440 0H16Z" />
<glyph unicode="M" glyph-name="M" horiz-adv-x="909" d="M16 0L167 714H420V207H424L657 714H914L761 0H590L647 268Q663 343 675 390T695 467T707 512H703L468 0H287V512H283Q271 436 261 373T241 262L186 0H16Z" />
<glyph unicode="N" glyph-name="N" horiz-adv-x="790" d="M16 0L167 714H389L529 234H533Q536 256 540 289T550 356T561 415L625 714H795L644 0H422L281 502H277Q276 492 274 469T268 415T259 353T249 298L186 0H16Z" />
<glyph unicode="O" glyph-name="O" horiz-adv-x="737" d="M325 -10Q189 -10 120 65T51 265Q51 348 74 429T145 578T266 685T438 725Q570 725 638 650T706 450Q706 367 684 286T614 137T496 30T325 -10ZM342 148Q390 148 429 189T490 298T513 448Q513 504 490 535T422
567Q382 567 349 541T293 471T257 374T244 266Q244 148 342 148Z" />
<glyph unicode="P" glyph-name="P" horiz-adv-x="623" d="M16 0L167 714H349Q444 714 501 686T585 609T611 500Q611 415 572 356T462 267T298 237H256L207 0H16ZM321 393Q366 393 393 422T420 494Q420 519 405 538T354 558H325L290 393H321Z" />
<glyph unicode="Q" glyph-name="Q" horiz-adv-x="737" d="M322 -10H311Q227 -10 169 24T81 120T51 265Q51 348 74 429T145 578T267 685T441 725Q571 725 638 650T706 450Q706 369 684 289T616 142T499 36L615 -170H401L322 -10ZM333 151Q386 151 426 192T490 301T513
449Q513 507 490 536T425 565Q373 565 332 524T268 414T244 263Q244 208 267 180T333 151Z" />
<glyph unicode="R" glyph-name="R" horiz-adv-x="650" d="M16 0L167 714H356Q479 714 544 665T610 518Q610 453 589 409T535 339T472 299L601 0H393L298 260H262L207 0H16ZM318 405Q356 405 387 428T419 506Q419 532 405 550T353 568H327L293 405H318Z" />
<glyph unicode="S" glyph-name="S" horiz-adv-x="548" d="M205 -10Q152 -10 104 2T21 37V208Q60 184 113 166T211 147Q284 147 284 205Q284 232 261 254T204 303Q155 344 125 390T95 502Q95 567 127 617T216 695T348 724Q406 724 460 711T558 672L492 527Q458
544 421 557T350 570Q310 570 298 552T285 516Q285 494 301 473T364 416Q423 372 450 326T477 219Q477 113 407 52T205 -10Z" />
<glyph unicode="T" glyph-name="T" horiz-adv-x="552" d="M115 0L231 556H76L110 714H612L577 556H422L306 0H115Z" />
<glyph unicode="U" glyph-name="U" horiz-adv-x="701" d="M298 -10Q224 -10 171 17T89 90T61 197Q61 212 62 229T67 263L164 714H355L260 268Q257 254 255 240T253 212Q253 183 269 167T316 150Q359 150 384 179T424 278L517 714H708L611 259Q593 172 556 112T457
21T298 -10Z" />
<glyph unicode="V" glyph-name="V" horiz-adv-x="617" d="M124 0L73 714H260L272 354Q273 328 273 294T271 226T265 173H269Q278 212 293 255T318 321L489 714H691L337 0H124Z" />
<glyph unicode="W" glyph-name="W" horiz-adv-x="935" d="M98 0L74 714H255L250 356Q249 313 247 267T241 188H245Q256 221 271 261T303 337L467 714H631V327Q631 311 631 285T629 232T626 180H630Q638 206 649 240T672 309T696 372L831 714H1020L710 0H485V274Q485
312 486 354T491 437H487Q472 391 456 347T420 259L310 0H98Z" />
<glyph unicode="X" glyph-name="X" horiz-adv-x="663" d="M-61 0L214 379L105 714H308L368 485L519 714H738L475 360L603 0H392L321 243L156 0H-61Z" />
<glyph unicode="Y" glyph-name="Y" horiz-adv-x="604" d="M137 0L196 277L80 714H277L321 449L473 714H686L387 277L328 0H137Z" />
<glyph unicode="Z" glyph-name="Z" horiz-adv-x="539" d="M-45 0L-22 118L315 558H81L114 714H595L570 594L228 156H493L460 0H-45Z" />
<glyph unicode="[" glyph-name="bracketleft" horiz-adv-x="360" d="M-26 -168L166 734H425L398 610H293L154 -44H259L233 -168H-26Z" />
<glyph unicode="\" glyph-name="backslash" horiz-adv-x="467" d="M224 -10L108 724H259L380 -10H224Z" />
<glyph unicode="]" glyph-name="bracketright" horiz-adv-x="360" d="M-65 -168L-39 -44H65L204 610H99L126 734H384L192 -168H-65Z" />
<glyph unicode="^" glyph-name="asciicircum" horiz-adv-x="535" d="M-3 245L305 714H389L528 245H394L318 523L142 245H-3Z" />
<glyph unicode="_" glyph-name="underscore" horiz-adv-x="450" d="M-90 -185L-62 -65H392L364 -185H-90Z" />
<glyph unicode="`" glyph-name="grave" horiz-adv-x="353" d="M268 606Q235 637 199 678T144 756V766H337Q343 734 354 695T383 618V606H268Z" />
<glyph unicode="a" glyph-name="a" horiz-adv-x="607" d="M198 -10Q156 -10 120 10T63 76T41 201Q41 241 50 290T79 387T127 475T197 539T287 563Q334 563 364 542T415 485H419L445 553H596L479 0H328L333 60H329Q307 29 277 10T198 -10ZM276 142Q298 142 315
161T346 212T365 280Q367 295 369 310T371 341Q371 373 361 392T331 411Q305 411 283 381T248 306T234 212Q234 142 276 142Z" />
<glyph unicode="b" glyph-name="b" horiz-adv-x="607" d="M321 -10Q279 -10 249 6T189 61H185L161 0H11L172 760H361L337 647Q328 601 315 561T293 500H297Q317 524 340 543T409 563Q452 563 487 543T544 477T566 352Q566 312 557 263T528 166T480 78T411 14T321
-10ZM275 142Q301 142 323 172T359 248T373 341Q373 411 331 411Q309 411 292 392T262 343T244 278T237 212Q237 181 246 162T275 142Z" />
<glyph unicode="c" glyph-name="c" horiz-adv-x="504" d="M247 -10Q191 -10 144 13T69 86T41 216Q41 314 77 392T180 517T337 563Q389 563 431 554T516 524L456 384Q431 395 402 404T346 413Q317 413 295 395T259 348T238 287T231 228Q231 179 247 161T292 142Q327
142 360 153T430 184V34Q391 13 348 2T247 -10Z" />
<glyph unicode="d" glyph-name="d" horiz-adv-x="604" d="M198 -10Q156 -10 120 10T63 76T41 201Q41 241 50 290T79 387T127 475T196 539T286 563Q331 563 355 543T402 489H406Q406 495 407 516T411 563T419 613L449 760H640L479 0H328L333 60H329Q309 32 280
11T198 -10ZM276 142Q298 142 315 161T345 211T364 276T371 341Q371 373 362 392T332 411Q306 411 284 381T248 306T234 212Q234 142 276 142Z" />
<glyph unicode="e" glyph-name="e" horiz-adv-x="579" d="M260 -10Q155 -10 98 48T41 209Q41 277 60 340T119 454T217 533T358 563Q451 563 504 521T557 409Q557 318 486 262T260 206H231V198Q231 126 311 126Q353 126 390 139T471 174V40Q427 18 380 4T260 -10ZM264
324Q328 324 353 348T378 398Q378 414 368 424T337 435Q315 435 297 418T266 376T250 324H264Z" />
<glyph unicode="f" glyph-name="f" horiz-adv-x="410" d="M-1 -240Q-27 -240 -56 -236T-102 -227V-79Q-88 -83 -73 -85T-45 -88Q-9 -88 9 -73T35 -27L128 411H47L68 504L160 551L168 587Q189 681 239 723T374 765Q413 765 450 758T512 737L464 608Q450 615 434
619T401 623Q364 623 356 588L348 553H451L419 411H317L217 -57Q206 -110 181 -151T111 -216T-1 -240Z" />
<glyph unicode="g" glyph-name="g" horiz-adv-x="607" d="M191 -240Q130 -240 89 -231T13 -209V-54Q51 -74 95 -85T186 -96Q232 -96 258 -74T294 -18L299 4Q304 27 312 54H308Q289 29 262 12T187 -5Q146 -5 113 14T60 78T41 199Q41 240 50 289T79 386T127 474T196
539T286 563Q333 563 360 545T415 485H419L445 553H596L476 -13Q458 -99 416 -148T317 -219T191 -240ZM276 142Q298 142 315 161T345 211T364 276T371 341Q371 373 362 392T332 411Q306 411 284 381T248 306T234 212Q234 142 276 142Z" />
<glyph unicode="h" glyph-name="h" horiz-adv-x="622" d="M11 0L172 760H361L335 638Q328 603 316 565T292 500H296Q322 533 355 548T429 563Q481 563 513 542T560 485T575 406Q575 378 572 349T563 294L501 0H312L375 302Q378 315 381 334T384 371Q384 392 373
402T347 413Q319 413 296 380T257 270L200 0H11Z" />
<glyph unicode="i" glyph-name="i" horiz-adv-x="325" d="M244 606Q204 606 178 621T151 675Q151 725 180 751T261 777Q299 777 326 762T354 708Q354 662 327 634T244 606ZM11 0L128 553H318L200 0H11Z" />
<glyph unicode="j" glyph-name="j" horiz-adv-x="325" d="M248 606Q208 606 182 621T155 675Q155 725 184 751T265 777Q303 777 330 762T358 708Q358 662 331 634T248 606ZM-28 -240Q-54 -240 -83 -236T-129 -227V-79Q-111 -85 -99 -86T-74 -88Q-44 -88 -21 -72T11
-16L132 553H321L194 -46Q184 -96 159 -140T88 -212T-28 -240Z" />
<glyph unicode="k" glyph-name="k" horiz-adv-x="617" d="M11 0L170 760H359L291 436Q285 409 276 376T260 326H264L455 553H671L431 303L565 0H351L283 191L234 165L200 0H11Z" />
<glyph unicode="l" glyph-name="l" horiz-adv-x="325" d="M11 0L172 760H361L200 0H11Z" />
<glyph unicode="m" glyph-name="m" horiz-adv-x="926" d="M11 0L128 553H279L271 462H275Q304 517 341 540T435 563Q492 563 523 537T567 462H571Q632 563 739 563Q807 563 843 522T879 400Q879 355 868 300L807 0H618L681 308Q683 318 685 335T688 373Q688 413
654 413Q618 413 596 376T558 265L504 0H315L379 308Q381 319 383 337T386 367Q386 392 376 402T351 413Q323 413 300 384T258 269L200 0H11Z" />
<glyph unicode="n" glyph-name="n" horiz-adv-x="622" d="M11 0L128 553H279L273 476H277Q304 523 340 543T429 563Q481 563 513 542T560 485T575 406Q575 378 572 349T563 294L501 0H312L375 302Q378 315 381 334T384 371Q384 392 373 402T347 413Q319 413 296
379T257 270L200 0H11Z" />
<glyph unicode="o" glyph-name="o" horiz-adv-x="607" d="M254 -10Q152 -10 97 45T41 203Q41 274 61 338T120 453T217 533T353 563Q455 563 510 508T566 350Q566 279 546 215T487 100T390 20T254 -10ZM275 132Q303 132 325 165T360 250T373 356Q373 421 331 421Q303
421 281 388T247 303T234 197Q234 132 275 132Z" />
<glyph unicode="p" glyph-name="p" horiz-adv-x="607" d="M-40 -240L128 553H279L273 491H277Q300 526 330 544T403 563Q477 563 521 510T566 359Q566 290 549 225T499 106T421 22T318 -10Q281 -10 253 9T205 61H201Q198 22 193 -16T174 -120L149 -240H-40ZM280
142Q306 142 327 172T360 248T373 341Q373 411 331 411Q309 411 292 392T263 343T244 279T237 212Q237 181 248 162T280 142Z" />
<glyph unicode="q" glyph-name="q" horiz-adv-x="607" d="M270 -97Q281 -51 293 -10T314 54H310Q291 28 264 9T189 -10Q153 -10 119 11T63 77T41 199Q41 240 50 289T79 386T127 474T196 539T286 563Q333 563 360 545T415 485H419L445 553H596L428 -240H237L270
-97ZM276 142Q298 142 315 161T345 211T364 276T371 341Q371 373 362 392T332 411Q306 411 284 381T248 306T234 212Q234 142 276 142Z" />
<glyph unicode="r" glyph-name="r" horiz-adv-x="437" d="M11 0L128 553H279L270 461H274Q309 520 346 541T440 563Q451 563 463 562T479 559L438 372Q428 377 412 380T378 383Q334 383 302 353T252 243L200 0H11Z" />
<glyph unicode="s" glyph-name="s" horiz-adv-x="502" d="M189 -10Q134 -10 91 -2T15 21V173Q60 148 98 139T177 129Q189 129 204 131T231 141T243 163Q243 174 238 183T217 204T167 234Q115 263 92 299T68 388Q68 466 123 514T295 563Q349 563 394 550T482 511L423
388Q395 406 361 420T297 434Q260 434 260 401Q260 387 275 376T325 348Q435 294 435 192Q435 89 369 40T189 -10Z" />
<glyph unicode="t" glyph-name="t" horiz-adv-x="457" d="M200 -10Q128 -10 91 21T53 123Q53 143 57 169T65 215L106 411H31L51 504L157 547L224 664H350L326 553H467L436 411H295L254 224Q251 210 249 196T246 173Q246 157 255 150T277 142Q296 142 319 148T366
165V23Q335 8 295 -1T200 -10Z" />
<glyph unicode="u" glyph-name="u" horiz-adv-x="622" d="M193 -10Q142 -10 110 11T62 69T47 147Q47 175 50 204T59 259L121 553H310L247 252Q244 239 241 220T238 183Q238 162 249 152T275 141Q300 141 324 175T365 284L422 553H611L494 0H343L349 77H345Q318
31 282 11T193 -10Z" />
<glyph unicode="v" glyph-name="v" horiz-adv-x="544" d="M114 0L43 553H231L241 275Q242 256 242 237T240 201H244Q248 215 255 234T269 267L400 553H602L303 0H114Z" />
<glyph unicode="w" glyph-name="w" horiz-adv-x="823" d="M82 0L50 553H228V283Q228 256 226 228T222 177H226Q232 201 240 225T255 271L361 553H560L546 281Q545 266 544 238T539 177H543Q552 207 560 231T580 284L691 553H879L616 0H410L417 219Q419 257 422
308T429 400H425Q415 359 399 313T372 237L281 0H82Z" />
<glyph unicode="x" glyph-name="x" horiz-adv-x="566" d="M-58 0L173 282L72 553H278L315 400L406 553H630L403 272L514 0H305L266 160L163 0H-58Z" />
<glyph unicode="y" glyph-name="y" horiz-adv-x="544" d="M12 -240Q-16 -240 -34 -238T-63 -232V-82Q-54 -84 -40 -86T-10 -88Q34 -88 60 -70T108 -14L119 6L40 553H230L249 299Q251 274 251 251T250 206H254Q261 229 271 256T288 301L397 553H600L273 -70Q228
-156 168 -198T12 -240Z" />
<glyph unicode="z" glyph-name="z" horiz-adv-x="485" d="M-20 0L1 108L246 407H76L109 553H505L479 435L237 146H424L392 0H-20Z" />
<glyph unicode="{" glyph-name="braceleft" horiz-adv-x="359" d="M226 -158Q130 -158 90 -122T50 -23Q50 8 57 39L75 124Q78 136 78 145Q78 177 60 194T-8 212L18 352Q78 352 104 371T141 436L168 556Q179 605 200 640T262 695T368 714H431L401 577Q365 576 344
564T315 514L289 388Q277 332 240 309T153 280V276Q197 262 216 234T236 162Q236 153 235 144T231 126L214 46Q211 31 211 22Q211 -1 225 -11T266 -21V-158H226Z" />
<glyph unicode="|" glyph-name="bar" horiz-adv-x="566" d="M216 -227V756H348V-227H216Z" />
<glyph unicode="}" glyph-name="braceright" horiz-adv-x="359" d="M-60 -21Q-24 -19 -6 -14T20 4T34 42L60 168Q72 224 108 247T196 276V280Q153 294 133 322T113 394Q113 403 115 412T118 430L135 510Q138 525 138 534Q138 577 72 577L98 714H128Q192 714 229
696T282 647T299 580Q299 548 292 517L274 432Q271 420 271 411Q271 379 293 362T365 345L337 205Q277 205 248 185T208 120L181 0Q171 -49 148 -84T84 -139T-24 -158H-60V-21Z" />
<glyph unicode="~" glyph-name="asciitilde" horiz-adv-x="586" d="M274 289Q237 305 210 310T159 316Q130 316 101 299T45 257V394Q71 420 102 433T174 447Q203 447 232 442T311 416Q348 400 376 395T427 389Q455 389 485 406T540 448V311Q489 258 411 258Q382
258 353 264T274 289Z" />
<glyph unicode="&#xa0;" glyph-name="uni00A0" horiz-adv-x="260" />
<glyph unicode="&#xa1;" glyph-name="exclamdown" horiz-adv-x="304" d="M167 375Q125 375 102 395T79 451Q79 507 111 535T195 563Q247 563 266 541T286 489Q286 441 257 408T167 375ZM-53 -165L71 297H231L155 -165H-53Z" />
<glyph unicode="&#xa2;" glyph-name="cent" horiz-adv-x="580" d="M207 92Q151 108 113 153T75 286Q75 385 106 463T193 591T325 652L341 724H453L437 651Q471 646 497 637T550 614L490 474Q459 489 434 496T380 503Q351 503 330 485T294 437T274 373T267 306Q267
268 282 251T326 234Q361 234 394 246T464 278V126Q430 108 395 97T314 82L294 -10H182L207 92Z" />
<glyph unicode="&#xa3;" glyph-name="sterling" horiz-adv-x="580" d="M22 153Q60 164 82 178T116 214T135 271L145 318H53L81 454H173L184 517Q199 601 231 645T311 707T415 724Q471 724 514 712T597 682L527 536Q495 551 472 559T423 567Q406 567 396 555T378
510L366 454H489L461 318H338L328 272Q318 227 288 201T229 161H524L489 0H-9L22 153Z" />
<glyph unicode="&#xa4;" glyph-name="currency" horiz-adv-x="580" d="M383 173Q364 165 341 159T293 153Q268 153 245 157T202 172L142 114L53 203L115 263Q93 306 93 353Q93 378 99 401T115 443L52 504L142 594L204 533Q224 542 248 548T293 554Q340 554 383
531L444 594L536 507L473 444Q494 404 494 353Q494 328 489 306T473 262L533 202L444 113L383 173ZM293 279Q325 279 347 300T369 353Q369 385 347 406T293 427Q262 427 241 406T220 353Q220 322 241 301T293 279Z" />
<glyph unicode="&#xa5;" glyph-name="yen" horiz-adv-x="580" d="M128 0L148 93H37L58 193H169L181 256H71L93 356H180L89 714H277L312 476L455 714H647L408 356H498L476 256H367L354 193H463L442 93H333L313 0H128Z" />
<glyph unicode="&#xa6;" glyph-name="brokenbar" horiz-adv-x="566" d="M217 344V755H349V344H217ZM217 -217V193H349V-217H217Z" />
<glyph unicode="&#xa7;" glyph-name="section" horiz-adv-x="506" d="M184 -12Q131 -12 88 0T18 34V156Q59 131 102 114T193 97Q235 97 250 114T266 148Q266 167 251 183T200 218Q145 249 111 287T77 379Q77 414 97 451T164 516Q145 535 135 560T125 610Q125 694
186 732T347 770Q397 770 440 757T523 720L474 611Q447 629 412 644T331 660Q302 660 290 649T277 624Q277 607 289 592T350 553Q418 522 443 484T469 401Q469 340 445 308T387 257Q421 217 421 159Q421 79 361 34T184 -12ZM295 314Q309 324 320 339T331 376Q331
427 256 459Q238 450 227 433T216 399Q216 373 240 353T295 314Z" />
<glyph unicode="&#xa8;" glyph-name="dieresis" horiz-adv-x="554" d="M485 614Q449 614 426 626T402 676Q402 724 428 745T500 767Q530 767 556 756T582 706Q582 665 561 640T485 614ZM247 614Q211 614 188 626T164 676Q164 724 190 745T262 767Q282 767 301
763T332 745T345 706Q345 665 324 640T247 614Z" />
<glyph unicode="&#xa9;" glyph-name="copyright" horiz-adv-x="824" d="M412 -10Q332 -10 265 17T149 93T72 210T45 357Q45 437 72 504T148 620T265 697T412 724Q492 724 559 697T675 621T752 504T779 357Q779 277 752 210T676 94T559 17T412 -10ZM412 70Q494
70 556 106T653 208T689 357Q689 442 654 506T556 607T412 644Q330 644 267 608T169 507T133 357Q133 273 168 208T267 107T412 70ZM413 128Q305 128 251 191T196 359Q196 461 249 523T408 585Q453 585 491 575T565 547L520 447Q495 461 471 467T417 474Q378 474
356 444T333 357Q333 295 354 267T420 239Q452 239 484 247T546 272V159Q515 143 484 136T413 128Z" />
<glyph unicode="&#xaa;" glyph-name="ordfeminine" horiz-adv-x="404" d="M172 356Q151 356 127 368T85 409T68 489Q68 528 79 568T111 643T163 699T236 720Q275 720 298 707T340 672H344L362 714H459L376 362H281L285 404H281Q262 384 236 370T172 356ZM235 445Q256
445 269 459T291 494T303 537T307 575Q307 597 299 614T272 631Q250 631 234 609T210 555T201 494Q201 471 210 458T235 445Z" />
<glyph unicode="&#xab;" glyph-name="guillemotleft" horiz-adv-x="623" d="M392 37L297 284V289L504 531L631 428L495 279L555 104L392 37ZM119 37L30 270V275L229 528L358 428L228 265L282 104L119 37Z" />
<glyph unicode="&#xac;" glyph-name="logicalnot" horiz-adv-x="586" d="M540 418V116H408V287H45V418H540Z" />
<glyph unicode="&#xad;" glyph-name="uni00AD" horiz-adv-x="329" d="M11 192L42 344H312L281 192H11Z" />
<glyph unicode="&#xae;" glyph-name="registered" horiz-adv-x="824" d="M412 -10Q332 -10 265 17T149 93T72 210T45 357Q45 437 72 504T148 620T265 697T412 724Q492 724 559 697T675 621T752 504T779 357Q779 277 752 210T676 94T559 17T412 -10ZM412 70Q494
70 556 106T653 208T689 357Q689 442 654 506T556 607T412 644Q330 644 267 608T169 507T133 357Q133 273 168 208T267 107T412 70ZM253 153V580H389Q493 580 537 546T582 448Q582 397 562 371T513 330L608 153H472L401 309H384V153H253ZM389 395Q418 395 434 405T450
443Q450 469 434 477T390 485H384V395H389Z" />
<glyph unicode="&#xaf;" glyph-name="overscore" horiz-adv-x="450" d="M101 759L129 879H583L555 759H101Z" />
<glyph unicode="&#xb0;" glyph-name="degree" horiz-adv-x="422" d="M211 366Q159 366 118 388T54 451T31 544Q31 596 54 636T118 700T211 724Q264 724 304 701T368 637T391 544Q391 492 368 452T305 389T211 366ZM211 482Q240 482 257 499T275 544Q275 573 258
591T211 609Q182 609 165 591T147 544Q147 516 164 499T211 482Z" />
<glyph unicode="&#xb1;" glyph-name="plusminus" horiz-adv-x="586" d="M358 461H540V330H358V154H227V330H45V461H227V640H358V461ZM45 0V131H540V0H45Z" />
<glyph unicode="&#xb2;" glyph-name="uni00B2" horiz-adv-x="414" d="M61 415L82 515L217 618Q267 656 286 677T305 715Q305 729 296 734T274 740Q257 740 233 731T182 701L124 794Q164 824 206 839T314 854Q376 854 419 826T462 748Q462 694 425 654T312 564L274
540H430L405 415H61Z" />
<glyph unicode="&#xb3;" glyph-name="uni00B3" horiz-adv-x="414" d="M236 409Q184 409 149 417T84 443V553Q115 532 148 523T209 513Q283 513 283 552Q283 564 272 574T228 585H169L190 680H237Q272 680 293 690T314 723Q314 737 304 744T277 751Q258 751 239
745T187 719L138 808Q177 832 215 843T305 854Q366 854 409 829T453 752Q453 701 422 677T340 640V636Q385 625 403 602T421 547Q421 491 374 450T236 409Z" />
<glyph unicode="&#xb4;" glyph-name="acute" horiz-adv-x="401" d="M112 617Q147 646 184 688T250 766H464V759Q453 746 428 725T370 682T306 639T251 606H112V617Z" />
<glyph unicode="&#xb5;" glyph-name="uni00B5" horiz-adv-x="629" d="M-40 -240L128 553H317L254 252Q251 239 248 220T245 183Q245 162 256 152T282 141Q306 141 321 153T349 197T372 284L429 553H618L501 0H360L363 60H359Q326 -10 266 -10Q217 -10 202 28H198Q195
-11 189 -46T175 -120L149 -240H-40Z" />
<glyph unicode="&#xb6;" glyph-name="paragraph" horiz-adv-x="643" d="M316 273Q301 269 289 267T255 264Q193 264 147 287T76 364T50 509Q50 605 77 659T155 737T270 760H579V-127H486V648H409V-127H316V273Z" />
<glyph unicode="&#xb7;" glyph-name="middot" horiz-adv-x="306" d="M141 260Q103 260 80 278T56 334Q56 393 91 420T175 448Q214 448 238 430T263 372Q263 308 230 284T141 260Z" />
<glyph unicode="&#xb8;" glyph-name="cedilla" horiz-adv-x="187" d="M-14 -240Q-44 -240 -67 -237T-108 -226V-126Q-91 -131 -67 -135T-34 -139Q-1 -139 -1 -115Q-1 -101 -14 -88T-72 -66L-35 0H65L53 -20Q91 -28 115 -49T140 -115Q140 -174 100 -207T-14 -240Z" />
<glyph unicode="&#xb9;" glyph-name="uni00B9" horiz-adv-x="414" d="M218 593Q226 628 233 654T245 694Q235 686 224 677T209 665L151 627L93 717L301 844H424L333 415H178L218 593Z" />
<glyph unicode="&#xba;" glyph-name="ordmasculine" horiz-adv-x="399" d="M227 355Q157 355 117 393T76 500Q76 558 98 608T167 690T285 722Q353 722 394 684T435 571Q435 516 413 467T346 386T227 355ZM239 455Q261 455 275 474T296 520T303 574Q303 596 296
609T273 622Q251 622 237 601T216 552T209 502Q209 477 217 466T239 455Z" />
<glyph unicode="&#xbb;" glyph-name="guillemotright" horiz-adv-x="623" d="M394 21L265 121L395 284L341 445L504 512L593 279V274L394 21ZM119 17L-7 121L128 270L69 445L231 512L326 265V260L119 17Z" />
<glyph unicode="&#xbc;" glyph-name="onequarter" horiz-adv-x="932" d="M150 0L682 714H824L295 0H150ZM209 463Q217 498 224 524T236 564Q226 556 215 547T200 535L142 497L84 587L292 714H415L324 285H169L209 463ZM665 0L678 60H484L499 147L738 429H897L839
157H894L874 60H819L806 0H665ZM619 157H698L718 234Q723 254 730 278T741 312Q733 299 717 278T689 244L619 157Z" />
<glyph unicode="&#xbd;" glyph-name="onehalf" horiz-adv-x="977" d="M143 0L675 714H817L288 0H143ZM209 464Q217 499 224 525T236 565Q226 557 215 548T200 536L142 498L84 588L292 715H415L324 286H169L209 464ZM536 0L557 100L692 203Q742 241 761 262T780
300Q780 314 771 319T749 325Q732 325 708 316T657 286L599 379Q639 409 681 424T789 439Q851 439 894 411T937 333Q937 279 900 239T787 149L749 125H905L880 0H536Z" />
<glyph unicode="&#xbe;" glyph-name="threequarters" horiz-adv-x="954" d="M211 279Q159 279 124 287T59 313V423Q90 402 123 393T184 383Q258 383 258 422Q258 434 247 444T203 455H144L165 550H212Q247 550 268 560T289 593Q289 607 279 614T252 621Q233 621
214 615T162 589L113 678Q152 702 190 713T280 724Q341 724 384 699T428 622Q428 571 397 547T315 510V506Q360 495 378 472T396 417Q396 361 349 320T211 279ZM176 0L708 714H850L321 0H176ZM687 0L700 60H506L521 147L760 429H919L861 157H916L896 60H841L828
0H687ZM641 157H720L740 234Q745 254 752 278T763 312Q755 299 739 278T711 244L641 157Z" />
<glyph unicode="&#xbf;" glyph-name="questiondown" horiz-adv-x="488" d="M322 565Q374 565 393 543T413 491Q413 443 384 410T294 377Q252 377 229 397T206 453Q206 509 238 537T322 565ZM363 301Q353 247 339 213T299 153T230 98Q181 66 166 49T151 14Q151
-1 160 -10T195 -20Q222 -20 262 -7T348 33L406 -105Q360 -133 302 -152T181 -171Q82 -171 25 -127T-33 -6Q-33 49 -14 84T37 144T102 190Q140 213 158 228T186 259T203 301H363Z" />
<glyph unicode="&#xc0;" glyph-name="Agrave" horiz-adv-x="676" d="M-59 0L304 714H550L610 0H424L419 134H200L139 0H-59ZM270 286H413L406 491Q405 515 405 538T405 583H402Q387 538 367 495L270 286ZM417 767Q384 798 348 839T293 917V927H486Q492 895 503
856T532 779V767H417Z" />
<glyph unicode="&#xc1;" glyph-name="Aacute" horiz-adv-x="676" d="M-59 0L304 714H550L610 0H424L419 134H200L139 0H-59ZM270 286H413L406 491Q405 515 405 538T405 583H402Q387 538 367 495L270 286ZM343 778Q378 807 415 849T481 927H695V920Q684 907 659
886T601 843T537 800T482 767H343V778Z" />
<glyph unicode="&#xc2;" glyph-name="Acircumflex" horiz-adv-x="676" d="M-59 0L304 714H550L610 0H424L419 134H200L139 0H-59ZM270 286H413L406 491Q405 515 405 538T405 583H402Q387 538 367 495L270 286ZM205 778Q228 799 255 825T310 879T356 927H574Q584
905 599 878T630 824T662 778V767H532Q521 777 507 792T479 824T456 852Q428 830 399 809T339 767H205V778Z" />
<glyph unicode="&#xc3;" glyph-name="Atilde" horiz-adv-x="676" d="M-59 0L304 714H550L610 0H424L419 134H200L139 0H-59ZM270 286H413L406 491Q405 515 405 538T405 583H402Q387 538 367 495L270 286ZM239 765Q256 856 295 894T392 932Q421 932 444 920T488
896T532 884Q549 884 564 896T588 933H681Q662 841 623 804T524 766Q493 766 468 778T422 802T378 814Q363 814 349 801T331 765H239Z" />
<glyph unicode="&#xc4;" glyph-name="Adieresis" horiz-adv-x="676" d="M-59 0L304 714H550L610 0H424L419 134H200L139 0H-59ZM270 286H413L406 491Q405 515 405 538T405 583H402Q387 538 367 495L270 286ZM566 775Q530 775 507 787T483 837Q483 885 509 906T581
928Q611 928 637 917T663 867Q663 826 642 801T566 775ZM328 775Q292 775 269 787T245 837Q245 885 271 906T343 928Q363 928 382 924T413 906T426 867Q426 826 405 801T328 775Z" />
<glyph unicode="&#xc5;" glyph-name="Aring" horiz-adv-x="676" d="M-59 0L304 714H550L610 0H424L419 134H200L139 0H-59ZM270 286H413L406 491Q405 515 405 538T405 583H402Q387 538 367 495L270 286ZM449 765Q391 765 355 798T318 888Q318 946 354 979T449
1012Q504 1012 542 979T580 889Q580 831 543 798T449 765ZM449 847Q466 847 479 858T492 888Q492 907 479 918T449 930Q432 930 419 919T406 888Q406 870 417 859T449 847Z" />
<glyph unicode="&#xc6;" glyph-name="AE" horiz-adv-x="946" d="M-61 0L383 714H975L943 559H710L687 447H904L869 292H652L624 157H857L824 0H400L428 134H224L141 0H-61ZM323 294H463L518 559H485L323 294Z" />
<glyph unicode="&#xc7;" glyph-name="Ccedilla" horiz-adv-x="630" d="M315 -10Q226 -10 167 25T80 122T51 268Q51 332 65 397T107 521T181 626T288 698T430 725Q501 725 558 708T665 661L593 512Q547 539 509 552T430 566Q387 566 353 542T294 477T257 385T244
278Q244 213 271 181T350 148Q394 148 435 159T530 192V34Q478 11 425 1T315 -10ZM286 -240Q256 -240 233 -237T192 -226V-126Q209 -131 233 -135T266 -139Q299 -139 299 -115Q299 -101 286 -88T228 -66L265 0H365L353 -20Q391 -28 415 -49T440 -115Q440 -174 400
-207T286 -240Z" />
<glyph unicode="&#xc8;" glyph-name="Egrave" horiz-adv-x="562" d="M16 0L167 714H591L559 559H326L303 447H520L485 292H268L240 157H473L440 0H16ZM370 767Q337 798 301 839T246 917V927H439Q445 895 456 856T485 779V767H370Z" />
<glyph unicode="&#xc9;" glyph-name="Eacute" horiz-adv-x="562" d="M16 0L167 714H591L559 559H326L303 447H520L485 292H268L240 157H473L440 0H16ZM296 778Q331 807 368 849T434 927H648V920Q637 907 612 886T554 843T490 800T435 767H296V778Z" />
<glyph unicode="&#xca;" glyph-name="Ecircumflex" horiz-adv-x="562" d="M16 0L167 714H591L559 559H326L303 447H520L485 292H268L240 157H473L440 0H16ZM158 778Q181 799 208 825T263 879T309 927H527Q537 905 552 878T583 824T615 778V767H485Q474 777 460
792T432 824T409 852Q381 830 352 809T292 767H158V778Z" />
<glyph unicode="&#xcb;" glyph-name="Edieresis" horiz-adv-x="562" d="M16 0L167 714H591L559 559H326L303 447H520L485 292H268L240 157H473L440 0H16ZM519 775Q483 775 460 787T436 837Q436 885 462 906T534 928Q564 928 590 917T616 867Q616 826 595 801T519
775ZM281 775Q245 775 222 787T198 837Q198 885 224 906T296 928Q316 928 335 924T366 906T379 867Q379 826 358 801T281 775Z" />
<glyph unicode="&#xcc;" glyph-name="Igrave" horiz-adv-x="426" d="M-36 0L-13 109L81 148L169 562L91 604L114 714H481L458 604L360 562L272 148L351 109L328 0H-36ZM283 767Q250 798 214 839T159 917V927H352Q358 895 369 856T398 779V767H283Z" />
<glyph unicode="&#xcd;" glyph-name="Iacute" horiz-adv-x="426" d="M-36 0L-13 109L81 148L169 562L91 604L114 714H481L458 604L360 562L272 148L351 109L328 0H-36ZM209 778Q244 807 281 849T347 927H561V920Q550 907 525 886T467 843T403 800T348 767H209V778Z" />
<glyph unicode="&#xce;" glyph-name="Icircumflex" horiz-adv-x="426" d="M-36 0L-13 109L81 148L169 562L91 604L114 714H481L458 604L360 562L272 148L351 109L328 0H-36ZM71 778Q94 799 121 825T176 879T222 927H440Q450 905 465 878T496 824T528 778V767H398Q387
777 373 792T345 824T322 852Q294 830 265 809T205 767H71V778Z" />
<glyph unicode="&#xcf;" glyph-name="Idieresis" horiz-adv-x="426" d="M-36 0L-13 109L81 148L169 562L91 604L114 714H481L458 604L360 562L272 148L351 109L328 0H-36ZM432 775Q396 775 373 787T349 837Q349 885 375 906T447 928Q477 928 503 917T529 867Q529
826 508 801T432 775ZM194 775Q158 775 135 787T111 837Q111 885 137 906T209 928Q229 928 248 924T279 906T292 867Q292 826 271 801T194 775Z" />
<glyph unicode="&#xd0;" glyph-name="Eth" horiz-adv-x="684" d="M16 0L74 275H5L39 431H107L167 714H370Q501 714 577 645T653 444Q653 306 605 207T465 54T246 0H16ZM275 158Q330 158 371 192T436 289T460 434Q460 495 434 526T360 558H325L298 431H385L352
275H266L241 158H275Z" />
<glyph unicode="&#xd1;" glyph-name="Ntilde" horiz-adv-x="790" d="M16 0L167 714H389L529 234H533Q536 256 540 289T550 356T561 415L625 714H795L644 0H422L281 502H277Q276 492 274 469T268 415T259 353T249 298L186 0H16ZM301 765Q318 856 357 894T454 932Q483
932 506 920T550 896T594 884Q611 884 626 896T650 933H743Q724 841 685 804T586 766Q555 766 530 778T484 802T440 814Q425 814 411 801T393 765H301Z" />
<glyph unicode="&#xd2;" glyph-name="Ograve" horiz-adv-x="737" d="M325 -10Q189 -10 120 65T51 265Q51 348 74 429T145 578T266 685T438 725Q570 725 638 650T706 450Q706 367 684 286T614 137T496 30T325 -10ZM342 148Q390 148 429 189T490 298T513 448Q513
504 490 535T422 567Q382 567 349 541T293 471T257 374T244 266Q244 148 342 148ZM441 767Q408 798 372 839T317 917V927H510Q516 895 527 856T556 779V767H441Z" />
<glyph unicode="&#xd3;" glyph-name="Oacute" horiz-adv-x="737" d="M325 -10Q189 -10 120 65T51 265Q51 348 74 429T145 578T266 685T438 725Q570 725 638 650T706 450Q706 367 684 286T614 137T496 30T325 -10ZM342 148Q390 148 429 189T490 298T513 448Q513
504 490 535T422 567Q382 567 349 541T293 471T257 374T244 266Q244 148 342 148ZM367 778Q402 807 439 849T505 927H719V920Q708 907 683 886T625 843T561 800T506 767H367V778Z" />
<glyph unicode="&#xd4;" glyph-name="Ocircumflex" horiz-adv-x="737" d="M325 -10Q189 -10 120 65T51 265Q51 348 74 429T145 578T266 685T438 725Q570 725 638 650T706 450Q706 367 684 286T614 137T496 30T325 -10ZM342 148Q390 148 429 189T490 298T513 448Q513
504 490 535T422 567Q382 567 349 541T293 471T257 374T244 266Q244 148 342 148ZM229 778Q252 799 279 825T334 879T380 927H598Q608 905 623 878T654 824T686 778V767H556Q545 777 531 792T503 824T480 852Q452 830 423 809T363 767H229V778Z" />
<glyph unicode="&#xd5;" glyph-name="Otilde" horiz-adv-x="737" d="M325 -10Q189 -10 120 65T51 265Q51 348 74 429T145 578T266 685T438 725Q570 725 638 650T706 450Q706 367 684 286T614 137T496 30T325 -10ZM342 148Q390 148 429 189T490 298T513 448Q513
504 490 535T422 567Q382 567 349 541T293 471T257 374T244 266Q244 148 342 148ZM263 765Q280 856 319 894T416 932Q445 932 468 920T512 896T556 884Q573 884 588 896T612 933H705Q686 841 647 804T548 766Q517 766 492 778T446 802T402 814Q387 814 373 801T355
765H263Z" />
<glyph unicode="&#xd6;" glyph-name="Odieresis" horiz-adv-x="737" d="M325 -10Q189 -10 120 65T51 265Q51 348 74 429T145 578T266 685T438 725Q570 725 638 650T706 450Q706 367 684 286T614 137T496 30T325 -10ZM342 148Q390 148 429 189T490 298T513 448Q513
504 490 535T422 567Q382 567 349 541T293 471T257 374T244 266Q244 148 342 148ZM596 775Q560 775 537 787T513 837Q513 885 539 906T611 928Q641 928 667 917T693 867Q693 826 672 801T596 775ZM358 775Q322 775 299 787T275 837Q275 885 301 906T373 928Q393
928 412 924T443 906T456 867Q456 826 435 801T358 775Z" />
<glyph unicode="&#xd7;" glyph-name="multiply" horiz-adv-x="586" d="M424 576L516 487L382 353L514 220L424 130L290 262L158 131L70 222L199 353L69 484L158 576L290 446L424 576Z" />
<glyph unicode="&#xd8;" glyph-name="Oslash" horiz-adv-x="737" d="M124 -42L46 15L103 86Q51 154 51 265Q51 348 74 429T144 578T262 685T429 725Q476 725 514 716T583 690L628 746L704 688L656 627Q706 557 706 450Q706 367 683 286T614 137T498 30T334 -10Q286
-10 247 -1T176 24L124 -42ZM472 551Q450 567 416 567Q367 567 328 528T267 425T245 287V263L472 551ZM342 148Q392 148 430 185T490 286T512 425V447L286 162Q309 148 342 148Z" />
<glyph unicode="&#xd9;" glyph-name="Ugrave" horiz-adv-x="701" d="M298 -10Q224 -10 171 17T89 90T61 197Q61 212 62 229T67 263L164 714H355L260 268Q257 254 255 240T253 212Q253 183 269 167T316 150Q359 150 384 179T424 278L517 714H708L611 259Q593 172
556 112T457 21T298 -10ZM418 767Q385 798 349 839T294 917V927H487Q493 895 504 856T533 779V767H418Z" />
<glyph unicode="&#xda;" glyph-name="Uacute" horiz-adv-x="701" d="M298 -10Q224 -10 171 17T89 90T61 197Q61 212 62 229T67 263L164 714H355L260 268Q257 254 255 240T253 212Q253 183 269 167T316 150Q359 150 384 179T424 278L517 714H708L611 259Q593 172
556 112T457 21T298 -10ZM344 778Q379 807 416 849T482 927H696V920Q685 907 660 886T602 843T538 800T483 767H344V778Z" />
<glyph unicode="&#xdb;" glyph-name="Ucircumflex" horiz-adv-x="701" d="M298 -10Q224 -10 171 17T89 90T61 197Q61 212 62 229T67 263L164 714H355L260 268Q257 254 255 240T253 212Q253 183 269 167T316 150Q359 150 384 179T424 278L517 714H708L611 259Q593
172 556 112T457 21T298 -10ZM206 778Q229 799 256 825T311 879T357 927H575Q585 905 600 878T631 824T663 778V767H533Q522 777 508 792T480 824T457 852Q429 830 400 809T340 767H206V778Z" />
<glyph unicode="&#xdc;" glyph-name="Udieresis" horiz-adv-x="701" d="M298 -10Q224 -10 171 17T89 90T61 197Q61 212 62 229T67 263L164 714H355L260 268Q257 254 255 240T253 212Q253 183 269 167T316 150Q359 150 384 179T424 278L517 714H708L611 259Q593
172 556 112T457 21T298 -10ZM573 775Q537 775 514 787T490 837Q490 885 516 906T588 928Q618 928 644 917T670 867Q670 826 649 801T573 775ZM335 775Q299 775 276 787T252 837Q252 885 278 906T350 928Q370 928 389 924T420 906T433 867Q433 826 412 801T335
775Z" />
<glyph unicode="&#xdd;" glyph-name="Yacute" horiz-adv-x="604" d="M137 0L196 277L80 714H277L321 449L473 714H686L387 277L328 0H137ZM283 778Q318 807 355 849T421 927H635V920Q624 907 599 886T541 843T477 800T422 767H283V778Z" />
<glyph unicode="&#xde;" glyph-name="Thorn" horiz-adv-x="623" d="M16 0L167 714H358L337 610H349Q437 610 490 581T566 504T590 396Q590 311 551 253T441 164T277 134H235L207 0H16ZM300 290Q346 290 372 314T399 390Q399 416 380 435T326 455H304L269 290H300Z" />
<glyph unicode="&#xdf;" glyph-name="germandbls" horiz-adv-x="713" d="M-26 -240Q-52 -240 -81 -236T-127 -227V-79Q-113 -83 -98 -85T-70 -88Q-34 -88 -16 -73T10 -27L129 535Q145 609 179 660T274 738T431 765Q559 765 621 714T683 583Q683 522 657 485T579
422Q539 403 531 391T522 372Q522 355 534 345T565 326T606 300Q635 280 650 252T665 182Q665 135 642 91T565 18T421 -10Q375 -10 344 -4T287 12V158Q313 145 351 137T419 128Q448 128 461 139T475 163Q475 174 471 182T453 201T410 230Q360 262 345 290T329 348Q329
400 354 427T430 483Q465 503 479 520T493 559Q493 579 478 598T416 617Q378 617 352 593T315 521L192 -57Q181 -110 156 -151T86 -216T-26 -240Z" />
<glyph unicode="&#xe0;" glyph-name="agrave" horiz-adv-x="607" d="M198 -10Q156 -10 120 10T63 76T41 201Q41 241 50 290T79 387T127 475T197 539T287 563Q334 563 364 542T415 485H419L445 553H596L479 0H328L333 60H329Q307 29 277 10T198 -10ZM276 142Q298
142 315 161T346 212T365 280Q367 295 369 310T371 341Q371 373 361 392T331 411Q305 411 283 381T248 306T234 212Q234 142 276 142ZM347 606Q314 637 278 678T223 756V766H416Q422 734 433 695T462 618V606H347Z" />
<glyph unicode="&#xe1;" glyph-name="aacute" horiz-adv-x="607" d="M198 -10Q156 -10 120 10T63 76T41 201Q41 241 50 290T79 387T127 475T197 539T287 563Q334 563 364 542T415 485H419L445 553H596L479 0H328L333 60H329Q307 29 277 10T198 -10ZM276 142Q298
142 315 161T346 212T365 280Q367 295 369 310T371 341Q371 373 361 392T331 411Q305 411 283 381T248 306T234 212Q234 142 276 142ZM273 617Q308 646 345 688T411 766H625V759Q614 746 589 725T531 682T467 639T412 606H273V617Z" />
<glyph unicode="&#xe2;" glyph-name="acircumflex" horiz-adv-x="607" d="M198 -10Q156 -10 120 10T63 76T41 201Q41 241 50 290T79 387T127 475T197 539T287 563Q334 563 364 542T415 485H419L445 553H596L479 0H328L333 60H329Q307 29 277 10T198 -10ZM276 142Q298
142 315 161T346 212T365 280Q367 295 369 310T371 341Q371 373 361 392T331 411Q305 411 283 381T248 306T234 212Q234 142 276 142ZM135 617Q158 638 185 664T240 718T286 766H504Q514 744 529 717T560 663T592 617V606H462Q451 616 437 631T409 663T386 691Q358
669 329 648T269 606H135V617Z" />
<glyph unicode="&#xe3;" glyph-name="atilde" horiz-adv-x="607" d="M198 -10Q156 -10 120 10T63 76T41 201Q41 241 50 290T79 387T127 475T197 539T287 563Q334 563 364 542T415 485H419L445 553H596L479 0H328L333 60H329Q307 29 277 10T198 -10ZM276 142Q298
142 315 161T346 212T365 280Q367 295 369 310T371 341Q371 373 361 392T331 411Q305 411 283 381T248 306T234 212Q234 142 276 142ZM169 604Q186 695 225 733T322 771Q351 771 374 759T418 735T462 723Q479 723 494 735T518 772H611Q592 680 553 643T454 605Q423
605 398 617T352 641T308 653Q293 653 279 640T261 604H169Z" />
<glyph unicode="&#xe4;" glyph-name="adieresis" horiz-adv-x="607" d="M198 -10Q156 -10 120 10T63 76T41 201Q41 241 50 290T79 387T127 475T197 539T287 563Q334 563 364 542T415 485H419L445 553H596L479 0H328L333 60H329Q307 29 277 10T198 -10ZM276 142Q298
142 315 161T346 212T365 280Q367 295 369 310T371 341Q371 373 361 392T331 411Q305 411 283 381T248 306T234 212Q234 142 276 142ZM496 614Q460 614 437 626T413 676Q413 724 439 745T511 767Q541 767 567 756T593 706Q593 665 572 640T496 614ZM258 614Q222
614 199 626T175 676Q175 724 201 745T273 767Q293 767 312 763T343 745T356 706Q356 665 335 640T258 614Z" />
<glyph unicode="&#xe5;" glyph-name="aring" horiz-adv-x="607" d="M198 -10Q156 -10 120 10T63 76T41 201Q41 241 50 290T79 387T127 475T197 539T287 563Q334 563 364 542T415 485H419L445 553H596L479 0H328L333 60H329Q307 29 277 10T198 -10ZM276 142Q298
142 315 161T346 212T365 280Q367 295 369 310T371 341Q371 373 361 392T331 411Q305 411 283 381T248 306T234 212Q234 142 276 142ZM379 604Q321 604 285 637T248 727Q248 785 284 818T379 851Q434 851 472 818T510 728Q510 670 473 637T379 604ZM379 686Q396
686 409 697T422 727Q422 746 409 757T379 769Q362 769 349 758T336 727Q336 709 347 698T379 686Z" />
<glyph unicode="&#xe6;" glyph-name="ae" horiz-adv-x="873" d="M198 -10Q156 -10 120 10T63 76T41 201Q41 241 50 290T79 387T127 475T197 539T287 563Q334 563 363 543T415 485H419L445 553H546V507Q569 530 605 546T682 563Q759 563 805 521T851 409Q851 318
780 262T554 206H525V198Q525 126 605 126Q647 126 684 139T765 174V40Q727 18 686 4T582 -10Q495 -10 454 45L439 0H328L333 60H329Q307 29 277 10T198 -10ZM558 324Q622 324 647 348T672 398Q672 414 662 424T631 435Q609 435 591 418T560 376T544 324H558ZM276
142Q298 142 315 161T346 212T365 280Q368 295 369 310T370 341Q370 373 359 392T327 411Q301 411 280 381T247 306T234 212Q234 142 276 142Z" />
<glyph unicode="&#xe7;" glyph-name="ccedilla" horiz-adv-x="504" d="M247 -10Q191 -10 144 13T69 86T41 216Q41 314 77 392T180 517T337 563Q389 563 431 554T516 524L456 384Q431 395 402 404T346 413Q317 413 295 395T259 348T238 287T231 228Q231 179 247
161T292 142Q327 142 360 153T430 184V34Q391 13 348 2T247 -10ZM188 -240Q158 -240 135 -237T94 -226V-126Q111 -131 135 -135T168 -139Q201 -139 201 -115Q201 -101 188 -88T130 -66L167 0H267L255 -20Q293 -28 317 -49T342 -115Q342 -174 302 -207T188 -240Z"
/>
<glyph unicode="&#xe8;" glyph-name="egrave" horiz-adv-x="579" d="M260 -10Q155 -10 98 48T41 209Q41 277 60 340T119 454T217 533T358 563Q451 563 504 521T557 409Q557 318 486 262T260 206H231V198Q231 126 311 126Q353 126 390 139T471 174V40Q427 18 380
4T260 -10ZM264 324Q328 324 353 348T378 398Q378 414 368 424T337 435Q315 435 297 418T266 376T250 324H264ZM338 606Q305 637 269 678T214 756V766H407Q413 734 424 695T453 618V606H338Z" />
<glyph unicode="&#xe9;" glyph-name="eacute" horiz-adv-x="579" d="M260 -10Q155 -10 98 48T41 209Q41 277 60 340T119 454T217 533T358 563Q451 563 504 521T557 409Q557 318 486 262T260 206H231V198Q231 126 311 126Q353 126 390 139T471 174V40Q427 18 380
4T260 -10ZM264 324Q328 324 353 348T378 398Q378 414 368 424T337 435Q315 435 297 418T266 376T250 324H264ZM264 617Q299 646 336 688T402 766H616V759Q605 746 580 725T522 682T458 639T403 606H264V617Z" />
<glyph unicode="&#xea;" glyph-name="ecircumflex" horiz-adv-x="579" d="M260 -10Q155 -10 98 48T41 209Q41 277 60 340T119 454T217 533T358 563Q451 563 504 521T557 409Q557 318 486 262T260 206H231V198Q231 126 311 126Q353 126 390 139T471 174V40Q427
18 380 4T260 -10ZM264 324Q328 324 353 348T378 398Q378 414 368 424T337 435Q315 435 297 418T266 376T250 324H264ZM126 617Q149 638 176 664T231 718T277 766H495Q505 744 520 717T551 663T583 617V606H453Q442 616 428 631T400 663T377 691Q349 669 320 648T260
606H126V617Z" />
<glyph unicode="&#xeb;" glyph-name="edieresis" horiz-adv-x="579" d="M260 -10Q155 -10 98 48T41 209Q41 277 60 340T119 454T217 533T358 563Q451 563 504 521T557 409Q557 318 486 262T260 206H231V198Q231 126 311 126Q353 126 390 139T471 174V40Q427 18
380 4T260 -10ZM264 324Q328 324 353 348T378 398Q378 414 368 424T337 435Q315 435 297 418T266 376T250 324H264ZM487 614Q451 614 428 626T404 676Q404 724 430 745T502 767Q532 767 558 756T584 706Q584 665 563 640T487 614ZM249 614Q213 614 190 626T166
676Q166 724 192 745T264 767Q284 767 303 763T334 745T347 706Q347 665 326 640T249 614Z" />
<glyph unicode="&#xec;" glyph-name="igrave" horiz-adv-x="325" d="M11 0L128 553H318L200 0H11ZM464 606Q431 637 395 678T340 756V766H533Q539 734 550 695T579 618V606H464Z" />
<glyph unicode="&#xed;" glyph-name="iacute" horiz-adv-x="325" d="M11 0L128 553H318L200 0H11ZM134 617Q169 646 206 688T272 766H486V759Q475 746 450 725T392 682T328 639T273 606H134V617Z" />
<glyph unicode="&#xee;" glyph-name="icircumflex" horiz-adv-x="325" d="M11 0L128 553H318L200 0H11ZM252 617Q275 638 302 664T357 718T403 766H621Q631 744 646 717T677 663T709 617V606H579Q568 616 554 631T526 663T503 691Q475 669 446 648T386 606H252V617Z" />
<glyph unicode="&#xef;" glyph-name="idieresis" horiz-adv-x="325" d="M11 0L128 553H318L200 0H11ZM613 614Q577 614 554 626T530 676Q530 724 556 745T628 767Q658 767 684 756T710 706Q710 665 689 640T613 614ZM375 614Q339 614 316 626T292 676Q292 724
318 745T390 767Q410 767 429 763T460 745T473 706Q473 665 452 640T375 614Z" />
<glyph unicode="&#xf0;" glyph-name="eth" horiz-adv-x="564" d="M254 -10Q157 -10 99 48T41 208Q41 288 70 353T154 456T289 495Q327 495 350 482T388 452L393 454Q389 483 378 515T349 574L216 512L176 594L283 644Q272 654 260 663T237 680L293 768Q324 755
352 738T406 701L522 755L562 674L472 630Q496 600 513 554T540 455T549 350Q549 274 534 209T483 94T392 18T254 -10ZM271 127Q294 127 311 142T338 182T354 232T359 279Q359 316 350 337T318 358Q294 358 277 342T250 300T235 247T230 199Q230 127 271 127Z"
/>
<glyph unicode="&#xf1;" glyph-name="ntilde" horiz-adv-x="622" d="M11 0L128 553H279L273 476H277Q304 523 340 543T429 563Q481 563 513 542T560 485T575 406Q575 378 572 349T563 294L501 0H312L375 302Q378 315 381 334T384 371Q384 392 373 402T347 413Q319
413 296 379T257 270L200 0H11ZM184 604Q201 695 240 733T337 771Q366 771 389 759T433 735T477 723Q494 723 509 735T533 772H626Q607 680 568 643T469 605Q438 605 413 617T367 641T323 653Q308 653 294 640T276 604H184Z" />
<glyph unicode="&#xf2;" glyph-name="ograve" horiz-adv-x="607" d="M254 -10Q152 -10 97 45T41 203Q41 274 61 338T120 453T217 533T353 563Q455 563 510 508T566 350Q566 279 546 215T487 100T390 20T254 -10ZM275 132Q303 132 325 165T360 250T373 356Q373
421 331 421Q303 421 281 388T247 303T234 197Q234 132 275 132ZM344 606Q311 637 275 678T220 756V766H413Q419 734 430 695T459 618V606H344Z" />
<glyph unicode="&#xf3;" glyph-name="oacute" horiz-adv-x="607" d="M254 -10Q152 -10 97 45T41 203Q41 274 61 338T120 453T217 533T353 563Q455 563 510 508T566 350Q566 279 546 215T487 100T390 20T254 -10ZM275 132Q303 132 325 165T360 250T373 356Q373
421 331 421Q303 421 281 388T247 303T234 197Q234 132 275 132ZM270 617Q305 646 342 688T408 766H622V759Q611 746 586 725T528 682T464 639T409 606H270V617Z" />
<glyph unicode="&#xf4;" glyph-name="ocircumflex" horiz-adv-x="607" d="M254 -10Q152 -10 97 45T41 203Q41 274 61 338T120 453T217 533T353 563Q455 563 510 508T566 350Q566 279 546 215T487 100T390 20T254 -10ZM275 132Q303 132 325 165T360 250T373 356Q373
421 331 421Q303 421 281 388T247 303T234 197Q234 132 275 132ZM132 617Q155 638 182 664T237 718T283 766H501Q511 744 526 717T557 663T589 617V606H459Q448 616 434 631T406 663T383 691Q355 669 326 648T266 606H132V617Z" />
<glyph unicode="&#xf5;" glyph-name="otilde" horiz-adv-x="607" d="M254 -10Q152 -10 97 45T41 203Q41 274 61 338T120 453T217 533T353 563Q455 563 510 508T566 350Q566 279 546 215T487 100T390 20T254 -10ZM275 132Q303 132 325 165T360 250T373 356Q373
421 331 421Q303 421 281 388T247 303T234 197Q234 132 275 132ZM166 604Q183 695 222 733T319 771Q348 771 371 759T415 735T459 723Q476 723 491 735T515 772H608Q589 680 550 643T451 605Q420 605 395 617T349 641T305 653Q290 653 276 640T258 604H166Z" />
<glyph unicode="&#xf6;" glyph-name="odieresis" horiz-adv-x="607" d="M254 -10Q152 -10 97 45T41 203Q41 274 61 338T120 453T217 533T353 563Q455 563 510 508T566 350Q566 279 546 215T487 100T390 20T254 -10ZM275 132Q303 132 325 165T360 250T373 356Q373
421 331 421Q303 421 281 388T247 303T234 197Q234 132 275 132ZM493 614Q457 614 434 626T410 676Q410 724 436 745T508 767Q538 767 564 756T590 706Q590 665 569 640T493 614ZM255 614Q219 614 196 626T172 676Q172 724 198 745T270 767Q290 767 309 763T340
745T353 706Q353 665 332 640T255 614Z" />
<glyph unicode="&#xf7;" glyph-name="divide" horiz-adv-x="586" d="M292 460Q261 460 239 480T216 543Q216 590 238 608T292 626Q322 626 345 608T369 543Q369 500 346 480T292 460ZM45 287V418H540V287H45ZM292 79Q261 79 239 99T216 162Q216 209 238 227T292
245Q322 245 345 227T369 162Q369 119 346 99T292 79Z" />
<glyph unicode="&#xf8;" glyph-name="oslash" horiz-adv-x="628" d="M94 -54L32 -1L87 63Q65 90 53 124T41 203Q41 274 61 338T123 453T224 533T363 563Q400 563 430 556T485 535L536 594L598 541L547 481Q566 456 576 424T587 350Q587 279 567 215T506 100T406
20T268 -10Q234 -10 205 -3T152 14L94 -54ZM383 414Q366 428 343 428Q299 428 263 378T220 239Q219 235 219 230T219 220L383 414ZM288 127Q331 127 365 166T407 296Q407 301 407 306T408 317L253 134Q267 127 288 127Z" />
<glyph unicode="&#xf9;" glyph-name="ugrave" horiz-adv-x="622" d="M193 -10Q142 -10 110 11T62 69T47 147Q47 175 50 204T59 259L121 553H310L247 252Q244 239 241 220T238 183Q238 162 249 152T275 141Q300 141 324 175T365 284L422 553H611L494 0H343L349
77H345Q318 31 282 11T193 -10ZM349 606Q316 637 280 678T225 756V766H418Q424 734 435 695T464 618V606H349Z" />
<glyph unicode="&#xfa;" glyph-name="uacute" horiz-adv-x="622" d="M193 -10Q142 -10 110 11T62 69T47 147Q47 175 50 204T59 259L121 553H310L247 252Q244 239 241 220T238 183Q238 162 249 152T275 141Q300 141 324 175T365 284L422 553H611L494 0H343L349
77H345Q318 31 282 11T193 -10ZM275 617Q310 646 347 688T413 766H627V759Q616 746 591 725T533 682T469 639T414 606H275V617Z" />
<glyph unicode="&#xfb;" glyph-name="ucircumflex" horiz-adv-x="622" d="M193 -10Q142 -10 110 11T62 69T47 147Q47 175 50 204T59 259L121 553H310L247 252Q244 239 241 220T238 183Q238 162 249 152T275 141Q300 141 324 175T365 284L422 553H611L494 0H343L349
77H345Q318 31 282 11T193 -10ZM137 617Q160 638 187 664T242 718T288 766H506Q516 744 531 717T562 663T594 617V606H464Q453 616 439 631T411 663T388 691Q360 669 331 648T271 606H137V617Z" />
<glyph unicode="&#xfc;" glyph-name="udieresis" horiz-adv-x="622" d="M193 -10Q142 -10 110 11T62 69T47 147Q47 175 50 204T59 259L121 553H310L247 252Q244 239 241 220T238 183Q238 162 249 152T275 141Q300 141 324 175T365 284L422 553H611L494 0H343L349
77H345Q318 31 282 11T193 -10ZM498 614Q462 614 439 626T415 676Q415 724 441 745T513 767Q543 767 569 756T595 706Q595 665 574 640T498 614ZM260 614Q224 614 201 626T177 676Q177 724 203 745T275 767Q295 767 314 763T345 745T358 706Q358 665 337 640T260
614Z" />
<glyph unicode="&#xfd;" glyph-name="yacute" horiz-adv-x="544" d="M12 -240Q-16 -240 -34 -238T-63 -232V-82Q-54 -84 -40 -86T-10 -88Q34 -88 60 -70T108 -14L119 6L40 553H230L249 299Q251 274 251 251T250 206H254Q261 229 271 256T288 301L397 553H600L273
-70Q228 -156 168 -198T12 -240ZM226 617Q261 646 298 688T364 766H578V759Q567 746 542 725T484 682T420 639T365 606H226V617Z" />
<glyph unicode="&#xfe;" glyph-name="thorn" horiz-adv-x="607" d="M-40 -240L172 760H361L337 647Q328 601 315 561T293 500H297Q318 529 344 546T408 563Q480 563 523 510T566 359Q566 290 549 225T499 106T421 22T318 -10Q281 -10 253 9T205 61H201Q198 22
193 -16T174 -120L149 -240H-40ZM280 142Q306 142 327 172T360 248T373 341Q373 411 331 411Q310 411 292 392T261 341T242 273Q239 258 238 243T237 212Q237 181 248 162T280 142Z" />
<glyph unicode="&#xff;" glyph-name="ydieresis" horiz-adv-x="544" d="M12 -240Q-16 -240 -34 -238T-63 -232V-82Q-54 -84 -40 -86T-10 -88Q34 -88 60 -70T108 -14L119 6L40 553H230L249 299Q251 274 251 251T250 206H254Q261 229 271 256T288 301L397 553H600L273
-70Q228 -156 168 -198T12 -240ZM705 614Q669 614 646 626T622 676Q622 724 648 745T720 767Q750 767 776 756T802 706Q802 665 781 640T705 614ZM467 614Q431 614 408 626T384 676Q384 724 410 745T482 767Q502 767 521 763T552 745T565 706Q565 665 544 640T467
614Z" />
<glyph unicode="&#x2013;" glyph-name="endash" horiz-adv-x="480" d="M16 203L44 337H469L440 203H16Z" />
<glyph unicode="&#x2014;" glyph-name="emdash" horiz-adv-x="960" d="M16 203L44 337H949L920 203H16Z" />
<glyph unicode="&#x2018;" glyph-name="quoteleft" horiz-adv-x="244" d="M53 480Q76 531 110 594T179 714H320Q295 655 271 588T228 469H58L53 480Z" />
<glyph unicode="&#x2019;" glyph-name="quoteright" horiz-adv-x="244" d="M46 469Q71 528 95 595T138 714H308L312 703Q290 652 256 589T187 469H46Z" />
<glyph unicode="&#x201a;" glyph-name="quotesinglbase" horiz-adv-x="303" d="M-51 -129Q-25 -70 -2 -3T41 116H211L215 105Q193 54 159 -9T90 -129H-51Z" />
<glyph unicode="&#x201c;" glyph-name="quotedblleft" horiz-adv-x="487" d="M296 480Q319 531 352 594T421 714H562Q537 655 514 588T470 469H300L296 480ZM53 480Q76 531 110 594T179 714H320Q295 655 271 588T228 469H58L53 480Z" />
<glyph unicode="&#x201d;" glyph-name="quotedblright" horiz-adv-x="487" d="M289 469Q314 528 338 595T381 714H551L554 703Q532 652 499 589T430 469H289ZM46 469Q71 528 95 595T138 714H308L312 703Q290 652 256 589T187 469H46Z" />
<glyph unicode="&#x201e;" glyph-name="quotedblbase" horiz-adv-x="548" d="M194 -129Q219 -70 243 -3T286 116H456L460 105Q438 54 404 -9T334 -129H194ZM-51 -129Q-25 -70 -2 -3T41 116H211L215 105Q193 54 159 -9T90 -129H-51Z" />
<glyph unicode="&#x2022;" glyph-name="bullet" horiz-adv-x="392" d="M185 190Q116 190 79 230T42 336Q42 390 63 436T125 511T228 540Q305 540 338 500T372 393Q372 338 353 292T292 218T185 190Z" />
<glyph unicode="&#x2039;" glyph-name="guilsinglleft" horiz-adv-x="351" d="M119 37L30 270V275L229 528L358 428L228 265L282 104L119 37Z" />
<glyph unicode="&#x203a;" glyph-name="guilsinglright" horiz-adv-x="351" d="M122 21L-7 121L123 284L69 445L231 512L321 279V274L122 21Z" />
</font>
</defs>
</svg>
