<?xml version="1.0" standalone="no"?>
<!DOCTYPE svg PUBLIC "-//W3C//DTD SVG 1.1//EN" "http://www.w3.org/Graphics/SVG/1.1/DTD/svg11.dtd">
<svg xmlns="http://www.w3.org/2000/svg">
<defs >
<font id="NotoSans" horiz-adv-x="609" ><font-face
    font-family="Noto Sans ExtraBold"
    units-per-em="1000"
    panose-1="2 11 9 2 4 5 4 9 2 4"
    ascent="1069"
    descent="-293"
    alphabetic="0" />
<glyph unicode=" " glyph-name="space" horiz-adv-x="260" />
<glyph unicode="!" glyph-name="exclam" horiz-adv-x="294" d="M65 244L144 714H329L207 244H65ZM92 -13Q46 -13 28 9T9 59Q9 100 35 132T118 164Q155 164 176 145T198 90Q198 42 169 15T92 -13Z" />
<glyph unicode="&quot;" glyph-name="quotedbl" horiz-adv-x="453" d="M299 456L335 714H485L410 456H299ZM94 456L129 714H279L203 456H94Z" />
<glyph unicode="#" glyph-name="numbersign" horiz-adv-x="646" d="M71 0L126 196H14L23 304H156L187 410H68L78 519H218L274 714H392L336 519H426L482 714H599L544 519H657L647 410H513L482 304H604L595 196H451L395 0H277L333 196H244L188 0H71ZM274 304H364L395
410H305L274 304Z" />
<glyph unicode="$" glyph-name="dollar" horiz-adv-x="564" d="M198 37Q143 41 101 52T27 81L26 219Q70 197 121 182T225 163L257 310Q187 337 142 378T97 491Q97 582 163 632T337 690L352 760H427L411 689Q452 685 488 675T559 646L509 524Q481 538 448 548T384
561L354 420Q430 388 472 349T514 241Q514 154 452 99T271 36L252 -58H178L198 37ZM310 560Q253 551 253 499Q253 465 286 450L310 560ZM299 165Q362 177 362 227Q362 247 352 260T324 282L299 165Z" />
<glyph unicode="%" glyph-name="percent" horiz-adv-x="890" d="M203 276Q132 276 94 317T56 438Q56 482 67 531T102 625T167 696T266 724Q338 724 375 683T413 563Q413 520 403 471T368 377T304 304T203 276ZM127 0L658 714H785L257 0H127ZM212 385Q229 385 242
403T264 450T279 511T284 570Q284 615 257 615Q242 615 229 598T207 552T192 492T186 429Q186 385 212 385ZM652 -9Q579 -9 541 31T503 147Q503 196 514 247T550 341T615 412T713 439Q785 439 822 398T860 280Q860 235 850 185T815 91T751 19T652 -9ZM659 99Q676
99 689 117T711 164T726 225T731 285Q731 329 704 329Q689 329 676 312T654 266T639 206T633 144Q633 99 659 99Z" />
<glyph unicode="&amp;" glyph-name="ampersand" horiz-adv-x="720" d="M250 -10Q142 -10 81 39T20 181Q20 259 63 309T193 396Q174 425 164 459T154 520Q154 620 215 672T377 725Q467 725 516 682T566 571Q566 499 520 449T393 362L473 251Q497 280 515 316T546
391H711Q684 314 645 249T559 134L655 0H464L435 40Q399 18 354 4T250 -10ZM329 455Q363 472 388 496T413 556Q413 579 400 591T368 604Q339 604 323 584T306 531Q306 514 311 493T329 455ZM272 127Q299 127 321 133T361 148L258 297Q224 280 208 256T191 197Q191
170 211 149T272 127Z" />
<glyph unicode="&apos;" glyph-name="quotesingle" horiz-adv-x="247" d="M94 456L129 714H279L203 456H94Z" />
<glyph unicode="(" glyph-name="parenleft" horiz-adv-x="355" d="M108 -158Q72 -95 54 -14T35 147Q35 319 98 459T282 723H424Q353 646 298 557T210 365T178 141Q178 67 193 -12T235 -158H108Z" />
<glyph unicode=")" glyph-name="parenright" horiz-adv-x="355" d="M-69 -158Q2 -81 57 8T143 200T175 424Q175 498 160 577T118 723H246Q283 658 301 578T319 418Q319 246 257 106T74 -158H-69Z" />
<glyph unicode="*" glyph-name="asterisk" horiz-adv-x="544" d="M344 276L303 433L214 305L103 390L232 506L79 550L125 675L285 592L301 768L438 740L382 573L566 587L557 453L398 473L473 315L344 276Z" />
<glyph unicode="+" glyph-name="plus" horiz-adv-x="578" d="M353 412H539V293H353V111H235V293H49V412H235V596H353V412Z" />
<glyph unicode="," glyph-name="comma" horiz-adv-x="295" d="M-50 -129Q-24 -70 0 -3T43 116H196L200 105Q177 52 143 -11T74 -129H-50Z" />
<glyph unicode="-" glyph-name="hyphen" horiz-adv-x="325" d="M16 200L44 336H307L278 200H16Z" />
<glyph unicode="." glyph-name="period" horiz-adv-x="295" d="M87 -13Q46 -13 26 7T6 59Q6 106 35 135T115 164Q151 164 173 145T195 90Q195 38 166 13T87 -13Z" />
<glyph unicode="/" glyph-name="slash" horiz-adv-x="442" d="M-44 -5L357 719H513L111 -5H-44Z" />
<glyph unicode="0" glyph-name="zero" horiz-adv-x="564" d="M234 -10Q134 -10 83 50T32 228Q32 322 51 411T110 571T210 683T352 725Q454 725 503 660T553 488Q553 391 534 302T476 143T377 31T234 -10ZM249 127Q273 127 294 150T332 212T361 299T379 397T385
492Q385 588 334 588Q310 588 289 564T252 499T223 410T205 313T199 224Q199 176 210 152T249 127Z" />
<glyph unicode="1" glyph-name="one" horiz-adv-x="564" d="M274 398Q280 425 290 463T311 531Q300 521 281 507T248 483L151 423L82 536L370 714H506L355 0H187L274 398Z" />
<glyph unicode="2" glyph-name="two" horiz-adv-x="564" d="M-26 0L-3 114L232 323Q312 394 341 439T371 519Q371 550 355 565T311 581Q277 581 243 563T167 508L86 620Q138 666 200 695T340 724Q405 724 449 701T517 637T540 547Q540 492 518 444T451 349T340
245L224 147V142H483L454 0H-26Z" />
<glyph unicode="3" glyph-name="three" horiz-adv-x="564" d="M196 -10Q141 -10 91 0T7 29V174Q49 149 96 137T190 125Q255 125 296 149T338 228Q338 251 327 268T288 294T207 304H152L176 427H213Q257 427 294 437T354 470T377 528Q377 552 360 570T304 588Q265
588 231 574T168 543L99 653Q148 685 202 704T338 724Q435 724 489 678T544 558Q544 482 498 434T373 370V366Q433 355 469 316T505 213Q505 147 468 97T362 18T196 -10Z" />
<glyph unicode="4" glyph-name="four" horiz-adv-x="564" d="M240 0L270 143H-9L15 262L389 714H552L459 273H538L510 143H432L402 0H240ZM168 273H297L323 382Q329 403 335 429T348 478T358 510H354Q344 492 328 468T295 423L168 273Z" />
<glyph unicode="5" glyph-name="five" horiz-adv-x="564" d="M205 -10Q149 -10 95 0T12 30V174Q48 153 94 140T186 126Q265 126 300 158T335 239Q335 275 312 301T234 327Q206 327 178 322T132 311L77 352L180 714H562L532 572H297L261 454Q273 456 286 457T311
458Q366 458 410 436T480 370T507 258Q507 136 430 63T205 -10Z" />
<glyph unicode="6" glyph-name="six" horiz-adv-x="564" d="M261 -10Q149 -10 95 56T41 238Q41 312 58 386T109 525T189 633Q245 684 309 704T463 725Q493 725 522 721T575 711L547 578Q528 583 503 586T456 590Q384 590 338 568T261 501T211 388H215Q238 421
273 445T367 470Q440 470 483 424T527 282Q527 231 512 180T465 85T383 16T261 -10ZM266 124Q297 124 317 145T348 200T359 269Q359 301 345 320T302 339Q269 339 244 314T211 257Q205 233 205 206Q205 168 221 146T266 124Z" />
<glyph unicode="7" glyph-name="seven" horiz-adv-x="564" d="M28 0L384 572H89L119 714H608L586 611L220 0H28Z" />
<glyph unicode="8" glyph-name="eight" horiz-adv-x="564" d="M256 -10Q180 -10 129 14T52 78T26 168Q26 244 69 294T192 374Q162 398 138 433T113 523Q113 578 140 624T221 697T353 725Q420 725 465 703T534 644T557 562Q557 494 516 447T412 378Q454 348 482
306T511 200Q511 141 482 94T397 18T256 -10ZM323 444Q360 459 380 484T400 542Q400 571 384 586T342 602Q310 602 291 581T271 528Q271 500 285 479T323 444ZM264 113Q306 113 329 138T353 198Q353 234 334 260T284 306Q238 286 212 257T186 187Q186 153 208 133T264
113Z" />
<glyph unicode="9" glyph-name="nine" horiz-adv-x="564" d="M157 -10Q125 -10 97 -6T47 6V143Q68 135 94 130T152 124Q220 126 263 152T331 223T370 324H366Q344 291 310 268T221 244Q140 244 99 298T57 437Q57 485 71 535T116 629T200 698T327 725Q433 725 488
661T543 478Q543 408 529 336T484 198T407 84Q363 41 302 16T157 -10ZM283 375Q316 375 339 400T371 457Q378 481 378 507Q378 543 363 566T317 590Q288 590 267 570T236 519T225 454Q225 375 283 375Z" />
<glyph unicode=":" glyph-name="colon" horiz-adv-x="295" d="M178 382Q138 382 118 402T98 453Q98 500 126 529T207 558Q243 558 265 540T287 485Q287 433 258 408T178 382ZM87 -13Q46 -13 26 7T6 59Q6 106 35 135T115 164Q151 164 173 145T195 90Q195 38 166
13T87 -13Z" />
<glyph unicode=";" glyph-name="semicolon" horiz-adv-x="295" d="M178 382Q138 382 118 402T98 453Q98 500 126 529T207 558Q243 558 265 540T287 485Q287 433 258 408T178 382ZM-53 -129Q-27 -70 -3 -3T40 116H194L198 105Q174 52 140 -11T71 -129H-53Z" />
<glyph unicode="&lt;" glyph-name="less" horiz-adv-x="578" d="M538 93L49 310V386L538 631V501L219 353L538 223V93Z" />
<glyph unicode="=" glyph-name="equal" horiz-adv-x="578" d="M49 396V513H539V396H49ZM49 191V309H539V191H49Z" />
<glyph unicode="&gt;" glyph-name="greater" horiz-adv-x="578" d="M49 223L369 353L49 501V631L538 386V310L49 93V223Z" />
<glyph unicode="?" glyph-name="question" horiz-adv-x="472" d="M125 244Q134 294 148 328T188 390T254 445Q303 478 322 498T341 543Q341 564 329 577T286 590Q254 590 217 577T134 539L83 661Q129 687 185 705T304 724Q397 724 450 681T503 561Q503 508 484
473T433 411T362 360Q329 339 311 323T284 289T266 244H125ZM158 -13Q111 -13 93 9T75 59Q75 100 100 132T183 164Q221 164 242 145T263 90Q263 42 234 15T158 -13Z" />
<glyph unicode="@" glyph-name="at" horiz-adv-x="875" d="M386 -91Q278 -91 202 -49T84 69T43 244Q43 359 80 447T182 596T330 688T507 719Q615 719 693 682T813 576T855 407Q855 346 838 291T787 193T709 125T606 100Q567 100 539 116T500 168H495Q473 136 443
118T367 100Q311 100 274 138T237 251Q237 300 254 348T304 437T385 502T498 527Q545 527 585 519T659 497L609 293Q604 272 601 256T597 225Q597 198 621 198Q652 198 679 225T722 300T738 405Q738 503 679 560T495 617Q399 617 324 573T204 447T160 255Q160 182
187 127T267 42T392 11Q504 11 616 55V-45Q571 -64 512 -77T386 -91ZM402 198Q436 198 458 229T497 323L523 424Q516 427 508 428T490 429Q456 429 432 412T391 369T368 313T360 258Q360 225 372 212T402 198Z" />
<glyph unicode="A" glyph-name="A" horiz-adv-x="650" d="M-60 0L309 714H521L587 0H423L415 153H189L116 0H-60ZM254 292H408L398 486Q396 512 395 539T395 593H392Q384 568 374 544T350 492L254 292Z" />
<glyph unicode="B" glyph-name="B" horiz-adv-x="626" d="M21 0L172 714H394Q502 714 558 674T615 556Q615 484 576 438T464 373V369Q510 355 537 321T565 233Q565 151 528 100T426 24T282 0H21ZM337 435Q441 435 441 521Q441 580 368 580H313L282 435H337ZM284
136Q334 136 364 162T395 232Q395 268 376 286T314 305H255L219 136H284Z" />
<glyph unicode="C" glyph-name="C" horiz-adv-x="620" d="M319 -10Q187 -10 122 66T56 269Q56 332 70 397T113 520T187 625T295 698T436 725Q506 725 557 711T658 668L594 534Q554 557 517 570T436 584Q384 584 345 557T279 485T240 386T227 278Q227 131 351 131Q393
131 434 142T523 172V31Q483 14 432 2T319 -10Z" />
<glyph unicode="D" glyph-name="D" horiz-adv-x="680" d="M21 0L172 714H370Q501 714 575 645T649 444Q649 307 602 208T464 54T246 0H21ZM263 140Q333 140 380 179T453 286T478 435Q478 506 446 540T358 575H312L219 140H263Z" />
<glyph unicode="E" glyph-name="E" horiz-adv-x="551" d="M21 0L172 714H583L554 576H312L284 439H509L479 301H253L219 140H461L432 0H21Z" />
<glyph unicode="F" glyph-name="F" horiz-adv-x="549" d="M21 0L172 714H580L551 576H312L278 414H500L470 275H247L190 0H21Z" />
<glyph unicode="G" glyph-name="G" horiz-adv-x="694" d="M322 -10Q199 -10 128 61T56 271Q56 360 82 441T160 587T290 688T474 725Q591 725 683 675L619 539Q586 558 549 570T469 583Q405 583 359 555T284 481T241 382T227 279Q227 205 257 169T351 132Q374 132
390 134T426 141L455 272H333L363 409H649L568 29Q518 13 461 2T322 -10Z" />
<glyph unicode="H" glyph-name="H" horiz-adv-x="706" d="M21 0L172 714H341L284 441H486L543 714H711L560 0H392L455 300H253L190 0H21Z" />
<glyph unicode="I" glyph-name="I" horiz-adv-x="403" d="M-32 0L-12 97L80 136L174 576L98 617L118 714H458L438 617L342 576L249 136L326 97L306 0H-32Z" />
<glyph unicode="J" glyph-name="J" horiz-adv-x="350" d="M-61 -217Q-90 -217 -114 -213T-158 -203V-65Q-141 -69 -121 -72T-76 -76Q-29 -76 0 -49T45 48L187 714H355L208 25Q190 -62 157 -115T70 -193T-61 -217Z" />
<glyph unicode="K" glyph-name="K" horiz-adv-x="639" d="M21 0L172 714H341L270 387L344 489L524 714H723L442 378L580 0H392L297 286L243 255L190 0H21Z" />
<glyph unicode="L" glyph-name="L" horiz-adv-x="522" d="M21 0L172 714H341L219 139H461L432 0H21Z" />
<glyph unicode="M" glyph-name="M" horiz-adv-x="893" d="M21 0L172 714H395L412 192H416L668 714H898L746 0H594L658 306Q675 384 690 441T715 534H711L452 0H295L279 534H275Q267 482 257 419T235 300L172 0H21Z" />
<glyph unicode="N" glyph-name="N" horiz-adv-x="771" d="M21 0L172 714H369L523 209H527Q530 230 535 263T546 332T557 394L626 714H776L625 0H433L274 522H269Q269 515 266 492T259 438T250 375T239 318L172 0H21Z" />
<glyph unicode="O" glyph-name="O" horiz-adv-x="733" d="M325 -10Q192 -10 124 65T56 263Q56 347 79 429T149 578T268 685T438 725Q569 725 635 651T702 454Q702 369 680 287T612 137T495 30T325 -10ZM339 131Q392 131 436 172T505 286T531 451Q531 512 504 548T424
584Q381 584 345 558T282 486T242 384T227 264Q227 199 256 165T339 131Z" />
<glyph unicode="P" glyph-name="P" horiz-adv-x="616" d="M21 0L172 714H364Q454 714 509 687T588 612T613 503Q613 418 573 361T462 275T301 246H241L190 0H21ZM318 385Q375 385 409 416T444 498Q444 534 424 554T363 575H312L271 385H318Z" />
<glyph unicode="Q" glyph-name="Q" horiz-adv-x="733" d="M331 -10H319Q191 -10 124 65T56 263Q56 347 79 429T149 578T268 685T439 725Q569 725 635 651T702 454Q702 367 679 284T608 133T487 28L607 -170H414L331 -10ZM335 133Q390 133 434 174T505 287T531
452Q531 514 504 548T426 583Q382 583 346 558T283 489T242 386T227 262Q227 198 255 166T335 133Z" />
<glyph unicode="R" glyph-name="R" horiz-adv-x="628" d="M21 0L172 714H354Q468 714 532 667T596 518Q596 457 575 414T520 344T448 301L576 0H392L294 268H246L190 0H21ZM307 401Q359 401 392 426T426 508Q426 541 407 560T344 580H312L275 401H307Z" />
<glyph unicode="S" glyph-name="S" horiz-adv-x="538" d="M199 -10Q145 -10 99 2T20 35V186Q62 162 109 146T202 130Q246 130 272 147T299 199Q299 233 275 256T215 306Q168 342 134 388T99 505Q99 569 130 618T217 696T348 724Q405 724 455 712T549 674L490 546Q454
563 418 574T349 585Q309 585 289 565T269 517Q269 486 289 464T353 411Q412 370 440 323T469 215Q469 142 435 92T340 16T199 -10Z" />
<glyph unicode="T" glyph-name="T" horiz-adv-x="541" d="M123 0L243 573H79L109 714H607L576 573H412L291 0H123Z" />
<glyph unicode="U" glyph-name="U" horiz-adv-x="696" d="M296 -10Q185 -10 125 46T65 194Q65 209 66 227T72 263L168 714H337L242 266Q238 251 236 236T234 208Q234 132 313 132Q368 132 397 165T441 272L535 714H704L606 255Q589 174 553 115T454 23T296 -10Z" />
<glyph unicode="V" glyph-name="V" horiz-adv-x="602" d="M139 0L82 714H246L265 316Q266 293 266 264T265 206T261 158H265Q275 194 289 233T317 301L509 714H685L325 0H139Z" />
<glyph unicode="W" glyph-name="W" horiz-adv-x="913" d="M106 0L83 714H242L241 339Q241 299 239 253T233 170H237Q249 206 265 248T297 325L469 714H616L621 320Q622 303 622 277T620 221T617 167H621Q633 207 651 258T685 347L834 714H1003L690 0H495L490 301Q490
354 490 392T493 469H489Q461 385 428 309L292 0H106Z" />
<glyph unicode="X" glyph-name="X" horiz-adv-x="632" d="M-59 0L219 376L107 714H284L352 472L517 714H709L444 360L574 0H389L311 255L131 0H-59Z" />
<glyph unicode="Y" glyph-name="Y" horiz-adv-x="582" d="M143 0L201 275L86 714H259L313 436L482 714H670L369 275L311 0H143Z" />
<glyph unicode="Z" glyph-name="Z" horiz-adv-x="537" d="M-37 0L-16 107L344 575H93L122 714H590L568 605L204 139H483L454 0H-37Z" />
<glyph unicode="[" glyph-name="bracketleft" horiz-adv-x="344" d="M-22 -163L167 723H411L387 611H282L141 -50H246L222 -163H-22Z" />
<glyph unicode="\" glyph-name="backslash" horiz-adv-x="442" d="M219 -5L108 719H246L361 -5H219Z" />
<glyph unicode="]" glyph-name="bracketright" horiz-adv-x="344" d="M-66 -163L-42 -50H62L202 611H97L122 723H365L176 -163H-66Z" />
<glyph unicode="^" glyph-name="asciicircum" horiz-adv-x="544" d="M8 250L313 716H390L527 250H406L326 545L139 250H8Z" />
<glyph unicode="_" glyph-name="underscore" horiz-adv-x="423" d="M-91 -170L-70 -78H356L335 -170H-91Z" />
<glyph unicode="`" glyph-name="grave" horiz-adv-x="336" d="M265 606Q244 626 221 652T177 705T145 756V766H315Q323 733 336 694T367 618V606H265Z" />
<glyph unicode="a" glyph-name="a" horiz-adv-x="600" d="M198 -10Q157 -10 122 10T65 74T43 194Q43 253 59 317T107 436T185 525T292 559Q342 559 373 538T424 480H428L455 549H586L469 0H340L346 66H342Q317 32 283 11T198 -10ZM265 124Q291 124 313 146T352
203T375 277Q378 295 379 312T381 350Q381 383 367 404T326 425Q303 425 282 406T246 354T221 282T212 203Q212 124 265 124Z" />
<glyph unicode="b" glyph-name="b" horiz-adv-x="601" d="M309 -10Q261 -10 230 9T175 66H171L145 0H15L176 760H342L315 632Q307 595 295 553T273 485H277Q300 514 327 536T403 559Q443 559 478 540T536 475T558 355Q558 296 542 232T494 113T416 24T309 -10ZM274
124Q297 124 318 143T355 195T380 267T389 346Q389 425 335 425Q305 425 284 402T248 344T227 271T220 203Q220 167 234 146T274 124Z" />
<glyph unicode="c" glyph-name="c" horiz-adv-x="493" d="M247 -10Q191 -10 145 11T71 80T43 203Q43 276 62 340T120 454T212 531T335 559Q385 559 425 550T504 522L452 397Q426 409 399 417T342 426Q310 426 286 407T244 356T219 287T211 215Q211 167 230 146T284
124Q320 124 352 135T420 165V31Q383 12 342 1T247 -10Z" />
<glyph unicode="d" glyph-name="d" horiz-adv-x="599" d="M198 -10Q157 -10 122 10T65 74T43 195Q43 254 59 317T107 436T185 525T292 559Q339 559 365 538T412 482H416Q416 486 417 506T422 551T429 598L463 760H630L469 0H339L346 66H342Q317 33 284 12T198
-10ZM267 124Q296 124 317 147T353 205T374 279T381 346Q381 382 367 403T327 425Q303 425 283 406T246 354T221 282T212 203Q212 124 267 124Z" />
<glyph unicode="e" glyph-name="e" horiz-adv-x="567" d="M260 -10Q160 -10 102 45T43 205Q43 273 62 336T120 450T217 529T353 559Q445 559 494 517T544 408Q544 319 469 266T237 212H211Q210 208 210 205T210 197Q210 157 233 135T299 113Q342 113 378 124T460
157V36Q416 14 371 2T260 -10ZM246 320Q321 320 353 345T385 401Q385 443 339 443Q314 443 291 426T251 381T228 320H246Z" />
<glyph unicode="f" glyph-name="f" horiz-adv-x="390" d="M-12 -240Q-37 -240 -63 -237T-105 -228V-96Q-74 -105 -48 -105Q19 -105 34 -32L131 423H50L68 505L158 548L167 587Q188 684 238 724T370 765Q406 765 438 758T496 739L453 621Q438 627 422 631T389 636Q366
636 351 621T331 582L324 549H429L402 423H297L194 -58Q183 -109 159 -150T94 -216T-12 -240Z" />
<glyph unicode="g" glyph-name="g" horiz-adv-x="600" d="M191 -240Q130 -240 90 -231T13 -207V-66Q51 -87 94 -97T184 -108Q280 -108 304 -20L308 -2Q312 13 317 32T327 64H323Q300 35 269 14T189 -8Q149 -8 116 12T63 77T43 193Q43 253 59 317T107 436T185 525T290
559Q341 559 370 539T424 480H428L455 549H586L466 -13Q448 -99 409 -148T314 -219T191 -240ZM268 124Q295 124 316 145T351 201T373 273T381 346Q381 382 367 403T327 425Q303 425 282 406T246 354T221 282T212 203Q212 124 268 124Z" />
<glyph unicode="h" glyph-name="h" horiz-adv-x="612" d="M15 0L176 760H342L315 633Q308 598 295 556T272 485H276Q304 521 339 540T420 559Q493 559 528 515T563 402Q563 380 560 355T552 303L488 0H322L387 311Q390 326 392 343T395 374Q395 400 383 413T350
426Q310 426 281 377T233 246L181 0H15Z" />
<glyph unicode="i" glyph-name="i" horiz-adv-x="310" d="M237 610Q202 610 178 624T154 674Q154 720 180 744T253 768Q286 768 310 754T335 704Q335 662 311 636T237 610ZM15 0L131 549H298L181 0H15Z" />
<glyph unicode="j" glyph-name="j" horiz-adv-x="310" d="M239 610Q204 610 181 624T157 674Q157 720 183 744T255 768Q288 768 313 754T338 704Q338 662 314 636T239 610ZM-37 -240Q-61 -240 -87 -237T-129 -228V-96Q-112 -101 -100 -103T-73 -105Q-43 -105 -21
-87T11 -27L134 549H300L172 -53Q161 -103 137 -145T71 -214T-37 -240Z" />
<glyph unicode="k" glyph-name="k" horiz-adv-x="591" d="M15 0L175 760H341L271 428Q265 402 256 369T241 320H245L452 549H642L400 301L537 0H350L271 199L216 168L181 0H15Z" />
<glyph unicode="l" glyph-name="l" horiz-adv-x="310" d="M15 0L176 760H342L181 0H15Z" />
<glyph unicode="m" glyph-name="m" horiz-adv-x="915" d="M15 0L131 549H261L252 453H256Q287 504 326 531T423 559Q479 559 510 531T552 453H556Q588 503 630 531T728 559Q796 559 831 517T866 399Q866 359 855 306L791 0H625L690 314Q693 327 695 343T698 375Q698
426 656 426Q612 426 583 376T537 245L487 0H320L386 314Q389 328 391 344T394 372Q394 426 352 426Q312 426 283 379T234 246L181 0H15Z" />
<glyph unicode="n" glyph-name="n" horiz-adv-x="612" d="M15 0L131 549H261L253 459H257Q287 507 326 533T420 559Q493 559 528 515T563 402Q563 380 560 355T552 303L488 0H322L387 311Q390 326 392 343T395 374Q395 400 383 413T350 426Q310 426 280 377T233
246L181 0H15Z" />
<glyph unicode="o" glyph-name="o" horiz-adv-x="595" d="M253 -10Q157 -10 100 46T43 201Q43 273 61 337T118 452T212 530T343 559Q441 559 497 503T553 345Q553 275 535 211T479 97T385 19T253 -10ZM270 120Q304 120 330 153T370 238T384 347Q384 384 371 406T327
429Q299 429 278 408T242 353T219 278T211 199Q211 120 270 120Z" />
<glyph unicode="p" glyph-name="p" horiz-adv-x="601" d="M-36 -240L131 549H261L254 476H258Q282 511 317 535T400 559Q466 559 512 510T558 358Q558 291 541 226T490 107T411 22T307 -10Q263 -10 236 11T188 66H184Q181 26 176 -9T161 -95L130 -240H-36ZM276
124Q300 124 320 143T356 195T380 267T389 346Q389 425 335 425Q306 425 284 403T248 345T227 272T220 203Q220 167 235 146T276 124Z" />
<glyph unicode="q" glyph-name="q" horiz-adv-x="600" d="M286 -85Q293 -50 306 -7T328 64H324Q301 34 270 12T190 -10Q154 -10 120 10T65 74T43 193Q43 253 59 317T107 436T185 525T292 559Q340 559 369 539T424 480H428L455 549H586L418 -240H251L286 -85ZM268
124Q297 124 318 147T353 205T374 279T381 346Q381 382 367 403T327 425Q303 425 283 406T246 354T221 282T212 203Q212 124 268 124Z" />
<glyph unicode="r" glyph-name="r" horiz-adv-x="428" d="M15 0L131 549H261L252 452H256Q290 507 330 533T424 559Q436 559 448 558T468 555L432 392Q422 396 408 398T377 401Q328 401 290 364T233 244L181 0H15Z" />
<glyph unicode="s" glyph-name="s" horiz-adv-x="486" d="M181 -10Q77 -10 13 22V157Q91 113 172 113Q198 113 224 123T250 160Q250 173 244 183T221 205T171 236Q119 265 94 299T68 385Q68 466 123 512T285 559Q335 559 379 548T466 510L413 397Q385 415 352
427T287 440Q266 440 252 431T237 400Q237 383 252 371T307 338Q359 312 389 276T419 186Q419 88 355 39T181 -10Z" />
<glyph unicode="t" glyph-name="t" horiz-adv-x="432" d="M200 -10Q132 -10 94 19T56 119Q56 135 58 154T64 191L114 423H39L56 505L156 547L222 663H331L307 549H447L419 423H280L231 195Q229 185 228 175T226 158Q226 140 236 132T263 124Q283 124 303 129T347
144V19Q320 6 284 -2T200 -10Z" />
<glyph unicode="u" glyph-name="u" horiz-adv-x="612" d="M193 -10Q119 -10 85 34T51 147Q51 196 63 255L125 549H291L226 239Q223 224 221 207T218 175Q218 149 230 137T263 124Q302 124 332 173T380 303L432 549H598L482 0H352L360 90H355Q326 42 287 16T193 -10Z" />
<glyph unicode="v" glyph-name="v" horiz-adv-x="527" d="M116 0L47 549H211L228 267Q229 248 229 221T229 172H233Q240 192 250 218T268 261L406 549H585L288 0H116Z" />
<glyph unicode="w" glyph-name="w" horiz-adv-x="804" d="M84 0L56 549H212L213 294Q213 260 212 226T207 157H211Q217 177 225 201T240 246T253 278L363 549H541L534 283Q534 258 533 226T528 157H533Q543 189 556 227T581 295L690 549H857L597 0H415L416 238Q417
261 418 291T421 354T425 411H420Q408 372 392 326T364 252L261 0H84Z" />
<glyph unicode="x" glyph-name="x" horiz-adv-x="547" d="M-53 0L179 281L74 549H253L300 391L407 549H603L376 272L491 0H309L258 164L141 0H-53Z" />
<glyph unicode="y" glyph-name="y" horiz-adv-x="531" d="M7 -240Q-20 -240 -37 -238T-66 -231V-99Q-55 -101 -42 -103T-11 -105Q34 -105 62 -82T113 -19L125 3L45 549H211L234 296Q237 266 237 234T238 176H242Q250 200 261 230T286 291L405 549H584L255 -74Q210
-159 150 -199T7 -240Z" />
<glyph unicode="z" glyph-name="z" horiz-adv-x="469" d="M-22 0L-3 97L262 420H79L107 549H487L464 442L204 129H405L377 0H-22Z" />
<glyph unicode="{" glyph-name="braceleft" horiz-adv-x="357" d="M229 -158Q136 -158 97 -123T58 -31Q58 -14 60 1T65 31L84 119Q86 127 87 135T89 151Q89 184 67 201T-6 218L18 343Q78 343 108 363T150 430L178 560Q189 609 210 643T271 696T376 714H427L400
592Q364 591 342 578T312 525L283 389Q271 334 235 309T147 277V273Q189 260 209 232T230 164Q230 153 228 142T223 117L206 34Q203 19 203 9Q203 -16 218 -26T261 -36V-158H229Z" />
<glyph unicode="|" glyph-name="bar" horiz-adv-x="558" d="M219 -227V757H338V-227H219Z" />
<glyph unicode="}" glyph-name="braceright" horiz-adv-x="357" d="M-54 -36Q-10 -34 11 -22T41 31L70 167Q82 222 117 247T206 279V283Q163 296 143 324T123 392Q123 403 125 414T129 439L147 522Q150 537 150 547Q150 592 81 592L104 714H126Q219 714 257 678T295
587Q295 557 288 525L269 437Q267 429 266 421T264 405Q264 338 362 338L338 213Q278 213 246 193T203 126L175 -4Q158 -78 115 -118T-26 -158H-54V-36Z" />
<glyph unicode="~" glyph-name="asciitilde" horiz-adv-x="578" d="M276 295Q239 311 213 316T163 322Q134 322 104 305T49 263V388Q100 441 176 441Q205 441 234 435T312 410Q349 394 376 389T425 383Q454 383 484 400T539 442V317Q488 264 412 264Q383 264 354
270T276 295Z" />
<glyph unicode="&#xa0;" glyph-name="uni00A0" horiz-adv-x="260" />
<glyph unicode="&#xa1;" glyph-name="exclamdown" horiz-adv-x="294" d="M168 378Q130 378 109 397T88 451Q88 499 117 526T193 554Q240 554 258 532T276 483Q276 441 251 410T168 378ZM-44 -174L81 296H218L142 -174H-44Z" />
<glyph unicode="&#xa2;" glyph-name="cent" horiz-adv-x="564" d="M210 93Q153 108 116 153T78 285Q78 380 107 458T193 587T327 649L343 724H444L427 649Q460 644 486 636T539 615L487 490Q458 503 433 510T377 518Q345 518 321 499T280 448T255 378T247 301Q247
258 265 238T319 217Q355 217 387 229T455 259V124Q422 107 387 97T307 83L287 -10H186L210 93Z" />
<glyph unicode="&#xa3;" glyph-name="sterling" horiz-adv-x="564" d="M20 135Q70 149 97 176T136 259L147 308H54L78 429H171L189 523Q210 632 270 678T421 725Q476 725 520 713T602 683L540 554Q509 569 482 577T429 586Q402 586 385 570T359 515L341 429H476L451
308H316L306 265Q296 218 268 188T206 143H514L484 0H-7L20 135Z" />
<glyph unicode="&#xa4;" glyph-name="currency" horiz-adv-x="564" d="M382 179Q362 170 338 164T289 157Q263 157 240 162T195 179L134 120L55 199L117 260Q93 303 93 353Q93 379 99 402T117 446L54 508L134 588L196 527Q217 537 241 543T289 550Q338 550 382
525L444 588L526 510L463 447Q486 405 486 353Q486 303 463 259L523 198L444 119L382 179ZM289 269Q325 269 350 293T375 353Q375 389 350 413T289 437Q254 437 230 413T206 353Q206 318 230 294T289 269Z" />
<glyph unicode="&#xa5;" glyph-name="yen" horiz-adv-x="564" d="M136 0L158 101H40L60 194H177L190 259H73L94 352H185L93 714H258L304 449L467 714H638L395 352H489L469 259H352L339 194H455L436 101H320L298 0H136Z" />
<glyph unicode="&#xa6;" glyph-name="brokenbar" horiz-adv-x="558" d="M220 352V756H338V352H220ZM220 -222V181H338V-222H220Z" />
<glyph unicode="&#xa7;" glyph-name="section" horiz-adv-x="495" d="M179 -11Q125 -11 84 0T14 30V145Q51 122 94 107T185 91Q230 91 249 108T269 147Q269 167 253 183T196 220Q140 249 108 285T75 374Q75 459 168 516Q149 534 137 559T124 610Q124 689 184 728T340
767Q389 767 430 755T512 721L468 620Q441 637 406 651T327 665Q265 665 265 620Q265 601 281 586T342 549Q406 521 433 484T461 400Q461 342 434 309T372 255Q390 237 401 212T412 159Q412 78 350 34T179 -11ZM289 306Q305 317 318 335T332 379Q332 431 251 464Q230
453 217 434T203 393Q203 367 225 347T289 306Z" />
<glyph unicode="&#xa8;" glyph-name="dieresis" horiz-adv-x="554" d="M467 618Q436 618 416 630T396 675Q396 718 418 738T481 759Q508 759 529 748T551 702Q551 664 532 641T467 618ZM257 618Q226 618 206 630T185 675Q185 718 207 738T270 759Q297 759 319
748T341 702Q341 664 322 641T257 618Z" />
<glyph unicode="&#xa9;" glyph-name="copyright" horiz-adv-x="828" d="M414 -10Q334 -10 267 17T151 93T74 210T47 357Q47 435 74 501T151 618T268 696T414 724Q492 724 559 697T675 621T753 504T781 357Q781 277 754 210T678 94T561 17T414 -10ZM414 61Q496
61 561 99T664 203T702 357Q702 441 665 508T562 614T414 653Q330 653 265 615T162 511T124 357Q124 270 161 204T263 99T414 61ZM423 128Q318 128 266 191T213 358Q213 459 266 522T423 586Q460 586 495 577T561 552L525 470Q474 496 427 496Q377 496 350 460T322
357Q322 287 347 252T428 217Q486 217 543 245V155Q516 142 488 135T423 128Z" />
<glyph unicode="&#xaa;" glyph-name="ordfeminine" horiz-adv-x="389" d="M176 361Q152 361 128 373T87 414T71 493Q71 528 81 567T112 642T164 698T240 720Q275 720 296 707T335 671H339L357 714H442L363 367H280L284 410H280Q262 389 237 375T176 361ZM225 442Q246
442 261 457T285 496T299 543T304 585Q304 607 295 623T265 639Q241 639 224 616T196 559T186 493Q186 442 225 442Z" />
<glyph unicode="&#xab;" glyph-name="guillemotleft" horiz-adv-x="590" d="M381 41L284 276V283L485 516L594 428L458 271L521 99L381 41ZM127 41L33 269V277L230 515L340 428L206 265L267 99L127 41Z" />
<glyph unicode="&#xac;" glyph-name="logicalnot" horiz-adv-x="578" d="M539 412V119H420V293H49V412H539Z" />
<glyph unicode="&#xad;" glyph-name="uni00AD" horiz-adv-x="325" d="M16 200L44 336H307L278 200H16Z" />
<glyph unicode="&#xae;" glyph-name="registered" horiz-adv-x="828" d="M414 -10Q334 -10 267 17T151 93T74 210T47 357Q47 435 74 501T151 618T268 696T414 724Q492 724 559 697T675 621T753 504T781 357Q781 277 754 210T678 94T561 17T414 -10ZM414 61Q496
61 561 99T664 203T702 357Q702 441 665 508T562 614T414 653Q330 653 265 615T162 511T124 357Q124 270 161 204T263 99T414 61ZM264 145V580H399Q491 580 532 546T573 447Q573 398 551 371T499 331L605 145H494L410 307H368V145H264ZM398 383Q468 383 468 444Q468
475 451 487T398 499H368V383H398Z" />
<glyph unicode="&#xaf;" glyph-name="overscore" horiz-adv-x="477" d="M93 760L118 868H600L575 760H93Z" />
<glyph unicode="&#xb0;" glyph-name="degree" horiz-adv-x="425" d="M213 377Q161 377 121 399T58 460T35 550Q35 600 58 639T121 701T213 724Q265 724 304 702T366 640T389 550Q389 499 367 460T305 399T213 377ZM213 481Q243 481 263 500T283 550Q283 583 263
602T213 621Q182 621 162 602T142 550Q142 519 162 500T213 481Z" />
<glyph unicode="&#xb1;" glyph-name="plusminus" horiz-adv-x="578" d="M353 448H539V329H353V147H235V329H49V448H235V632H353V448ZM49 0V118H539V0H49Z" />
<glyph unicode="&#xb2;" glyph-name="uni00B2" horiz-adv-x="395" d="M58 415L77 505L211 610Q260 648 282 671T304 717Q304 734 294 742T268 750Q248 750 225 741T176 711L122 795Q160 824 201 838T302 853Q363 853 402 824T441 746Q441 707 425 678T377 621T298
561L247 525H410L387 415H58Z" />
<glyph unicode="&#xb3;" glyph-name="uni00B3" horiz-adv-x="395" d="M218 408Q174 408 139 415T78 438V540Q107 521 139 512T202 502Q238 502 260 514T282 551Q282 567 270 578T226 590H166L185 676H230Q268 676 290 688T313 725Q313 742 302 750T271 759Q250
759 229 752T179 727L135 807Q172 831 209 842T295 853Q364 853 400 824T437 750Q437 699 406 674T328 638V634Q371 624 388 602T406 547Q406 503 381 472T314 425T218 408Z" />
<glyph unicode="&#xb4;" glyph-name="acute" horiz-adv-x="358" d="M113 618Q142 646 175 688T234 766H421V758Q411 745 388 725T337 682T281 639T232 606H113V618Z" />
<glyph unicode="&#xb5;" glyph-name="uni00B5" horiz-adv-x="619" d="M-36 -240L131 549H298L233 241Q230 226 228 208T225 176Q225 151 238 138T271 124Q316 124 342 171T386 302L438 549H605L488 0H364L370 74H365Q320 -10 253 -10Q203 -10 184 25H180Q177 -5
172 -37T160 -101L131 -240H-36Z" />
<glyph unicode="&#xb6;" glyph-name="paragraph" horiz-adv-x="649" d="M333 273Q318 269 303 267T267 264Q205 264 159 287T88 364T62 509Q62 605 89 659T166 737T282 760H583V-127H498V656H419V-127H333V273Z" />
<glyph unicode="&#xb7;" glyph-name="middot" horiz-adv-x="295" d="M141 265Q100 265 80 285T60 337Q60 384 89 413T169 442Q205 442 227 423T249 368Q249 316 220 291T141 265Z" />
<glyph unicode="&#xb8;" glyph-name="cedilla" horiz-adv-x="197" d="M-21 -240Q-47 -240 -68 -237T-104 -228V-137Q-91 -142 -71 -145T-37 -149Q5 -149 5 -117Q5 -102 -9 -90T-65 -71L-23 0H72L56 -28Q89 -37 111 -58T134 -119Q134 -173 96 -206T-21 -240Z" />
<glyph unicode="&#xb9;" glyph-name="uni00B9" horiz-adv-x="395" d="M217 602Q225 634 232 660T244 703Q235 695 224 686T207 674L146 635L92 720L293 843H404L313 415H177L217 602Z" />
<glyph unicode="&#xba;" glyph-name="ordmasculine" horiz-adv-x="382" d="M221 360Q153 360 117 397T80 503Q80 561 101 610T167 690T276 721Q345 721 380 682T416 576Q416 540 406 502T372 432T312 380T221 360ZM231 450Q254 450 269 470T291 522T299 582Q299
632 265 632Q242 632 227 610T204 557T196 500Q196 450 231 450Z" />
<glyph unicode="&#xbb;" glyph-name="guillemotright" horiz-adv-x="590" d="M360 33L250 120L384 283L323 450L463 508L557 279V272L360 33ZM105 32L-3 120L132 277L70 450L209 508L306 273V265L105 32Z" />
<glyph unicode="&#xbc;" glyph-name="onequarter" horiz-adv-x="879" d="M127 0L659 714H786L257 0H127ZM202 472Q210 504 217 530T229 573Q220 565 209 556T192 544L131 505L77 590L278 713H389L298 285H162L202 472ZM625 0L640 68H452L467 154L703 431H844L786
157H842L824 68H767L753 0H625ZM576 157H658L678 236Q683 256 688 274T699 309Q691 296 677 278T653 248L576 157Z" />
<glyph unicode="&#xbd;" glyph-name="onehalf" horiz-adv-x="931" d="M122 0L654 714H781L252 0H122ZM202 472Q210 504 217 530T229 573Q220 565 209 556T192 544L131 505L77 590L278 713H389L298 285H162L202 472ZM507 -1L526 89L660 194Q709 232 731 255T753
301Q753 318 743 326T717 334Q697 334 674 325T625 295L571 379Q609 408 650 422T751 437Q812 437 851 408T890 330Q890 291 874 262T826 205T747 145L696 109H859L836 -1H507Z" />
<glyph unicode="&#xbe;" glyph-name="threequarters" horiz-adv-x="905" d="M193 279Q149 279 114 286T53 309V411Q82 392 114 383T177 373Q213 373 235 385T257 422Q257 438 245 449T201 461H141L160 547H205Q243 547 265 559T288 596Q288 613 277 621T246 630Q225
630 204 623T154 598L110 678Q147 702 184 713T270 724Q339 724 375 695T412 621Q412 570 381 545T303 509V505Q346 495 363 473T381 418Q381 374 356 343T289 296T193 279ZM154 0L686 714H813L284 0H154ZM651 0L666 68H478L493 154L729 431H870L812 157H868L850
68H793L779 0H651ZM602 157H684L704 236Q709 256 714 274T725 309Q717 296 703 278T679 248L602 157Z" />
<glyph unicode="&#xbf;" glyph-name="questiondown" horiz-adv-x="472" d="M316 555Q362 555 380 533T398 484Q398 442 373 411T290 379Q253 379 232 398T210 452Q210 501 239 528T316 555ZM348 299Q339 249 325 215T285 153T219 97Q170 65 151 45T132 0Q132 -21
144 -34T187 -47Q219 -47 256 -34T339 4L390 -118Q344 -144 288 -162T169 -181Q76 -181 23 -138T-30 -18Q-30 34 -11 70T40 132T111 183Q145 204 162 220T189 254T207 299H348Z" />
<glyph unicode="&#xc0;" glyph-name="Agrave" horiz-adv-x="650" d="M-60 0L309 714H521L587 0H423L415 153H189L116 0H-60ZM254 292H408L398 486Q396 512 395 539T395 593H392Q384 568 374 544T350 492L254 292ZM415 771Q394 791 371 817T327 870T295 921V931H465Q473
898 486 859T517 783V771H415Z" />
<glyph unicode="&#xc1;" glyph-name="Aacute" horiz-adv-x="650" d="M-60 0L309 714H521L587 0H423L415 153H189L116 0H-60ZM254 292H408L398 486Q396 512 395 539T395 593H392Q384 568 374 544T350 492L254 292ZM342 783Q371 811 404 853T463 931H650V923Q640
910 617 890T566 847T510 804T461 771H342V783Z" />
<glyph unicode="&#xc2;" glyph-name="Acircumflex" horiz-adv-x="650" d="M-60 0L309 714H521L587 0H423L415 153H189L116 0H-60ZM254 292H408L398 486Q396 512 395 539T395 593H392Q384 568 374 544T350 492L254 292ZM211 783Q232 802 259 828T313 882T358 931H547Q562
897 587 855T634 783V771H522Q505 786 483 810T444 854Q416 831 388 811T329 771H211V783Z" />
<glyph unicode="&#xc3;" glyph-name="Atilde" horiz-adv-x="650" d="M-60 0L309 714H521L587 0H423L415 153H189L116 0H-60ZM254 292H408L398 486Q396 512 395 539T395 593H392Q384 568 374 544T350 492L254 292ZM233 770Q248 854 285 891T377 928Q407 928 430
916T474 891T515 878Q549 878 569 929H657Q639 843 602 807T509 771Q477 771 454 783T410 807T368 820Q353 820 340 807T321 770H233Z" />
<glyph unicode="&#xc4;" glyph-name="Adieresis" horiz-adv-x="650" d="M-60 0L309 714H521L587 0H423L415 153H189L116 0H-60ZM254 292H408L398 486Q396 512 395 539T395 593H392Q384 568 374 544T350 492L254 292ZM541 783Q510 783 490 795T470 840Q470 883
492 903T555 924Q582 924 603 913T625 867Q625 829 606 806T541 783ZM331 783Q300 783 280 795T259 840Q259 883 281 903T344 924Q371 924 393 913T415 867Q415 829 396 806T331 783Z" />
<glyph unicode="&#xc5;" glyph-name="Aring" horiz-adv-x="650" d="M-60 0L309 714H521L587 0H423L415 153H189L116 0H-60ZM254 292H408L398 486Q396 512 395 539T395 593H392Q384 568 374 544T350 492L254 292ZM440 770Q384 770 349 801T314 889Q314 945 349
976T440 1008Q493 1008 530 977T567 890Q567 834 531 802T440 770ZM440 845Q459 845 472 857T485 889Q485 909 472 921T440 933Q421 933 408 921T395 889Q395 869 406 857T440 845Z" />
<glyph unicode="&#xc6;" glyph-name="AE" horiz-adv-x="919" d="M-60 0L387 714H950L921 576H679L651 439H877L846 301H620L586 140H828L799 0H389L421 153H215L119 0H-60ZM304 296H452L510 576H474L304 296Z" />
<glyph unicode="&#xc7;" glyph-name="Ccedilla" horiz-adv-x="620" d="M319 -10Q187 -10 122 66T56 269Q56 332 70 397T113 520T187 625T295 698T436 725Q506 725 557 711T658 668L594 534Q554 557 517 570T436 584Q384 584 345 557T279 485T240 386T227 278Q227
131 351 131Q393 131 434 142T523 172V31Q483 14 432 2T319 -10ZM274 -240Q248 -240 227 -237T191 -228V-137Q204 -142 224 -145T258 -149Q300 -149 300 -117Q300 -102 286 -90T230 -71L272 0H367L351 -28Q384 -37 406 -58T429 -119Q429 -173 391 -206T274 -240Z"
/>
<glyph unicode="&#xc8;" glyph-name="Egrave" horiz-adv-x="551" d="M21 0L172 714H583L554 576H312L284 439H509L479 301H253L219 140H461L432 0H21ZM372 771Q351 791 328 817T284 870T252 921V931H422Q430 898 443 859T474 783V771H372Z" />
<glyph unicode="&#xc9;" glyph-name="Eacute" horiz-adv-x="551" d="M21 0L172 714H583L554 576H312L284 439H509L479 301H253L219 140H461L432 0H21ZM299 783Q328 811 361 853T420 931H607V923Q597 910 574 890T523 847T467 804T418 771H299V783Z" />
<glyph unicode="&#xca;" glyph-name="Ecircumflex" horiz-adv-x="551" d="M21 0L172 714H583L554 576H312L284 439H509L479 301H253L219 140H461L432 0H21ZM168 783Q189 802 216 828T270 882T315 931H504Q519 897 544 855T591 783V771H479Q462 786 440 810T401
854Q373 831 345 811T286 771H168V783Z" />
<glyph unicode="&#xcb;" glyph-name="Edieresis" horiz-adv-x="551" d="M21 0L172 714H583L554 576H312L284 439H509L479 301H253L219 140H461L432 0H21ZM498 783Q467 783 447 795T427 840Q427 883 449 903T512 924Q539 924 560 913T582 867Q582 829 563 806T498
783ZM288 783Q257 783 237 795T216 840Q216 883 238 903T301 924Q328 924 350 913T372 867Q372 829 353 806T288 783Z" />
<glyph unicode="&#xcc;" glyph-name="Igrave" horiz-adv-x="403" d="M-32 0L-12 97L80 136L174 576L98 617L118 714H458L438 617L342 576L249 136L326 97L306 0H-32ZM284 771Q263 791 240 817T196 870T164 921V931H334Q342 898 355 859T386 783V771H284Z" />
<glyph unicode="&#xcd;" glyph-name="Iacute" horiz-adv-x="403" d="M-32 0L-12 97L80 136L174 576L98 617L118 714H458L438 617L342 576L249 136L326 97L306 0H-32ZM211 783Q240 811 273 853T332 931H519V923Q509 910 486 890T435 847T379 804T330 771H211V783Z" />
<glyph unicode="&#xce;" glyph-name="Icircumflex" horiz-adv-x="403" d="M-32 0L-12 97L80 136L174 576L98 617L118 714H458L438 617L342 576L249 136L326 97L306 0H-32ZM80 783Q101 802 128 828T182 882T227 931H416Q431 897 456 855T503 783V771H391Q374 786
352 810T313 854Q285 831 257 811T198 771H80V783Z" />
<glyph unicode="&#xcf;" glyph-name="Idieresis" horiz-adv-x="403" d="M-32 0L-12 97L80 136L174 576L98 617L118 714H458L438 617L342 576L249 136L326 97L306 0H-32ZM410 783Q379 783 359 795T339 840Q339 883 361 903T424 924Q451 924 472 913T494 867Q494
829 475 806T410 783ZM200 783Q169 783 149 795T128 840Q128 883 150 903T213 924Q240 924 262 913T284 867Q284 829 265 806T200 783Z" />
<glyph unicode="&#xd0;" glyph-name="Eth" horiz-adv-x="680" d="M21 0L81 284H12L42 422H111L172 714H370Q501 714 575 645T649 444Q649 307 602 208T464 54T246 0H21ZM263 140Q333 140 380 179T453 286T478 435Q478 506 446 540T358 575H312L279 422H382L353
284H250L219 140H263Z" />
<glyph unicode="&#xd1;" glyph-name="Ntilde" horiz-adv-x="771" d="M21 0L172 714H369L523 209H527Q530 230 535 263T546 332T557 394L626 714H776L625 0H433L274 522H269Q269 515 266 492T259 438T250 375T239 318L172 0H21ZM299 770Q314 854 351 891T443 928Q473
928 496 916T540 891T581 878Q615 878 635 929H723Q705 843 668 807T575 771Q543 771 520 783T476 807T434 820Q419 820 406 807T387 770H299Z" />
<glyph unicode="&#xd2;" glyph-name="Ograve" horiz-adv-x="733" d="M325 -10Q192 -10 124 65T56 263Q56 347 79 429T149 578T268 685T438 725Q569 725 635 651T702 454Q702 369 680 287T612 137T495 30T325 -10ZM339 131Q392 131 436 172T505 286T531 451Q531
512 504 548T424 584Q381 584 345 558T282 486T242 384T227 264Q227 199 256 165T339 131ZM454 771Q433 791 410 817T366 870T334 921V931H504Q512 898 525 859T556 783V771H454Z" />
<glyph unicode="&#xd3;" glyph-name="Oacute" horiz-adv-x="733" d="M325 -10Q192 -10 124 65T56 263Q56 347 79 429T149 578T268 685T438 725Q569 725 635 651T702 454Q702 369 680 287T612 137T495 30T325 -10ZM339 131Q392 131 436 172T505 286T531 451Q531
512 504 548T424 584Q381 584 345 558T282 486T242 384T227 264Q227 199 256 165T339 131ZM380 783Q409 811 442 853T501 931H688V923Q678 910 655 890T604 847T548 804T499 771H380V783Z" />
<glyph unicode="&#xd4;" glyph-name="Ocircumflex" horiz-adv-x="733" d="M325 -10Q192 -10 124 65T56 263Q56 347 79 429T149 578T268 685T438 725Q569 725 635 651T702 454Q702 369 680 287T612 137T495 30T325 -10ZM339 131Q392 131 436 172T505 286T531 451Q531
512 504 548T424 584Q381 584 345 558T282 486T242 384T227 264Q227 199 256 165T339 131ZM249 783Q270 802 297 828T351 882T396 931H585Q600 897 625 855T672 783V771H560Q543 786 521 810T482 854Q454 831 426 811T367 771H249V783Z" />
<glyph unicode="&#xd5;" glyph-name="Otilde" horiz-adv-x="733" d="M325 -10Q192 -10 124 65T56 263Q56 347 79 429T149 578T268 685T438 725Q569 725 635 651T702 454Q702 369 680 287T612 137T495 30T325 -10ZM339 131Q392 131 436 172T505 286T531 451Q531
512 504 548T424 584Q381 584 345 558T282 486T242 384T227 264Q227 199 256 165T339 131ZM272 770Q287 854 324 891T416 928Q446 928 469 916T513 891T554 878Q588 878 608 929H696Q678 843 641 807T548 771Q516 771 493 783T449 807T407 820Q392 820 379 807T360
770H272Z" />
<glyph unicode="&#xd6;" glyph-name="Odieresis" horiz-adv-x="733" d="M325 -10Q192 -10 124 65T56 263Q56 347 79 429T149 578T268 685T438 725Q569 725 635 651T702 454Q702 369 680 287T612 137T495 30T325 -10ZM339 131Q392 131 436 172T505 286T531 451Q531
512 504 548T424 584Q381 584 345 558T282 486T242 384T227 264Q227 199 256 165T339 131ZM586 783Q555 783 535 795T515 840Q515 883 537 903T600 924Q627 924 648 913T670 867Q670 829 651 806T586 783ZM376 783Q345 783 325 795T304 840Q304 883 326 903T389
924Q416 924 438 913T460 867Q460 829 441 806T376 783Z" />
<glyph unicode="&#xd7;" glyph-name="multiply" horiz-adv-x="578" d="M434 575L517 495L375 353L515 212L434 131L292 271L152 132L72 213L210 353L71 493L152 575L292 437L434 575Z" />
<glyph unicode="&#xd8;" glyph-name="Oslash" horiz-adv-x="733" d="M124 -42L48 14L106 87Q56 155 56 263Q56 347 78 429T148 578T266 685T434 725Q480 725 517 716T585 689L633 749L708 692L655 625Q702 558 702 454Q702 369 680 287T612 137T496 30T329 -10Q239
-10 177 25L124 -42ZM488 567Q476 575 459 580T421 586Q377 586 341 561T279 493T239 393T225 274Q225 265 225 256T227 236L488 567ZM340 130Q395 130 439 170T508 280T534 441Q534 448 534 456T533 472L274 146Q300 130 340 130Z" />
<glyph unicode="&#xd9;" glyph-name="Ugrave" horiz-adv-x="696" d="M296 -10Q185 -10 125 46T65 194Q65 209 66 227T72 263L168 714H337L242 266Q238 251 236 236T234 208Q234 132 313 132Q368 132 397 165T441 272L535 714H704L606 255Q589 174 553 115T454
23T296 -10ZM431 771Q410 791 387 817T343 870T311 921V931H481Q489 898 502 859T533 783V771H431Z" />
<glyph unicode="&#xda;" glyph-name="Uacute" horiz-adv-x="696" d="M296 -10Q185 -10 125 46T65 194Q65 209 66 227T72 263L168 714H337L242 266Q238 251 236 236T234 208Q234 132 313 132Q368 132 397 165T441 272L535 714H704L606 255Q589 174 553 115T454
23T296 -10ZM357 783Q386 811 419 853T478 931H665V923Q655 910 632 890T581 847T525 804T476 771H357V783Z" />
<glyph unicode="&#xdb;" glyph-name="Ucircumflex" horiz-adv-x="696" d="M296 -10Q185 -10 125 46T65 194Q65 209 66 227T72 263L168 714H337L242 266Q238 251 236 236T234 208Q234 132 313 132Q368 132 397 165T441 272L535 714H704L606 255Q589 174 553 115T454
23T296 -10ZM226 783Q247 802 274 828T328 882T373 931H562Q577 897 602 855T649 783V771H537Q520 786 498 810T459 854Q431 831 403 811T344 771H226V783Z" />
<glyph unicode="&#xdc;" glyph-name="Udieresis" horiz-adv-x="696" d="M296 -10Q185 -10 125 46T65 194Q65 209 66 227T72 263L168 714H337L242 266Q238 251 236 236T234 208Q234 132 313 132Q368 132 397 165T441 272L535 714H704L606 255Q589 174 553 115T454
23T296 -10ZM563 783Q532 783 512 795T492 840Q492 883 514 903T577 924Q604 924 625 913T647 867Q647 829 628 806T563 783ZM353 783Q322 783 302 795T281 840Q281 883 303 903T366 924Q393 924 415 913T437 867Q437 829 418 806T353 783Z" />
<glyph unicode="&#xdd;" glyph-name="Yacute" horiz-adv-x="582" d="M143 0L201 275L86 714H259L313 436L482 714H670L369 275L311 0H143ZM292 783Q321 811 354 853T413 931H600V923Q590 910 567 890T516 847T460 804T411 771H292V783Z" />
<glyph unicode="&#xde;" glyph-name="Thorn" horiz-adv-x="614" d="M21 0L172 714H341L318 606H346Q433 606 486 579T562 504T586 395Q586 310 546 253T435 168T274 139H219L190 0H21ZM291 278Q348 278 382 306T417 390Q417 426 396 446T332 467H289L249 278H291Z" />
<glyph unicode="&#xdf;" glyph-name="germandbls" horiz-adv-x="684" d="M-38 -240Q-60 -240 -85 -237T-127 -228V-96Q-96 -105 -71 -105Q-38 -105 -18 -88T11 -30L133 546Q156 655 221 710T421 765Q535 765 596 718T657 594Q657 532 630 495T549 430Q517 412
505 400T492 374Q492 356 509 344T557 310Q592 284 612 253T632 176Q632 126 608 84T532 16T398 -10Q352 -10 318 -3T258 16V147Q285 132 320 122T387 112Q427 112 445 126T464 160Q464 178 452 192T399 236Q355 267 337 295T318 358Q318 408 344 436T419 492Q453
510 469 528T486 572Q486 597 469 615T407 634Q357 634 332 605T297 531L174 -56Q162 -110 138 -151T71 -216T-38 -240Z" />
<glyph unicode="&#xe0;" glyph-name="agrave" horiz-adv-x="600" d="M198 -10Q157 -10 122 10T65 74T43 194Q43 253 59 317T107 436T185 525T292 559Q342 559 373 538T424 480H428L455 549H586L469 0H340L346 66H342Q317 32 283 11T198 -10ZM265 124Q291 124 313
146T352 203T375 277Q378 295 379 312T381 350Q381 383 367 404T326 425Q303 425 282 406T246 354T221 282T212 203Q212 124 265 124ZM354 606Q333 626 310 652T266 705T234 756V766H404Q412 733 425 694T456 618V606H354Z" />
<glyph unicode="&#xe1;" glyph-name="aacute" horiz-adv-x="600" d="M198 -10Q157 -10 122 10T65 74T43 194Q43 253 59 317T107 436T185 525T292 559Q342 559 373 538T424 480H428L455 549H586L469 0H340L346 66H342Q317 32 283 11T198 -10ZM265 124Q291 124 313
146T352 203T375 277Q378 295 379 312T381 350Q381 383 367 404T326 425Q303 425 282 406T246 354T221 282T212 203Q212 124 265 124ZM281 618Q310 646 343 688T402 766H589V758Q579 745 556 725T505 682T449 639T400 606H281V618Z" />
<glyph unicode="&#xe2;" glyph-name="acircumflex" horiz-adv-x="600" d="M198 -10Q157 -10 122 10T65 74T43 194Q43 253 59 317T107 436T185 525T292 559Q342 559 373 538T424 480H428L455 549H586L469 0H340L346 66H342Q317 32 283 11T198 -10ZM265 124Q291
124 313 146T352 203T375 277Q378 295 379 312T381 350Q381 383 367 404T326 425Q303 425 282 406T246 354T221 282T212 203Q212 124 265 124ZM150 618Q171 637 198 663T252 717T297 766H486Q501 732 526 690T573 618V606H461Q444 621 422 645T383 689Q355 666
327 646T268 606H150V618Z" />
<glyph unicode="&#xe3;" glyph-name="atilde" horiz-adv-x="600" d="M198 -10Q157 -10 122 10T65 74T43 194Q43 253 59 317T107 436T185 525T292 559Q342 559 373 538T424 480H428L455 549H586L469 0H340L346 66H342Q317 32 283 11T198 -10ZM265 124Q291 124 313
146T352 203T375 277Q378 295 379 312T381 350Q381 383 367 404T326 425Q303 425 282 406T246 354T221 282T212 203Q212 124 265 124ZM172 605Q187 689 224 726T316 763Q346 763 369 751T413 726T454 713Q488 713 508 764H596Q578 678 541 642T448 606Q416 606
393 618T349 642T307 655Q292 655 279 642T260 605H172Z" />
<glyph unicode="&#xe4;" glyph-name="adieresis" horiz-adv-x="600" d="M198 -10Q157 -10 122 10T65 74T43 194Q43 253 59 317T107 436T185 525T292 559Q342 559 373 538T424 480H428L455 549H586L469 0H340L346 66H342Q317 32 283 11T198 -10ZM265 124Q291 124
313 146T352 203T375 277Q378 295 379 312T381 350Q381 383 367 404T326 425Q303 425 282 406T246 354T221 282T212 203Q212 124 265 124ZM480 618Q449 618 429 630T409 675Q409 718 431 738T494 759Q521 759 542 748T564 702Q564 664 545 641T480 618ZM270 618Q239
618 219 630T198 675Q198 718 220 738T283 759Q310 759 332 748T354 702Q354 664 335 641T270 618Z" />
<glyph unicode="&#xe5;" glyph-name="aring" horiz-adv-x="600" d="M198 -10Q157 -10 122 10T65 74T43 194Q43 253 59 317T107 436T185 525T292 559Q342 559 373 538T424 480H428L455 549H586L469 0H340L346 66H342Q317 32 283 11T198 -10ZM265 124Q291 124 313
146T352 203T375 277Q378 295 379 312T381 350Q381 383 367 404T326 425Q303 425 282 406T246 354T221 282T212 203Q212 124 265 124ZM379 605Q323 605 288 636T253 724Q253 780 288 811T379 843Q432 843 469 812T506 725Q506 669 470 637T379 605ZM379 680Q398
680 411 692T424 724Q424 744 411 756T379 768Q360 768 347 756T334 724Q334 704 345 692T379 680Z" />
<glyph unicode="&#xe6;" glyph-name="ae" horiz-adv-x="872" d="M196 -10Q131 -10 87 39T43 194Q43 256 59 320T108 438T186 526T291 559Q340 559 369 539T421 480H425L453 549H549L544 504Q567 529 604 544T683 559Q760 559 804 517T849 408Q849 319 775 266T543
212H516Q515 206 515 198Q515 160 537 137T609 113Q648 113 688 125T765 157V36Q727 16 684 3T586 -10Q491 -10 449 46L437 0H337L343 66H338Q312 32 280 11T196 -10ZM552 320Q627 320 658 345T690 401Q690 443 644 443Q619 443 596 426T556 381T533 320H552ZM264
124Q289 124 310 144T346 197T370 269Q378 305 378 346Q378 382 364 403T323 425Q299 425 279 406T243 354T220 282T212 203Q212 162 226 143T264 124Z" />
<glyph unicode="&#xe7;" glyph-name="ccedilla" horiz-adv-x="493" d="M247 -10Q191 -10 145 11T71 80T43 203Q43 276 62 340T120 454T212 531T335 559Q385 559 425 550T504 522L452 397Q426 409 399 417T342 426Q310 426 286 407T244 356T219 287T211 215Q211
167 230 146T284 124Q320 124 352 135T420 165V31Q383 12 342 1T247 -10ZM179 -240Q153 -240 132 -237T96 -228V-137Q109 -142 129 -145T163 -149Q205 -149 205 -117Q205 -102 191 -90T135 -71L177 0H272L256 -28Q289 -37 311 -58T334 -119Q334 -173 296 -206T179
-240Z" />
<glyph unicode="&#xe8;" glyph-name="egrave" horiz-adv-x="567" d="M260 -10Q160 -10 102 45T43 205Q43 273 62 336T120 450T217 529T353 559Q445 559 494 517T544 408Q544 319 469 266T237 212H211Q210 208 210 205T210 197Q210 157 233 135T299 113Q342 113
378 124T460 157V36Q416 14 371 2T260 -10ZM246 320Q321 320 353 345T385 401Q385 443 339 443Q314 443 291 426T251 381T228 320H246ZM344 606Q323 626 300 652T256 705T224 756V766H394Q402 733 415 694T446 618V606H344Z" />
<glyph unicode="&#xe9;" glyph-name="eacute" horiz-adv-x="567" d="M260 -10Q160 -10 102 45T43 205Q43 273 62 336T120 450T217 529T353 559Q445 559 494 517T544 408Q544 319 469 266T237 212H211Q210 208 210 205T210 197Q210 157 233 135T299 113Q342 113
378 124T460 157V36Q416 14 371 2T260 -10ZM246 320Q321 320 353 345T385 401Q385 443 339 443Q314 443 291 426T251 381T228 320H246ZM270 618Q299 646 332 688T391 766H578V758Q568 745 545 725T494 682T438 639T389 606H270V618Z" />
<glyph unicode="&#xea;" glyph-name="ecircumflex" horiz-adv-x="567" d="M260 -10Q160 -10 102 45T43 205Q43 273 62 336T120 450T217 529T353 559Q445 559 494 517T544 408Q544 319 469 266T237 212H211Q210 208 210 205T210 197Q210 157 233 135T299 113Q342
113 378 124T460 157V36Q416 14 371 2T260 -10ZM246 320Q321 320 353 345T385 401Q385 443 339 443Q314 443 291 426T251 381T228 320H246ZM139 618Q160 637 187 663T241 717T286 766H475Q490 732 515 690T562 618V606H450Q433 621 411 645T372 689Q344 666 316
646T257 606H139V618Z" />
<glyph unicode="&#xeb;" glyph-name="edieresis" horiz-adv-x="567" d="M260 -10Q160 -10 102 45T43 205Q43 273 62 336T120 450T217 529T353 559Q445 559 494 517T544 408Q544 319 469 266T237 212H211Q210 208 210 205T210 197Q210 157 233 135T299 113Q342
113 378 124T460 157V36Q416 14 371 2T260 -10ZM246 320Q321 320 353 345T385 401Q385 443 339 443Q314 443 291 426T251 381T228 320H246ZM470 618Q439 618 419 630T399 675Q399 718 421 738T484 759Q511 759 532 748T554 702Q554 664 535 641T470 618ZM260 618Q229
618 209 630T188 675Q188 718 210 738T273 759Q300 759 322 748T344 702Q344 664 325 641T260 618Z" />
<glyph unicode="&#xec;" glyph-name="igrave" horiz-adv-x="310" d="M15 0L131 549H298L181 0H15ZM466 606Q445 626 422 652T378 705T346 756V766H516Q524 733 537 694T568 618V606H466Z" />
<glyph unicode="&#xed;" glyph-name="iacute" horiz-adv-x="310" d="M15 0L131 549H298L181 0H15ZM137 618Q166 646 199 688T258 766H445V758Q435 745 412 725T361 682T305 639T256 606H137V618Z" />
<glyph unicode="&#xee;" glyph-name="icircumflex" horiz-adv-x="310" d="M15 0L131 549H298L181 0H15ZM262 618Q283 637 310 663T364 717T409 766H598Q613 732 638 690T685 618V606H573Q556 621 534 645T495 689Q467 666 439 646T380 606H262V618Z" />
<glyph unicode="&#xef;" glyph-name="idieresis" horiz-adv-x="310" d="M15 0L131 549H298L181 0H15ZM336 618Q305 618 285 630T265 675Q265 718 287 738T350 759Q377 759 398 748T420 702Q420 664 401 641T336 618ZM126 618Q95 618 75 630T54 675Q54 718 76 738T139
759Q166 759 188 748T210 702Q210 664 191 641T126 618Z" />
<glyph unicode="&#xf0;" glyph-name="eth" horiz-adv-x="571" d="M252 -10Q157 -10 98 43T38 203Q38 281 67 346T151 451T286 490Q330 490 357 474T401 437L406 438Q402 474 390 510T355 573L233 510L191 586L293 639Q282 650 268 659T239 677L296 766Q362 737
409 699L525 758L564 681L471 633Q509 584 527 515T545 370Q545 292 529 223T478 102T387 20T252 -10ZM264 112Q297 112 320 140T356 208T369 287Q369 323 355 345T311 368Q284 368 264 351T230 308T211 250T205 191Q205 112 264 112Z" />
<glyph unicode="&#xf1;" glyph-name="ntilde" horiz-adv-x="612" d="M15 0L131 549H261L253 459H257Q287 507 326 533T420 559Q493 559 528 515T563 402Q563 380 560 355T552 303L488 0H322L387 311Q390 326 392 343T395 374Q395 400 383 413T350 426Q310 426
280 377T233 246L181 0H15ZM183 605Q198 689 235 726T327 763Q357 763 380 751T424 726T465 713Q499 713 519 764H607Q589 678 552 642T459 606Q427 606 404 618T360 642T318 655Q303 655 290 642T271 605H183Z" />
<glyph unicode="&#xf2;" glyph-name="ograve" horiz-adv-x="595" d="M253 -10Q157 -10 100 46T43 201Q43 273 61 337T118 452T212 530T343 559Q441 559 497 503T553 345Q553 275 535 211T479 97T385 19T253 -10ZM270 120Q304 120 330 153T370 238T384 347Q384
384 371 406T327 429Q299 429 278 408T242 353T219 278T211 199Q211 120 270 120ZM346 606Q325 626 302 652T258 705T226 756V766H396Q404 733 417 694T448 618V606H346Z" />
<glyph unicode="&#xf3;" glyph-name="oacute" horiz-adv-x="595" d="M253 -10Q157 -10 100 46T43 201Q43 273 61 337T118 452T212 530T343 559Q441 559 497 503T553 345Q553 275 535 211T479 97T385 19T253 -10ZM270 120Q304 120 330 153T370 238T384 347Q384
384 371 406T327 429Q299 429 278 408T242 353T219 278T211 199Q211 120 270 120ZM273 618Q302 646 335 688T394 766H581V758Q571 745 548 725T497 682T441 639T392 606H273V618Z" />
<glyph unicode="&#xf4;" glyph-name="ocircumflex" horiz-adv-x="595" d="M253 -10Q157 -10 100 46T43 201Q43 273 61 337T118 452T212 530T343 559Q441 559 497 503T553 345Q553 275 535 211T479 97T385 19T253 -10ZM270 120Q304 120 330 153T370 238T384 347Q384
384 371 406T327 429Q299 429 278 408T242 353T219 278T211 199Q211 120 270 120ZM142 618Q163 637 190 663T244 717T289 766H478Q493 732 518 690T565 618V606H453Q436 621 414 645T375 689Q347 666 319 646T260 606H142V618Z" />
<glyph unicode="&#xf5;" glyph-name="otilde" horiz-adv-x="595" d="M253 -10Q157 -10 100 46T43 201Q43 273 61 337T118 452T212 530T343 559Q441 559 497 503T553 345Q553 275 535 211T479 97T385 19T253 -10ZM270 120Q304 120 330 153T370 238T384 347Q384
384 371 406T327 429Q299 429 278 408T242 353T219 278T211 199Q211 120 270 120ZM164 605Q179 689 216 726T308 763Q338 763 361 751T405 726T446 713Q480 713 500 764H588Q570 678 533 642T440 606Q408 606 385 618T341 642T299 655Q284 655 271 642T252 605H164Z"
/>
<glyph unicode="&#xf6;" glyph-name="odieresis" horiz-adv-x="595" d="M253 -10Q157 -10 100 46T43 201Q43 273 61 337T118 452T212 530T343 559Q441 559 497 503T553 345Q553 275 535 211T479 97T385 19T253 -10ZM270 120Q304 120 330 153T370 238T384 347Q384
384 371 406T327 429Q299 429 278 408T242 353T219 278T211 199Q211 120 270 120ZM472 618Q441 618 421 630T401 675Q401 718 423 738T486 759Q513 759 534 748T556 702Q556 664 537 641T472 618ZM262 618Q231 618 211 630T190 675Q190 718 212 738T275 759Q302
759 324 748T346 702Q346 664 327 641T262 618Z" />
<glyph unicode="&#xf7;" glyph-name="divide" horiz-adv-x="578" d="M294 454Q264 454 243 472T222 532Q222 576 243 593T294 610Q322 610 344 593T366 532Q366 491 344 473T294 454ZM49 293V412H539V293H49ZM294 95Q264 95 243 113T222 173Q222 216 243 233T294
251Q322 251 344 234T366 173Q366 132 344 114T294 95Z" />
<glyph unicode="&#xf8;" glyph-name="oslash" horiz-adv-x="605" d="M92 -52L26 1L83 69Q63 96 53 128T43 201Q43 273 62 337T119 452T215 530T347 559Q381 559 410 552T463 532L505 582L572 529L527 473Q544 448 553 416T562 345Q562 275 544 211T487 97T393
19T260 -10Q227 -10 199 -3T147 15L92 -52ZM374 422Q357 435 332 435Q293 435 266 407T223 333T203 235Q203 230 203 225T202 214L374 422ZM276 115Q313 115 340 141T382 211T402 305Q402 310 402 315T403 326L237 124Q252 115 276 115Z" />
<glyph unicode="&#xf9;" glyph-name="ugrave" horiz-adv-x="612" d="M193 -10Q119 -10 85 34T51 147Q51 196 63 255L125 549H291L226 239Q223 224 221 207T218 175Q218 149 230 137T263 124Q302 124 332 173T380 303L432 549H598L482 0H352L360 90H355Q326 42
287 16T193 -10ZM358 606Q337 626 314 652T270 705T238 756V766H408Q416 733 429 694T460 618V606H358Z" />
<glyph unicode="&#xfa;" glyph-name="uacute" horiz-adv-x="612" d="M193 -10Q119 -10 85 34T51 147Q51 196 63 255L125 549H291L226 239Q223 224 221 207T218 175Q218 149 230 137T263 124Q302 124 332 173T380 303L432 549H598L482 0H352L360 90H355Q326 42
287 16T193 -10ZM285 618Q314 646 347 688T406 766H593V758Q583 745 560 725T509 682T453 639T404 606H285V618Z" />
<glyph unicode="&#xfb;" glyph-name="ucircumflex" horiz-adv-x="612" d="M193 -10Q119 -10 85 34T51 147Q51 196 63 255L125 549H291L226 239Q223 224 221 207T218 175Q218 149 230 137T263 124Q302 124 332 173T380 303L432 549H598L482 0H352L360 90H355Q326
42 287 16T193 -10ZM154 618Q175 637 202 663T256 717T301 766H490Q505 732 530 690T577 618V606H465Q448 621 426 645T387 689Q359 666 331 646T272 606H154V618Z" />
<glyph unicode="&#xfc;" glyph-name="udieresis" horiz-adv-x="612" d="M193 -10Q119 -10 85 34T51 147Q51 196 63 255L125 549H291L226 239Q223 224 221 207T218 175Q218 149 230 137T263 124Q302 124 332 173T380 303L432 549H598L482 0H352L360 90H355Q326
42 287 16T193 -10ZM484 618Q453 618 433 630T413 675Q413 718 435 738T498 759Q525 759 546 748T568 702Q568 664 549 641T484 618ZM274 618Q243 618 223 630T202 675Q202 718 224 738T287 759Q314 759 336 748T358 702Q358 664 339 641T274 618Z" />
<glyph unicode="&#xfd;" glyph-name="yacute" horiz-adv-x="531" d="M7 -240Q-20 -240 -37 -238T-66 -231V-99Q-55 -101 -42 -103T-11 -105Q34 -105 62 -82T113 -19L125 3L45 549H211L234 296Q237 266 237 234T238 176H242Q250 200 261 230T286 291L405 549H584L255
-74Q210 -159 150 -199T7 -240ZM229 618Q258 646 291 688T350 766H537V758Q527 745 504 725T453 682T397 639T348 606H229V618Z" />
<glyph unicode="&#xfe;" glyph-name="thorn" horiz-adv-x="601" d="M-36 -240L176 760H342L314 627Q306 589 294 550T273 485H277Q303 521 334 540T402 559Q472 559 515 508T558 358Q558 294 542 229T495 110T417 23T312 -10Q267 -10 238 11T188 66H184Q181 26
176 -9T161 -95L130 -240H-36ZM276 124Q301 124 321 143T357 195T380 267T389 346Q389 425 332 425Q305 425 284 404T248 348T226 273Q220 238 220 203Q220 167 234 146T276 124Z" />
<glyph unicode="&#xff;" glyph-name="ydieresis" horiz-adv-x="531" d="M7 -240Q-20 -240 -37 -238T-66 -231V-99Q-55 -101 -42 -103T-11 -105Q34 -105 62 -82T113 -19L125 3L45 549H211L234 296Q237 266 237 234T238 176H242Q250 200 261 230T286 291L405 549H584L255
-74Q210 -159 150 -199T7 -240ZM684 618Q653 618 633 630T613 675Q613 718 635 738T698 759Q725 759 746 748T768 702Q768 664 749 641T684 618ZM474 618Q443 618 423 630T402 675Q402 718 424 738T487 759Q514 759 536 748T558 702Q558 664 539 641T474 618Z"
/>
<glyph unicode="&#x2013;" glyph-name="endash" horiz-adv-x="480" d="M18 208L44 331H464L438 208H18Z" />
<glyph unicode="&#x2014;" glyph-name="emdash" horiz-adv-x="960" d="M18 208L44 331H944L918 208H18Z" />
<glyph unicode="&#x2018;" glyph-name="quoteleft" horiz-adv-x="228" d="M55 480Q78 531 112 594T182 714H306Q281 655 256 588T212 469H59L55 480Z" />
<glyph unicode="&#x2019;" glyph-name="quoteright" horiz-adv-x="228" d="M49 469Q74 528 99 595T143 714H296L300 703Q277 652 243 589T174 469H49Z" />
<glyph unicode="&#x201a;" glyph-name="quotesinglbase" horiz-adv-x="290" d="M-50 -129Q-25 -70 -1 -3T43 116H196L200 105Q178 54 144 -9T74 -129H-50Z" />
<glyph unicode="&#x201c;" glyph-name="quotedblleft" horiz-adv-x="458" d="M284 480Q307 531 341 594T411 714H535Q510 655 486 588T441 469H288L284 480ZM55 480Q78 531 112 594T182 714H306Q281 655 256 588T212 469H59L55 480Z" />
<glyph unicode="&#x201d;" glyph-name="quotedblright" horiz-adv-x="458" d="M279 469Q304 528 328 595T372 714H526L529 703Q506 652 472 589T403 469H279ZM49 469Q74 528 99 595T143 714H296L300 703Q277 652 243 589T174 469H49Z" />
<glyph unicode="&#x201e;" glyph-name="quotedblbase" horiz-adv-x="521" d="M181 -129Q206 -70 230 -3T274 116H427L431 105Q409 54 375 -9T304 -129H181ZM-50 -129Q-25 -70 -1 -3T43 116H196L200 105Q178 54 144 -9T74 -129H-50Z" />
<glyph unicode="&#x2022;" glyph-name="bullet" horiz-adv-x="383" d="M197 201Q134 201 95 239T56 352Q56 434 99 481T217 529Q284 529 321 492T359 378Q359 295 317 248T197 201Z" />
<glyph unicode="&#x2039;" glyph-name="guilsinglleft" horiz-adv-x="336" d="M127 41L33 269V277L230 515L340 428L206 265L267 99L127 41Z" />
<glyph unicode="&#x203a;" glyph-name="guilsinglright" horiz-adv-x="336" d="M106 33L-3 120L130 283L70 450L209 508L304 279V272L106 33Z" />
</font>
</defs>
</svg>
