<?xml version="1.0" standalone="no"?>
<!DOCTYPE svg PUBLIC "-//W3C//DTD SVG 1.1//EN" "http://www.w3.org/Graphics/SVG/1.1/DTD/svg11.dtd">
<svg xmlns="http://www.w3.org/2000/svg">
<defs >
<font id="NotoSans" horiz-adv-x="580" ><font-face
    font-family="Noto Sans SemiBold"
    units-per-em="1000"
    panose-1="2 11 7 2 4 5 4 9 2 4"
    ascent="1069"
    descent="-293"
    alphabetic="0" />
<glyph unicode=" " glyph-name="space" horiz-adv-x="260" />
<glyph unicode="!" glyph-name="exclam" horiz-adv-x="277" d="M72 223L157 714H301L177 223H72ZM82 -13Q47 -13 31 5T15 50Q15 84 36 112T106 141Q135 141 152 124T170 76Q170 40 147 14T82 -13Z" />
<glyph unicode="&quot;" glyph-name="quotedbl" horiz-adv-x="430" d="M290 456L325 714H446L371 456H290ZM102 456L137 714H257L183 456H102Z" />
<glyph unicode="#" glyph-name="numbersign" horiz-adv-x="646" d="M87 0L144 203H24L32 291H168L207 422H80L88 510H231L290 714H383L324 510H439L498 714H589L531 510H652L644 422H506L467 291H598L590 203H442L384 0H291L350 203H236L178 0H87ZM261 291H375L413
422H299L261 291Z" />
<glyph unicode="$" glyph-name="dollar" horiz-adv-x="551" d="M195 44Q148 46 105 56T28 84V195Q66 174 115 159T215 143L255 321Q191 345 150 383T108 491Q108 549 136 590T215 653T329 681L347 759H414L397 681Q437 676 471 667T539 639L494 542Q468 555 437
565T375 578L339 408Q384 391 418 370T471 318T490 241Q490 158 432 106T261 44L240 -58H173L195 44ZM308 578Q274 574 251 555T228 497Q228 453 278 433L308 578ZM282 145Q319 150 343 171T367 229Q367 276 315 296L282 145Z" />
<glyph unicode="%" glyph-name="percent" horiz-adv-x="835" d="M194 276Q132 276 99 315T65 428Q65 469 74 520T107 617T168 694T264 724Q327 724 361 686T396 576Q396 544 390 505T369 425T332 351T274 297T194 276ZM113 0L644 714H745L215 0H113ZM203 364Q226
364 243 387T272 444T288 515T294 577Q294 636 257 636Q235 636 218 615T190 560T173 490T167 423Q167 364 203 364ZM596 -9Q532 -9 498 28T464 136Q464 183 474 235T508 334T569 409T664 439Q727 439 761 402T795 293Q795 260 789 220T769 140T732 66T675 12T596
-9ZM602 78Q626 78 643 101T671 159T687 230T693 292Q693 351 657 351Q634 351 617 330T589 275T573 205T567 138Q567 78 602 78Z" />
<glyph unicode="&amp;" glyph-name="ampersand" horiz-adv-x="695" d="M233 -10Q140 -10 87 37T33 172Q33 249 77 300T211 395Q192 426 181 460T170 529Q170 621 226 673T374 725Q460 725 502 683T545 578Q545 503 494 455T361 371L469 222Q499 255 518 290T554
366H678Q650 298 614 242T532 137L631 0H485L443 59Q401 29 352 10T233 -10ZM312 443Q341 457 367 474T410 513T427 564Q427 595 411 611T367 627Q328 627 307 601T286 536Q286 483 312 443ZM254 95Q294 95 326 108T385 141L262 318Q220 295 191 265T161 183Q161
146 186 121T254 95Z" />
<glyph unicode="&apos;" glyph-name="quotesingle" horiz-adv-x="242" d="M102 456L137 714H257L183 456H102Z" />
<glyph unicode="(" glyph-name="parenleft" horiz-adv-x="321" d="M110 -158Q38 -30 38 135Q38 311 101 451T284 714H394Q323 636 268 547T182 354T150 133Q150 52 165 -21T207 -158H110Z" />
<glyph unicode=")" glyph-name="parenright" horiz-adv-x="321" d="M-74 -158Q-3 -80 52 9T138 202T169 423Q169 503 155 576T113 714H210Q282 585 282 420Q282 245 219 105T36 -158H-74Z" />
<glyph unicode="*" glyph-name="asterisk" horiz-adv-x="547" d="M358 289L311 465L204 318L118 391L258 518L91 566L128 668L299 581L316 766L427 744L370 567L565 579L558 471L383 493L465 321L358 289Z" />
<glyph unicode="+" glyph-name="plus" horiz-adv-x="572" d="M346 399H539V306H346V111H252V306H59V399H252V596H346V399Z" />
<glyph unicode="," glyph-name="comma" horiz-adv-x="274" d="M-47 -129Q-21 -70 4 -3T49 116H172L176 105Q152 52 117 -11T46 -129H-47Z" />
<glyph unicode="-" glyph-name="hyphen" horiz-adv-x="319" d="M22 215L45 321H294L271 215H22Z" />
<glyph unicode="." glyph-name="period" horiz-adv-x="274" d="M82 -13Q46 -13 31 5T15 49Q15 84 36 112T106 141Q135 141 152 125T170 77Q170 39 147 13T82 -13Z" />
<glyph unicode="/" glyph-name="slash" horiz-adv-x="396" d="M-45 0L351 714H475L79 0H-45Z" />
<glyph unicode="0" glyph-name="zero" horiz-adv-x="551" d="M232 -10Q135 -10 88 52T41 230Q41 301 53 372T89 506T150 619T236 696T350 725Q441 725 490 668T539 494Q539 401 522 312T467 149T372 33T232 -10ZM243 94Q276 94 302 119T349 187T384 282T405 391T413
498Q413 621 340 621Q307 621 280 595T231 525T196 429T175 325T167 228Q167 163 184 129T243 94Z" />
<glyph unicode="1" glyph-name="one" horiz-adv-x="551" d="M283 419Q290 452 301 496T322 571Q311 560 293 547T258 522L165 464L109 555L366 714H471L319 0H193L283 419Z" />
<glyph unicode="2" glyph-name="two" horiz-adv-x="551" d="M-14 0L5 93L236 299Q297 354 334 393T387 464T404 532Q404 572 381 594T318 617Q279 617 244 599T167 548L107 632Q154 671 209 697T337 724Q403 724 446 701T511 639T533 554Q533 493 508 443T434
343T317 236L172 114V109H467L446 0H-14Z" />
<glyph unicode="3" glyph-name="three" horiz-adv-x="551" d="M201 -10Q89 -10 13 29V142Q51 120 100 107T197 93Q272 93 316 125T360 219Q360 265 329 292T227 319H161L180 414H227Q273 414 314 427T380 469T406 541Q406 577 384 598T318 620Q273 620 237 604T171
568L116 653Q162 684 214 704T341 724Q437 724 485 679T534 563Q534 488 488 436T356 369V365Q411 354 448 317T486 213Q486 157 457 106T364 22T201 -10Z" />
<glyph unicode="4" glyph-name="four" horiz-adv-x="551" d="M261 0L294 153H-5L15 254L401 714H534L437 256H530L508 153H415L382 0H261ZM135 256H316L347 395Q353 425 362 459T379 522T393 569H388Q377 549 358 523T324 479L135 256Z" />
<glyph unicode="5" glyph-name="five" horiz-adv-x="551" d="M199 -10Q146 -10 100 1T22 30V143Q58 122 101 109T191 95Q254 95 292 116T347 170T364 240Q364 287 336 316T245 346Q215 346 188 341T138 330L92 364L191 714H545L522 604H278L228 437Q243 440 260
442T300 445Q384 445 438 397T493 255Q493 204 477 157T426 72T335 12T199 -10Z" />
<glyph unicode="6" glyph-name="six" horiz-adv-x="551" d="M252 -10Q155 -10 103 49T51 221Q51 296 68 373T121 519T207 635Q253 679 313 702T454 725Q483 725 510 722T557 712L534 609Q517 614 494 617T445 621Q347 621 284 562T188 377H192Q218 412 257 435T349
458Q422 458 465 412T509 278Q509 233 496 183T452 89T373 18T252 -10ZM259 93Q301 93 329 118T371 184T385 268Q385 311 365 335T304 359Q273 359 247 344T204 306T180 262Q176 249 175 235T173 205Q173 159 194 126T259 93Z" />
<glyph unicode="7" glyph-name="seven" horiz-adv-x="551" d="M54 0L419 605H97L120 714H582L565 628L195 0H54Z" />
<glyph unicode="8" glyph-name="eight" horiz-adv-x="551" d="M249 -10Q177 -10 129 14T58 79T34 170Q34 247 80 298T211 381Q178 406 153 442T128 530Q128 586 155 630T234 699T355 725Q422 725 464 703T526 644T547 564Q547 512 525 475T467 414T390 373Q434
345 466 304T498 195Q498 142 472 95T390 19T249 -10ZM317 427Q369 447 397 476T425 549Q425 586 403 607T345 629Q300 629 275 603T250 535Q250 496 268 470T317 427ZM259 87Q319 87 347 120T375 193Q375 237 352 268T289 323Q228 302 193 269T158 182Q158 138
186 113T259 87Z" />
<glyph unicode="9" glyph-name="nine" horiz-adv-x="551" d="M161 -10Q129 -10 98 -5T44 6V115Q66 107 95 101T158 94Q229 94 274 125T347 211T390 334H386Q362 299 325 278T239 256Q155 256 113 308T70 446Q70 491 84 539T130 630T211 698T333 725Q423 725 476
669T529 495Q529 424 514 347T468 201T394 84Q351 37 294 14T161 -10ZM277 355Q321 355 353 385T397 453Q404 479 404 513Q404 561 384 591T321 621Q279 621 251 597T209 535T195 455Q195 407 216 381T277 355Z" />
<glyph unicode=":" glyph-name="colon" horiz-adv-x="274" d="M167 399Q132 399 116 417T100 462Q100 497 121 525T192 554Q220 554 238 538T256 490Q256 452 233 426T167 399ZM82 -13Q46 -13 31 5T15 49Q15 84 36 112T106 141Q135 141 152 125T170 77Q170 39
147 13T82 -13Z" />
<glyph unicode=";" glyph-name="semicolon" horiz-adv-x="274" d="M167 399Q132 399 116 417T100 462Q100 497 121 525T192 554Q220 554 238 538T256 490Q256 452 233 426T167 399ZM-50 -129Q-23 -70 2 -3T47 116H170L174 105Q149 52 114 -11T44 -129H-50Z" />
<glyph unicode="&lt;" glyph-name="less" horiz-adv-x="572" d="M539 105L59 317V379L539 619V516L189 353L539 208V105Z" />
<glyph unicode="=" glyph-name="equal" horiz-adv-x="572" d="M62 402V495H536V402H62ZM62 209V302H536V209H62Z" />
<glyph unicode="&gt;" glyph-name="greater" horiz-adv-x="572" d="M59 208L410 352L59 516V619L539 379V317L59 105V208Z" />
<glyph unicode="?" glyph-name="question" horiz-adv-x="448" d="M127 223Q139 291 165 334T250 420Q299 454 326 481T354 550Q354 583 336 602T278 621Q241 621 206 608T130 575L90 667Q133 691 185 707T295 724Q380 724 428 683T477 564Q477 516 459 480T408
414T332 354Q298 331 279 313T250 275T232 223H127ZM144 -13Q108 -13 93 5T77 49Q77 84 98 112T168 141Q197 141 214 125T232 77Q232 39 209 13T144 -13Z" />
<glyph unicode="@" glyph-name="at" horiz-adv-x="853" d="M389 -91Q280 -91 204 -48T88 70T48 245Q48 350 83 436T183 584T332 680T516 714Q621 714 692 676T800 570T837 412Q837 350 821 294T775 195T702 127T606 102Q560 102 534 123T500 181H496Q474 146 444
124T365 102Q309 102 274 138T238 249Q238 322 270 384T359 483T492 521Q543 521 579 513T643 493L593 298Q587 273 583 256T579 223Q579 200 589 191T615 181Q643 181 666 201T707 254T733 327T742 408Q742 474 718 524T641 603T504 631Q399 631 318 583T191 450T144
253Q144 179 171 120T255 27T400 -8Q459 -8 511 3T612 34V-47Q563 -67 507 -79T389 -91ZM388 181Q430 181 457 220T502 321L532 435Q522 438 511 440T484 442Q437 442 404 414T354 342T336 255Q336 215 350 198T388 181Z" />
<glyph unicode="A" glyph-name="A" horiz-adv-x="603" d="M-59 0L320 714H469L547 0H424L406 190H171L75 0H-59ZM226 299H398L384 470Q381 503 379 538T377 607H374Q362 576 347 543T313 474L226 299Z" />
<glyph unicode="B" glyph-name="B" horiz-adv-x="612" d="M32 0L183 714H382Q483 714 543 677T603 553Q603 480 561 434T445 372V368Q494 355 524 320T555 229Q555 151 519 100T419 25T276 0H32ZM337 423Q395 423 433 448T472 529Q472 567 448 587T371 608H287L248
423H337ZM283 107Q349 107 387 138T425 228Q425 270 400 295T319 320H226L180 107H283Z" />
<glyph unicode="C" glyph-name="C" horiz-adv-x="603" d="M324 -10Q198 -10 132 65T65 267Q65 331 79 396T124 520T199 625T307 698T448 725Q509 725 555 713T644 678L595 574Q563 591 528 603T448 616Q382 616 335 585T256 503T210 392T195 273Q195 188 233 144T348
99Q389 99 429 108T511 134V25Q477 12 431 1T324 -10Z" />
<glyph unicode="D" glyph-name="D" horiz-adv-x="673" d="M32 0L183 714H367Q497 714 569 645T642 438Q642 307 595 209T457 55T235 0H32ZM241 107Q331 107 391 151T481 270T511 434Q511 524 469 566T354 608H287L180 107H241Z" />
<glyph unicode="E" glyph-name="E" horiz-adv-x="531" d="M32 0L183 714H568L545 607H286L248 425H489L467 318H225L180 108H439L417 0H32Z" />
<glyph unicode="F" glyph-name="F" horiz-adv-x="511" d="M32 0L183 714H566L544 607H286L242 397H483L459 290H219L158 0H32Z" />
<glyph unicode="G" glyph-name="G" horiz-adv-x="685" d="M331 -10Q206 -10 136 61T65 265Q65 358 92 441T171 588T298 688T470 725Q529 725 577 714T673 679L625 573Q588 591 550 603T465 615Q401 615 351 587T266 511T213 402T195 274Q195 193 233 146T354 99Q384
99 407 103T453 113L490 284H356L379 392H637L559 28Q512 12 459 1T331 -10Z" />
<glyph unicode="H" glyph-name="H" horiz-adv-x="692" d="M32 0L183 714H309L249 426H510L571 714H697L546 0H420L487 317H225L158 0H32Z" />
<glyph unicode="I" glyph-name="I" horiz-adv-x="361" d="M-26 0L-11 72L78 105L185 609L110 642L125 714H417L402 642L311 609L204 105L280 72L266 0H-26Z" />
<glyph unicode="J" glyph-name="J" horiz-adv-x="309" d="M-71 -202Q-99 -202 -120 -199T-157 -190L-155 -84Q-140 -88 -121 -91T-79 -94Q-32 -94 -1 -65T44 28L190 714H316L167 11Q143 -103 84 -152T-71 -202Z" />
<glyph unicode="K" glyph-name="K" horiz-adv-x="594" d="M32 0L183 714H309L234 368L305 457L534 714H685L387 383L539 0H400L283 310L214 266L158 0H32Z" />
<glyph unicode="L" glyph-name="L" horiz-adv-x="503" d="M32 0L183 714H309L180 108H439L417 0H32Z" />
<glyph unicode="M" glyph-name="M" horiz-adv-x="865" d="M31 0L182 714H353L398 162H402L689 714H870L720 0H600L679 370Q690 426 704 483T730 581H726L424 0H311L264 581H260Q258 559 253 524T240 448T224 369L146 0H31Z" />
<glyph unicode="N" glyph-name="N" horiz-adv-x="737" d="M31 0L182 714H326L512 164H516Q519 186 524 219T536 289T550 355L626 714H742L591 0H451L259 560H255Q254 547 249 512T236 434T222 356L146 0H31Z" />
<glyph unicode="O" glyph-name="O" horiz-adv-x="727" d="M330 -10Q200 -10 133 64T65 264Q65 351 88 433T157 581T274 686T436 725Q563 725 629 651T696 453Q696 363 674 281T606 132T492 28T330 -10ZM338 99Q404 99 455 144T535 269T565 451Q565 528 529 572T426
617Q375 617 333 589T259 513T212 401T195 265Q195 185 233 142T338 99Z" />
<glyph unicode="P" glyph-name="P" horiz-adv-x="594" d="M32 0L183 714H367Q451 714 501 689T574 619T597 514Q597 431 558 375T449 291T285 263H213L158 0H32ZM298 369Q375 369 422 405T469 511Q469 561 442 584T359 608H287L236 369H298Z" />
<glyph unicode="Q" glyph-name="Q" horiz-adv-x="727" d="M344 -10Q340 -10 337 -10T330 -10Q200 -10 133 64T65 264Q65 351 88 433T157 581T274 686T436 725Q563 725 629 651T696 453Q696 357 670 269T592 115T463 16L591 -170H439L344 -10ZM338 99Q404 99 455
144T536 269T565 451Q565 528 529 572T426 617Q375 617 333 589T259 513T212 401T195 265Q195 185 233 142T338 99Z" />
<glyph unicode="R" glyph-name="R" horiz-adv-x="595" d="M32 0L183 714H351Q459 714 518 668T578 524Q578 442 535 387T413 308L537 0H399L298 282H218L158 0H32ZM293 387Q370 387 409 421T449 516Q449 564 422 585T338 607H287L240 387H293Z" />
<glyph unicode="S" glyph-name="S" horiz-adv-x="521" d="M191 -10Q137 -10 95 0T20 29V146Q59 125 101 111T192 97Q248 97 287 121T327 196Q327 236 302 261T229 318Q196 340 168 366T122 428T104 511Q104 575 134 623T219 697T345 724Q401 724 446 713T533 678L487
579Q454 595 418 605T345 616Q297 616 266 591T235 520Q235 479 258 456T328 404Q389 365 422 321T456 209Q456 136 421 87T326 14T191 -10Z" />
<glyph unicode="T" glyph-name="T" horiz-adv-x="520" d="M138 0L266 606H85L108 714H597L574 606H393L265 0H138Z" />
<glyph unicode="U" glyph-name="U" horiz-adv-x="686" d="M297 -10Q186 -10 130 43T73 190Q73 206 75 227T82 271L176 714H303L208 270Q199 229 199 198Q199 151 226 125T308 99Q382 99 418 139T473 260L569 714H695L597 249Q581 172 545 114T449 23T297 -10Z" />
<glyph unicode="V" glyph-name="V" horiz-adv-x="576" d="M158 0L91 714H214L246 276Q249 241 250 201T249 129H252Q264 163 280 200T315 276L533 714H666L296 0H158Z" />
<glyph unicode="W" glyph-name="W" horiz-adv-x="880" d="M121 0L96 714H217L224 307Q225 268 223 223T218 138H222Q235 177 253 224T288 306L474 714H591L604 307Q606 274 606 226T603 138H607Q620 178 637 224T670 309L841 714H971L652 0H512L499 376Q497 429
497 464T497 535H493Q482 499 469 465T437 391L259 0H121Z" />
<glyph unicode="X" glyph-name="X" horiz-adv-x="576" d="M-55 0L230 375L110 714H241L324 453L514 714H656L388 365L521 0H384L294 282L86 0H-55Z" />
<glyph unicode="Y" glyph-name="Y" horiz-adv-x="543" d="M149 0L207 271L91 714H220L291 399L493 714H635L332 270L275 0H149Z" />
<glyph unicode="Z" glyph-name="Z" horiz-adv-x="534" d="M-22 0L-5 87L399 606H115L137 714H581L564 626L158 108H466L443 0H-22Z" />
<glyph unicode="[" glyph-name="bracketleft" horiz-adv-x="316" d="M-15 -158L171 714H388L368 623H261L115 -67H222L202 -158H-15Z" />
<glyph unicode="\" glyph-name="backslash" horiz-adv-x="396" d="M214 0L108 714H217L325 0H214Z" />
<glyph unicode="]" glyph-name="bracketright" horiz-adv-x="316" d="M-69 -158L-50 -67H57L203 623H96L116 714H333L147 -158H-69Z" />
<glyph unicode="^" glyph-name="asciicircum" horiz-adv-x="559" d="M25 259L293 718H357L529 259H432L311 587L128 259H25Z" />
<glyph unicode="_" glyph-name="underscore" horiz-adv-x="398" d="M-91 -158L-76 -90H323L308 -158H-91Z" />
<glyph unicode="`" glyph-name="grave" horiz-adv-x="305" d="M260 606Q240 626 218 652T176 706T145 756V766H276Q285 731 301 693T337 618V606H260Z" />
<glyph unicode="a" glyph-name="a" horiz-adv-x="584" d="M196 -10Q155 -10 121 10T67 72T46 182Q46 252 64 318T116 437T197 521T302 552Q354 552 387 528T437 467H442L471 542H567L452 0H357L366 82H362Q331 42 291 16T196 -10ZM243 92Q276 92 305 117T357 182T391
272Q396 294 398 316T400 360Q400 399 379 424T321 450Q290 450 263 428T216 367T184 282T172 186Q172 139 191 116T243 92Z" />
<glyph unicode="b" glyph-name="b" horiz-adv-x="589" d="M287 -10Q234 -10 201 14T151 75H147L117 0H22L183 760H308L275 604Q269 579 262 550T247 497T235 459H239Q269 496 304 524T392 552Q433 552 467 532T522 470T543 360Q543 291 525 225T474 106T393 22T287
-10ZM269 92Q301 92 328 114T374 175T405 261T416 356Q416 450 344 450Q310 450 281 425T232 359T200 273T188 186Q188 144 208 118T269 92Z" />
<glyph unicode="c" glyph-name="c" horiz-adv-x="472" d="M247 -10Q189 -10 144 11T72 76T46 191Q46 264 65 329T121 444T211 523T331 552Q375 552 412 544T481 521L443 423Q419 434 393 442T335 450Q285 450 249 414T192 321T172 198Q172 147 197 120T269 92Q305
92 337 102T401 129V26Q369 10 332 0T247 -10Z" />
<glyph unicode="d" glyph-name="d" horiz-adv-x="588" d="M196 -10Q155 -10 121 10T67 72T46 183Q46 252 63 318T115 436T196 520T302 552Q353 552 382 527T430 467H435Q437 483 440 517T451 585L488 760H613L452 0H355L364 82H360Q329 42 290 16T196 -10ZM246
92Q280 92 308 117T357 183T389 269T400 356Q400 398 380 424T320 450Q288 450 261 427T214 366T183 281T172 186Q172 92 246 92Z" />
<glyph unicode="e" glyph-name="e" horiz-adv-x="535" d="M253 -10Q158 -10 102 43T46 198Q46 264 65 327T121 441T212 522T337 552Q422 552 465 514T508 412Q508 329 432 276T195 223H173Q171 210 171 196Q171 145 198 116T277 87Q318 87 353 97T433 128V31Q392
11 351 1T253 -10ZM204 311Q291 311 339 337T388 408Q388 459 329 459Q285 459 245 419T188 311H204Z" />
<glyph unicode="f" glyph-name="f" horiz-adv-x="352" d="M-32 -240Q-54 -240 -74 -237T-109 -229V-127Q-94 -132 -81 -135T-53 -138Q13 -138 33 -43L136 447H51L63 505L157 543L166 587Q189 687 235 726T360 765Q391 765 418 759T467 743L434 650Q420 655 404
659T369 664Q307 664 289 580L281 542H391L371 447H261L154 -61Q142 -113 121 -153T62 -217T-32 -240Z" />
<glyph unicode="g" glyph-name="g" horiz-adv-x="588" d="M189 -240Q132 -240 92 -231T18 -205V-95Q51 -114 94 -125T183 -137Q238 -137 273 -111T323 -28L329 -4Q334 16 341 41T353 83H349Q320 45 283 18T192 -10Q131 -10 89 37T46 182Q46 251 64 317T115 436T196
520T300 552Q354 552 385 528T438 467H442L472 542H567L447 -20Q421 -143 355 -191T189 -240ZM247 92Q279 92 307 116T355 179T388 264T400 356Q400 398 380 424T321 450Q289 450 262 427T214 366T183 281T172 186Q172 139 192 116T247 92Z" />
<glyph unicode="h" glyph-name="h" horiz-adv-x="595" d="M22 0L183 760H308L274 603Q267 571 256 531T235 459H239Q269 497 308 524T403 552Q470 552 506 513T542 402Q542 384 539 363T531 317L464 0H339L408 325Q416 364 416 386Q416 450 357 450Q306 450 262
391T195 228L147 0H22Z" />
<glyph unicode="i" glyph-name="i" horiz-adv-x="282" d="M224 618Q197 618 179 631T160 673Q160 709 180 730T238 751Q265 751 283 739T301 697Q301 661 281 640T224 618ZM22 0L137 542H262L147 0H22Z" />
<glyph unicode="j" glyph-name="j" horiz-adv-x="282" d="M224 618Q197 618 179 631T161 673Q161 709 181 730T238 751Q265 751 283 739T301 697Q301 661 281 640T224 618ZM-52 -240Q-97 -240 -128 -229V-127Q-114 -132 -100 -135T-71 -138Q-41 -138 -19 -117T12
-49L138 542H262L133 -66Q122 -116 101 -155T42 -217T-52 -240Z" />
<glyph unicode="k" glyph-name="k" horiz-adv-x="540" d="M21 0L182 760H308L238 435Q228 389 217 353T202 300H205L438 542H582L344 302L485 0H346L248 222L184 179L147 0H21Z" />
<glyph unicode="l" glyph-name="l" horiz-adv-x="282" d="M21 0L183 760H308L146 0H21Z" />
<glyph unicode="m" glyph-name="m" horiz-adv-x="894" d="M22 0L137 542H234L224 442H228Q258 486 300 519T400 552Q456 552 486 522T525 438H529Q560 485 604 518T707 552Q773 552 807 513T841 405Q841 384 838 363T830 317L763 0H638L707 325Q711 344 713 359T715
388Q715 450 660 450Q610 450 567 392T504 233L455 0H330L399 325Q407 364 407 386Q407 450 353 450Q303 450 260 391T195 228L147 0H22Z" />
<glyph unicode="n" glyph-name="n" horiz-adv-x="595" d="M20 0L136 543H235L225 443H228Q258 487 300 520T403 553Q471 553 507 514T543 405Q543 385 540 362T532 316L465 0H338L406 326Q410 345 412 360T415 388Q415 449 357 449Q306 449 262 391T196 228L147 0H20Z" />
<glyph unicode="o" glyph-name="o" horiz-adv-x="577" d="M251 -9Q159 -9 103 47T46 199Q46 268 63 331T116 443T204 522T327 551Q422 551 477 495T532 338Q532 272 515 210T463 99T376 20T251 -9ZM260 93Q304 93 336 126T387 215T405 342Q405 385 387 417T321
449Q284 449 256 427T210 368T181 287T171 198Q171 93 260 93Z" />
<glyph unicode="p" glyph-name="p" horiz-adv-x="589" d="M-29 -240L137 542H234L224 453H228Q258 491 298 521T392 552Q433 552 467 532T522 470T543 359Q543 290 525 224T474 106T393 22T287 -10Q235 -10 206 15T158 75H154Q149 10 136 -49L96 -240H-29ZM269
92Q301 92 328 114T374 175T405 261T416 356Q416 450 344 450Q310 450 281 425T232 360T200 273T188 186Q188 144 208 118T269 92Z" />
<glyph unicode="q" glyph-name="q" horiz-adv-x="588" d="M317 -51Q320 -36 326 -12T340 37T353 83H349Q320 45 283 18T192 -10Q153 -10 120 10T66 72T46 182Q46 251 63 317T115 436T196 520T303 552Q353 552 384 529T437 467H442L472 542H567L401 -240H276L317
-51ZM247 92Q281 92 309 117T357 184T389 270T400 356Q400 397 380 423T320 450Q289 450 262 427T215 366T184 281T172 186Q172 92 247 92Z" />
<glyph unicode="r" glyph-name="r" horiz-adv-x="412" d="M22 0L137 542H234L224 442H229Q261 490 301 521T396 552Q409 552 423 551T447 546L420 428Q410 431 397 433T370 435Q308 435 262 382T199 244L147 0H22Z" />
<glyph unicode="s" glyph-name="s" horiz-adv-x="458" d="M167 -10Q116 -10 78 -2T9 23V129Q41 110 80 98T161 85Q205 85 233 103T262 153Q262 177 245 194T177 240Q124 270 96 302T68 387Q68 465 121 508T266 552Q361 552 438 510L397 418Q369 433 337 444T268
456Q237 456 216 441T194 400Q194 378 210 362T273 321Q323 293 356 260T389 171Q389 82 329 36T167 -10Z" />
<glyph unicode="t" glyph-name="t" horiz-adv-x="381" d="M194 -10Q134 -10 96 17T58 113Q58 140 65 174L123 447H45L57 507L151 547L214 660H293L268 542H404L384 447H248L190 173Q187 164 186 154T184 134Q184 91 231 91Q250 91 268 95T307 107V13Q288 4 258
-3T194 -10Z" />
<glyph unicode="u" glyph-name="u" horiz-adv-x="595" d="M191 -10Q125 -10 90 29T54 138Q54 158 57 183T66 235L131 542H256L187 216Q179 178 179 155Q179 92 238 92Q289 92 333 151T400 314L449 542H573L458 0H361L371 100H366Q336 56 294 23T191 -10Z" />
<glyph unicode="v" glyph-name="v" horiz-adv-x="495" d="M114 0L49 542H172L197 252Q199 234 200 209T202 158T203 117H207Q215 136 225 161T246 210T265 250L415 542H549L256 0H114Z" />
<glyph unicode="w" glyph-name="w" horiz-adv-x="763" d="M83 0L59 542H177L182 284Q182 238 181 197T177 116H181Q188 139 199 169T221 225T238 265L361 542H497L503 271Q504 236 504 196T501 116H505Q513 139 524 170T547 234T570 292L681 542H810L555 0H414L407
268Q406 302 407 346T410 432H404Q391 395 376 355T345 278L221 0H83Z" />
<glyph unicode="x" glyph-name="x" horiz-adv-x="513" d="M-44 0L189 278L77 542H208L274 366L407 542H554L327 272L448 0H315L243 182L101 0H-44Z" />
<glyph unicode="y" glyph-name="y" horiz-adv-x="499" d="M-8 -240Q-33 -240 -49 -238T-78 -231V-131Q-65 -134 -51 -136T-19 -138Q25 -138 54 -112T108 -41L130 -3L49 542H172L202 285Q207 245 209 198T211 121H214Q224 145 241 187T277 268L415 542H550L215
-83Q172 -163 118 -201T-8 -240Z" />
<glyph unicode="z" glyph-name="z" horiz-adv-x="451" d="M-20 0L-5 77L296 446H88L109 542H460L441 454L146 96H375L356 0H-20Z" />
<glyph unicode="{" glyph-name="braceleft" horiz-adv-x="353" d="M226 -158Q143 -158 106 -127T68 -41Q68 -25 70 -9T76 22L97 118Q99 131 101 143T104 165Q104 233 2 233L22 331Q80 331 115 351T160 421L192 566Q208 643 250 678T383 714H415L394 618Q355 617
332 604T298 546L265 397Q242 293 133 277V274Q173 262 192 235T212 169Q212 156 210 142T205 111L185 18Q181 -3 181 -15Q181 -42 198 -52T247 -62V-158H226Z" />
<glyph unicode="|" glyph-name="bar" horiz-adv-x="551" d="M236 -232V758H330V-232H236Z" />
<glyph unicode="}" glyph-name="braceright" horiz-adv-x="353" d="M-44 -62Q-3 -61 23 -48T58 10L91 159Q114 263 223 278V282Q183 294 164 321T144 387Q144 400 146 414T152 445L172 538Q177 559 177 571Q177 598 157 608T100 618L118 714H130Q213 714 251 683T289
597Q289 581 287 565T281 534L260 437Q257 425 255 413T252 391Q252 323 354 323L335 225Q276 225 241 205T196 135L165 -10Q148 -89 105 -123T-28 -158H-44V-62Z" />
<glyph unicode="~" glyph-name="asciitilde" horiz-adv-x="572" d="M282 308Q246 324 221 329T173 335Q145 335 115 318T59 276V376Q109 429 183 429Q211 429 240 423T316 397Q353 381 378 376T425 370Q454 370 484 387T539 429V330Q489 276 416 276Q387 276 358
282T282 308Z" />
<glyph unicode="&#xa0;" glyph-name="uni00A0" horiz-adv-x="260" />
<glyph unicode="&#xa1;" glyph-name="exclamdown" horiz-adv-x="277" d="M170 392Q140 392 122 408T104 456Q104 494 127 520T194 546Q228 546 243 528T259 483Q259 449 239 421T170 392ZM-26 -181L102 309H198L118 -181H-26Z" />
<glyph unicode="&#xa2;" glyph-name="cent" horiz-adv-x="551" d="M224 94Q164 110 127 156T90 286Q90 376 119 453T204 582T337 645L353 724H434L417 645Q477 639 526 616L489 519Q465 529 439 537T380 546Q330 546 294 510T237 416T217 294Q217 242 242 215T314
187Q350 187 382 197T446 225V121Q416 106 381 97T302 85L282 -10H201L224 94Z" />
<glyph unicode="&#xa3;" glyph-name="sterling" horiz-adv-x="551" d="M12 103Q56 113 88 144T134 236L149 306H54L73 398H168L196 536Q216 631 274 677T421 724Q474 724 518 712T595 682L548 586Q521 600 490 610T426 621Q387 621 360 600T321 526L294 398H452L433
306H275L261 242Q250 189 224 158T162 109H494L470 0H-8L12 103Z" />
<glyph unicode="&#xa4;" glyph-name="currency" horiz-adv-x="551" d="M388 191Q367 178 342 171T289 163Q233 163 189 191L128 131L66 193L128 254Q99 299 99 353Q99 380 107 405T128 452L65 514L128 577L190 515Q211 528 237 536T289 544Q316 544 341 536T388
514L450 577L514 516L451 453Q464 432 472 406T480 353Q480 325 473 300T451 253L512 192L450 130L388 191ZM289 252Q332 252 362 281T393 353Q393 396 363 426T289 456Q247 456 218 426T188 353Q188 311 217 282T289 252Z" />
<glyph unicode="&#xa5;" glyph-name="yen" horiz-adv-x="551" d="M155 0L179 116H49L66 195H196L210 266H81L98 345H199L103 714H226L292 400L494 714H625L374 345H477L460 266H329L315 195H445L429 116H299L274 0H155Z" />
<glyph unicode="&#xa6;" glyph-name="brokenbar" horiz-adv-x="551" d="M236 367V758H330V367H236ZM236 -232V159H330V-232H236Z" />
<glyph unicode="&#xa7;" glyph-name="section" horiz-adv-x="486" d="M174 -8Q121 -8 82 2T16 27V123Q48 104 89 90T176 76Q230 76 256 95T283 146Q283 167 264 184T198 224Q141 251 109 285T77 372Q77 424 107 459T182 519Q160 536 145 560T130 615Q130 684 185
724T332 765Q381 765 421 754T497 725L462 643Q432 658 399 669T326 680Q293 680 268 666T243 621Q243 598 263 582T330 545Q387 519 418 485T450 401Q450 347 420 311T349 251Q369 235 383 212T397 157Q397 80 337 36T174 -8ZM282 291Q306 305 325 329T344 385Q344
413 321 435T249 477Q221 466 201 442T181 387Q181 358 203 337T282 291Z" />
<glyph unicode="&#xa8;" glyph-name="dieresis" horiz-adv-x="554" d="M448 625Q425 625 410 636T394 674Q394 706 411 725T460 744Q483 744 498 733T513 696Q513 663 496 644T448 625ZM264 625Q240 625 225 636T209 674Q209 706 226 725T275 744Q299 744 314
733T329 696Q329 663 312 644T264 625Z" />
<glyph unicode="&#xa9;" glyph-name="copyright" horiz-adv-x="832" d="M416 -10Q336 -10 269 17T153 93T76 210T49 357Q49 435 76 501T153 618T270 696T416 724Q492 724 558 697T675 621T754 504T783 357Q783 277 756 210T680 94T563 17T416 -10ZM416 50Q478
50 533 72T629 136T694 233T718 357Q718 420 696 476T632 574T536 641T416 665Q329 665 260 626T152 517T112 357Q112 269 151 200T258 90T416 50ZM431 130Q330 130 280 192T230 357Q230 423 253 474T323 554T435 584Q500 584 558 554L529 489Q479 515 436 515Q377
515 345 473T312 357Q312 281 340 240T435 198Q458 198 486 204T540 221V154Q516 143 491 137T431 130Z" />
<glyph unicode="&#xaa;" glyph-name="ordfeminine" horiz-adv-x="363" d="M176 372Q137 372 107 401T77 496Q77 532 87 571T117 644T168 699T243 721Q275 721 294 707T325 671H329L348 715H412L338 378H275L280 427H277Q258 403 234 388T176 372ZM206 438Q230
438 248 455T278 497T295 550T301 598Q301 623 290 638T254 654Q225 654 205 630T173 570T162 496Q162 438 206 438Z" />
<glyph unicode="&#xab;" glyph-name="guillemotleft" horiz-adv-x="530" d="M142 48L38 270V280L232 492L306 428L167 266L239 89L142 48ZM361 48L260 262V273L451 490L526 428L389 260L459 89L361 48Z" />
<glyph unicode="&#xac;" glyph-name="logicalnot" horiz-adv-x="572" d="M539 399V124H445V306H59V399H539Z" />
<glyph unicode="&#xad;" glyph-name="uni00AD" horiz-adv-x="319" d="M22 215L45 321H294L271 215H22Z" />
<glyph unicode="&#xae;" glyph-name="registered" horiz-adv-x="832" d="M416 -10Q336 -10 269 17T153 93T76 210T49 357Q49 435 76 501T153 618T270 696T416 724Q492 724 558 697T675 621T754 504T783 357Q783 277 756 210T680 94T563 17T416 -10ZM416 50Q478
50 533 72T629 136T694 233T718 357Q718 420 696 476T632 574T536 641T416 665Q329 665 260 626T152 517T112 357Q112 269 151 200T258 90T416 50ZM276 138V578H407Q489 578 527 545T565 446Q565 399 541 372T487 332L603 138H514L417 308H355V138H276ZM405 373Q444
373 464 393T485 444Q485 479 467 495T404 511H355V373H405Z" />
<glyph unicode="&#xaf;" glyph-name="overscore" horiz-adv-x="460" d="M92 760L112 846H576L556 760H92Z" />
<glyph unicode="&#xb0;" glyph-name="degree" horiz-adv-x="428" d="M214 398Q139 398 92 443T45 561Q45 632 91 678T214 724Q264 724 302 703T361 646T382 561Q382 489 336 444T214 398ZM214 478Q252 478 274 500T297 561Q297 599 274 622T214 645Q176 645 154
622T131 561Q131 523 153 501T214 478Z" />
<glyph unicode="&#xb1;" glyph-name="plusminus" horiz-adv-x="572" d="M346 419H539V326H346V131H252V326H59V419H252V615H346V419ZM59 0V93H539V0H59Z" />
<glyph unicode="&#xb2;" glyph-name="uni00B2" horiz-adv-x="369" d="M62 415L77 487L208 595Q261 639 287 667T313 727Q313 749 300 761T265 773Q222 773 172 733L130 799Q164 825 202 839T288 853Q349 853 381 822T414 747Q414 708 400 680T356 623T282 561L203
499H381L363 415H62Z" />
<glyph unicode="&#xb3;" glyph-name="uni00B3" horiz-adv-x="369" d="M200 408Q164 408 132 415T75 435V518Q103 502 134 493T197 483Q238 483 262 500T287 549Q287 573 271 586T220 600H165L180 670H224Q267 670 292 685T318 732Q318 778 264 777Q240 777 218
769T172 745L137 809Q167 829 203 841T282 853Q352 853 382 823T413 751Q413 702 384 676T309 638V634Q347 625 365 602T383 546Q383 501 359 470T293 424T200 408Z" />
<glyph unicode="&#xb4;" glyph-name="acute" horiz-adv-x="300" d="M114 618Q139 646 170 688T223 766H363V757Q349 739 320 711T257 653T198 606H114V618Z" />
<glyph unicode="&#xb5;" glyph-name="uni00B5" horiz-adv-x="601" d="M-29 -240L137 542H262L194 219Q186 180 186 156Q186 125 201 109T246 92Q297 92 340 151T406 312L455 542H579L464 0H368L378 91H373Q345 48 309 19T225 -10Q200 -10 181 0T151 28H146Q143
5 138 -28T128 -85L96 -240H-29Z" />
<glyph unicode="&#xb6;" glyph-name="paragraph" horiz-adv-x="655" d="M357 273Q327 264 286 264Q224 264 178 287T107 364T81 509Q81 605 108 659T185 737T301 760H588V-127H517V670H428V-127H357V273Z" />
<glyph unicode="&#xb7;" glyph-name="middot" horiz-adv-x="274" d="M137 276Q101 276 86 294T70 338Q70 373 91 401T161 430Q190 430 207 414T225 366Q225 328 202 302T137 276Z" />
<glyph unicode="&#xb8;" glyph-name="cedilla" horiz-adv-x="205" d="M-32 -240Q-51 -240 -68 -237T-95 -231V-161Q-85 -164 -71 -166T-43 -169Q19 -169 19 -124Q19 -88 -50 -80L-2 0H75L52 -43Q79 -52 99 -71T119 -127Q119 -175 83 -207T-32 -240Z" />
<glyph unicode="&#xb9;" glyph-name="uni00B9" horiz-adv-x="369" d="M227 630Q233 659 241 687T254 735Q245 727 234 718T214 702L154 665L112 733L288 843H374L283 415H181L227 630Z" />
<glyph unicode="&#xba;" glyph-name="ordmasculine" horiz-adv-x="357" d="M212 372Q152 372 118 407T84 508Q84 564 104 612T163 691T262 721Q329 721 358 683T388 586Q388 551 379 514T350 444T296 392T212 372ZM220 441Q247 441 265 463T293 520T302 589Q302
651 255 651Q227 651 208 629T180 573T170 505Q170 441 220 441Z" />
<glyph unicode="&#xbb;" glyph-name="guillemotright" horiz-adv-x="530" d="M298 48L224 111L363 273L291 451L388 492L492 269V258L298 48ZM79 50L4 111L141 279L71 451L169 492L270 277V265L79 50Z" />
<glyph unicode="&#xbc;" glyph-name="onequarter" horiz-adv-x="796" d="M100 0L630 714H732L202 0H100ZM203 500Q209 529 217 557T230 605Q221 597 210 588T190 572L130 535L88 603L264 713H350L259 285H157L203 500ZM570 1L588 84H407L421 157L654 432H760L701
157H760L745 84H685L668 1H570ZM510 157H603L623 242Q628 264 632 280T644 321Q636 309 622 291T598 261L510 157Z" />
<glyph unicode="&#xbd;" glyph-name="onehalf" horiz-adv-x="859" d="M99 0L629 714H731L201 0H99ZM203 500Q209 529 217 557T230 605Q221 597 210 588T190 572L130 535L88 603L264 713H350L259 285H157L203 500ZM465 -1L480 71L611 179Q664 223 690 251T716 311Q716
333 703 345T668 357Q625 357 575 317L533 383Q567 409 605 423T691 437Q752 437 784 406T817 331Q817 292 803 264T759 207T685 145L606 83H784L766 -1H465Z" />
<glyph unicode="&#xbe;" glyph-name="threequarters" horiz-adv-x="837" d="M175 279Q139 279 107 286T50 306V389Q78 373 109 364T172 354Q213 354 237 371T262 420Q262 444 246 457T195 471H140L155 541H199Q242 541 267 556T293 603Q293 649 239 648Q215 648
193 640T147 616L112 680Q142 700 178 712T257 724Q327 724 357 694T388 622Q388 573 359 547T284 509V505Q322 496 340 473T358 417Q358 372 334 341T268 295T175 279ZM142 0L672 714H774L244 0H142ZM611 0L629 83H448L462 156L695 431H801L742 156H801L786 83H726L709
0H611ZM551 156H644L664 241Q669 263 673 279T685 320Q677 308 663 290T639 260L551 156Z" />
<glyph unicode="&#xbf;" glyph-name="questiondown" horiz-adv-x="448" d="M308 546Q343 546 359 528T375 484Q375 449 354 421T283 392Q255 392 237 408T219 456Q219 493 242 519T308 546ZM325 309Q313 242 286 199T201 113Q153 79 126 52T98 -17Q98 -50 116
-69T174 -88Q210 -88 246 -75T322 -42L362 -134Q318 -158 266 -174T156 -191Q72 -191 24 -150T-25 -31Q-25 17 -7 53T43 119T120 179Q153 202 172 220T201 258T219 309H325Z" />
<glyph unicode="&#xc0;" glyph-name="Agrave" horiz-adv-x="603" d="M-59 0L320 714H469L547 0H424L406 190H171L75 0H-59ZM226 299H398L384 470Q381 503 379 538T377 607H374Q362 576 347 543T313 474L226 299ZM406 778Q386 798 364 824T322 878T291 928V938H422Q431
903 447 865T483 790V778H406Z" />
<glyph unicode="&#xc1;" glyph-name="Aacute" horiz-adv-x="603" d="M-59 0L320 714H469L547 0H424L406 190H171L75 0H-59ZM226 299H398L384 470Q381 503 379 538T377 607H374Q362 576 347 543T313 474L226 299ZM339 790Q364 818 395 860T448 938H588V929Q574
911 545 883T482 825T423 778H339V790Z" />
<glyph unicode="&#xc2;" glyph-name="Acircumflex" horiz-adv-x="603" d="M-59 0L320 714H469L547 0H424L406 190H171L75 0H-59ZM226 299H398L384 470Q381 503 379 538T377 607H374Q362 576 347 543T313 474L226 299ZM220 790Q239 808 266 834T319 888T362 938H497Q512
901 537 861T582 790V778H501Q484 793 463 816T422 863Q393 838 365 817T308 778H220V790Z" />
<glyph unicode="&#xc3;" glyph-name="Atilde" horiz-adv-x="603" d="M-59 0L320 714H469L547 0H424L406 190H171L75 0H-59ZM226 299H398L384 470Q381 503 379 538T377 607H374Q362 576 347 543T313 474L226 299ZM224 777Q239 850 272 885T353 920Q384 920 408
907T451 880T490 867Q509 867 521 880T544 921H616Q599 847 566 813T485 778Q455 778 432 791T389 818T347 831Q314 831 298 777H224Z" />
<glyph unicode="&#xc4;" glyph-name="Adieresis" horiz-adv-x="603" d="M-59 0L320 714H469L547 0H424L406 190H171L75 0H-59ZM226 299H398L384 470Q381 503 379 538T377 607H374Q362 576 347 543T313 474L226 299ZM507 797Q484 797 469 808T453 846Q453 878 470
897T519 916Q542 916 557 905T572 868Q572 835 555 816T507 797ZM323 797Q299 797 284 808T268 846Q268 878 285 897T334 916Q358 916 373 905T388 868Q388 835 371 816T323 797Z" />
<glyph unicode="&#xc5;" glyph-name="Aring" horiz-adv-x="603" d="M-59 0L320 714H469L547 0H424L406 190H171L75 0H-59ZM226 299H398L384 470Q381 503 379 538T377 607H374Q362 576 347 543T313 474L226 299ZM419 777Q367 777 335 807T303 889Q303 942 335 971T419
1001Q469 1001 503 972T537 890Q537 837 503 807T419 777ZM419 839Q441 839 455 852T469 889Q469 912 455 925T419 939Q397 939 383 926T369 889Q369 866 381 853T419 839Z" />
<glyph unicode="&#xc6;" glyph-name="AE" horiz-adv-x="868" d="M-59 0L393 714H904L882 607H623L585 425H826L804 318H562L517 108H776L753 0H368L408 190H198L79 0H-59ZM267 299H431L496 607H457L267 299Z" />
<glyph unicode="&#xc7;" glyph-name="Ccedilla" horiz-adv-x="603" d="M324 -10Q198 -10 132 65T65 267Q65 331 79 396T124 520T199 625T307 698T448 725Q509 725 555 713T644 678L595 574Q563 591 528 603T448 616Q382 616 335 585T256 503T210 392T195 273Q195
188 233 144T348 99Q389 99 429 108T511 134V25Q477 12 431 1T324 -10ZM253 -240Q234 -240 217 -237T190 -231V-161Q200 -164 214 -166T242 -169Q304 -169 304 -124Q304 -88 235 -80L283 0H360L337 -43Q364 -52 384 -71T404 -127Q404 -175 368 -207T253 -240Z"
/>
<glyph unicode="&#xc8;" glyph-name="Egrave" horiz-adv-x="531" d="M32 0L183 714H568L545 607H286L248 425H489L467 318H225L180 108H439L417 0H32ZM379 778Q359 798 337 824T295 878T264 928V938H395Q404 903 420 865T456 790V778H379Z" />
<glyph unicode="&#xc9;" glyph-name="Eacute" horiz-adv-x="531" d="M32 0L183 714H568L545 607H286L248 425H489L467 318H225L180 108H439L417 0H32ZM312 790Q337 818 368 860T421 938H561V929Q547 911 518 883T455 825T396 778H312V790Z" />
<glyph unicode="&#xca;" glyph-name="Ecircumflex" horiz-adv-x="531" d="M32 0L183 714H568L545 607H286L248 425H489L467 318H225L180 108H439L417 0H32ZM193 790Q212 808 239 834T292 888T335 938H470Q485 901 510 861T555 790V778H474Q457 793 436 816T395
863Q366 838 338 817T281 778H193V790Z" />
<glyph unicode="&#xcb;" glyph-name="Edieresis" horiz-adv-x="531" d="M32 0L183 714H568L545 607H286L248 425H489L467 318H225L180 108H439L417 0H32ZM480 797Q457 797 442 808T426 846Q426 878 443 897T492 916Q515 916 530 905T545 868Q545 835 528 816T480
797ZM296 797Q272 797 257 808T241 846Q241 878 258 897T307 916Q331 916 346 905T361 868Q361 835 344 816T296 797Z" />
<glyph unicode="&#xcc;" glyph-name="Igrave" horiz-adv-x="361" d="M-26 0L-11 72L78 105L185 609L110 642L125 714H417L402 642L311 609L204 105L280 72L266 0H-26ZM281 778Q261 798 239 824T197 878T166 928V938H297Q306 903 322 865T358 790V778H281Z" />
<glyph unicode="&#xcd;" glyph-name="Iacute" horiz-adv-x="361" d="M-26 0L-11 72L78 105L185 609L110 642L125 714H417L402 642L311 609L204 105L280 72L266 0H-26ZM214 790Q239 818 270 860T323 938H463V929Q449 911 420 883T357 825T298 778H214V790Z" />
<glyph unicode="&#xce;" glyph-name="Icircumflex" horiz-adv-x="361" d="M-26 0L-11 72L78 105L185 609L110 642L125 714H417L402 642L311 609L204 105L280 72L266 0H-26ZM95 790Q114 808 141 834T194 888T237 938H372Q387 901 412 861T457 790V778H376Q359 793
338 816T297 863Q268 838 240 817T183 778H95V790Z" />
<glyph unicode="&#xcf;" glyph-name="Idieresis" horiz-adv-x="361" d="M-26 0L-11 72L78 105L185 609L110 642L125 714H417L402 642L311 609L204 105L280 72L266 0H-26ZM382 797Q359 797 344 808T328 846Q328 878 345 897T394 916Q417 916 432 905T447 868Q447
835 430 816T382 797ZM198 797Q174 797 159 808T143 846Q143 878 160 897T209 916Q233 916 248 905T263 868Q263 835 246 816T198 797Z" />
<glyph unicode="&#xd0;" glyph-name="Eth" horiz-adv-x="673" d="M32 0L95 300H24L47 406H118L183 714H367Q497 714 569 645T642 438Q642 307 595 209T457 55T235 0H32ZM241 107Q331 107 391 151T481 270T511 434Q511 524 469 566T354 608H287L244 406H376L353
300H221L180 107H241Z" />
<glyph unicode="&#xd1;" glyph-name="Ntilde" horiz-adv-x="737" d="M31 0L182 714H326L512 164H516Q519 186 524 219T536 289T550 355L626 714H742L591 0H451L259 560H255Q254 547 249 512T236 434T222 356L146 0H31ZM297 777Q312 850 345 885T426 920Q457 920
481 907T524 880T563 867Q582 867 594 880T617 921H689Q672 847 639 813T558 778Q528 778 505 791T462 818T420 831Q387 831 371 777H297Z" />
<glyph unicode="&#xd2;" glyph-name="Ograve" horiz-adv-x="727" d="M330 -10Q200 -10 133 64T65 264Q65 351 88 433T157 581T274 686T436 725Q563 725 629 651T696 453Q696 363 674 281T606 132T492 28T330 -10ZM338 99Q404 99 455 144T535 269T565 451Q565 528
529 572T426 617Q375 617 333 589T259 513T212 401T195 265Q195 185 233 142T338 99ZM468 778Q448 798 426 824T384 878T353 928V938H484Q493 903 509 865T545 790V778H468Z" />
<glyph unicode="&#xd3;" glyph-name="Oacute" horiz-adv-x="727" d="M330 -10Q200 -10 133 64T65 264Q65 351 88 433T157 581T274 686T436 725Q563 725 629 651T696 453Q696 363 674 281T606 132T492 28T330 -10ZM338 99Q404 99 455 144T535 269T565 451Q565 528
529 572T426 617Q375 617 333 589T259 513T212 401T195 265Q195 185 233 142T338 99ZM401 790Q426 818 457 860T510 938H650V929Q636 911 607 883T544 825T485 778H401V790Z" />
<glyph unicode="&#xd4;" glyph-name="Ocircumflex" horiz-adv-x="727" d="M330 -10Q200 -10 133 64T65 264Q65 351 88 433T157 581T274 686T436 725Q563 725 629 651T696 453Q696 363 674 281T606 132T492 28T330 -10ZM338 99Q404 99 455 144T535 269T565 451Q565
528 529 572T426 617Q375 617 333 589T259 513T212 401T195 265Q195 185 233 142T338 99ZM282 790Q301 808 328 834T381 888T424 938H559Q574 901 599 861T644 790V778H563Q546 793 525 816T484 863Q455 838 427 817T370 778H282V790Z" />
<glyph unicode="&#xd5;" glyph-name="Otilde" horiz-adv-x="727" d="M330 -10Q200 -10 133 64T65 264Q65 351 88 433T157 581T274 686T436 725Q563 725 629 651T696 453Q696 363 674 281T606 132T492 28T330 -10ZM338 99Q404 99 455 144T535 269T565 451Q565 528
529 572T426 617Q375 617 333 589T259 513T212 401T195 265Q195 185 233 142T338 99ZM286 777Q301 850 334 885T415 920Q446 920 470 907T513 880T552 867Q571 867 583 880T606 921H678Q661 847 628 813T547 778Q517 778 494 791T451 818T409 831Q376 831 360 777H286Z"
/>
<glyph unicode="&#xd6;" glyph-name="Odieresis" horiz-adv-x="727" d="M330 -10Q200 -10 133 64T65 264Q65 351 88 433T157 581T274 686T436 725Q563 725 629 651T696 453Q696 363 674 281T606 132T492 28T330 -10ZM338 99Q404 99 455 144T535 269T565 451Q565
528 529 572T426 617Q375 617 333 589T259 513T212 401T195 265Q195 185 233 142T338 99ZM575 797Q552 797 537 808T521 846Q521 878 538 897T587 916Q610 916 625 905T640 868Q640 835 623 816T575 797ZM391 797Q367 797 352 808T336 846Q336 878 353 897T402
916Q426 916 441 905T456 868Q456 835 439 816T391 797Z" />
<glyph unicode="&#xd7;" glyph-name="multiply" horiz-adv-x="572" d="M455 575L521 510L364 353L519 197L455 131L298 287L143 132L78 197L232 353L77 508L143 575L298 419L455 575Z" />
<glyph unicode="&#xd8;" glyph-name="Oslash" horiz-adv-x="727" d="M120 -42L52 11L114 88Q89 122 77 167T65 264Q65 351 88 433T157 581T274 686T436 725Q527 725 589 682L645 752L713 699L650 622Q673 589 684 546T696 453Q696 363 674 281T606 132T492 28T330
-10Q239 -10 177 29L120 -42ZM516 590Q499 603 477 611T426 619Q372 619 329 591T255 514T208 401T192 265Q192 246 194 228T201 195L516 590ZM339 97Q407 97 459 143T540 269T569 451Q569 483 562 511L250 121Q266 110 289 104T339 97Z" />
<glyph unicode="&#xd9;" glyph-name="Ugrave" horiz-adv-x="686" d="M297 -10Q186 -10 130 43T73 190Q73 206 75 227T82 271L176 714H303L208 270Q199 229 199 198Q199 151 226 125T308 99Q382 99 418 139T473 260L569 714H695L597 249Q581 172 545 114T449 23T297
-10ZM445 778Q425 798 403 824T361 878T330 928V938H461Q470 903 486 865T522 790V778H445Z" />
<glyph unicode="&#xda;" glyph-name="Uacute" horiz-adv-x="686" d="M297 -10Q186 -10 130 43T73 190Q73 206 75 227T82 271L176 714H303L208 270Q199 229 199 198Q199 151 226 125T308 99Q382 99 418 139T473 260L569 714H695L597 249Q581 172 545 114T449 23T297
-10ZM379 790Q404 818 435 860T488 938H628V929Q614 911 585 883T522 825T463 778H379V790Z" />
<glyph unicode="&#xdb;" glyph-name="Ucircumflex" horiz-adv-x="686" d="M297 -10Q186 -10 130 43T73 190Q73 206 75 227T82 271L176 714H303L208 270Q199 229 199 198Q199 151 226 125T308 99Q382 99 418 139T473 260L569 714H695L597 249Q581 172 545 114T449
23T297 -10ZM259 790Q278 808 305 834T358 888T401 938H536Q551 901 576 861T621 790V778H540Q523 793 502 816T461 863Q432 838 404 817T347 778H259V790Z" />
<glyph unicode="&#xdc;" glyph-name="Udieresis" horiz-adv-x="686" d="M297 -10Q186 -10 130 43T73 190Q73 206 75 227T82 271L176 714H303L208 270Q199 229 199 198Q199 151 226 125T308 99Q382 99 418 139T473 260L569 714H695L597 249Q581 172 545 114T449
23T297 -10ZM552 797Q529 797 514 808T498 846Q498 878 515 897T564 916Q587 916 602 905T617 868Q617 835 600 816T552 797ZM368 797Q344 797 329 808T313 846Q313 878 330 897T379 916Q403 916 418 905T433 868Q433 835 416 816T368 797Z" />
<glyph unicode="&#xdd;" glyph-name="Yacute" horiz-adv-x="543" d="M149 0L207 271L91 714H220L291 399L493 714H635L332 270L275 0H149ZM304 790Q329 818 360 860T413 938H553V929Q539 911 510 883T447 825T388 778H304V790Z" />
<glyph unicode="&#xde;" glyph-name="Thorn" horiz-adv-x="591" d="M32 0L183 714H309L284 597H337Q420 597 470 572T544 503T567 398Q567 314 528 259T419 176T254 148H189L158 0H32ZM267 253Q345 253 392 288T439 394Q439 445 412 468T329 491H262L212 253H267Z" />
<glyph unicode="&#xdf;" glyph-name="germandbls" horiz-adv-x="631" d="M-55 -240Q-73 -240 -93 -237T-126 -229V-127Q-98 -137 -71 -137Q-40 -137 -19 -116T12 -46L141 561Q163 665 224 715T400 765Q494 765 548 725T603 615Q603 556 575 520T498 453Q470 435
450 419T430 381Q430 365 446 350T484 317Q524 286 548 254T572 172Q572 87 514 39T356 -10Q311 -10 276 -2T216 22V125Q241 109 273 97T340 85Q394 85 419 106T445 159Q445 185 431 203T379 250Q340 281 320 309T300 372Q300 422 328 451T399 507Q431 526 452
547T474 599Q474 630 453 648T389 666Q330 666 303 634T265 551L137 -58Q120 -140 77 -190T-55 -240Z" />
<glyph unicode="&#xe0;" glyph-name="agrave" horiz-adv-x="584" d="M196 -10Q155 -10 121 10T67 72T46 182Q46 252 64 318T116 437T197 521T302 552Q354 552 387 528T437 467H442L471 542H567L452 0H357L366 82H362Q331 42 291 16T196 -10ZM243 92Q276 92 305
117T357 182T391 272Q396 294 398 316T400 360Q400 399 379 424T321 450Q290 450 263 428T216 367T184 282T172 186Q172 139 191 116T243 92ZM360 606Q340 626 318 652T276 706T245 756V766H376Q385 731 401 693T437 618V606H360Z" />
<glyph unicode="&#xe1;" glyph-name="aacute" horiz-adv-x="584" d="M196 -10Q155 -10 121 10T67 72T46 182Q46 252 64 318T116 437T197 521T302 552Q354 552 387 528T437 467H442L471 542H567L452 0H357L366 82H362Q331 42 291 16T196 -10ZM243 92Q276 92 305
117T357 182T391 272Q396 294 398 316T400 360Q400 399 379 424T321 450Q290 450 263 428T216 367T184 282T172 186Q172 139 191 116T243 92ZM293 618Q318 646 349 688T402 766H542V757Q528 739 499 711T436 653T377 606H293V618Z" />
<glyph unicode="&#xe2;" glyph-name="acircumflex" horiz-adv-x="584" d="M196 -10Q155 -10 121 10T67 72T46 182Q46 252 64 318T116 437T197 521T302 552Q354 552 387 528T437 467H442L471 542H567L452 0H357L366 82H362Q331 42 291 16T196 -10ZM243 92Q276 92
305 117T357 182T391 272Q396 294 398 316T400 360Q400 399 379 424T321 450Q290 450 263 428T216 367T184 282T172 186Q172 139 191 116T243 92ZM174 618Q193 636 220 662T273 716T316 766H451Q466 729 491 689T536 618V606H455Q438 621 417 644T376 691Q347 666
319 645T262 606H174V618Z" />
<glyph unicode="&#xe3;" glyph-name="atilde" horiz-adv-x="584" d="M196 -10Q155 -10 121 10T67 72T46 182Q46 252 64 318T116 437T197 521T302 552Q354 552 387 528T437 467H442L471 542H567L452 0H357L366 82H362Q331 42 291 16T196 -10ZM243 92Q276 92 305
117T357 182T391 272Q396 294 398 316T400 360Q400 399 379 424T321 450Q290 450 263 428T216 367T184 282T172 186Q172 139 191 116T243 92ZM178 605Q193 678 226 713T307 748Q338 748 362 735T405 708T444 695Q463 695 475 708T498 749H570Q553 675 520 641T439
606Q409 606 386 619T343 646T301 659Q268 659 252 605H178Z" />
<glyph unicode="&#xe4;" glyph-name="adieresis" horiz-adv-x="584" d="M196 -10Q155 -10 121 10T67 72T46 182Q46 252 64 318T116 437T197 521T302 552Q354 552 387 528T437 467H442L471 542H567L452 0H357L366 82H362Q331 42 291 16T196 -10ZM243 92Q276 92
305 117T357 182T391 272Q396 294 398 316T400 360Q400 399 379 424T321 450Q290 450 263 428T216 367T184 282T172 186Q172 139 191 116T243 92ZM461 625Q438 625 423 636T407 674Q407 706 424 725T473 744Q496 744 511 733T526 696Q526 663 509 644T461 625ZM277
625Q253 625 238 636T222 674Q222 706 239 725T288 744Q312 744 327 733T342 696Q342 663 325 644T277 625Z" />
<glyph unicode="&#xe5;" glyph-name="aring" horiz-adv-x="584" d="M196 -10Q155 -10 121 10T67 72T46 182Q46 252 64 318T116 437T197 521T302 552Q354 552 387 528T437 467H442L471 542H567L452 0H357L366 82H362Q331 42 291 16T196 -10ZM243 92Q276 92 305
117T357 182T391 272Q396 294 398 316T400 360Q400 399 379 424T321 450Q290 450 263 428T216 367T184 282T172 186Q172 139 191 116T243 92ZM372 605Q320 605 288 635T256 717Q256 770 288 799T372 829Q422 829 456 800T490 718Q490 665 456 635T372 605ZM372
667Q394 667 408 680T422 717Q422 740 408 753T372 767Q350 767 336 754T322 717Q322 694 334 681T372 667Z" />
<glyph unicode="&#xe6;" glyph-name="ae" horiz-adv-x="852" d="M188 -10Q124 -10 85 39T46 182Q46 255 64 321T116 440T196 522T297 552Q347 552 376 529T426 467H431L461 542H539L528 489Q552 518 591 535T676 552Q745 552 787 515T829 412Q829 329 753 276T515
223H492Q491 210 491 197Q491 149 516 118T603 87Q639 87 678 99T753 128V30Q714 12 672 1T582 -10Q477 -10 435 54L424 0H345L354 82H349Q316 40 279 15T188 -10ZM524 311Q611 311 659 336T708 407Q708 434 693 446T652 459Q606 459 565 419T507 311H524ZM235
92Q267 92 294 114T343 175T377 262Q383 286 386 310T389 356Q389 398 371 424T317 450Q286 450 260 428T214 368T183 283T172 186Q172 137 190 115T235 92Z" />
<glyph unicode="&#xe7;" glyph-name="ccedilla" horiz-adv-x="472" d="M247 -10Q189 -10 144 11T72 76T46 191Q46 264 65 329T121 444T211 523T331 552Q375 552 412 544T481 521L443 423Q419 434 393 442T335 450Q285 450 249 414T192 321T172 198Q172 147 197
120T269 92Q305 92 337 102T401 129V26Q369 10 332 0T247 -10ZM158 -240Q139 -240 122 -237T95 -231V-161Q105 -164 119 -166T147 -169Q209 -169 209 -124Q209 -88 140 -80L188 0H265L242 -43Q269 -52 289 -71T309 -127Q309 -175 273 -207T158 -240Z" />
<glyph unicode="&#xe8;" glyph-name="egrave" horiz-adv-x="535" d="M253 -10Q158 -10 102 43T46 198Q46 264 65 327T121 441T212 522T337 552Q422 552 465 514T508 412Q508 329 432 276T195 223H173Q171 210 171 196Q171 145 198 116T277 87Q318 87 353 97T433
128V31Q392 11 351 1T253 -10ZM204 311Q291 311 339 337T388 408Q388 459 329 459Q285 459 245 419T188 311H204ZM342 606Q322 626 300 652T258 706T227 756V766H358Q367 731 383 693T419 618V606H342Z" />
<glyph unicode="&#xe9;" glyph-name="eacute" horiz-adv-x="535" d="M253 -10Q158 -10 102 43T46 198Q46 264 65 327T121 441T212 522T337 552Q422 552 465 514T508 412Q508 329 432 276T195 223H173Q171 210 171 196Q171 145 198 116T277 87Q318 87 353 97T433
128V31Q392 11 351 1T253 -10ZM204 311Q291 311 339 337T388 408Q388 459 329 459Q285 459 245 419T188 311H204ZM276 618Q301 646 332 688T385 766H525V757Q511 739 482 711T419 653T360 606H276V618Z" />
<glyph unicode="&#xea;" glyph-name="ecircumflex" horiz-adv-x="535" d="M253 -10Q158 -10 102 43T46 198Q46 264 65 327T121 441T212 522T337 552Q422 552 465 514T508 412Q508 329 432 276T195 223H173Q171 210 171 196Q171 145 198 116T277 87Q318 87 353
97T433 128V31Q392 11 351 1T253 -10ZM204 311Q291 311 339 337T388 408Q388 459 329 459Q285 459 245 419T188 311H204ZM156 618Q175 636 202 662T255 716T298 766H433Q448 729 473 689T518 618V606H437Q420 621 399 644T358 691Q329 666 301 645T244 606H156V618Z"
/>
<glyph unicode="&#xeb;" glyph-name="edieresis" horiz-adv-x="535" d="M253 -10Q158 -10 102 43T46 198Q46 264 65 327T121 441T212 522T337 552Q422 552 465 514T508 412Q508 329 432 276T195 223H173Q171 210 171 196Q171 145 198 116T277 87Q318 87 353 97T433
128V31Q392 11 351 1T253 -10ZM204 311Q291 311 339 337T388 408Q388 459 329 459Q285 459 245 419T188 311H204ZM699 625Q676 625 661 636T645 674Q645 706 662 725T711 744Q734 744 749 733T764 696Q764 663 747 644T699 625ZM515 625Q491 625 476 636T460 674Q460
706 477 725T526 744Q550 744 565 733T580 696Q580 663 563 644T515 625Z" />
<glyph unicode="&#xec;" glyph-name="igrave" horiz-adv-x="282" d="M22 0L137 542H262L147 0H22ZM465 606Q445 626 423 652T381 706T350 756V766H481Q490 731 506 693T542 618V606H465Z" />
<glyph unicode="&#xed;" glyph-name="iacute" horiz-adv-x="282" d="M22 0L137 542H262L147 0H22ZM143 618Q168 646 199 688T252 766H392V757Q378 739 349 711T286 653T227 606H143V618Z" />
<glyph unicode="&#xee;" glyph-name="icircumflex" horiz-adv-x="282" d="M22 0L137 542H262L147 0H22ZM279 618Q298 636 325 662T378 716T421 766H556Q571 729 596 689T641 618V606H560Q543 621 522 644T481 691Q452 666 424 645T367 606H279V618Z" />
<glyph unicode="&#xef;" glyph-name="idieresis" horiz-adv-x="282" d="M22 0L137 542H262L147 0H22ZM310 625Q287 625 272 636T256 674Q256 706 273 725T322 744Q345 744 360 733T375 696Q375 663 358 644T310 625ZM126 625Q102 625 87 636T71 674Q71 706 88
725T137 744Q161 744 176 733T191 696Q191 663 174 644T126 625Z" />
<glyph unicode="&#xf0;" glyph-name="eth" horiz-adv-x="574" d="M245 -10Q152 -10 95 39T38 192Q38 269 68 335T154 441T289 481Q342 481 374 461T422 413H426Q424 459 411 503T365 585L245 518L207 583L311 641Q299 653 283 664T247 686L301 765Q330 750 357
732T407 695L526 761L562 695L460 638Q497 589 515 529T534 392Q534 314 518 242T468 113T379 23T245 -10ZM251 86Q287 86 313 105T357 155T383 221T392 289Q392 327 372 356T304 385Q256 385 225 355T179 279T164 184Q164 140 185 113T251 86Z" />
<glyph unicode="&#xf1;" glyph-name="ntilde" horiz-adv-x="595" d="M20 0L136 543H235L225 443H228Q258 487 300 520T403 553Q471 553 507 514T543 405Q543 385 540 362T532 316L465 0H338L406 326Q410 345 412 360T415 388Q415 449 357 449Q306 449 262 391T196
228L147 0H20ZM186 605Q201 678 234 713T315 748Q346 748 370 735T413 708T452 695Q471 695 483 708T506 749H578Q561 675 528 641T447 606Q417 606 394 619T351 646T309 659Q276 659 260 605H186Z" />
<glyph unicode="&#xf2;" glyph-name="ograve" horiz-adv-x="577" d="M251 -9Q159 -9 103 47T46 199Q46 268 63 331T116 443T204 522T327 551Q422 551 477 495T532 338Q532 272 515 210T463 99T376 20T251 -9ZM260 93Q304 93 336 126T387 215T405 342Q405 385 387
417T321 449Q284 449 256 427T210 368T181 287T171 198Q171 93 260 93ZM345 606Q325 626 303 652T261 706T230 756V766H361Q370 731 386 693T422 618V606H345Z" />
<glyph unicode="&#xf3;" glyph-name="oacute" horiz-adv-x="577" d="M251 -9Q159 -9 103 47T46 199Q46 268 63 331T116 443T204 522T327 551Q422 551 477 495T532 338Q532 272 515 210T463 99T376 20T251 -9ZM260 93Q304 93 336 126T387 215T405 342Q405 385 387
417T321 449Q284 449 256 427T210 368T181 287T171 198Q171 93 260 93ZM279 618Q304 646 335 688T388 766H528V757Q514 739 485 711T422 653T363 606H279V618Z" />
<glyph unicode="&#xf4;" glyph-name="ocircumflex" horiz-adv-x="577" d="M251 -9Q159 -9 103 47T46 199Q46 268 63 331T116 443T204 522T327 551Q422 551 477 495T532 338Q532 272 515 210T463 99T376 20T251 -9ZM260 93Q304 93 336 126T387 215T405 342Q405
385 387 417T321 449Q284 449 256 427T210 368T181 287T171 198Q171 93 260 93ZM159 618Q178 636 205 662T258 716T301 766H436Q451 729 476 689T521 618V606H440Q423 621 402 644T361 691Q332 666 304 645T247 606H159V618Z" />
<glyph unicode="&#xf5;" glyph-name="otilde" horiz-adv-x="577" d="M251 -9Q159 -9 103 47T46 199Q46 268 63 331T116 443T204 522T327 551Q422 551 477 495T532 338Q532 272 515 210T463 99T376 20T251 -9ZM260 93Q304 93 336 126T387 215T405 342Q405 385 387
417T321 449Q284 449 256 427T210 368T181 287T171 198Q171 93 260 93ZM164 605Q179 678 212 713T293 748Q324 748 348 735T391 708T430 695Q449 695 461 708T484 749H556Q539 675 506 641T425 606Q395 606 372 619T329 646T287 659Q254 659 238 605H164Z" />
<glyph unicode="&#xf6;" glyph-name="odieresis" horiz-adv-x="577" d="M251 -9Q159 -9 103 47T46 199Q46 268 63 331T116 443T204 522T327 551Q422 551 477 495T532 338Q532 272 515 210T463 99T376 20T251 -9ZM260 93Q304 93 336 126T387 215T405 342Q405 385
387 417T321 449Q284 449 256 427T210 368T181 287T171 198Q171 93 260 93ZM702 625Q679 625 664 636T648 674Q648 706 665 725T714 744Q737 744 752 733T767 696Q767 663 750 644T702 625ZM518 625Q494 625 479 636T463 674Q463 706 480 725T529 744Q553 744 568
733T583 696Q583 663 566 644T518 625Z" />
<glyph unicode="&#xf7;" glyph-name="divide" horiz-adv-x="572" d="M299 454Q273 454 254 470T235 523Q235 561 254 576T299 592Q324 592 343 577T362 523Q362 487 343 471T299 454ZM59 306V399H539V306H59ZM299 113Q273 113 254 129T235 182Q235 220 254 235T299
251Q324 251 343 236T362 182Q362 146 343 130T299 113Z" />
<glyph unicode="&#xf8;" glyph-name="oslash" horiz-adv-x="577" d="M87 -45L24 3L81 73Q46 124 46 199Q46 268 63 331T116 443T204 522T327 551Q395 551 442 522L482 572L546 523L500 468Q515 443 523 411T531 342Q531 275 514 213T463 100T376 21T251 -9Q219
-9 191 -2T138 19L87 -45ZM374 437Q366 443 353 447T321 452Q283 452 255 432T208 378T180 303T168 221Q167 200 171 183L374 437ZM260 89Q307 89 339 123T389 210T409 321Q410 340 407 354L206 104Q226 89 260 89Z" />
<glyph unicode="&#xf9;" glyph-name="ugrave" horiz-adv-x="595" d="M191 -10Q125 -10 90 29T54 138Q54 158 57 183T66 235L131 542H256L187 216Q179 178 179 155Q179 92 238 92Q289 92 333 151T400 314L449 542H573L458 0H361L371 100H366Q336 56 294 23T191
-10ZM365 606Q345 626 323 652T281 706T250 756V766H381Q390 731 406 693T442 618V606H365Z" />
<glyph unicode="&#xfa;" glyph-name="uacute" horiz-adv-x="595" d="M191 -10Q125 -10 90 29T54 138Q54 158 57 183T66 235L131 542H256L187 216Q179 178 179 155Q179 92 238 92Q289 92 333 151T400 314L449 542H573L458 0H361L371 100H366Q336 56 294 23T191
-10ZM299 618Q324 646 355 688T408 766H548V757Q534 739 505 711T442 653T383 606H299V618Z" />
<glyph unicode="&#xfb;" glyph-name="ucircumflex" horiz-adv-x="595" d="M191 -10Q125 -10 90 29T54 138Q54 158 57 183T66 235L131 542H256L187 216Q179 178 179 155Q179 92 238 92Q289 92 333 151T400 314L449 542H573L458 0H361L371 100H366Q336 56 294 23T191
-10ZM179 618Q198 636 225 662T278 716T321 766H456Q471 729 496 689T541 618V606H460Q443 621 422 644T381 691Q352 666 324 645T267 606H179V618Z" />
<glyph unicode="&#xfc;" glyph-name="udieresis" horiz-adv-x="595" d="M191 -10Q125 -10 90 29T54 138Q54 158 57 183T66 235L131 542H256L187 216Q179 178 179 155Q179 92 238 92Q289 92 333 151T400 314L449 542H573L458 0H361L371 100H366Q336 56 294 23T191
-10ZM466 625Q443 625 428 636T412 674Q412 706 429 725T478 744Q501 744 516 733T531 696Q531 663 514 644T466 625ZM282 625Q258 625 243 636T227 674Q227 706 244 725T293 744Q317 744 332 733T347 696Q347 663 330 644T282 625Z" />
<glyph unicode="&#xfd;" glyph-name="yacute" horiz-adv-x="499" d="M-8 -240Q-33 -240 -49 -238T-78 -231V-131Q-65 -134 -51 -136T-19 -138Q25 -138 54 -112T108 -41L130 -3L49 542H172L202 285Q207 245 209 198T211 121H214Q224 145 241 187T277 268L415 542H550L215
-83Q172 -163 118 -201T-8 -240ZM232 618Q257 646 288 688T341 766H481V757Q467 739 438 711T375 653T316 606H232V618Z" />
<glyph unicode="&#xfe;" glyph-name="thorn" horiz-adv-x="589" d="M-29 -240L183 760H308L273 599Q265 563 255 525T235 459H239Q272 501 310 526T392 552Q459 552 501 504T543 359Q543 294 527 229T480 110T401 23T292 -10Q241 -10 209 15T158 75H153Q149 11
136 -49L96 -240H-29ZM269 92Q302 92 329 114T375 175T405 261T416 356Q416 450 341 450Q309 450 280 426T229 360T197 269Q193 249 191 228T188 186Q188 144 207 118T269 92Z" />
<glyph unicode="&#xff;" glyph-name="ydieresis" horiz-adv-x="499" d="M-8 -240Q-33 -240 -49 -238T-78 -231V-131Q-65 -134 -51 -136T-19 -138Q25 -138 54 -112T108 -41L130 -3L49 542H172L202 285Q207 245 209 198T211 121H214Q224 145 241 187T277 268L415
542H550L215 -83Q172 -163 118 -201T-8 -240ZM656 625Q633 625 618 636T602 674Q602 706 619 725T668 744Q691 744 706 733T721 696Q721 663 704 644T656 625ZM472 625Q448 625 433 636T417 674Q417 706 434 725T483 744Q507 744 522 733T537 696Q537 663 520 644T472
625Z" />
<glyph unicode="&#x2013;" glyph-name="endash" horiz-adv-x="480" d="M22 219L44 319H455L434 219H22Z" />
<glyph unicode="&#x2014;" glyph-name="emdash" horiz-adv-x="960" d="M22 219L44 319H935L914 219H22Z" />
<glyph unicode="&#x2018;" glyph-name="quoteleft" horiz-adv-x="200" d="M58 480Q81 532 116 595T187 714H280Q255 655 229 588T184 469H61L58 480Z" />
<glyph unicode="&#x2019;" glyph-name="quoteright" horiz-adv-x="200" d="M55 469Q81 528 107 595T152 714H274L278 703Q255 651 220 588T149 469H55Z" />
<glyph unicode="&#x201a;" glyph-name="quotesinglbase" horiz-adv-x="265" d="M-50 -129Q-24 -70 2 -3T47 116H170L174 105Q150 53 115 -10T44 -129H-50Z" />
<glyph unicode="&#x201c;" glyph-name="quotedblleft" horiz-adv-x="405" d="M262 480Q286 532 321 595T392 714H486Q460 655 434 588T389 469H266L262 480ZM58 480Q81 532 116 595T187 714H280Q255 655 229 588T184 469H61L58 480Z" />
<glyph unicode="&#x201d;" glyph-name="quotedblright" horiz-adv-x="405" d="M260 469Q286 528 312 595T356 714H479L483 703Q460 651 425 588T354 469H260ZM55 469Q81 528 107 595T152 714H274L278 703Q255 651 220 588T149 469H55Z" />
<glyph unicode="&#x201e;" glyph-name="quotedblbase" horiz-adv-x="470" d="M156 -129Q182 -70 208 -3T252 116H375L379 105Q356 53 321 -10T250 -129H156ZM-50 -129Q-24 -70 2 -3T47 116H170L174 105Q150 53 115 -10T44 -129H-50Z" />
<glyph unicode="&#x2022;" glyph-name="bullet" horiz-adv-x="376" d="M208 222Q153 222 116 255T79 365Q79 443 116 475T208 508Q262 508 299 476T337 365Q337 289 300 256T208 222Z" />
<glyph unicode="&#x2039;" glyph-name="guilsinglleft" horiz-adv-x="310" d="M142 48L38 269V280L232 492L306 428L167 265L239 89L142 48Z" />
<glyph unicode="&#x203a;" glyph-name="guilsinglright" horiz-adv-x="310" d="M78 48L4 111L143 274L71 451L169 492L272 271V260L78 48Z" />
</font>
</defs>
</svg>
