<?xml version="1.0" standalone="no"?>
<!DOCTYPE svg PUBLIC "-//W3C//DTD SVG 1.1//EN" "http://www.w3.org/Graphics/SVG/1.1/DTD/svg11.dtd">
<svg xmlns="http://www.w3.org/2000/svg">
<defs >
<font id="Mulish" horiz-adv-x="581" ><font-face
    font-family="Mulish ExtraLight"
    units-per-em="1000"
    panose-1="0 0 0 0 0 0 0 0 0 0"
    ascent="1005"
    descent="-250"
    alphabetic="0" />
<glyph unicode=" " horiz-adv-x="274" />
<glyph unicode="!" horiz-adv-x="248" d="M80 209L119 705H273L156 209H80ZM14 0L36 139H176L154 0H14Z" />
<glyph unicode="&quot;" horiz-adv-x="448" d="M106 415L121 705H266L190 415H106ZM311 415L326 705H471L395 415H311Z" />
<glyph unicode="#" horiz-adv-x="600" d="M38 0L99 172H24L37 252H127L203 461H93L105 542H232L291 705H378L319 542H447L506 705H593L534 542H608L596 461H505L429 252H541L528 172H400L339 0H251L313 172H186L126 0H38ZM215 252H342L417 461H290L215 252Z" />
<glyph unicode="$" horiz-adv-x="600" d="M202 -115L222 16L247 -6Q204 -3 160 5T76 29T10 67L60 166Q101 137 155 120T280 102Q351 102 389 127T433 192Q439 227 418 249T339 282L246 301Q190 313 152 340T96 409T87 504Q97 566 132 609T223 678T352 709L329
694L350 820H450L429 694L412 710Q464 707 514 689T597 638L550 543Q518 572 473 587T372 603Q302 603 260 576T210 504Q204 467 224 444T297 410L390 391Q489 371 529 321T557 190Q544 106 475 56T300 -4L323 17L302 -115H202Z" />
<glyph unicode="%" horiz-adv-x="950" d="M286 0H174L696 705H809L286 0ZM236 284Q148 284 107 344T81 510Q97 607 151 661T286 715Q375 715 416 656T440 490Q425 394 371 339T236 284ZM241 364Q279 364 303 396T339 495Q350 569 334 601T280 634Q243 634 219
604T184 505Q172 431 188 398T241 364ZM697 -10Q608 -10 567 50T542 217Q558 314 612 367T746 421Q835 421 876 362T901 197Q885 100 832 45T697 -10ZM702 71Q740 71 764 103T799 202Q811 275 795 308T741 341Q704 341 680 311T644 212Q633 137 649 104T702 71Z"
/>
<glyph unicode="&amp;" horiz-adv-x="688" d="M617 -10Q573 6 534 33T466 92L500 91Q453 44 388 17T250 -10Q173 -10 119 15T41 86T25 191Q35 253 80 297T199 381L244 405L218 382Q182 425 168 468T161 559Q168 603 194 638T265 694T374 715Q428 715 467 696T526
641T537 554Q532 520 512 488T454 425T357 365L360 392L507 211H483Q515 252 538 307T574 423H682Q666 341 633 268T553 139L548 169Q571 141 602 118T671 80L617 -10ZM269 87Q319 87 360 106T439 162L427 132L250 345L304 342L266 321Q214 293 186 266T150 197Q143
148 173 118T269 87ZM369 630Q331 630 307 609T277 557Q274 534 277 516T292 478T326 430L299 428Q367 462 399 490T437 555Q443 590 424 610T369 630Z" />
<glyph unicode="&apos;" horiz-adv-x="243" d="M106 415L121 705H266L190 415H106Z" />
<glyph unicode="(" horiz-adv-x="356" d="M159 -180Q126 -102 110 -21T94 139Q94 247 120 349T193 542T297 705H401Q324 572 274 420T223 98Q223 37 233 -34T259 -180H159Z" />
<glyph unicode=")" horiz-adv-x="356" d="M62 -180H-42Q35 -47 85 105T136 427Q136 489 127 560T100 705H200Q233 627 249 546T265 386Q265 279 239 177T167 -16T62 -180Z" />
<glyph unicode="*" horiz-adv-x="457" d="M181 353L114 402L219 519L74 561L105 639L244 585L249 736H332L313 586L460 639L481 561L330 519L416 402L349 353L276 479L181 353Z" />
<glyph unicode="+" horiz-adv-x="600" d="M221 40L253 243H52L66 331H267L298 528H389L358 331H558L544 243H344L312 40H221Z" />
<glyph unicode="," horiz-adv-x="248" d="M59 -133L15 -85Q50 -54 64 -30T85 29L112 0H14L36 139H175L159 36Q154 2 144 -26T113 -80T59 -133Z" />
<glyph unicode="-" horiz-adv-x="438" d="M63 226L79 325H382L367 226H63Z" />
<glyph unicode="." horiz-adv-x="248" d="M14 0L36 139H176L154 0H14Z" />
<glyph unicode="/" horiz-adv-x="316" d="M34 -59H-74L323 752H430L34 -59Z" />
<glyph unicode="0" horiz-adv-x="600" d="M270 -10Q137 -10 85 89T60 369Q89 547 165 631T362 715Q492 715 546 620T572 340Q544 162 466 76T270 -10ZM278 96Q344 96 386 156T450 350Q465 445 459 502T427 584T354 610Q288 610 246 552T183 360Q168 266 174 208T206
123T278 96Z" />
<glyph unicode="1" horiz-adv-x="600" d="M71 0L88 107H250L328 597L389 594L162 470L181 595L382 705H474L379 107H531L514 0H71Z" />
<glyph unicode="2" horiz-adv-x="600" d="M38 0L53 95L331 347Q381 392 406 427T438 502Q446 554 418 580T330 607Q280 607 232 591T136 538L96 634Q145 672 213 693T349 715Q429 715 481 690T555 617T567 505Q557 441 518 388T412 276L180 73V107H530L513 0H38Z" />
<glyph unicode="3" horiz-adv-x="600" d="M261 -10Q188 -10 125 11T23 71L70 168Q111 132 159 115T263 98Q329 98 368 122T415 200Q430 305 300 305H183L199 408H301Q359 408 397 434T443 509Q451 556 423 581T335 607Q280 607 232 590T136 537L96 633Q146 673
213 694T351 715Q469 715 526 663T569 518Q560 459 517 416T410 357L411 369Q479 358 513 309T536 185Q521 89 448 40T261 -10Z" />
<glyph unicode="4" horiz-adv-x="600" d="M316 0L338 138H21L36 228L446 705H552L477 236H578L562 138H461L440 0H316ZM353 236L404 553H431L134 206V236H353Z" />
<glyph unicode="5" horiz-adv-x="600" d="M276 -10Q230 -10 186 0T106 28T45 71L90 168Q131 133 179 116T279 98Q343 98 384 128T435 216Q444 274 414 308T323 343Q280 343 243 327T172 276H87L155 705H593L575 599H259L224 374H192Q224 410 268 429T367 448Q432
448 479 419T547 337T557 208Q547 142 511 93T415 17T276 -10Z" />
<glyph unicode="6" horiz-adv-x="600" d="M293 -10Q204 -10 146 32T67 156T65 360Q84 480 132 558T252 676T415 715Q474 715 526 697T612 642L564 546Q531 578 492 592T409 607Q319 607 263 548T186 364L174 289H162Q185 365 238 408T371 452Q434 452 479 422T546
338T555 209Q544 140 509 91T418 16T293 -10ZM296 92Q359 92 393 126T437 215Q447 278 417 314T331 351Q273 351 236 316T189 224Q179 164 208 128T296 92Z" />
<glyph unicode="7" horiz-adv-x="600" d="M41 0L484 642L482 597H108L126 705H619L604 609L187 0H41Z" />
<glyph unicode="8" horiz-adv-x="600" d="M270 -10Q139 -10 76 48T28 205Q40 277 92 320T217 373L214 352Q151 366 120 417T99 535Q113 621 183 668T370 715Q447 715 499 690T574 620T589 515Q578 448 533 404T422 349L425 369Q472 361 503 336T548 271T553 181Q538
88 464 39T270 -10ZM276 90Q347 90 387 117T436 198Q445 252 413 279T308 307Q236 307 196 281T147 203Q139 151 171 121T276 90ZM325 407Q387 407 424 432T468 508Q476 558 448 586T358 615Q295 615 260 589T216 517Q209 469 236 438T325 407Z" />
<glyph unicode="9" horiz-adv-x="600" d="M217 -10Q159 -10 107 8T20 64L68 159Q101 128 140 113T224 98Q313 98 370 157T446 341L458 416H471Q448 340 395 297T262 253Q200 253 154 283T87 368T77 497Q88 566 123 614T215 689T341 715Q430 715 487 673T566 549T568
345Q549 226 501 147T380 29T217 -10ZM301 355Q360 355 397 390T444 482Q453 541 424 577T337 614Q275 614 240 580T196 490Q186 428 215 392T301 355Z" />
<glyph unicode=":" horiz-adv-x="248" d="M72 367L94 505H234L212 367H72ZM14 0L36 139H175L153 0H14Z" />
<glyph unicode=";" horiz-adv-x="248" d="M56 -133L11 -93Q49 -60 66 -32T87 29L110 0H16L38 139H177L161 39Q154 -12 131 -53T56 -133ZM72 366L94 505H234L212 366H72Z" />
<glyph unicode="&lt;" horiz-adv-x="600" d="M510 33L52 240L67 335L591 542L575 440L92 251L102 312L525 124L510 33Z" />
<glyph unicode="=" horiz-adv-x="600" d="M68 343L82 431H573L559 343H68ZM37 144L51 231H542L528 144H37Z" />
<glyph unicode="&gt;" horiz-adv-x="600" d="M20 33L36 134L519 323L509 261L86 450L101 542L559 335L544 240L20 33Z" />
<glyph unicode="?" horiz-adv-x="464" d="M164 209L171 249Q176 280 187 307T220 362T279 423Q299 441 316 461T345 504T357 550Q357 579 335 594T271 610Q231 610 192 598T116 566L133 674Q170 694 217 704T306 715Q360 715 400 698T463 649T486 574Q486 532
469 496T424 431T361 376Q305 332 281 300T249 237L240 209H164ZM99 0L121 139H261L239 0H99Z" />
<glyph unicode="@" horiz-adv-x="965" d="M502 -165Q406 -165 326 -135T188 -47T97 90T65 268Q65 369 98 451T191 592T335 683T519 715Q608 715 681 689T807 613T890 495T919 342Q919 255 893 192T822 94T718 59Q657 59 624 92T588 186L619 196Q594 128 548 94T448
59Q368 59 324 109T280 246Q280 319 307 376T383 466T494 499Q547 499 581 473T627 395H610L627 489H720L678 248Q675 232 674 219T672 194Q672 163 685 148T724 133Q756 133 782 159T825 232T841 342Q841 411 818 466T753 559T651 618T518 638Q436 638 369 612T254
538T179 421T152 268Q152 157 195 77T318 -45T502 -88Q577 -88 639 -67T745 -5L785 -71Q737 -116 664 -140T502 -165ZM466 138Q504 138 533 161T579 226T596 322Q596 370 575 394T510 419Q472 419 442 397T395 337T378 247Q378 194 401 166T466 138Z" />
<glyph unicode="A" horiz-adv-x="750" d="M-40 0L391 705H499L710 0H584L529 198L576 163H153L212 198L95 0H-40ZM427 567L233 233L212 264H548L522 233L431 567H427Z" />
<glyph unicode="B" horiz-adv-x="690" d="M38 0L150 705H459Q574 705 628 656T668 515Q658 452 613 410T499 353L501 368Q576 357 610 309T634 187Q620 97 550 49T364 0H38ZM177 98H361Q426 98 465 121T512 196Q519 238 507 262T466 298T396 309H210L177 98ZM226
406H391Q460 406 496 430T540 500Q549 556 522 582T430 608H258L226 406Z" />
<glyph unicode="C" horiz-adv-x="685" d="M383 -10Q263 -10 188 38T85 172T73 368Q91 479 143 556T279 675T469 715Q539 715 594 696T688 641L642 538Q600 573 560 587T463 601Q360 601 293 539T207 360Q195 282 211 225T275 136T398 104Q448 104 497 120T593
175L631 74Q582 34 517 12T383 -10Z" />
<glyph unicode="D" horiz-adv-x="762" d="M38 0L150 705H394Q522 705 600 661T709 534T721 338Q694 169 586 85T299 0H38ZM184 107H303Q431 107 502 166T593 346Q613 476 560 537T379 599H261L184 107Z" />
<glyph unicode="E" horiz-adv-x="595" d="M38 0L150 705H625L609 604H257L227 409H555L539 307H211L178 102H529L513 0H38Z" />
<glyph unicode="F" horiz-adv-x="572" d="M38 0L150 705H615L598 604H262L231 404H544L528 303H215L167 0H38Z" />
<glyph unicode="G" horiz-adv-x="740" d="M391 -10Q264 -10 188 37T83 168T73 366Q91 478 146 555T287 674T485 715Q562 715 617 697T709 647L662 546Q621 577 582 590T480 603Q365 603 295 539T207 355Q188 235 234 168T404 100Q450 100 490 108T574 132L536
77L569 288H405L420 382H692L638 45Q605 28 563 16T477 -3T391 -10Z" />
<glyph unicode="H" horiz-adv-x="774" d="M38 0L150 705H279L232 411H593L640 705H769L657 0H528L576 304H215L167 0H38Z" />
<glyph unicode="I" horiz-adv-x="284" d="M38 0L150 705H279L167 0H38Z" />
<glyph unicode="J" horiz-adv-x="362" d="M20 -187Q3 -187 -20 -185T-67 -175L-51 -73Q-32 -80 -15 -82T15 -84Q61 -84 86 -57T120 29L227 705H356L247 19Q236 -53 209 -98T135 -165T20 -187Z" />
<glyph unicode="K" horiz-adv-x="666" d="M38 0L150 705H279L229 393H231L583 705H744L325 338L321 394L656 0H501L221 326H219L167 0H38Z" />
<glyph unicode="L" horiz-adv-x="560" d="M38 0L150 705H279L184 109H516L499 0H38Z" />
<glyph unicode="M" horiz-adv-x="870" d="M39 0L151 705H264L430 122H399L751 705H863L751 0H634L717 523H754L433 0H358L202 523H239L156 0H39Z" />
<glyph unicode="N" horiz-adv-x="755" d="M38 0L150 705H247L569 169L546 176L630 705H750L638 0H541L219 536L242 529L158 0H38Z" />
<glyph unicode="O" horiz-adv-x="787" d="M73 368Q91 479 142 556T272 674T453 715Q565 715 636 667T735 533T745 338Q728 227 677 150T546 31T365 -10Q254 -10 183 38T84 172T73 368ZM207 358Q194 277 209 220T267 131T375 100Q474 100 534 166T612 348Q625 429
609 486T551 574T442 605Q343 605 285 540T207 358Z" />
<glyph unicode="P" horiz-adv-x="666" d="M38 0L150 705H451Q572 705 627 645T665 481Q656 421 623 377T534 308T401 284H212L167 0H38ZM228 386H397Q462 386 497 412T541 490Q550 546 522 575T429 604H262L228 386Z" />
<glyph unicode="Q" horiz-adv-x="787" d="M512 -192Q483 -174 455 -145T405 -78T368 -3L479 41Q496 -11 532 -53T609 -124L512 -192ZM73 368Q91 479 142 556T272 674T453 715Q565 715 636 667T735 533T745 338Q728 227 677 150T546 31T365 -10Q254 -10 183 38T84
172T73 368ZM207 358Q194 277 209 220T267 131T375 100Q474 100 534 166T612 348Q625 429 609 486T551 574T442 605Q343 605 285 540T207 358Z" />
<glyph unicode="R" horiz-adv-x="702" d="M38 0L150 705H446Q571 705 627 648T666 487Q657 426 622 382T531 315T405 291L410 310H441Q483 310 511 288T556 221L631 0H496L420 229Q410 264 383 275T316 286H212L167 0H38ZM227 381H393Q458 381 495 409T541 489Q550
547 520 575T421 604H262L227 381Z" />
<glyph unicode="S" horiz-adv-x="645" d="M291 -10Q209 -10 141 9T27 60L72 161Q119 133 175 116T301 98Q379 98 418 124T463 191Q469 229 449 252T372 283L268 300Q174 315 130 368T98 506Q108 570 148 616T253 689T404 715Q475 715 535 697T632 646L587 547Q550
575 502 591T391 607Q319 607 276 581T225 507Q218 468 239 443T318 408L422 392Q518 377 561 326T591 191Q582 133 543 88T441 16T291 -10Z" />
<glyph unicode="T" horiz-adv-x="619" d="M204 0L299 599H66L83 705H678L661 599H428L333 0H204Z" />
<glyph unicode="U" horiz-adv-x="740" d="M340 -10Q246 -10 182 23T91 124T80 293L146 705H275L209 288Q194 195 227 148T353 100Q436 100 483 145T547 290L613 705H740L673 284Q657 184 616 119T507 22T340 -10Z" />
<glyph unicode="V" horiz-adv-x="721" d="M266 0L65 705H198L357 113H316L662 705H801L375 0H266Z" />
<glyph unicode="W" horiz-adv-x="1121" d="M234 0L97 705H226L326 127H286L585 705H681L781 127H744L1037 705H1168L805 0H698L598 542H619L341 0H234Z" />
<glyph unicode="X" horiz-adv-x="671" d="M-51 0L300 386L297 331L76 705H222L380 424H339L586 705H744L404 331L406 386L636 0H489L322 294H367L106 0H-51Z" />
<glyph unicode="Y" horiz-adv-x="629" d="M210 0L263 333L277 256L47 705H190L347 385H319L578 705H727L353 251L392 333L339 0H210Z" />
<glyph unicode="Z" horiz-adv-x="608" d="M5 0L20 95L495 639L489 598H100L117 705H635L620 611L144 67L150 107H553L536 0H5Z" />
<glyph unicode="[" horiz-adv-x="354" d="M33 -180L173 705H412L397 611H281L171 -86H287L272 -180H33Z" />
<glyph unicode="\" horiz-adv-x="316" d="M195 -59L54 752H155L296 -59H195Z" />
<glyph unicode="]" horiz-adv-x="354" d="M-55 -180L-41 -86H75L185 611H70L85 705H323L183 -180H-55Z" />
<glyph unicode="^" horiz-adv-x="600" d="M26 140L312 628H406L538 140H446L327 590H388L126 140H26Z" />
<glyph unicode="_" horiz-adv-x="505" d="M-40 -75L-28 0H453L441 -75H-40Z" />
<glyph unicode="`" horiz-adv-x="500" d="M288 554L146 757H268L372 554H288Z" />
<glyph unicode="a" horiz-adv-x="620" d="M234 -10Q165 -10 117 24T50 120T43 268Q63 390 133 452T302 515Q365 515 409 485T462 402L452 399L480 505H600Q592 474 585 442T572 379L512 0H388L405 107H421Q396 53 349 22T234 -10ZM275 86Q333 86 374 126T429 248Q443
336 413 377T321 419Q263 419 222 379T168 258Q154 170 184 128T275 86Z" />
<glyph unicode="b" horiz-adv-x="620" d="M319 -10Q256 -10 212 21T159 104L169 107L152 0H28L145 736H270L217 402L200 399Q225 452 272 483T387 515Q457 515 504 481T572 385T578 238Q558 116 488 53T319 -10ZM300 86Q359 86 399 126T453 248Q467 336 438 377T346
419Q288 419 247 379T192 258Q179 170 209 128T300 86Z" />
<glyph unicode="c" horiz-adv-x="504" d="M272 -10Q189 -10 133 24T54 121T43 268Q63 390 140 452T332 515Q379 515 423 501T495 460L454 375Q430 397 398 407T336 418Q272 418 228 379T170 259Q157 180 189 134T292 88Q322 88 356 99T421 136L457 50Q426 23 376
7T272 -10Z" />
<glyph unicode="d" horiz-adv-x="620" d="M234 -10Q165 -10 117 24T50 120T43 268Q63 390 133 452T302 515Q365 515 409 485T462 402H451L504 736H629L512 0H389L406 107H421Q396 53 349 22T234 -10ZM275 86Q333 86 374 126T429 248Q443 336 413 377T321 419Q263
419 222 379T168 258Q154 170 184 128T275 86Z" />
<glyph unicode="e" horiz-adv-x="548" d="M285 -10Q196 -10 138 25T55 123T44 271Q56 347 92 401T186 485T316 515Q389 515 436 483T504 396T512 267L507 235H140L150 301H429L410 285Q421 356 396 392T311 429Q269 429 239 410T190 358T165 282L160 249Q149 171
183 129T301 86Q340 86 377 97T450 135L486 51Q445 21 393 6T285 -10Z" />
<glyph unicode="f" horiz-adv-x="368" d="M62 0L127 411H30L45 505H177L137 473L150 555Q165 647 221 693T375 740Q397 740 419 737T457 726L441 628Q429 633 414 636T382 639Q356 639 333 629T294 599T272 544L263 483L248 505H399L384 411H252L187 0H62Z" />
<glyph unicode="g" horiz-adv-x="622" d="M234 -224Q165 -224 111 -209T16 -163L52 -72Q78 -91 106 -103T167 -122T233 -128Q305 -128 344 -94T393 5L412 126H423Q401 75 352 44T238 13Q170 13 122 45T53 137T45 279Q64 394 134 454T304 515Q368 515 412 485T464
402L457 408L482 505H603Q594 474 587 442T575 379L518 20Q499 -99 428 -161T234 -224ZM278 108Q339 108 380 148T432 262Q444 339 415 379T324 419Q263 419 222 379T169 265Q157 189 187 149T278 108Z" />
<glyph unicode="h" horiz-adv-x="603" d="M28 0L145 736H270L217 404H202Q232 459 282 487T396 515Q488 515 525 462T545 301L498 0H373L420 301Q430 363 410 390T342 417Q284 417 246 382T199 287L153 0H28Z" />
<glyph unicode="i" horiz-adv-x="261" d="M28 0L108 505H233L153 0H28ZM116 600L136 722H275L255 600H116Z" />
<glyph unicode="j" horiz-adv-x="261" d="M-58 -222Q-77 -222 -98 -219T-136 -209L-120 -110Q-108 -114 -94 -117T-65 -120Q-29 -120 -5 -98T27 -24L111 505H236L151 -31Q136 -125 85 -173T-58 -222ZM118 600L138 722H277L257 600H118Z" />
<glyph unicode="k" horiz-adv-x="552" d="M28 0L145 736H270L199 290H201L435 505H591L298 238V288L529 0H379L191 226H189L153 0H28Z" />
<glyph unicode="l" horiz-adv-x="261" d="M28 0L145 736H270L153 0H28Z" />
<glyph unicode="m" horiz-adv-x="899" d="M28 0L88 379Q93 410 96 442T100 505H221L215 405H202Q231 460 277 487T384 515Q444 515 481 486T523 398H506Q535 451 587 483T699 515Q786 515 822 463T842 299L794 0H669L717 304Q726 363 710 390T648 417Q596 417
562 381T518 282L473 0H348L396 304Q406 363 390 390T328 417Q275 417 242 381T198 282L153 0H28Z" />
<glyph unicode="n" horiz-adv-x="603" d="M28 0L88 379Q93 410 96 442T100 505H221L215 405L202 404Q232 459 282 487T396 515Q488 515 525 462T545 301L498 0H373L420 301Q430 363 410 390T342 417Q284 417 246 382T199 287L153 0H28Z" />
<glyph unicode="o" horiz-adv-x="592" d="M266 -10Q184 -10 130 23T53 118T43 268Q56 349 95 404T194 487T327 515Q410 515 464 482T540 387T549 238Q536 157 497 102T398 19T266 -10ZM273 86Q330 86 371 126T425 248Q439 336 409 377T319 419Q261 419 221 379T168
258Q154 170 183 128T273 86Z" />
<glyph unicode="p" horiz-adv-x="620" d="M-6 -216L88 379Q93 410 96 442T100 505H221L215 399H200Q225 452 272 483T387 515Q457 515 504 481T572 385T578 238Q558 116 488 53T319 -10Q256 -10 212 21T159 104H170L119 -216H-6ZM300 86Q359 86 399 126T453 248Q467
336 438 377T346 419Q288 419 247 379T192 258Q179 170 209 128T300 86Z" />
<glyph unicode="q" horiz-adv-x="620" d="M353 -216L404 104L421 107Q396 53 349 22T234 -10Q165 -10 117 24T50 120T43 268Q63 390 133 452T302 515Q365 515 409 485T462 402L452 399L480 505H600Q592 474 585 442T572 379L478 -216H353ZM275 86Q333 86 374 126T429
248Q443 336 413 377T321 419Q263 419 222 379T168 258Q154 170 184 128T275 86Z" />
<glyph unicode="r" horiz-adv-x="393" d="M27 0L87 376Q92 408 95 441T100 505H221L214 367H192Q210 417 238 450T304 499T382 515Q396 515 408 514T431 510L412 399Q396 406 383 408T349 410Q309 410 277 393T224 345T196 269L153 0H27Z" />
<glyph unicode="s" horiz-adv-x="501" d="M217 -10Q155 -10 103 4T18 44L55 128Q90 106 133 93T223 79Q272 79 299 95T331 140Q335 165 321 180T274 201L193 214Q120 226 91 266T70 366Q78 414 108 447T186 497T292 515Q348 515 395 502T472 464L432 382Q405 402
368 414T292 427Q242 427 215 409T183 363Q179 339 191 323T234 301L317 287Q392 275 422 238T443 140Q436 92 405 59T326 8T217 -10Z" />
<glyph unicode="t" horiz-adv-x="379" d="M247 -10Q153 -10 115 38T90 178L127 411H30L45 505H142L163 634L293 666L267 505H402L387 411H252L217 187Q209 135 226 114T279 92Q296 92 310 95T338 103L322 4Q303 -3 285 -6T247 -10Z" />
<glyph unicode="u" horiz-adv-x="596" d="M217 -10Q125 -10 83 43T57 201L105 505H230L182 203Q173 143 193 116T262 89Q318 89 353 125T398 221L443 505H568L488 0H366L382 103H397Q368 49 322 20T217 -10Z" />
<glyph unicode="v" horiz-adv-x="544" d="M176 0L39 505H167L262 110H231L456 505H585L286 0H176Z" />
<glyph unicode="w" horiz-adv-x="883" d="M168 0L51 505H175L255 112H229L436 505H525L605 112H582L786 505H912L635 0H525L437 402H491L279 0H168Z" />
<glyph unicode="x" horiz-adv-x="549" d="M-54 0L227 289L225 232L46 505H187L302 318H258L432 505H586L322 232L326 289L514 0H369L244 201H290L100 0H-54Z" />
<glyph unicode="y" horiz-adv-x="543" d="M-17 -227L-37 -128Q12 -118 46 -105T104 -71T149 -17L183 42L177 -7L38 505H167L262 111H233L455 505H585L271 -28Q239 -82 207 -117T140 -174T67 -208T-17 -227Z" />
<glyph unicode="z" horiz-adv-x="526" d="M8 0L21 82L388 441L383 411H73L88 505H517L504 423L134 61L139 94H463L448 0H8Z" />
<glyph unicode="{" horiz-adv-x="392" d="M220 -180Q173 -180 143 -165T100 -122T94 -58L124 135Q130 175 121 192T73 213L36 217L50 308L88 312Q125 315 141 332T165 389L196 583Q206 645 239 675T327 705H451L436 611H367Q347 611 334 601T316 567L286 375Q281
339 262 314T219 275T172 262V266Q194 266 213 252T244 212T249 150L220 -42Q216 -66 225 -76T255 -86H326L311 -180H220Z" />
<glyph unicode="|" horiz-adv-x="282" d="M10 -180L150 705H275L135 -180H10Z" />
<glyph unicode="}" horiz-adv-x="392" d="M-57 -180L-42 -86H28Q48 -86 61 -76T79 -42L109 150Q115 187 133 212T176 250T223 264L224 260Q202 260 182 274T152 314T146 376L176 567Q180 591 171 601T141 611H69L84 705H175Q223 705 253 690T295 647T302 583L271
390Q265 350 275 333T322 312L359 309L345 217L308 214Q271 211 254 193T231 136L200 -58Q190 -120 156 -150T68 -180H-57Z" />
<glyph unicode="~" horiz-adv-x="600" d="M417 209Q384 209 353 222T293 249Q268 263 246 272T203 282Q175 282 154 266T117 220L56 263Q81 312 115 339T194 366Q228 366 260 353T321 325Q347 312 368 303T408 293Q437 293 458 309T495 355L556 311Q531 263 497
236T417 209Z" />
<glyph unicode="&#xa0;" horiz-adv-x="274" />
<glyph unicode="&#xa1;" horiz-adv-x="248" d="M-22 -180L93 297H169L132 -180H-22ZM72 367L94 505H234L212 367H72Z" />
<glyph unicode="&#xa2;" horiz-adv-x="600" d="M208 -115L230 25L250 -3Q159 14 113 79T83 253Q100 356 163 417T328 492L299 459L323 609H423L400 466L378 495Q427 494 468 481T536 441L495 357Q471 378 439 388T377 398Q313 398 268 361T211 249Q203 201 214
165T256 108T333 88Q363 88 397 99T462 134L498 49Q464 21 409 5T297 -10L329 19L308 -115H208Z" />
<glyph unicode="&#xa3;" horiz-adv-x="600" d="M3 0L16 86Q60 101 86 123T118 183L139 315H52L64 392H151L168 497Q185 603 252 659T428 715Q491 715 541 698T626 646L579 556Q545 585 512 598T434 612Q373 612 340 584T297 496L280 392H449L437 315H269L252 213Q245
168 222 141T164 100L165 105H545L528 0H3Z" />
<glyph unicode="&#xa4;" horiz-adv-x="600" d="M116 -30L65 22L138 97Q116 128 104 166T91 245Q91 287 103 325T138 394L65 469L116 520L190 445Q220 468 256 480T333 493Q373 493 409 481T475 446L548 522L602 467L528 392Q551 361 562 324T574 245Q574 204 562
167T527 97L601 22L550 -29L477 46Q447 23 411 10T333 -3Q293 -3 256 10T189 45L116 -30ZM333 98Q371 98 402 118T452 171T471 245Q471 286 453 319T403 373T333 393Q295 393 263 373T213 320T194 245Q194 205 212 172T262 118T333 98Z" />
<glyph unicode="&#xa5;" horiz-adv-x="600" d="M196 0L222 166H55L66 240H234L247 322H79L91 396H231L229 381L56 705H191L336 421H307L544 705H688L412 381L414 396H555L543 322H375L362 240H530L519 166H351L324 0H196Z" />
<glyph unicode="&#xa6;" horiz-adv-x="282" d="M97 372L150 705H275L222 372H97ZM10 -180L63 154H188L135 -180H10Z" />
<glyph unicode="&#xa7;" horiz-adv-x="570" d="M221 -190Q156 -190 99 -173T-6 -123L37 -41Q60 -60 89 -73T151 -94T217 -102Q272 -102 304 -76T336 -7Q336 25 321 44T271 82L156 146Q100 178 71 217T42 302Q42 353 66 392T138 460L134 447Q126 464 122 481T117
520Q117 581 149 624T234 691T353 715Q410 715 463 700T559 651L522 571Q489 597 444 612T356 627Q301 627 269 601T237 531Q237 500 252 481T302 441L415 378Q473 346 502 307T531 223Q531 172 506 132T433 63L436 82Q447 65 451 47T456 7Q456 -55 424 -99T339
-167T221 -190ZM153 324Q153 296 172 273T229 229L333 172Q354 159 370 147T397 121H383Q402 140 411 161T420 201Q420 229 400 251T342 296L240 351Q220 364 204 376T176 403L192 408Q172 388 163 366T153 324Z" />
<glyph unicode="&#xa8;" horiz-adv-x="500" d="M342 597L359 712H474L456 597H342ZM153 597L170 712H285L268 597H153Z" />
<glyph unicode="&#xa9;" horiz-adv-x="815" d="M429 -10Q352 -10 286 17T171 94T94 210T66 353Q66 430 93 496T170 611T286 687T429 715Q506 715 572 688T687 611T763 496T791 353Q791 276 764 210T687 95T572 18T429 -10ZM446 137Q346 137 288 196T230 355Q230
454 288 511T446 568Q486 568 526 556T591 520L560 445Q537 465 510 475T455 485Q400 485 368 451T336 354Q336 292 368 257T455 221Q483 221 510 231T560 261L591 186Q566 164 526 151T446 137ZM429 43Q495 43 550 66T647 132T712 230T735 353Q735 419 712 475T648
573T551 638T429 662Q363 662 307 639T210 574T145 476T122 353Q122 287 145 231T209 132T307 67T429 43Z" />
<glyph unicode="&#xaa;" horiz-adv-x="341" d="M160 408Q128 408 104 420T69 456T61 509Q66 539 86 556T142 581T227 589H290L282 545H218Q148 545 142 506Q139 487 150 475T186 463Q218 463 242 484T273 542L282 600Q286 626 272 640T223 654Q199 654 170 648T115
627L97 684Q124 698 162 706T234 715Q308 715 339 683T360 586L332 414H256L265 469H262Q243 438 218 423T160 408Z" />
<glyph unicode="&#xab;" horiz-adv-x="498" d="M128 86L26 267L186 450H298L135 260L230 86H128ZM336 86L234 267L394 450H506L343 260L438 86H336Z" />
<glyph unicode="&#xac;" horiz-adv-x="600" d="M437 140L470 344H69L83 432H574L528 140H437Z" />
<glyph unicode="&#xad;" horiz-adv-x="438" d="M63 226L79 325H382L367 226H63Z" />
<glyph unicode="&#xae;" horiz-adv-x="815" d="M429 -10Q352 -10 286 17T171 94T94 210T66 353Q66 430 93 496T170 611T286 687T429 715Q506 715 572 688T687 611T763 496T791 353Q791 276 764 210T687 95T572 18T429 -10ZM429 43Q495 43 550 66T647 132T712 230T735
353Q735 419 712 475T648 573T551 638T429 662Q363 662 307 639T210 574T145 476T122 353Q122 287 145 231T209 132T307 67T429 43ZM273 142V565H457Q527 565 565 531T603 440Q603 382 566 352T461 321L483 332Q516 332 536 317T569 257L607 142H510L470 267Q463
289 449 296T413 304H354L370 315V142H273ZM369 376H443Q478 376 494 390T511 435Q511 465 495 479T443 493H369V376Z" />
<glyph unicode="&#xaf;" horiz-adv-x="500" d="M150 616L161 690H477L465 616H150Z" />
<glyph unicode="&#xb0;" horiz-adv-x="379" d="M240 405Q195 405 160 425T104 480T83 559Q83 603 103 638T159 693T240 713Q285 713 320 693T375 638T396 559Q396 515 376 480T320 425T240 405ZM240 476Q275 476 297 499T319 559Q319 595 297 618T240 642Q205
642 183 619T160 559Q160 523 182 500T240 476Z" />
<glyph unicode="&#xb1;" horiz-adv-x="600" d="M237 139L261 291H60L74 379H275L299 531H390L366 379H564L551 291H352L328 139H237ZM14 0L28 88H519L505 0H14Z" />
<glyph unicode="&#xb2;" horiz-adv-x="380" d="M51 282L63 355L214 485Q243 511 257 531T275 569Q280 598 266 612T221 626Q196 626 166 617T112 589L95 665Q125 686 164 697T248 709Q320 709 358 675T386 579Q381 551 361 521T301 457L183 356L180 366H368L354 282H51Z" />
<glyph unicode="&#xb3;" horiz-adv-x="380" d="M201 277Q151 277 112 287T47 318L71 391Q94 374 125 365T194 356Q229 356 251 369T277 410Q281 435 264 446T215 458H131L143 532H215Q247 532 267 545T291 583Q295 606 280 618T230 631Q199 631 166 621T110 593L93
667Q126 687 167 698T253 709Q327 709 363 678T391 593Q385 554 355 527T283 492L285 503Q332 498 355 470T371 394Q363 339 315 308T201 277Z" />
<glyph unicode="&#xb4;" horiz-adv-x="500" d="M256 554L388 757H514L340 554H256Z" />
<glyph unicode="&#xb5;" d="M-12 -216L101 505H226L180 201Q171 144 189 117T253 89Q309 89 344 127T389 229L431 505H556L478 0H356L372 102H376Q357 50 323 20T242 -10Q207 -10 181 4T143 44L145 45L114 -216H-12Z" />
<glyph unicode="&#xb6;" horiz-adv-x="632" d="M185 -180L258 280Q202 280 160 304T96 370T73 464Q73 537 105 591T193 675T322 705H625L485 -180H394L520 614H402L276 -180H185Z" />
<glyph unicode="&#xb7;" horiz-adv-x="251" d="M48 206L70 345H210L189 206H48Z" />
<glyph unicode="&#xb8;" horiz-adv-x="500" d="M181 -195Q152 -195 126 -190T81 -174L104 -118Q121 -126 138 -130T177 -135Q204 -135 219 -127T234 -103Q234 -93 226 -88T199 -82Q190 -82 181 -83T157 -88L140 -70L168 20H234L210 -56L179 -45Q191 -41 203 -39T225
-37Q264 -37 286 -54T309 -103Q309 -145 273 -170T181 -195Z" />
<glyph unicode="&#xb9;" horiz-adv-x="380" d="M66 282L80 366H179L218 618L260 617L118 546L133 642L259 705H333L279 366H364L351 282H66Z" />
<glyph unicode="&#xba;" horiz-adv-x="356" d="M210 409Q138 409 99 451T71 570Q82 638 128 676T244 715Q317 715 356 674T383 555Q373 488 327 449T210 409ZM214 472Q247 472 271 495T302 563Q309 607 293 630T241 653Q207 653 184 631T153 563Q146 518 162 495T214
472Z" />
<glyph unicode="&#xbb;" horiz-adv-x="498" d="M117 86H5L167 277L72 450H175L277 269L117 86ZM324 86H212L374 277L279 450H382L484 269L324 86Z" />
<glyph unicode="&#xbc;" horiz-adv-x="914" d="M66 282L80 366H179L218 618L260 617L118 546L133 642L259 705H333L279 366H364L351 282H66ZM286 -10H178L717 715H826L286 -10ZM711 0L723 75H527L538 144L786 423H870L827 151H886L874 75H815L803 0H711ZM738 151L765
324H778L613 136L612 151H738Z" />
<glyph unicode="&#xbd;" horiz-adv-x="962" d="M66 282L80 366H179L218 618L260 617L118 546L133 642L259 705H333L279 366H364L351 282H66ZM286 -10H178L717 715H826L286 -10ZM588 0L600 73L751 203Q780 229 794 249T812 287Q817 316 803 330T758 344Q733 344
703 335T649 307L632 383Q662 404 701 415T785 427Q857 427 895 393T923 297Q918 269 898 239T838 175L720 74L717 84H905L891 0H588Z" />
<glyph unicode="&#xbe;" horiz-adv-x="914" d="M201 277Q151 277 112 287T47 318L71 391Q94 374 125 365T194 356Q229 356 251 369T277 410Q281 435 264 446T215 458H131L143 532H215Q247 532 267 545T291 583Q295 606 280 618T230 631Q199 631 166 621T110 593L93
667Q126 687 167 698T253 709Q327 709 363 678T391 593Q385 554 355 527T283 492L285 503Q332 498 355 470T371 394Q363 339 315 308T201 277ZM286 -10H178L717 715H826L286 -10ZM711 0L723 75H527L538 144L786 423H870L827 151H886L874 75H815L803 0H711ZM738
151L765 324H778L613 136L612 151H738Z" />
<glyph unicode="&#xbf;" horiz-adv-x="464" d="M159 -203Q106 -203 65 -186T2 -136T-21 -62Q-21 -19 -4 17T42 82T104 137Q161 181 184 213T217 276L225 297H301L295 264Q290 234 279 207T246 151T187 90Q167 72 149 52T120 9T109 -38Q109 -66 131 -82T194 -98Q234
-98 273 -86T350 -54L333 -161Q296 -181 249 -192T159 -203ZM367 505L345 367H204L226 505H367Z" />
<glyph unicode="&#xc0;" horiz-adv-x="750" d="M-40 0L391 705H499L710 0H584L529 198L576 163H153L212 198L95 0H-40ZM427 567L233 233L212 264H548L522 233L431 567H427ZM411 765L266 939H395L500 765H411Z" />
<glyph unicode="&#xc1;" horiz-adv-x="750" d="M-40 0L391 705H499L710 0H584L529 198L576 163H153L212 198L95 0H-40ZM427 567L233 233L212 264H548L522 233L431 567H427ZM412 765L542 939H675L501 765H412Z" />
<glyph unicode="&#xc2;" horiz-adv-x="750" d="M-40 0L391 705H499L710 0H584L529 198L576 163H153L212 198L95 0H-40ZM427 567L233 233L212 264H548L522 233L431 567H427ZM271 765L413 939H520L627 765H540L461 869L358 765H271Z" />
<glyph unicode="&#xc3;" horiz-adv-x="750" d="M-40 0L391 705H499L710 0H584L529 198L576 163H153L212 198L95 0H-40ZM427 567L233 233L212 264H548L522 233L431 567H427ZM293 772L231 776Q242 847 279 885T372 924Q402 924 428 913T477 887Q497 876 515 867T552
858Q608 858 626 928L688 924Q677 853 640 815T548 776Q518 776 492 788T443 813Q423 824 405 833T367 842Q311 842 293 772Z" />
<glyph unicode="&#xc4;" horiz-adv-x="750" d="M-40 0L391 705H499L710 0H584L529 198L576 163H153L212 198L95 0H-40ZM427 567L233 233L212 264H548L522 233L431 567H427ZM496 790L514 905H629L610 790H496ZM307 790L325 905H440L422 790H307Z" />
<glyph unicode="&#xc5;" horiz-adv-x="750" d="M-40 0L391 705H499L710 0H584L529 198L576 163H153L212 198L95 0H-40ZM427 567L233 233L212 264H548L522 233L431 567H427ZM469 755Q434 755 405 771T360 816T343 878Q343 913 359 940T405 984T469 1000Q505 1000
533 984T578 941T595 878Q595 844 579 816T534 772T469 755ZM469 812Q498 812 516 831T534 878Q534 906 516 924T469 943Q441 943 423 925T404 878Q404 850 422 831T469 812Z" />
<glyph unicode="&#xc6;" horiz-adv-x="1017" d="M-60 0L489 705H1047L1030 604H653L680 625L661 374L649 409H978L962 307H636L656 317L639 74L627 102H951L935 0H516L530 194L554 163H185L233 197L84 0H-60ZM539 603L260 234L252 265H550L534 230L562 603H539Z" />
<glyph unicode="&#xc7;" horiz-adv-x="685" d="M383 -10Q263 -10 188 38T85 172T73 368Q91 479 143 556T279 675T469 715Q539 715 594 696T688 641L642 538Q600 573 560 587T463 601Q360 601 293 539T207 360Q195 282 211 225T275 136T398 104Q448 104 497 120T593
175L631 74Q582 34 517 12T383 -10ZM336 -195Q307 -195 281 -190T236 -174L259 -118Q276 -126 293 -130T332 -135Q359 -135 374 -127T389 -103Q389 -93 381 -88T354 -82Q345 -82 336 -83T312 -88L295 -70L323 20H389L365 -56L334 -45Q346 -41 358 -39T380 -37Q419
-37 441 -54T464 -103Q464 -145 428 -170T336 -195Z" />
<glyph unicode="&#xc8;" horiz-adv-x="595" d="M38 0L150 705H625L609 604H257L227 409H555L539 307H211L178 102H529L513 0H38ZM370 765L225 939H354L459 765H370Z" />
<glyph unicode="&#xc9;" horiz-adv-x="595" d="M38 0L150 705H625L609 604H257L227 409H555L539 307H211L178 102H529L513 0H38ZM371 765L501 939H634L460 765H371Z" />
<glyph unicode="&#xca;" horiz-adv-x="595" d="M38 0L150 705H625L609 604H257L227 409H555L539 307H211L178 102H529L513 0H38ZM230 765L372 939H479L586 765H499L420 869L317 765H230Z" />
<glyph unicode="&#xcb;" horiz-adv-x="595" d="M38 0L150 705H625L609 604H257L227 409H555L539 307H211L178 102H529L513 0H38ZM455 790L473 905H588L569 790H455ZM266 790L284 905H399L381 790H266Z" />
<glyph unicode="&#xcc;" horiz-adv-x="284" d="M38 0L150 705H279L167 0H38ZM179 765L34 939H163L268 765H179Z" />
<glyph unicode="&#xcd;" horiz-adv-x="284" d="M38 0L150 705H279L167 0H38ZM180 765L310 939H443L269 765H180Z" />
<glyph unicode="&#xce;" horiz-adv-x="284" d="M38 0L150 705H279L167 0H38ZM39 765L181 939H288L395 765H308L229 869L126 765H39Z" />
<glyph unicode="&#xcf;" horiz-adv-x="284" d="M38 0L150 705H279L167 0H38ZM264 790L282 905H397L378 790H264ZM75 790L93 905H208L190 790H75Z" />
<glyph unicode="&#xd0;" horiz-adv-x="762" d="M38 0L150 705H394Q522 705 600 661T709 534T721 338Q694 169 586 85T299 0H38ZM184 107H303Q431 107 502 166T593 346Q613 476 560 537T379 599H261L184 107ZM3 310L18 404H423L408 310H3Z" />
<glyph unicode="&#xd1;" horiz-adv-x="755" d="M38 0L150 705H247L569 169L546 176L630 705H750L638 0H541L219 536L242 529L158 0H38ZM299 772L237 776Q248 847 285 885T378 924Q408 924 434 913T483 887Q503 876 521 867T558 858Q614 858 632 928L694 924Q683
853 646 815T554 776Q524 776 498 788T449 813Q429 824 411 833T373 842Q317 842 299 772Z" />
<glyph unicode="&#xd2;" horiz-adv-x="787" d="M73 368Q91 479 142 556T272 674T453 715Q565 715 636 667T735 533T745 338Q728 227 677 150T546 31T365 -10Q254 -10 183 38T84 172T73 368ZM207 358Q194 277 209 220T267 131T375 100Q474 100 534 166T612 348Q625
429 609 486T551 574T442 605Q343 605 285 540T207 358ZM430 765L285 939H414L519 765H430Z" />
<glyph unicode="&#xd3;" horiz-adv-x="787" d="M73 368Q91 479 142 556T272 674T453 715Q565 715 636 667T735 533T745 338Q728 227 677 150T546 31T365 -10Q254 -10 183 38T84 172T73 368ZM207 358Q194 277 209 220T267 131T375 100Q474 100 534 166T612 348Q625
429 609 486T551 574T442 605Q343 605 285 540T207 358ZM431 765L561 939H694L520 765H431Z" />
<glyph unicode="&#xd4;" horiz-adv-x="787" d="M73 368Q91 479 142 556T272 674T453 715Q565 715 636 667T735 533T745 338Q728 227 677 150T546 31T365 -10Q254 -10 183 38T84 172T73 368ZM207 358Q194 277 209 220T267 131T375 100Q474 100 534 166T612 348Q625
429 609 486T551 574T442 605Q343 605 285 540T207 358ZM290 765L432 939H539L646 765H559L480 869L377 765H290Z" />
<glyph unicode="&#xd5;" horiz-adv-x="787" d="M73 368Q91 479 142 556T272 674T453 715Q565 715 636 667T735 533T745 338Q728 227 677 150T546 31T365 -10Q254 -10 183 38T84 172T73 368ZM207 358Q194 277 209 220T267 131T375 100Q474 100 534 166T612 348Q625
429 609 486T551 574T442 605Q343 605 285 540T207 358ZM312 772L250 776Q261 847 298 885T391 924Q421 924 447 913T496 887Q516 876 534 867T571 858Q627 858 645 928L707 924Q696 853 659 815T567 776Q537 776 511 788T462 813Q442 824 424 833T386 842Q330
842 312 772Z" />
<glyph unicode="&#xd6;" horiz-adv-x="787" d="M73 368Q91 479 142 556T272 674T453 715Q565 715 636 667T735 533T745 338Q728 227 677 150T546 31T365 -10Q254 -10 183 38T84 172T73 368ZM207 358Q194 277 209 220T267 131T375 100Q474 100 534 166T612 348Q625
429 609 486T551 574T442 605Q343 605 285 540T207 358ZM515 790L533 905H648L629 790H515ZM326 790L344 905H459L441 790H326Z" />
<glyph unicode="&#xd7;" horiz-adv-x="600" d="M127 51L66 113L254 287L98 457L162 520L319 348L506 520L566 457L378 285L534 113L471 51L314 223L127 51Z" />
<glyph unicode="&#xd8;" horiz-adv-x="787" d="M73 368Q91 479 142 556T272 674T453 715Q565 715 636 667T735 533T745 338Q728 227 677 150T546 31T365 -10Q254 -10 183 38T84 172T73 368ZM207 358Q194 277 209 220T267 131T375 100Q474 100 534 166T612 348Q625
429 609 486T551 574T442 605Q343 605 285 540T207 358ZM254 62L174 -47L96 7L177 116L226 169L544 591L573 645L654 753L732 699L651 591L602 537L284 115L254 62Z" />
<glyph unicode="&#xd9;" horiz-adv-x="740" d="M340 -10Q246 -10 182 23T91 124T80 293L146 705H275L209 288Q194 195 227 148T353 100Q436 100 483 145T547 290L613 705H740L673 284Q657 184 616 119T507 22T340 -10ZM409 765L264 939H393L498 765H409Z" />
<glyph unicode="&#xda;" horiz-adv-x="740" d="M340 -10Q246 -10 182 23T91 124T80 293L146 705H275L209 288Q194 195 227 148T353 100Q436 100 483 145T547 290L613 705H740L673 284Q657 184 616 119T507 22T340 -10ZM410 765L540 939H673L499 765H410Z" />
<glyph unicode="&#xdb;" horiz-adv-x="740" d="M340 -10Q246 -10 182 23T91 124T80 293L146 705H275L209 288Q194 195 227 148T353 100Q436 100 483 145T547 290L613 705H740L673 284Q657 184 616 119T507 22T340 -10ZM269 765L411 939H518L625 765H538L459 869L356
765H269Z" />
<glyph unicode="&#xdc;" horiz-adv-x="740" d="M340 -10Q246 -10 182 23T91 124T80 293L146 705H275L209 288Q194 195 227 148T353 100Q436 100 483 145T547 290L613 705H740L673 284Q657 184 616 119T507 22T340 -10ZM494 790L512 905H627L608 790H494ZM305 790L323
905H438L420 790H305Z" />
<glyph unicode="&#xdd;" horiz-adv-x="629" d="M210 0L263 333L277 256L47 705H190L347 385H319L578 705H727L353 251L392 333L339 0H210ZM353 765L483 939H616L442 765H353Z" />
<glyph unicode="&#xde;" horiz-adv-x="667" d="M38 0L150 705H279L259 582H431Q553 582 607 522T646 358Q637 298 604 254T515 185T382 161H192L167 0H38ZM208 263H377Q442 263 478 289T522 367Q531 423 503 452T410 481H243L208 263Z" />
<glyph unicode="&#xdf;" horiz-adv-x="674" d="M28 0L103 474Q125 609 198 676T405 744Q473 744 522 722T595 658T608 552Q603 516 583 482T521 416T411 360L413 384Q494 361 546 330T620 257T633 156Q625 102 594 65T516 9T411 -10Q348 -10 303 4T225 42L261
126Q296 104 331 93T407 81Q453 81 481 102T515 162Q520 193 504 220T441 271T309 318L324 413Q385 432 420 453T471 499T491 551Q499 598 474 625T394 652Q326 652 286 614T231 490L153 0H28Z" />
<glyph unicode="&#xe0;" horiz-adv-x="620" d="M234 -10Q165 -10 117 24T50 120T43 268Q63 390 133 452T302 515Q365 515 409 485T462 402L452 399L480 505H600Q592 474 585 442T572 379L512 0H388L405 107H421Q396 53 349 22T234 -10ZM275 86Q333 86 374 126T429
248Q443 336 413 377T321 419Q263 419 222 379T168 258Q154 170 184 128T275 86ZM310 554L168 757H290L394 554H310Z" />
<glyph unicode="&#xe1;" horiz-adv-x="620" d="M234 -10Q165 -10 117 24T50 120T43 268Q63 390 133 452T302 515Q365 515 409 485T462 402L452 399L480 505H600Q592 474 585 442T572 379L512 0H388L405 107H421Q396 53 349 22T234 -10ZM275 86Q333 86 374 126T429
248Q443 336 413 377T321 419Q263 419 222 379T168 258Q154 170 184 128T275 86ZM311 554L443 757H569L395 554H311Z" />
<glyph unicode="&#xe2;" horiz-adv-x="620" d="M234 -10Q165 -10 117 24T50 120T43 268Q63 390 133 452T302 515Q365 515 409 485T462 402L452 399L480 505H600Q592 474 585 442T572 379L512 0H388L405 107H421Q396 53 349 22T234 -10ZM275 86Q333 86 374 126T429
248Q443 336 413 377T321 419Q263 419 222 379T168 258Q154 170 184 128T275 86ZM183 554L315 757H424L514 554H435L364 686L263 554H183Z" />
<glyph unicode="&#xe3;" horiz-adv-x="620" d="M234 -10Q165 -10 117 24T50 120T43 268Q63 390 133 452T302 515Q365 515 409 485T462 402L452 399L480 505H600Q592 474 585 442T572 379L512 0H388L405 107H421Q396 53 349 22T234 -10ZM275 86Q333 86 374 126T429
248Q443 336 413 377T321 419Q263 419 222 379T168 258Q154 170 184 128T275 86ZM226 584L164 588Q174 659 208 697T293 736Q320 736 338 725T373 700Q387 688 401 679T433 670Q483 670 500 740L562 736Q552 665 518 627T434 588Q407 588 388 600T352 625Q338 636
324 645T293 654Q243 654 226 584Z" />
<glyph unicode="&#xe4;" horiz-adv-x="620" d="M234 -10Q165 -10 117 24T50 120T43 268Q63 390 133 452T302 515Q365 515 409 485T462 402L452 399L480 505H600Q592 474 585 442T572 379L512 0H388L405 107H421Q396 53 349 22T234 -10ZM275 86Q333 86 374 126T429
248Q443 336 413 377T321 419Q263 419 222 379T168 258Q154 170 184 128T275 86ZM398 597L415 712H530L512 597H398ZM209 597L226 712H341L324 597H209Z" />
<glyph unicode="&#xe5;" horiz-adv-x="620" d="M234 -10Q165 -10 117 24T50 120T43 268Q63 390 133 452T302 515Q365 515 409 485T462 402L452 399L480 505H600Q592 474 585 442T572 379L512 0H388L405 107H421Q396 53 349 22T234 -10ZM275 86Q333 86 374 126T429
248Q443 336 413 377T321 419Q263 419 222 379T168 258Q154 170 184 128T275 86ZM371 546Q336 546 307 562T262 606T245 668Q245 703 261 730T307 774T371 791Q407 791 435 775T480 731T497 668Q497 634 481 606T436 562T371 546ZM371 603Q400 603 418 622T436
668Q436 697 418 715T371 733Q343 733 325 715T306 669Q306 640 324 622T371 603Z" />
<glyph unicode="&#xe6;" horiz-adv-x="872" d="M208 -10Q142 -10 100 15T41 80T31 165Q40 215 76 244T177 287T338 300H389L379 235H323Q268 235 229 228T169 204T142 158Q136 122 157 100T225 77Q281 77 317 111T363 203L380 314Q389 369 364 394T289 420Q243
420 204 410T118 374L85 460Q114 477 150 489T226 508T301 515Q382 515 423 488T475 408H439Q477 462 529 488T643 515Q715 515 762 483T828 396T837 267L832 235H472L482 301H753L735 285Q745 356 720 392T638 429Q597 429 567 410T518 358T494 282L489 249Q478
171 512 129T628 86Q666 86 702 97T775 135L810 51Q770 21 718 6T612 -10Q524 -10 468 27T390 132H418Q390 65 336 28T208 -10Z" />
<glyph unicode="&#xe7;" horiz-adv-x="504" d="M272 -10Q189 -10 133 24T54 121T43 268Q63 390 140 452T332 515Q379 515 423 501T495 460L454 375Q430 397 398 407T336 418Q272 418 228 379T170 259Q157 180 189 134T292 88Q322 88 356 99T421 136L457 50Q426
23 376 7T272 -10ZM231 -195Q202 -195 176 -190T131 -174L154 -118Q171 -126 188 -130T227 -135Q254 -135 269 -127T284 -103Q284 -93 276 -88T249 -82Q240 -82 231 -83T207 -88L190 -70L218 20H284L260 -56L229 -45Q241 -41 253 -39T275 -37Q314 -37 336 -54T359
-103Q359 -145 323 -170T231 -195Z" />
<glyph unicode="&#xe8;" horiz-adv-x="548" d="M285 -10Q196 -10 138 25T55 123T44 271Q56 347 92 401T186 485T316 515Q389 515 436 483T504 396T512 267L507 235H140L150 301H429L410 285Q421 356 396 392T311 429Q269 429 239 410T190 358T165 282L160 249Q149
171 183 129T301 86Q340 86 377 97T450 135L486 51Q445 21 393 6T285 -10ZM293 554L151 757H273L377 554H293Z" />
<glyph unicode="&#xe9;" horiz-adv-x="548" d="M285 -10Q196 -10 138 25T55 123T44 271Q56 347 92 401T186 485T316 515Q389 515 436 483T504 396T512 267L507 235H140L150 301H429L410 285Q421 356 396 392T311 429Q269 429 239 410T190 358T165 282L160 249Q149
171 183 129T301 86Q340 86 377 97T450 135L486 51Q445 21 393 6T285 -10ZM294 554L426 757H552L378 554H294Z" />
<glyph unicode="&#xea;" horiz-adv-x="548" d="M285 -10Q196 -10 138 25T55 123T44 271Q56 347 92 401T186 485T316 515Q389 515 436 483T504 396T512 267L507 235H140L150 301H429L410 285Q421 356 396 392T311 429Q269 429 239 410T190 358T165 282L160 249Q149
171 183 129T301 86Q340 86 377 97T450 135L486 51Q445 21 393 6T285 -10ZM166 554L298 757H407L497 554H418L347 686L246 554H166Z" />
<glyph unicode="&#xeb;" horiz-adv-x="548" d="M285 -10Q196 -10 138 25T55 123T44 271Q56 347 92 401T186 485T316 515Q389 515 436 483T504 396T512 267L507 235H140L150 301H429L410 285Q421 356 396 392T311 429Q269 429 239 410T190 358T165 282L160 249Q149
171 183 129T301 86Q340 86 377 97T450 135L486 51Q445 21 393 6T285 -10ZM381 597L398 712H513L495 597H381ZM192 597L209 712H324L307 597H192Z" />
<glyph unicode="&#xec;" horiz-adv-x="261" d="M28 0L108 505H233L153 0H28ZM136 554L-6 757H116L220 554H136Z" />
<glyph unicode="&#xed;" horiz-adv-x="261" d="M28 0L108 505H233L153 0H28ZM137 554L269 757H395L221 554H137Z" />
<glyph unicode="&#xee;" horiz-adv-x="261" d="M28 0L108 505H233L153 0H28ZM9 554L141 757H250L340 554H261L190 686L89 554H9Z" />
<glyph unicode="&#xef;" horiz-adv-x="261" d="M28 0L108 505H233L153 0H28ZM224 597L241 712H356L338 597H224ZM35 597L52 712H167L150 597H35Z" />
<glyph unicode="&#xf0;" horiz-adv-x="599" d="M265 -10Q186 -10 131 21T52 108T39 239Q49 305 86 353T179 428T304 454Q375 454 422 422T479 318H451Q463 395 441 464T366 583H394L180 495L157 550L334 622L332 608Q304 628 271 642T201 665L234 745Q302 735
354 712T446 656L421 659L550 712L574 658L468 614L471 632Q514 586 537 528T567 406T562 274Q540 135 462 63T265 -10ZM273 87Q332 87 372 123T422 221Q433 286 404 322T313 359Q253 359 214 324T163 225Q153 159 182 123T273 87Z" />
<glyph unicode="&#xf1;" horiz-adv-x="603" d="M28 0L88 379Q93 410 96 442T100 505H221L215 405L202 404Q232 459 282 487T396 515Q488 515 525 462T545 301L498 0H373L420 301Q430 363 410 390T342 417Q284 417 246 382T199 287L153 0H28ZM223 584L161 588Q171
659 205 697T290 736Q317 736 335 725T370 700Q384 688 398 679T430 670Q480 670 497 740L559 736Q549 665 515 627T431 588Q404 588 385 600T349 625Q335 636 321 645T290 654Q240 654 223 584Z" />
<glyph unicode="&#xf2;" horiz-adv-x="592" d="M266 -10Q184 -10 130 23T53 118T43 268Q56 349 95 404T194 487T327 515Q410 515 464 482T540 387T549 238Q536 157 497 102T398 19T266 -10ZM273 86Q330 86 371 126T425 248Q439 336 409 377T319 419Q261 419 221
379T168 258Q154 170 183 128T273 86ZM302 554L160 757H282L386 554H302Z" />
<glyph unicode="&#xf3;" horiz-adv-x="592" d="M266 -10Q184 -10 130 23T53 118T43 268Q56 349 95 404T194 487T327 515Q410 515 464 482T540 387T549 238Q536 157 497 102T398 19T266 -10ZM273 86Q330 86 371 126T425 248Q439 336 409 377T319 419Q261 419 221
379T168 258Q154 170 183 128T273 86ZM303 554L435 757H561L387 554H303Z" />
<glyph unicode="&#xf4;" horiz-adv-x="592" d="M266 -10Q184 -10 130 23T53 118T43 268Q56 349 95 404T194 487T327 515Q410 515 464 482T540 387T549 238Q536 157 497 102T398 19T266 -10ZM273 86Q330 86 371 126T425 248Q439 336 409 377T319 419Q261 419 221
379T168 258Q154 170 183 128T273 86ZM175 554L307 757H416L506 554H427L356 686L255 554H175Z" />
<glyph unicode="&#xf5;" horiz-adv-x="592" d="M266 -10Q184 -10 130 23T53 118T43 268Q56 349 95 404T194 487T327 515Q410 515 464 482T540 387T549 238Q536 157 497 102T398 19T266 -10ZM273 86Q330 86 371 126T425 248Q439 336 409 377T319 419Q261 419 221
379T168 258Q154 170 183 128T273 86ZM218 584L156 588Q166 659 200 697T285 736Q312 736 330 725T365 700Q379 688 393 679T425 670Q475 670 492 740L554 736Q544 665 510 627T426 588Q399 588 380 600T344 625Q330 636 316 645T285 654Q235 654 218 584Z" />
<glyph unicode="&#xf6;" horiz-adv-x="592" d="M266 -10Q184 -10 130 23T53 118T43 268Q56 349 95 404T194 487T327 515Q410 515 464 482T540 387T549 238Q536 157 497 102T398 19T266 -10ZM273 86Q330 86 371 126T425 248Q439 336 409 377T319 419Q261 419 221
379T168 258Q154 170 183 128T273 86ZM390 597L407 712H522L504 597H390ZM201 597L218 712H333L316 597H201Z" />
<glyph unicode="&#xf7;" horiz-adv-x="600" d="M52 243L66 331H558L544 243H52ZM208 38L225 142H329L312 38H208ZM271 432L287 536H391L375 432H271Z" />
<glyph unicode="&#xf8;" horiz-adv-x="592" d="M266 -10Q184 -10 130 23T53 118T43 268Q56 349 95 404T194 487T327 515Q410 515 464 482T540 387T549 238Q536 157 497 102T398 19T266 -10ZM273 86Q337 86 379 127T435 249Q449 333 417 376T319 419Q255 419 213
379T158 257Q145 175 174 131T273 86ZM124 -42L67 -2L472 545L527 506L124 -42Z" />
<glyph unicode="&#xf9;" horiz-adv-x="596" d="M217 -10Q125 -10 83 43T57 201L105 505H230L182 203Q173 143 193 116T262 89Q318 89 353 125T398 221L443 505H568L488 0H366L382 103H397Q368 49 322 20T217 -10ZM303 555L161 758H283L387 555H303Z" />
<glyph unicode="&#xfa;" horiz-adv-x="596" d="M217 -10Q125 -10 83 43T57 201L105 505H230L182 203Q173 143 193 116T262 89Q318 89 353 125T398 221L443 505H568L488 0H366L382 103H397Q368 49 322 20T217 -10ZM304 555L436 758H562L388 555H304Z" />
<glyph unicode="&#xfb;" horiz-adv-x="596" d="M217 -10Q125 -10 83 43T57 201L105 505H230L182 203Q173 143 193 116T262 89Q318 89 353 125T398 221L443 505H568L488 0H366L382 103H397Q368 49 322 20T217 -10ZM176 555L308 758H417L507 555H428L357 687L256 555H176Z" />
<glyph unicode="&#xfc;" horiz-adv-x="596" d="M217 -10Q125 -10 83 43T57 201L105 505H230L182 203Q173 143 193 116T262 89Q318 89 353 125T398 221L443 505H568L488 0H366L382 103H397Q368 49 322 20T217 -10ZM391 598L408 713H523L505 598H391ZM202 598L219
713H334L317 598H202Z" />
<glyph unicode="&#xfd;" horiz-adv-x="543" d="M-17 -227L-37 -128Q12 -118 46 -105T104 -71T149 -17L183 42L177 -7L38 505H167L262 111H233L455 505H585L271 -28Q239 -82 207 -117T140 -174T67 -208T-17 -227ZM277 554L409 757H535L361 554H277Z" />
<glyph unicode="&#xfe;" horiz-adv-x="620" d="M-6 -216L145 736H270L217 402L200 399Q225 452 272 483T387 515Q457 515 504 481T572 385T578 238Q558 116 488 53T319 -10Q256 -10 212 21T159 104H170L119 -216H-6ZM300 86Q359 86 399 126T453 248Q467 336 438
377T346 419Q288 419 247 379T192 258Q179 170 209 128T300 86Z" />
<glyph unicode="&#xff;" horiz-adv-x="543" d="M-17 -227L-37 -128Q12 -118 46 -105T104 -71T149 -17L183 42L177 -7L38 505H167L262 111H233L455 505H585L271 -28Q239 -82 207 -117T140 -174T67 -208T-17 -227ZM364 597L381 712H496L478 597H364ZM175 597L192
712H307L290 597H175Z" />
<glyph unicode="&#x2013;" horiz-adv-x="505" d="M-2 238L10 313H514L503 238H-2Z" />
<glyph unicode="&#x2014;" horiz-adv-x="1010" d="M-2 238L10 313H1019L1008 238H-2Z" />
<glyph unicode="&#x2018;" horiz-adv-x="248" d="M83 441L100 544Q106 578 116 606T146 660T200 712L244 665Q210 634 195 610T174 551L147 580H245L223 441H83Z" />
<glyph unicode="&#x2019;" horiz-adv-x="248" d="M149 434L105 482Q140 513 154 537T175 595L202 567H104L126 705H266L249 603Q244 569 234 541T203 487T149 434Z" />
<glyph unicode="&#x201a;" horiz-adv-x="248" d="M60 -133L15 -85Q50 -54 64 -30T86 29L113 0H14L36 139H176L159 36Q154 2 144 -26T114 -80T60 -133Z" />
<glyph unicode="&#x201c;" horiz-adv-x="447" d="M83 441L100 544Q106 578 116 606T146 660T200 712L244 665Q210 634 195 610T174 551L147 580H245L223 441H83ZM282 441L299 544Q305 578 315 606T345 660T399 712L443 665Q409 634 394 610T373 551L346 580H444L422
441H282Z" />
<glyph unicode="&#x201d;" horiz-adv-x="447" d="M149 434L105 482Q140 513 154 537T175 595L202 567H104L126 705H266L249 603Q244 569 234 541T203 487T149 434ZM348 434L304 482Q339 513 353 537T374 595L401 567H303L325 705H465L448 603Q443 569 433 541T402
487T348 434Z" />
<glyph unicode="&#x201e;" horiz-adv-x="447" d="M60 -133L15 -85Q50 -54 64 -30T86 29L113 0H14L36 139H176L159 36Q154 2 144 -26T114 -80T60 -133ZM259 -133L214 -85Q249 -54 263 -30T285 29L312 0H213L235 139H375L358 36Q353 2 343 -26T313 -80T259 -133Z" />
<glyph unicode="&#x2022;" horiz-adv-x="529" d="M267 89Q218 89 177 112T111 176T86 267Q86 313 109 353T174 419T267 445Q316 445 357 422T423 359T449 267Q449 218 425 178T359 113T267 89Z" />
<glyph unicode="&#x2039;" horiz-adv-x="290" d="M128 86L26 267L186 450H298L135 260L230 86H128Z" />
<glyph unicode="&#x203a;" horiz-adv-x="290" d="M117 86H5L167 277L72 450H175L277 269L117 86Z" />
</font>
</defs>
</svg>
