<?xml version="1.0" standalone="no"?>
<!DOCTYPE svg PUBLIC "-//W3C//DTD SVG 1.1//EN" "http://www.w3.org/Graphics/SVG/1.1/DTD/svg11.dtd">
<svg xmlns="http://www.w3.org/2000/svg">
  <defs>
    <font id="Manrope" horiz-adv-x="1158">
      <font-face font-family="Manrope ExtraLight" units-per-em="2000" panose-1="0 0 0 0 0 0 0 0 0 0" ascent="2132" descent="-600" alphabetic="0" />
      <glyph unicode=" " glyph-name="gid231" horiz-adv-x="400" />
      <glyph unicode="!" glyph-name="gid180" horiz-adv-x="721" d="M240,0V221H481V0H240Zm0,360V1440H481V360H240Z" />
      <glyph unicode="&quot;" glyph-name="gid224" horiz-adv-x="934" d="M120,1080v360H361V1080H120Zm373,0v360H734V1080H493Z" />
      <glyph unicode="#" glyph-name="gid187" horiz-adv-x="1863" d="M377,2L483,392H120l60,227H543l62,235H242l62,226H666l97,360H998l-98-360h246l97,360h235l-98-360h363l-61-226H1320l-64-235h363l-61-227H1196L1092,2H857L961,392H716L612,2H377ZM778,619h244l63,235H840L778,619Z" />
      <glyph unicode="$" glyph-name="gid237" horiz-adv-x="1256" d="M517-199V38H758V-199H517Zm0,1600v237H758V1401H517ZM643-30Q491-30 371,26T174.5,184T77,426l238,38q28-123 120.5-195.5T657,196q124,0 204,58.5T941,403q0,63-38,102.5T781,571L434,679q-303,94-303,368q0,128 61.5,223.5t173.5,147T630,1468q141-1 251.5-51t184-143.5T1170,1047l-247-45q-14,71-55,125t-103,84t-138,32q-73,1-131-22.5t-92-66T370,1059q0-59 47.5-101T568,886l259-75q187-54 269.5-146.5T1179,419q0-134-67-235T924,26.5T643-30Z" />
      <glyph unicode="%" glyph-name="gid254" horiz-adv-x="1801" d="M340,0L180,160L1461,1440l160-161L340,0Zm981-30q-99,0-180.5,48.5T1010,148.5T961,330q0,98 50,180t132,131t178,49q99,0 181-48.5t130.5-130T1681,330t-48.5-181.5T1502,18.5T1321-30Zm0,206q41,0 76.5,21t56.5,56t21,77t-21,77t-56.5,56T1321,484q-42,0-77-21t-56.5-56T1166,330t21.5-77t56.5-56t77-21ZM480,750q-99,0-181,48.5t-130.5,130T120,1110q0,98 50,180t132,131t178,49q99,0 180.5-48.5t130.5-130T840,1110T791,928.5t-130.5-130T480,750Zm0,206q42,0 77,21t56,56t21,77t-21,77t-56,56t-77,21t-77-21t-56-56t-21-77t21-77t56-56t77-21Z" />
      <glyph unicode="&amp;" glyph-name="gid260" horiz-adv-x="1337" d="M617-30Q497-30 390.5,5.5T213,118q-57,63-83.5,137.5T100,415q0,83 24.5,161T200,714q20,24 43.5,42.5T291,790q-59,66-89.5,128T171,1064q0,126 68,226t185,144q51,19 103.5,26t102.5,7q94,0 181-28.5T959,1346q39-37 65-83.5t39-95.5l-238-51q-14,45-49,77q-30,29-71,38.5t-81,9.5q-64,0-113-23t-72.5-62T415,1061q0-50 18.5-80T479,920q18-20 44-44t54-50L939,491q1,20 1,43.5t0,44.5V755h212V494q0-54-3-104.5T1137,306l179-164L1161-23L1022,109Q971,61 910,31T787-12q-45-11-86-14.5T617-30Zm10,229q31,0 58.5,3T739,214q37,11 63.5,26T849,271L468,621q-27-10-48.5-25.5T383,561q-19-25-29.5-58.5T343,429q1-46 15-81.5T395,284q36-46 103-65.5T627,199Z" />
      <glyph unicode="&apos;" glyph-name="gid225" horiz-adv-x="521" d="M120,1080v360H361V1080H120Z" />
      <glyph unicode="(" glyph-name="gid194" horiz-adv-x="906" d="M646-381Q529-245 446-73.5T320,286T280,660q-3,186 40,374.5T446,1394t200,307l178-132q-120-145-191.5-293T530,974.5T498,660q1-161 32.5-314.5T633,43.5T824-248L646-381Z" />
      <glyph unicode=")" glyph-name="gid195" horiz-adv-x="906" d="M260-381L82-248Q202-105 273,43.5t102.5,302T408,660q-1,161-32,314.5T273.5,1276T82,1569l178,132q117-136 200-307t126-359.5T626,660q3-186-40-374T460-73.5T260-381Z" />
      <glyph unicode="*" glyph-name="gid186" horiz-adv-x="929" d="M309,727L136,852l151,177L60,1090l66,203l217-89l-15,236H542l-15-236l216,89l66-203l-226-61L733,852L560,727L435,923L309,727Z" />
      <glyph unicode="+" glyph-name="gid242" horiz-adv-x="1143" d="M478,268V626H120V815H478v357H667V815h356V626H667V268H478Z" />
      <glyph unicode="," glyph-name="gid176" horiz-adv-x="607" d="M120-255l14,104q46-4 73,15.5t36.5,55T248,0H120V257H367V-10q0-131-62-198T120-255Z" />
      <glyph unicode="-" glyph-name="gid206" horiz-adv-x="840" d="M120,536V725H720V536H120Z" />
      <glyph unicode="." glyph-name="gid175" horiz-adv-x="607" d="M180,0V247H427V0H180Z" />
      <glyph unicode="/" glyph-name="gid188" horiz-adv-x="866" d="M504,1440H746L362,0H120L504,1440Z" />
      <glyph unicode="0" glyph-name="gid131" horiz-adv-x="1316" d="M658-30Q505-30 388,35.5T205.5,218T140,488V952q0,153 65.5,270T388,1404.5T658,1470t269.5-65.5T1110,1222t66-270V488q0-153-66-270T927.5,35.5T658-30Zm0,229q76,0 138,36.5t98,98T930,471V970q0,77-36,138.5t-98,98T658,1243t-138-36.5t-98-98T386,970V471q0-76 36-137.5t98-98T658,199Z" />
      <glyph unicode="1" glyph-name="gid132" horiz-adv-x="876" d="M390,0V1177L120,1012v266l270,162H636V0H390Z" />
      <glyph unicode="2" glyph-name="gid133" horiz-adv-x="1191" d="M100,2V212L716,761q72,64 100,121t28,110q0,72-31,128.5T727.5,1210T602,1243q-75,0-132.5-34.5T380,1117T350,994H102q0,144 64.5,251t178,166T607,1470q138,0 248-61.5t173-170T1091,989q0-103-28-173T979.5,687T842,556L405,169l-22,60h708V2H100Z" />
      <glyph unicode="3" glyph-name="gid134" horiz-adv-x="1163" d="M552-27Q444-27 348,15T181.5,134T80,316l233,63q25-86 91.5-132.5T551,201q71,0 127,33t88,89.5T798,450q0,107-69,179T551,701q-33,0-64.5-9T426,667L316,857l484,414l21-58H136v227h883V1212L630,838l-2,71q131-9 223.5-73t142-165T1043,450q0-136-66.5-244T798.5,35.5T552-27Z" />
      <glyph unicode="4" glyph-name="gid135" horiz-adv-x="1217" d="M738,0V238H100V463l461,977H836L375,463H738V838H982V463h135V238H982V0H738Z" />
      <glyph unicode="5" glyph-name="gid136" horiz-adv-x="1172" d="M567-30Q457-30 362,15.5T198.5,141T100,327l232,62q14-58 51.5-100t88-65T576,201q70,0 128,34t92,91.5T830,454T795.5,581.5t-92.5,91T576,706q-83,0-137.5-30T355,612L149,678l44,762H975V1214H322l90,85L380,769l-44,54q56,51 130,76t143,25q135,0 239.5-61.5t164-167.5T1072,454t-70-244.5T817.5,35T567-30Z" />
      <glyph unicode="6" glyph-name="gid137" horiz-adv-x="1243" d="M638-30Q497-30 384.5,36.5T206,221T140,492V930q0,164 65.5,285t184,187T665,1468q109,0 207-36.5T1046,1315L872,1146q-38,45-92.5,71T665,1243q-84,0-147-39.5T420.5,1100T386,963V724l-44,48q62,72 149,112.5T673,925q136,0 240-61.5t164-168T1137,453q0-135-68.5-244.5T887,34.5T638-30Zm0,231q70,0 128,33.5t92.5,91T893,453T859,581t-91.5,92.5T640,708T512,673.5T420,581T386,453q0-68 33.5-125.5t91-92T638,201Z" />
      <glyph unicode="7" glyph-name="gid138" horiz-adv-x="1067" d="M213,0L709,1212H80v228H967V1212L473,0H213Z" />
      <glyph unicode="8" glyph-name="gid139" horiz-adv-x="1225" d="M611-30Q468-30 357,28T183,189T120,425q0,119 55,221T336,809l-5-77q-83,63-128.5,145.5T157,1063q0,124 58.5,215T376,1419.5T611,1470t235.5-50.5t161-141.5t58.5-215q0-103-43.5-185T891,730l-1,78q104-59 159.5-161.5T1105,425q0-133-63.5-236T866.5,28T611-30Zm0,227q106,0 172.5,58T850,425T784,595.5T611,654q-106,0-171-58.5T375,425t65-170t171-58Zm0,686q89,0 144.5,44.5T811,1063t-55.5,135.5T611,1243q-88,0-143.5-44.5T412,1063t55.5-135.5T611,883Z" />
      <glyph unicode="9" glyph-name="gid140" horiz-adv-x="1243" d="M605,1468q141,0 254-66.5t178.5-184T1103,947V508q0-163-65.5-284.5T854,36T578-30Q469-30 372,7.5T198,123L371,292q39-45 93.5-70.5T578,196q84,0 147,39.5t98,103T858,475V714l43-48q-61-72-148-112.5T570,513q-135,0-239.5,62t-164,168.5T107,985t68,244.5t181.5,174T605,1468Zm0-230q-70,0-128-34t-92-91.5T351,985t33.5-128t91-92T603,731t128,34t92.5,92T858,985q0,68-34,125.5T732.5,1203T605,1238Z" />
      <glyph unicode=":" glyph-name="gid177" horiz-adv-x="685" d="M220,130V377H467V130H220Zm2,573V950H469V703H222Z" />
      <glyph unicode=";" glyph-name="gid178" horiz-adv-x="687" d="M220-255l14,104q46-4 73,15.5t36.5,55T348,0H220V257H467V-10q0-131-62-198T220-255Zm0,1088v247H467V833H220Z" />
      <glyph unicode="&lt;" glyph-name="gid248" horiz-adv-x="1275" d="M760,150L280,630l480,480L910,961L568,630L910,299L760,150Z" />
      <glyph unicode="=" glyph-name="gid246" horiz-adv-x="1500" d="M240,814v189H1260V814H240Zm0-377V626H1260V437H240Z" />
      <glyph unicode="&gt;" glyph-name="gid247" horiz-adv-x="1275" d="M514,150L365,299L706,630L365,961l149,149L995,630L514,150Z" />
      <glyph unicode="?" glyph-name="gid182" horiz-adv-x="1106" d="M401,391q0,69 13.5,133.5T459,644q27,53 60,84.5t74,63T684,876q41,45 54,89.5t13,95.5q0,33-7,62t-25,50q-28,37-72,52.5T553,1241q-41,0-78.5-10.5T411,1198q-30-24-44-59t-13-77H100q10,100 54.5,185.5T272,1384q57,42 128.5,63T544,1468q110,0 207.5-34T914,1322q45-51 68.5-118t23.5-136q0-103-44.5-188T849,723q-32-34-61-60t-53.5-50.5T694,561q-28-47-33-79.5T656,391H401ZM403,0V265H656V0H403Z" />
      <glyph unicode="@" glyph-name="gid259" horiz-adv-x="1827" d="M911-210q-166,0-303.5,53.5t-238,151T214.5,224T160,512q0,194 58.5,340t162,243.5t238,146T903,1290q191,0 335-58t240-158.5T1621.5,844T1667,572q-3-196-77-304T1346,160q-81,0-154.5,38T1090,309l63-1q-43-79-115-110.5T891,166q-106,0-187,46.5T576.5,342T530,535q0,113 48.5,196T710,859t185,45q65,0 136-26.5T1141,806l-41-54V876h148l-3-377q0-77 27-112.5t76-35.5q52,0 76,29t31.5,78t8.5,111q2,157-49.5,259.5T1280,991t-178.5,85T920,1101q-135,0-240.5-41.5T502,941T394,757T362,518q4-128 45-228T522,120.5T696.5,15T920-21q62,0 123.5,12T1158,25l63-178q-72-28-150.5-42.5T911-210Zm-6,567q68,0 115.5,39T1068,535q0,88-40,133.5T912,714q-91,0-135.5-48.5T732,535q0-83 45.5-130.5T905,357Z" />
      <glyph unicode="A" glyph-name="gid1" horiz-adv-x="1341" d="M40,0L494,1440H847L1301,0H1053L641,1292h54L288,0H40ZM293,312V537h756V312H293Z" />
      <glyph unicode="B" glyph-name="gid10" horiz-adv-x="1262" d="M140,0V1440H711q146,0 239.5-58.5t139-149.5t45.5-188q0-119-56.5-202T925,730v50q136-31 206.5-129T1202,428q0-128-49-224T1007.5,54T769,0H140ZM384,227H739q63,0 113,25.5t78.5,72T959,435q0,58-25,104t-73,73.5T746,640H384V227Zm0,638H708q52,0 93,20t65,59t24,96q0,75-48,125t-134,50H384V865Z" />
      <glyph unicode="C" glyph-name="gid11" horiz-adv-x="1477" d="M749-30Q533-30 379,64.5T142.5,328T60,720t82.5,392T379,1375.5T749,1470q249,0 415-124.5T1397,1010l-243-67q-42,141-143,220.5T749,1243q-145,0-241.5-65t-145-182.5T313,720q0-158 48.5-275.5T507,262t242-65q161,0 262,80t143,220l243-67q-67-211-233-335.5T749-30Z" />
      <glyph unicode="D" glyph-name="gid13" horiz-adv-x="1401" d="M140,0V1440H599q18,0 71.5-1t103.5-7q171-22 289.5-121.5T1243,1057t61-337t-61-337T1063.5,129.5T774,8Q725,2 671,1T599,0H140ZM385,227H599q30,0 76.5,2t82.5,9q102,19 166,91t94.5,175T1049,720q0,117-31,220t-95.5,173T758,1202q-36,8-82.5,9.5T599,1213H385V227Z" />
      <glyph unicode="E" glyph-name="gid15" horiz-adv-x="1170" d="M140,0V1440h930V1214H381V859H950V633H381V226h689V0H140Z" />
      <glyph unicode="F" glyph-name="gid20" horiz-adv-x="1047" d="M140,0V1440h867V1199H381V840H887V600H381V0H140Z" />
      <glyph unicode="G" glyph-name="gid21" horiz-adv-x="1464" d="M734-30Q594-30 471.5,19.5T256.5,165T112,400.5T60,720q0,236 88,403.5t241,257T734,1470q266,0 421.5-123.5T1366,1000l-246-39q-41,128-134,204.5T749,1242q-145,2-241-63T363.5,996T315,720t48-274.5T507.5,264T749,197q109-1 191,39.5t134,123T1144,566H890V755h510q2-16 3-47t1-37q0-204-80.5-362.5T1093,60T734-30Z" />
      <glyph unicode="H" glyph-name="gid22" horiz-adv-x="1443" d="M140,0V1440H381V834h682v606h240V0H1063V608H381V0H140Z" />
      <glyph unicode="I" glyph-name="gid23" horiz-adv-x="561" d="M160,0V1440H401V0H160Z" />
      <glyph unicode="J" glyph-name="gid28" horiz-adv-x="1001" d="M428-30Q263-30 153.5,56T0,288l238,57q11-61 64-105t117-44q42,0 89,22.5T578,291q14,32 16.5,76.5T597,471v969H841V471q0-67-0.5-117.5t-10-95T793,167Q734,65 639,17.5T428-30Z" />
      <glyph unicode="K" glyph-name="gid29" horiz-adv-x="1294" d="M140,0V1440H381V772l575,668h296L633,734L1294,0H988L381,672V0H140Z" />
      <glyph unicode="L" glyph-name="gid30" horiz-adv-x="1067" d="M160,0V1440H401V226h636V0H160Z" />
      <glyph unicode="M" glyph-name="gid31" horiz-adv-x="1710" d="M140,0V1440H357L855,420l498,1020h217V0H1345V923L903,0H807L366,923V0H140Z" />
      <glyph unicode="N" glyph-name="gid32" horiz-adv-x="1436" d="M140,0V1440H384L1052,425V1440h244V0H1052L384,1015V0H140Z" />
      <glyph unicode="O" glyph-name="gid34" horiz-adv-x="1499" d="M749-30Q533-30 379,64.5T142.5,328T60,720t82.5,392T379,1375.5T749,1470t370.5-94.5t237-263.5T1439,720t-82.5-392t-237-263.5T749-30Zm0,227q145-1 241.5,64t145,183T1184,720t-48.5,274.5T990.5,1176T749,1243q-145,1-241-64T363.5,996T315,720t48-274.5T507.5,264T749,197Z" />
      <glyph unicode="P" glyph-name="gid42" horiz-adv-x="1277" d="M140,0V1440H735q21,0 54-1.5t61-6.5q125-19 206.5-83t121-161.5T1217,971q0-118-40-215.5T1055.5,594T850,511q-28-4-61.5-6T735,503H381V0H140ZM381,728H725q20,0 45,2t46,8q60,15 94.5,53t49,86T974,971t-14.5,94.5t-49,86.5T816,1205q-21,6-46,7.5t-45,1.5H381V728Z" />
      <glyph unicode="Q" glyph-name="gid44" horiz-adv-x="1499" d="M1267-30L856,379l151,151l409-409L1267-30ZM749-30Q533-30 379,64.5T142.5,328T60,720t82.5,392T379,1375.5T749,1470t370.5-94.5t237-263.5T1439,720t-82.5-392t-237-263.5T749-30Zm0,227q145-1 241.5,64t145,183T1184,720t-48.5,274.5T990.5,1176T749,1243q-145,1-241-64T363.5,996T315,720t48-274.5T507.5,264T749,197Z" />
      <glyph unicode="R" glyph-name="gid45" horiz-adv-x="1320" d="M140,0V1440H735q21,0 54-1.5t61-6.5q125-19 206.5-83t121-161.5T1217,971q0-176-89-302.5T855,512l-103-9H381V0H140ZM967,0L683,586l245,54L1240,0H967ZM381,728H725q20,0 45,2t46,8q60,15 94.5,53t49,86T974,971t-14.5,94.5t-49,86.5T816,1205q-21,6-46,7.5t-45,1.5H381V728Z" />
      <glyph unicode="S" glyph-name="gid46" horiz-adv-x="1315" d="M673-30Q515-30 388.5,25t-208,157.5T77,426l250,38q32-128 131.5-198T688,196q77,0 145,24t110.5,70T986,403q0,30-10,55.5T946.5,504t-50,36.5T826,569L454,679q-48,14-103.5,37.5t-105,65t-81,106T133,1047q0,139 70.5,233.5t190,141.5T659,1468q148-1 264-50.5T1117,1274t110-227l-259-45q-16,76-61.5,129.5t-111,81.5T656,1243q-72,1-133.5-21.5t-99-64.5T386,1059q0-53 32-86.5t79.5-53T594,887l258-72q53-14 119-38t127-67t100.5-113T1238,419q0-112-46.5-196.5T1066,82T885.5-2T673-30Z" />
      <glyph unicode="T" glyph-name="gid47" horiz-adv-x="1213" d="M486,0V1214H20v226H1193V1214H727V0H486Z" />
      <glyph unicode="U" glyph-name="gid48" horiz-adv-x="1440" d="M720-30Q548-30 417.5,40t-204,197T140,535v903l244,2V541q0-81 27.5-145T486,287.5T594,220t126-23q67,0 127.5,23.5t107.5,68T1029,397t27,144v899h244V535q0-171-73.5-298t-204-197T720-30Z" />
      <glyph unicode="V" glyph-name="gid53" horiz-adv-x="1281" d="M464,0L10,1440H258L638,234l385,1206h248L817,0H464Z" />
      <glyph unicode="W" glyph-name="gid54" horiz-adv-x="1951" d="M444,0L23,1440H276L563,400L849,1438l253,2L1389,400l286,1040h253L1508,0H1270L975,1024L682,0H444Z" />
      <glyph unicode="X" glyph-name="gid55" horiz-adv-x="1311" d="M20,0L508,728L34,1440H329L657,933l325,507h297L805,728L1291,0H996L657,523L317,0H20Z" />
      <glyph unicode="Y" glyph-name="gid56" horiz-adv-x="1223" d="M490,0V590L0,1440H281L612,866l330,574h281L734,590V0H490Z" />
      <glyph unicode="Z" glyph-name="gid58" horiz-adv-x="1327" d="M100,0V33L810,1214H150v226H1227v-34L521,227h689V0H100Z" />
      <glyph unicode="[" glyph-name="gid198" horiz-adv-x="847" d="M280-424V1794H717V1580H494V-210H717V-424H280Z" />
      <glyph unicode="\" glyph-name="gid189" horiz-adv-x="866" d="M362,1440L746,0H504L120,1440H362Z" />
      <glyph unicode="]" glyph-name="gid199" horiz-adv-x="847" d="M567-424H130v214H353V1580H130v214H567V-424Z" />
      <glyph unicode="^" glyph-name="gid252" horiz-adv-x="1361" d="M211,990l479,481l482-480L1023,842L690,1183L360,841L211,990Z" />
      <glyph unicode="_" glyph-name="gid210" horiz-adv-x="1320" d="M0-244V-55H1320V-244H0Z" />
      <glyph unicode="`" glyph-name="gid272" horiz-adv-x="1077" d="M480,1595L326,1965H509l154-370H480Z" />
      <glyph unicode="a" glyph-name="gid59" horiz-adv-x="1152" d="M442-30Q325-30 244,14.5T121.5,133T80,296q0,78 26,140.5t80,108T326,619q65,21 152.5,38t190,31.5T883,720l-86-49q1,112-50,165T575,889q-73,0-141-34T339,738L119,807q40,137 152.5,220T575,1110q144,0 253.5-47T991,909q29-57 35-116.5t6-129.5V0H821V234l35-38Q783,79 685.5,24.5T442-30Zm48,192q82,0 140,29t92.5,71T769,341q19,46 21.5,105.5T793,543l74-22q-109-17-187-30T546,466.5T447,441q-42-15-71-35t-44.5-46T316,299q0-40 20-70.5T394.5,180T490,162Z" />
      <glyph unicode="b" glyph-name="gid67" horiz-adv-x="1232" d="M659-30Q501-30 394,45T233,249.5T179,540q0,163 54,292t158.5,203.5T650,1110q153,0 265.5-74.5t174.5-203T1152,540q0-162-61-291T919,45T659-30ZM138,0V1440H381V758H351V0H138ZM622,186q94,0 155,47t90.5,127.5T897,540q0,98-30,178.5t-93,128T614,894q-92,0-150-44.5t-85.5-124T351,540q0-105 27.5-185t87-124.5T622,186Z" />
      <glyph unicode="c" glyph-name="gid68" horiz-adv-x="1151" d="M609-30Q442-30 324,44.5T143.5,248T80,540q1,166 65.5,294.5t183.5,202T612,1110q184,0 311.5-92.5T1090,765L850,700q-28,87-93,135.5T609,884q-94,0-155-44.5T364,717T335,540q0-154 69-249t205-95q96,0 151.5,44T844,367l246-55Q1040,147 915,58.5T609-30Z" />
      <glyph unicode="d" glyph-name="gid70" horiz-adv-x="1234" d="M573-30Q424-30 313,45T141,249T80,540q0,164 61.5,292.5t174.5,203T582,1110q154,0 258.5-74.5T999,832t54-292q0-161-54-290.5T838,45T573-30Zm37,216q97,0 156.5,44.5t87,124.5T881,540q0,106-27.5,185.5T768,849.5T618,894q-97,0-160-47.5t-93-128T335,540q0-99 29.5-179.5T455,233t155-47ZM881,0V758H851v682h243V0H881Z" />
      <glyph unicode="e" glyph-name="gid72" horiz-adv-x="1204" d="M631-30Q467-30 343,41T149.5,238T80,528q0,177 68,307.5T337,1038t280,72q168,0 285.5-78.5T1077,810t43-337H881v88q-1,176-62,257T627,899q-148,0-220-91.5T335,540q0-164 72-254t210-90q89,0 153.5,39.5T870,350l238-72Q1046,132 916.5,51T631-30ZM259,473V655h743V473H259Z" />
      <glyph unicode="f" glyph-name="gid77" horiz-adv-x="756" d="M234,0V1097q0,41 3,90.5t17,98.5t51,89q46,51 99.5,70.5t105.5,22t91,2.5H736V1274H611q-69,0-102.5-34.5T475,1149V0H234ZM60,891v189H736V891H60Z" />
      <glyph unicode="g" glyph-name="gid78" horiz-adv-x="1232" d="M594-510q-90,0-172.5,28T273-401.5T165-275L387-165q31-59 87.5-87.5T595-281q75,0 134,26.5t91.5,78T851-48V259h30v821h211V-52q0-41-3.5-78.5T1077-204q-24-105-92-172.5T816.5-477T594-510ZM573-30Q424-30 313,45T141,249T80,540q0,164 61.5,292.5t174.5,203T582,1110q154,0 258.5-74.5T999,832t54-292q0-161-54-290.5T838,45T573-30Zm37,216q97,0 156.5,44.5t87,124.5T881,540q0,106-27.5,185.5T768,849.5T618,894q-97,0-160-47.5t-93-128T335,540q0-99 29.5-179.5T455,233t155-47Z" />
      <glyph unicode="h" glyph-name="gid79" horiz-adv-x="1251" d="M887,0V520q0,51-7,113T847.5,752.5t-76,94.5T635,884q-46,0-91-15t-81.5-51.5T404,717.5T382,555L239,616q0,138 53.5,250T450,1044.5T706,1111q120,0 198-40t124-102t68-132t28.5-132.5T1131,603V0H887ZM138,0V1440H353V682h29V0H138Z" />
      <glyph unicode="i" glyph-name="gid80" horiz-adv-x="561" d="M160,1244v221H401V1244H160ZM160,0V1080H401V0H160Z" />
      <glyph unicode="j" glyph-name="gid87" horiz-adv-x="577" d="M-20-480v226H31q88,0 125,41T193-92V1080H433V-200q0-131-76.5-205.5T144-480H-20ZM193,1244v221H433V1244H193Z" />
      <glyph unicode="k" glyph-name="gid88" horiz-adv-x="1076" d="M138,0l2,1440H384V560l395,520h301L661,540L1116,0H797L384,520V0H138Z" />
      <glyph unicode="l" glyph-name="gid89" horiz-adv-x="561" d="M160,0V1470H401V0H160Z" />
      <glyph unicode="m" glyph-name="gid90" horiz-adv-x="1798" d="M1437,0V656q0,111-55,173.5T1233,892q-58,0-104-26.5t-73-78T1029,665L922,728q-1,112 50.5,197.5T1112,1059t196,48q179,0 274.5-107.5T1678,717V0H1437ZM138,0V1080H351V745h30V0H138ZM789,0V653q0,113-55,176T584,892q-92,0-147.5-63T381,665L273,737q0,105 52,189t140.5,132.5T664,1107q121,0 202.5-51.5t122-140T1029,716V0H789Z" />
      <glyph unicode="n" glyph-name="gid91" horiz-adv-x="1251" d="M887,0V520q0,51-7,113T847.5,752.5t-76,94.5T635,884q-46,0-91-15t-81.5-51.5T404,717.5T382,555L239,616q0,138 53.5,250T450,1044.5T706,1111q120,0 198-40t124-102t68-132t28.5-132.5T1131,603V0H887ZM138,0V1080H353V745h29V0H138Z" />
      <glyph unicode="o" glyph-name="gid93" horiz-adv-x="1236" d="M617-30Q455-30 334,43T146.5,244.5T80,540q0,170 68,298t189,200t280,72q163,0 284-73t188-201.5T1156,540q0-168-67.5-296.5T900,42.5T617-30Zm0,226q144,0 214,96t70,248q0,157-71,250.5T617,884q-97,0-159.5-43.5T365,719.5T335,540q0-157 71.5-250.5T617,196Z" />
      <glyph unicode="p" glyph-name="gid101" horiz-adv-x="1232" d="M659-30Q501-30 394,45T233,249.5T179,540q0,163 54,292t158.5,203.5T650,1110q153,0 265.5-74.5t174.5-203T1152,540q0-162-61-291T919,45T659-30ZM138-480V1080H351V322h30V-480H138ZM622,186q94,0 155,47t90.5,127.5T897,540q0,98-30,178.5t-93,128T614,894q-92,0-150-44.5t-85.5-124T351,540q0-105 27.5-185t87-124.5T622,186Z" />
      <glyph unicode="q" glyph-name="gid103" horiz-adv-x="1234" d="M573-30Q424-30 313,45T141,249T80,540q0,164 61.5,292.5t174.5,203T582,1110q154,0 258.5-74.5T999,832t54-292q0-161-54-290.5T838,45T573-30Zm37,216q97,0 156.5,44.5t87,124.5T881,540q0,106-27.5,185.5T768,849.5T618,894q-97,0-160-47.5t-93-128T335,540q0-99 29.5-179.5T455,233t155-47ZM851-480V322h30v758h213V-480H851Z" />
      <glyph unicode="r" glyph-name="gid104" horiz-adv-x="798" d="M140,0V1080H353V817l-26,34q20,54 53.5,98.5T461,1023q40,27 88.5,42.5t99.5,19t99-4.5V855q-48,14-110.5,9T525,829q-50-27-81.5-69T397,664.5T382,549V0H140Z" />
      <glyph unicode="s" glyph-name="gid105" horiz-adv-x="1083" d="M557-30Q357-30 232,60T80,313l246,38q19-80 84-126t164-46q87,0 134.5,34.5T756,308q0,37-17.5,59.5T662,411T481,464q-136,36-216,77.5T150,640T115,778q0,101 53,176t148,115.5T540,1110q126,0 223.5-39T921,960t74-169L749,747q-9,69-62.5,109T544,901q-85,5-137-25.5T355,790q0-31 21-53t84.5-44T650,639q129-33 206.5-75.5T968.5,462T1003,319q0-163-118.5-256T557-30Z" />
      <glyph unicode="t" glyph-name="gid107" horiz-adv-x="866" d="M773,0Q666-20 563.5-17.5T380,20.5T257,133q-37,70-39,143t-2,165v939H456V455q0-65 1.5-114T478,261q36-60 115-67t180,8V0ZM20,891v189H773V891H20Z" />
      <glyph unicode="u" glyph-name="gid108" horiz-adv-x="1251" d="M545-31Q425-31 347,9T223,111T155,243T126.5,375.5T120,477v603H364V560q0-50 7-112.5t32.5-120t76-94.5T616,196q46,0 91,15t81.5,51.5T847,363t22,162l143-61q0-138-53.5-250T801,35.5T545-31ZM898,0V335H869v745h242V0H898Z" />
      <glyph unicode="v" glyph-name="gid113" horiz-adv-x="1106" d="M432,0L40,1080H281L553,297l271,783h242L674,0H432Z" />
      <glyph unicode="w" glyph-name="gid114" horiz-adv-x="1605" d="M370,0L40,1082l236-2L487,387l214,693H904l213-693l212,693h236L1235,0H1047L802,743L558,0H370Z" />
      <glyph unicode="x" glyph-name="gid115" horiz-adv-x="1108" d="M20,0L415,546L28,1080H312L555,735l239,345h284L691,546L1088,0H804L555,357L304,0H20Z" />
      <glyph unicode="y" glyph-name="gid116" horiz-adv-x="1119" d="M282-480L490,91l4-168L23,1080H274L608,224H544l325,856h241L508-480H282Z" />
      <glyph unicode="z" glyph-name="gid119" horiz-adv-x="1067" d="M40,0V33L612,869H98v211H987v-34L417,211H963V0H40Z" />
      <glyph unicode="{" glyph-name="gid196" horiz-adv-x="898" d="M680-424q-129,0-204.5,75T400-144V457q0,22-12,38L299,621q-19,29-19,64t19,64l89,126q12,20 12,38v601q0,129 75.5,204.5T680,1794H816V1567H697q-29,0-49.5-20.5T627,1497V913q0-93-54-170l-43-58l43-58q54-78 54-170V-128q0-29 20.5-49.5T697-198H816V-424H680Z" />
      <glyph unicode="|" glyph-name="gid267" horiz-adv-x="601" d="M180,0V1440H421V0H180Z" />
      <glyph unicode="}" glyph-name="gid197" horiz-adv-x="898" d="M218-424H82v226H201q29,0 49.5,20.5T271-128V457q0,92 54,170l43,58l-43,58q-54,77-54,170v584q0,29-20.5,49.5T201,1567H82v227H218q129,0 204.5-75.5T498,1514V913q0-18 12-38l89-126q20-29 20-64t-20-64L510,495q-12-16-12-38V-144q0-130-75.5-205T218-424Z" />
      <glyph unicode="~" glyph-name="gid250" horiz-adv-x="1432" d="M950,409q-66,0-127.5,29.5T705.5,507T601,576t-90,30q-46,0-62.5-46.5T451,446H237q-28,114-10,205.5t81,146T480,852q67,0 128.5-29.5t117.5-69t104.5-69T921,655q44,0 61,46t-1,114h214q27-113 9.5-204.5T1124,464T950,409Z" />
      <glyph unicode="&#xa0;" glyph-name="gid232" horiz-adv-x="400" />
      <glyph unicode="&#xa1;" glyph-name="gid181" horiz-adv-x="721" d="M240,1080H481V859H240v221Zm0-360H481V-360H240V720Z" />
      <glyph unicode="&#xa2;" glyph-name="gid235" horiz-adv-x="1151" d="M526-58V125q-142,19-241.5,96.5T133,419.5T80,690q1,150 54.5,270.5t153,197T526,1253v187H715V1251q144-24 243-111.5T1090,915L850,850q-28,87-93,135.5T609,1034q-94,0-155-44.5T364,867T335,690q0-154 69-249t205-95q96,0 151.5,44T844,517l246-55q-43-140-139.5-224.5T715,129V-58H526Z" />
      <glyph unicode="&#xa3;" glyph-name="gid239" horiz-adv-x="1142" d="M77,0V226h27q61,0 104.5,45T252,375v710q0,110 54.5,197.5t147,137.5T660,1470q104,0 181-46.5t132-129t92-189.5l-216-71q-29,98-73,153.5T659,1243t-117.5-47.5T497,1073l-1-847H971V0H77Zm0,609V836H800V609H77Z" />
      <glyph unicode="&#xa4;" glyph-name="gid236" horiz-adv-x="1341" d="M670,196q-108,0-203,41T300,350.5T187,518T146,722q0,108 41,203t113,167t167,113t203,41q109,0 204-41t167.5-113T1155,925t41-203q0-109-41-204T1041.5,350.5T874,237T670,196ZM220,110L60,270L304,514L465,354L220,110Zm84,815L60,1169l160,161l244-244L304,925Zm817-815L877,354l160,160l244-244L1121,110ZM670,400q89,0 161.5,44t116,116.5T991,720q0,89-44,161.5T830,997t-160,43q-88,0-160.5-43t-116-116T350,720q0-87 43.5-159.5T509.5,444T670,400Zm368,526L877,1086l244,244l160-161L1038,926Z" />
      <glyph unicode="&#xa5;" glyph-name="gid240" horiz-adv-x="1223" d="M202,524V713h820V524H202Zm0-327V386h820V197H202ZM490,0V590L0,1440H281L612,866l330,574h281L734,590V0H490Z" />
      <glyph unicode="&#xa6;" glyph-name="gid268" horiz-adv-x="601" d="M180,625v815H421V625H180Zm0-1033V407H421V-408H180Z" />
      <glyph unicode="&#xa7;" glyph-name="gid262" horiz-adv-x="1083" d="M557-280q-113,0-208.5,36.5T188.5-131T103,63l246,38q13-58 47-96t80.5-57T572-71q42,0 79.5,14t61,42.5T736,58q0,43-26.5,67.5t-87,43.5T461,214q-120,31-201.5,70.5t-123,94T95,511q0,100 59,162t148.5,90T484,789l20-98q-81-25-125-59.5T335,545q0-46 35.5-70.5t102-42.5T630,389q115-31 194-69.5T943,223T983,73q0-115-56-193.5t-152-119T557-280Zm54,547l-7,96q38,8 74,29.5t58.5,55T759,525q0,43-26,67.5T646.5,636T484,681q-119,31-200.5,69.5T160.5,847T119,995q0,114 59,187.5t150.5,109T518,1327q101,0 192-37t152.5-108T938,1008L692,964q-9,54-33.5,88T596,1102.5T509,1119q-41,0-75.5-12t-55-36T358,1012q0-47 37.5-72t104-42.5T653,856q115-32 193.5-69.5t119-94.5T1006,546q0-100-48.5-166.5t-137-96T611,267Z" />
      <glyph unicode="&#xa8;" glyph-name="gid271" horiz-adv-x="1113" d="M653,1607v220H873V1607H653Zm-413,0v220H460V1607H240Z" />
      <glyph unicode="&#xa9;" glyph-name="gid263" horiz-adv-x="1773" d="M886-118q-171,0-321,64T301.5,123.5T124,387T60,708t64.5,321T302,1292.5T565,1470t321,64q172,0 321.5-64t263-177.5t178-263T1713,708q0-171-64.5-321t-178-263.5T1207.5-54T886-118Zm16,400q-100,0-172,31.5T602,415q-52,66-75,139.5T504,709q0,84 24.5,157.5T602,1000q55,68 129,101.5T911,1135q56,0 103.5-11t97.5-42q54-33 94-85t56-122l-184-50q-8,28-24.5,53.5T1012,925q-24,20-52.5,29T901,963q-49,0-86.5-19.5T749,890q-29-37-39.5-84.5T699,709q0-50 11.5-96.5T749,529q26-36 64.5-55T904,455q72,0 111,35q23,21 36,42.5t23,48.5l188-40q-18-58-51-107.5T1131,349q-45-33-99-50T902,282ZM886,108q125,0 233.5,46.5t191,129t129,191.5T1486,708q0,125-46.5,233.5t-129,191t-191,129T886,1308q-124,0-233-46.5t-191.5-129t-129-191T286,708q0-124 46.5-233t129-191.5T653,154.5T886,108Z" />
      <glyph unicode="&#xaa;" glyph-name="gid125" horiz-adv-x="640" d="M261,540q-88,0-134.5,48.5T80,703q0,58 28,99t93,64q46,16 118,27t161,24l-46-29q1,54-23,79.5T329,993q-34,0-67-16t-46-55L99,959q20,68 77,109.5T329,1110q71,0 126.5-22.5T538,1011q15-29 18.5-59t3.5-66V555H447V669l17-22q-38-56-85-81.5T261,540Zm26,102q59,0 91.5,29T419,722q11,23 12,53t1,48l39-11q-86-14-130.5-22T266,772q-30-12-45-28t-15-39q0-29 21-46t60-17Z" />
      <glyph unicode="&#xab;" glyph-name="gid220" horiz-adv-x="1172" d="M920,97L568,540L920,983l129-101L777,540l272-342L920,97ZM512,97L160,540L512,983L641,882L368,540L641,198L512,97Z" />
      <glyph unicode="&#xac;" glyph-name="gid251" horiz-adv-x="1200" d="M891,372V606H120V795h960V372H891Z" />
      <glyph unicode="&#xad;" glyph-name="gid207" horiz-adv-x="840" d="M120,536V725H720V536H120Z" />
      <glyph unicode="&#xae;" glyph-name="gid264" horiz-adv-x="1310" d="M654,546q-106,0-199,40T291,697T180,861.5T140,1062q0,106 40,199t111,163.5t164,111T654,1576q107,0 200-40.5t164.5-111T1130,1261t40-199q0-107-40-200.5T1018.5,697T854,586T654,546Zm2,160q97,0 177.5,48.5T962.5,884t48.5,178q0,98-48.5,178.5T833.5,1369T656,1417q-99,0-179.5-48t-128-128.5T301,1062q0-97 47.5-178t128-129.5T656,706ZM489,826v473H690q74,0 116.5-43T851,1143q0-43-20.5-79.5T768,1004l88-178H758L679,988H576V826H489Zm87,243H693q30,0 49.5,21t19.5,53q0,35-18,54t-51,19H576V1069Z" />
      <glyph unicode="&#xaf;" glyph-name="gid277" horiz-adv-x="1013" d="M240,1680v187H773V1680H240Z" />
      <glyph unicode="&#xb0;" glyph-name="gid266" horiz-adv-x="900" d="M420,750q-99,0-181,48.5t-130.5,130T60,1110q0,98 50,180t132,131t178,49q99,0 180.5-48.5t130.5-130T780,1110T731,928.5t-130.5-130T420,750Zm0,206q42,0 77,21t56,56t21,77t-21,77t-56,56t-77,21t-77-21t-56-56t-21-77t21-77t56-56t77-21Z" />
      <glyph unicode="&#xb1;" glyph-name="gid249" horiz-adv-x="1200" d="M506,440V666H120V855H506v225H695V855h385V666H695V440H506ZM120,129V318h960V129H120Z" />
      <glyph unicode="&#xb2;" glyph-name="gid163" horiz-adv-x="824" d="M100,540V676l384,342q44,40 61.5,75t17.5,66q0,67-40.5,111T416,1314q-46,0-81-21t-55-56t-18-76H101q0,91 40,158t112,104t166,37q87,0 156-38.5t109-107T724,1157q0-65-18-108.5T652.5,968T565,886L295,645l-16,42H724V540H100Z" />
      <glyph unicode="&#xb3;" glyph-name="gid164" horiz-adv-x="808" d="M378,518q-102,0-185.5,59T80,736l151,41q16-55 57-83t90-27q65,0 108,44t43,108q0,65-42.5,109T377,972q-20,0-39.5-5.5T301,952l-72,122l304,260l16-42H116v148H674V1292L430,1058l-2,49q82-7 140.5-47.5t89-103.5T688,819q0-87-42-155T533,557T378,518Z" />
      <glyph unicode="&#xb4;" glyph-name="gid273" horiz-adv-x="1077" d="M597,1595H414l154,370H751L597,1595Z" />
      <glyph unicode="&#xb5;" glyph-name="gid253" horiz-adv-x="1269" d="M138-480V1080H382V560q0-50 7.5-112.5t32.5-120T497.5,233T635,196q45,0 90,15t81.5,51.5T865,363t22,162v555h242V0H916V122Q858,50 769,9.5T563-31q-65,0-118,15.5T351,28V-480H138Z" />
      <glyph unicode="&#xb6;" glyph-name="gid261" horiz-adv-x="1430" d="M673-282V503H579q-9,0-42.5,1T463,511q-122,18-203.5,82t-122,162T97,971t39.5,215.5t121,162.5T463,1432q40,6 73,7t43,1H914V-282H673Zm420,0V1440h241V-282H1093Z" />
      <glyph unicode="&#xb7;" glyph-name="gid184" horiz-adv-x="533" d="M270,483q-63,0-106.5,42T120,630t43.5,105T270,777q58,0 100.5-42T413,630T370.5,525T270,483Z" />
      <glyph unicode="&#xb8;" glyph-name="gid278" horiz-adv-x="827" d="M378-483q-40,0-74.5,10.5T240-447l53,143q41-14 64-14q30,0 46.5,17.5T420-264q0,39-39,57t-92,33L360,31l146,1L466-84q58-28 90-74t32-111q0-95-62.5-154.5T378-483Z" />
      <glyph unicode="&#xb9;" glyph-name="gid162" horiz-adv-x="688" d="M289,540v731L120,1167v172l169,101H448V540H289Z" />
      <glyph unicode="&#xba;" glyph-name="gid126" horiz-adv-x="703" d="M351,540q-122,0-196.5,80T80,825q0,127 75.5,206T351,1110q122,0 197-80t75-205q0-126-75-205.5T351,540Zm-1,120q69,0 103,46t34,119q0,75-34,120T351,990q-70,0-102.5-45.5T216,825q0-76 34-120.5T350,660Z" />
      <glyph unicode="&#xbb;" glyph-name="gid221" horiz-adv-x="1172" d="M252,97L123,198L396,540L123,882L252,983L604,540L252,97Zm408,0L532,198L804,540L532,882L660,983l352-443L660,97Z" />
      <glyph unicode="&#xbc;" glyph-name="gid173" horiz-adv-x="2071" d="M289,540v731L120,1167v172l169,101H448V540H289ZM1590,0V146H1193V293l287,607h179L1371,293h219V524h157V293h84V146h-84V0H1590ZM523,0L383,105l985,1347l141-107L523,0Z" />
      <glyph unicode="&#xbd;" glyph-name="gid172" horiz-adv-x="2028" d="M289,540v731L120,1167v172l169,101H448V540H289ZM1304,0V136l383,342q44,40 62,75t18,66q0,67-40.5,111T1620,774q-46,0-81.5-21t-55-56T1465,621H1305q0,91 40,158.5t112,104T1623,920q87,0 156-38.5t109-107T1928,617q0-65-18-108.5T1856.5,428T1769,346L1499,105l-16,42h445V0H1304ZM523,0L383,105l985,1347l141-107L523,0Z" />
      <glyph unicode="&#xbe;" glyph-name="gid174" horiz-adv-x="2056" d="M378,518q-102,0-185.5,59T80,736l151,41q16-55 57-83t90-27q65,0 108,44t43,108q0,65-42.5,109T377,972q-20,0-39.5-5.5T301,952l-72,122l304,260l16-42H116v148H674V1292L430,1058l-2,49q82-7 140.5-47.5t89-103.5T688,819q0-87-42-155T533,557T378,518ZM1695,0V146H1298V293l287,607h179L1476,293h219V524h157V293h84V146h-84V0H1695ZM644,0L503,105l986,1347l140-107L644,0Z" />
      <glyph unicode="&#xbf;" glyph-name="gid183" horiz-adv-x="1106" d="M705,689q0-69-13-133.5T647,436q-26-53-59-84.5t-74-63T422,204q-39-45-53-89T355,19q0-33 7.5-61.5T387-93q28-37 72.5-52.5T553-161q42,0 80,10.5T696-118q30,24 44,59.5T752,18h254q-10-99-54-185T834-304q-57-41-128.5-62.5T562-388q-110,0-207.5,34T192-242q-44,51-68,118.5T100,12q0,103 44.5,188.5T257,357q32,34 61,60t53.5,50.5T413,519q28,47 32.5,80t4.5,90H705Zm-1,391V815H450v265H704Z" />
      <glyph unicode="&#xc0;" glyph-name="gid6" horiz-adv-x="1341" d="M555,1595L400,1965H583l155-370H555ZM1301,0H1053L647,1292h53L288,0H40L494,1440H847L1301,0ZM1048,312H292V537h756V312Z" />
      <glyph unicode="&#xc1;" glyph-name="gid2" horiz-adv-x="1341" d="M787,1595H604l154,370H941L787,1595ZM40,0L494,1440H847L1301,0H1053L641,1292h54L288,0H40ZM293,312V537h756V312H293Z" />
      <glyph unicode="&#xc2;" glyph-name="gid4" horiz-adv-x="1341" d="M294,1595l273,315H769l274-315H818L668,1773L519,1595H294ZM40,0L494,1440H847L1301,0H1053L641,1292h54L288,0H40ZM293,312V537h756V312H293Z" />
      <glyph unicode="&#xc3;" glyph-name="gid8" horiz-adv-x="1341" d="M838,1650q-47,0-90.5,21T664,1719.5T589.5,1768T526,1789q-32,0-43.5-32.5T484,1677H332q-29,120 13.5,203.5T505,1964q47,0 90.5-21t83-48.5T753,1846t64-21q31,0 43.5,32.5T859,1938h152q30-119-13-203.5T838,1650ZM40,0L494,1440H847L1301,0H1053L641,1292h54L288,0H40ZM293,312V537h756V312H293Z" />
      <glyph unicode="&#xc4;" glyph-name="gid5" horiz-adv-x="1341" d="M768,1607v220H988V1607H768Zm-413,0v220H575V1607H355ZM40,0L494,1440H847L1301,0H1053L641,1292h54L288,0H40ZM293,312V537h756V312H293Z" />
      <glyph unicode="&#xc5;" glyph-name="gid7" horiz-adv-x="1341" d="M671,1552q-70,0-128.5,34.5t-93.5,93T414,1809t35,129.5t93.5,93T671,2066q72,0 130-34.5t93-93T929,1809t-35-129.5t-93-93T671,1552Zm1,147q46,0 78,32.5t32,77.5q0,46-32,78t-78,32q-45,0-77.5-32T562,1809q0-45 32.5-77.5T672,1699ZM40,0L494,1440H847L1301,0H1053L641,1292h54L288,0H40ZM293,312V537h756V312H293Z" />
      <glyph unicode="&#xc6;" glyph-name="gid9" horiz-adv-x="1877" d="M40,0L494,1440H928V1214H587l107,79L288,0H40ZM293,312V537h740V312H293ZM847,0V1440h930V1214H1087V859h570V633H1087V226h690V0H847Z" />
      <glyph unicode="&#xc7;" glyph-name="gid12" horiz-adv-x="1477" d="M728-483q-41,0-75,10.5T589-447l53,143q41-14 65-14q30,0 46,17.5T769-264q0,39-39,57t-92,33L709,31l146,1L815-84q58-28 90-74t32-111q0-95-62.5-154.5T728-483ZM749-30Q533-30 379,64.5T142.5,328T60,720t82.5,392T379,1375.5T749,1470q249,0 415-124.5T1397,1010l-243-67q-42,141-143,220.5T749,1243q-145,0-241.5-65t-145-182.5T313,720q0-158 48.5-275.5T507,262t242-65q161,0 262,80t143,220l243-67q-67-211-233-335.5T749-30Z" />
      <glyph unicode="&#xc8;" glyph-name="gid19" horiz-adv-x="1170" d="M534,1595L380,1965H563l154-370H534ZM140,0V1440h930V1214H381V859H950V633H381V226h689V0H140Z" />
      <glyph unicode="&#xc9;" glyph-name="gid16" horiz-adv-x="1170" d="M723,1595H541l154,370H878L723,1595ZM140,0V1440h930V1214H381V859H950V633H381V226h689V0H140Z" />
      <glyph unicode="&#xca;" glyph-name="gid17" horiz-adv-x="1170" d="M217,1595l274,315H693l273-315H741L592,1773L442,1595H217ZM140,0V1440h930V1214H381V859H950V633H381V226h689V0H140Z" />
      <glyph unicode="&#xcb;" glyph-name="gid18" horiz-adv-x="1170" d="M695,1607v220H915V1607H695Zm-413,0v220H502V1607H282ZM140,0V1440h930V1214H381V859H950V633H381V226h689V0H140Z" />
      <glyph unicode="&#xcc;" glyph-name="gid27" horiz-adv-x="561" d="M185,1595L31,1965H214l154-370H185ZM160,0V1440H401V0H160Z" />
      <glyph unicode="&#xcd;" glyph-name="gid24" horiz-adv-x="561" d="M375,1595H192l155,370H530L375,1595ZM160,0V1440H401V0H160Z" />
      <glyph unicode="&#xce;" glyph-name="gid25" horiz-adv-x="561" d="M-97,1595l273,315H378l273-315H426L277,1773L128,1595H-97ZM160,0V1440H401V0H160Z" />
      <glyph unicode="&#xcf;" glyph-name="gid26" horiz-adv-x="561" d="M377,1607v220H597V1607H377Zm-413,0v220H184V1607H-36ZM160,0V1440H401V0H160Z" />
      <glyph unicode="&#xd0;" glyph-name="gid14" horiz-adv-x="1404" d="M20,626V815H695V626H20ZM143,0V1440H602q18,0 71.5-1t103.5-7q171-22 289.5-121.5T1246,1057t61-337t-61-337T1066.5,129.5T777,8Q728,2 674,1T602,0H143ZM388,227H602q30,0 76.5,2t82.5,9q102,19 166,91t94.5,175T1052,720q0,117-31,220t-95.5,173T761,1202q-36,8-82.5,9.5T602,1213H388V227Z" />
      <glyph unicode="&#xd1;" glyph-name="gid33" horiz-adv-x="1436" d="M907,1600q-48,0-91,21t-83,48.5T658.5,1718T595,1739q-33,0-44-32.5t1-79.5H400q-28,120 14.5,203.5T573,1914q48,0 91.5-21t83-48.5t74-48.5t64.5-21q31,0 43.5,32.5T928,1888h152q30-119-13-203.5T907,1600ZM140,0V1440H384L1052,425V1440h244V0H1052L384,1015V0H140Z" />
      <glyph unicode="&#xd2;" glyph-name="gid38" horiz-adv-x="1499" d="M636,1595L482,1965H664l155-370H636ZM749-30Q533-30 379,64.5T142.5,328T60,720t82.5,392T379,1375.5T749,1470t370.5-94.5t237-263.5T1439,720t-82.5-392t-237-263.5T749-30Zm0,227q145-1 241.5,64t145,183T1184,720t-48.5,274.5T990.5,1176T749,1243q-145,1-241-64T363.5,996T315,720t48-274.5T507.5,264T749,197Z" />
      <glyph unicode="&#xd3;" glyph-name="gid35" horiz-adv-x="1499" d="M851,1595H668l154,370h183L851,1595ZM749-30Q533-30 379,64.5T142.5,328T60,720t82.5,392T379,1375.5T749,1470t370.5-94.5t237-263.5T1439,720t-82.5-392t-237-263.5T749-30Zm0,227q145-1 241.5,64t145,183T1184,720t-48.5,274.5T990.5,1176T749,1243q-145,1-241-64T363.5,996T315,720t48-274.5T507.5,264T749,197Z" />
      <glyph unicode="&#xd4;" glyph-name="gid36" horiz-adv-x="1499" d="M372,1595l273,315H847l273-315H895L746,1773L597,1595H372ZM749-30Q533-30 379,64.5T142.5,328T60,720t82.5,392T379,1375.5T749,1470t370.5-94.5t237-263.5T1439,720t-82.5-392t-237-263.5T749-30Zm0,227q145-1 241.5,64t145,183T1184,720t-48.5,274.5T990.5,1176T749,1243q-145,1-241-64T363.5,996T315,720t48-274.5T507.5,264T749,197Z" />
      <glyph unicode="&#xd5;" glyph-name="gid40" horiz-adv-x="1499" d="M749-30Q533-30 379,64.5T142.5,328T60,720t82.5,392T379,1375.5T749,1470t370.5-94.5t237-263.5T1439,720t-82.5-392t-237-263.5T749-30Zm0,227q145-1 241.5,64t145,183T1184,720t-48.5,274.5T990.5,1176T749,1243q-145,1-241-64T363.5,996T315,720t48-274.5T507.5,264T749,197ZM929,1600q-47,0-90.5,21T755,1669.5T680.5,1718T617,1739q-32,0-43.5-32.5T575,1627H423q-29,120 13.5,203.5T596,1914q47,0 90.5-21t83-48.5T844,1796t64-21q31,0 43.5,32.5T950,1888h152q30-119-13-203.5T929,1600Z" />
      <glyph unicode="&#xd6;" glyph-name="gid37" horiz-adv-x="1499" d="M846,1607v220h220V1607H846Zm-413,0v220H653V1607H433ZM749-30Q533-30 379,64.5T142.5,328T60,720t82.5,392T379,1375.5T749,1470t370.5-94.5t237-263.5T1439,720t-82.5-392t-237-263.5T749-30Zm0,227q145-1 241.5,64t145,183T1184,720t-48.5,274.5T990.5,1176T749,1243q-145,1-241-64T363.5,996T315,720t48-274.5T507.5,264T749,197Z" />
      <glyph unicode="&#xd7;" glyph-name="gid244" horiz-adv-x="1013" d="M760,334L507,588L253,334L120,468L373,721L121,973l134,133L507,855l252,251L892,973L640,721L893,468L760,334Z" />
      <glyph unicode="&#xd8;" glyph-name="gid39" horiz-adv-x="1499" d="M250-26L80,125L245,311l32,29l800,894l13,21l188,210l170-153l-205-229l-24-17L418,169l-16-25L250-26Zm499-4Q533-30 379,64.5T142.5,328T60,720t82.5,392T379,1375.5T749,1470t370.5-94.5t237-263.5T1439,720t-82.5-392t-237-263.5T749-30Zm0,227q145-1 241.5,64t145,183T1184,720t-48.5,274.5T990.5,1176T749,1243q-145,1-241-64T363.5,996T315,720t48-274.5T507.5,264T749,197Z" />
      <glyph unicode="&#xd9;" glyph-name="gid52" horiz-adv-x="1440" d="M647,1595L492,1965H675l154-370H647ZM720-30Q548-30 417.5,40t-204,197T140,535v903l244,2V541q0-81 27.5-145T486,287.5T594,220t126-23q67,0 127.5,23.5t107.5,68T1029,397t27,144v899h244V535q0-171-73.5-298t-204-197T720-30Z" />
      <glyph unicode="&#xda;" glyph-name="gid49" horiz-adv-x="1440" d="M806,1595H623l154,370H960L806,1595ZM720-30Q548-30 417.5,40t-204,197T140,535v903l244,2V541q0-81 27.5-145T486,287.5T594,220t126-23q67,0 127.5,23.5t107.5,68T1029,397t27,144v899h244V535q0-171-73.5-298t-204-197T720-30Z" />
      <glyph unicode="&#xdb;" glyph-name="gid50" horiz-adv-x="1440" d="M342,1595l274,315H818l273-315H866L717,1773L567,1595H342ZM720-30Q548-30 417.5,40t-204,197T140,535v903l244,2V541q0-81 27.5-145T486,287.5T594,220t126-23q67,0 127.5,23.5t107.5,68T1029,397t27,144v899h244V535q0-171-73.5-298t-204-197T720-30Z" />
      <glyph unicode="&#xdc;" glyph-name="gid51" horiz-adv-x="1440" d="M817,1607v220h220V1607H817Zm-414,0v220H623V1607H403ZM720-30Q548-30 417.5,40t-204,197T140,535v903l244,2V541q0-81 27.5-145T486,287.5T594,220t126-23q67,0 127.5,23.5t107.5,68T1029,397t27,144v899h244V535q0-171-73.5-298t-204-197T720-30Z" />
      <glyph unicode="&#xdd;" glyph-name="gid57" horiz-adv-x="1223" d="M697,1595H514l155,370H852L697,1595ZM490,0V590L0,1440H281L612,866l330,574h281L734,590V0H490Z" />
      <glyph unicode="&#xde;" glyph-name="gid43" horiz-adv-x="1260" d="M140,0V1440H384V1189H727q74,0 147-24q66-21 124.5-61t99.5-97q48-60 74.5-135T1200,720q2-76-25-150t-74-133q-62-84-161-134T727,253H384V0H140ZM384,479H725q46,0 96,24.5T905,573q24,32 38,69.5T955,720q-1,44-16,86.5T894,880q-31,35-77,58t-92,23H384V479Z" />
      <glyph unicode="&#xdf;" glyph-name="gid106" horiz-adv-x="1268" d="M689-30q-63,0-106,7T503,0V236q30-11 67.5-20.5T655,206q114,0 183,55t69,166q0,119-89.5,174.5T585,658V869q63,4 108.5,27.5t70,64.5t24.5,99q0,88-61,136t-143,48q-56,0-103-22t-74-77q-13-26-19-66t-6-84V0H138V1061q0,41 4.5,74t14.5,64q30,96 94,155.5T401,1442t182,28q126,0 227.5-52t161-143.5T1031,1065q0-83-29.5-153T910,796q52-19 95-53.5t75-83t50-108T1148,424q0-211-118-332.5T689-30Z" />
      <glyph unicode="&#xe0;" glyph-name="gid63" horiz-adv-x="1152" d="M498,1235L343,1605H526l155-370H498ZM442-30Q325-30 244,14.5T121.5,133T80,296q0,78 26,140.5t80,108T326,619q65,21 152.5,38t190,31.5T883,720l-86-49q1,112-50,165T575,889q-73,0-141-34T339,738L119,807q40,137 152.5,220T575,1110q144,0 253.5-47T991,909q29-57 35-116.5t6-129.5V0H821V234l35-38Q783,79 685.5,24.5T442-30Zm48,192q82,0 140,29t92.5,71T769,341q19,46 21.5,105.5T793,543l74-22q-109-17-187-30T546,466.5T447,441q-42-15-71-35t-44.5-46T316,299q0-40 20-70.5T394.5,180T490,162Z" />
      <glyph unicode="&#xe1;" glyph-name="gid60" horiz-adv-x="1152" d="M686,1235H503l155,370H841L686,1235ZM442-30Q325-30 244,14.5T121.5,133T80,296q0,78 26,140.5t80,108T326,619q65,21 152.5,38t190,31.5T883,720l-86-49q1,112-50,165T575,889q-73,0-141-34T339,738L119,807q40,137 152.5,220T575,1110q144,0 253.5-47T991,909q29-57 35-116.5t6-129.5V0H821V234l35-38Q783,79 685.5,24.5T442-30Zm48,192q82,0 140,29t92.5,71T769,341q19,46 21.5,105.5T793,543l74-22q-109-17-187-30T546,466.5T447,441q-42-15-71-35t-44.5-46T316,299q0-40 20-70.5T394.5,180T490,162Z" />
      <glyph unicode="&#xe2;" glyph-name="gid61" horiz-adv-x="1152" d="M215,1235l274,315H691l273-315H739L590,1413L440,1235H215ZM442-30Q325-30 244,14.5T121.5,133T80,296q0,78 26,140.5t80,108T326,619q65,21 152.5,38t190,31.5T883,720l-86-49q1,112-50,165T575,889q-73,0-141-34T339,738L119,807q40,137 152.5,220T575,1110q144,0 253.5-47T991,909q29-57 35-116.5t6-129.5V0H821V234l35-38Q783,79 685.5,24.5T442-30Zm48,192q82,0 140,29t92.5,71T769,341q19,46 21.5,105.5T793,543l74-22q-109-17-187-30T546,466.5T447,441q-42-15-71-35t-44.5-46T316,299q0-40 20-70.5T394.5,180T490,162Z" />
      <glyph unicode="&#xe3;" glyph-name="gid65" horiz-adv-x="1152" d="M775,1240q-47,0-90.5,21t-83,48.5T527,1358t-64,21q-32,0-43.5-32.5T421,1267H269q-29,120 14,203.5T442,1554q47,0 90.5-21t83.5-48.5t74.5-48.5t63.5-21q32,0 44,32.5t-1,80.5H949q29-119-14-203.5T775,1240ZM442-30Q325-30 244,14.5T121.5,133T80,296q0,78 26,140.5t80,108T326,619q65,21 152.5,38t190,31.5T883,720l-86-49q1,112-50,165T575,889q-73,0-141-34T339,738L119,807q40,137 152.5,220T575,1110q144,0 253.5-47T991,909q29-57 35-116.5t6-129.5V0H821V234l35-38Q783,79 685.5,24.5T442-30Zm48,192q82,0 140,29t92.5,71T769,341q19,46 21.5,105.5T793,543l74-22q-109-17-187-30T546,466.5T447,441q-42-15-71-35t-44.5-46T316,299q0-40 20-70.5T394.5,180T490,162Z" />
      <glyph unicode="&#xe4;" glyph-name="gid62" horiz-adv-x="1152" d="M691,1247v220H911V1247H691Zm-413,0v220H498V1247H278ZM442-30Q325-30 244,14.5T121.5,133T80,296q0,78 26,140.5t80,108T326,619q65,21 152.5,38t190,31.5T883,720l-86-49q1,112-50,165T575,889q-73,0-141-34T339,738L119,807q40,137 152.5,220T575,1110q144,0 253.5-47T991,909q29-57 35-116.5t6-129.5V0H821V234l35-38Q783,79 685.5,24.5T442-30Zm48,192q82,0 140,29t92.5,71T769,341q19,46 21.5,105.5T793,543l74-22q-109-17-187-30T546,466.5T447,441q-42-15-71-35t-44.5-46T316,299q0-40 20-70.5T394.5,180T490,162Z" />
      <glyph unicode="&#xe5;" glyph-name="gid64" horiz-adv-x="1152" d="M589,1192q-70,0-128.5,34.5t-93.5,93T332,1449t35,129.5t93.5,93T589,1706q72,0 130-34.5t93-93T847,1449t-35-129.5t-93-93T589,1192Zm0,147q47,0 78.5,32.5T699,1449q0,46-31.5,78T589,1559q-45,0-77.5-32T479,1449q0-45 32.5-77.5T589,1339ZM442-30Q325-30 244,14.5T121.5,133T80,296q0,78 26,140.5t80,108T326,619q65,21 152.5,38t190,31.5T883,720l-86-49q1,112-50,165T575,889q-73,0-141-34T339,738L119,807q40,137 152.5,220T575,1110q144,0 253.5-47T991,909q29-57 35-116.5t6-129.5V0H821V234l35-38Q783,79 685.5,24.5T442-30Zm48,192q82,0 140,29t92.5,71T769,341q19,46 21.5,105.5T793,543l74-22q-109-17-187-30T546,466.5T447,441q-42-15-71-35t-44.5-46T316,299q0-40 20-70.5T394.5,180T490,162Z" />
      <glyph unicode="&#xe6;" glyph-name="gid66" horiz-adv-x="1872" d="M1326-30q-159,0-276,72.5T869,241T805,529q0,174 63,305t177,203.5t269,72.5q165,0 274.5-81.5T1749,803t40-330H1562v88q-1,159-52,248.5T1313,899q-98,0-157-46.5T1071.5,725T1046,540q0-157 67-250.5T1313,196q80,0 142,38.5T1551,350l225-72q-38-97-107.5-166T1510.5,6.5T1326-30ZM490,161q91,0 163,43.5T755,305q18,32 27.5,71t12,80t0.5,81l82-35L629,478q-40-3-93.5-11.5T432,439t-83-52.5T316,298q0-61 46-99t128-38ZM455-30Q275-30 177.5,60T80,290q0,87 34.5,147T205,534.5t123.5,59t134,32T582,642l263,26l-53-45q10,97-16.5,155.5t-79,84.5T576,889q-79,0-144.5-35T337,741L119,807q33,85 97.5,153.5t156.5,109T582,1110q174,0 281.5-72T1009,839q17-55 20-106.5t3-83.5L913,227Q862,134 793,77.5T639-4.5T455-30ZM973,473V662h703V473H973Z" />
      <glyph unicode="&#xe7;" glyph-name="gid69" horiz-adv-x="1151" d="M574-483q-40,0-74.5,10.5T436-447l53,143q41-14 64-14q30,0 46.5,17.5T616-264q0,39-39.5,57T485-174L556,31l146,1L662-84q58-28 90-74t32-111q0-95-62.5-154.5T574-483ZM609-30Q442-30 324,44.5T143.5,248T80,540q1,166 65.5,294.5t183.5,202T612,1110q184,0 311.5-92.5T1090,765L850,700q-28,87-93,135.5T609,884q-94,0-155-44.5T364,717T335,540q0-154 69-249t205-95q96,0 151.5,44T844,367l246-55Q1040,147 915,58.5T609-30Z" />
      <glyph unicode="&#xe8;" glyph-name="gid76" horiz-adv-x="1204" d="M528,1235L374,1605H556l155-370H528ZM631-30Q467-30 343,41T149.5,238T80,528q0,177 68,307.5T337,1038t280,72q168,0 285.5-78.5T1077,810t43-337H881v88q-1,176-62,257T627,899q-148,0-220-91.5T335,540q0-164 72-254t210-90q89,0 153.5,39.5T870,350l238-72Q1046,132 916.5,51T631-30ZM259,473V655h743V473H259Z" />
      <glyph unicode="&#xe9;" glyph-name="gid73" horiz-adv-x="1204" d="M731,1235H548l154,370H885L731,1235ZM631-30Q467-30 343,41T149.5,238T80,528q0,177 68,307.5T337,1038t280,72q168,0 285.5-78.5T1077,810t43-337H881v88q-1,176-62,257T627,899q-148,0-220-91.5T335,540q0-164 72-254t210-90q89,0 153.5,39.5T870,350l238-72Q1046,132 916.5,51T631-30ZM259,473V655h743V473H259Z" />
      <glyph unicode="&#xea;" glyph-name="gid74" horiz-adv-x="1204" d="M240,1235l273,315H715l273-315H763L614,1413L465,1235H240ZM631-30Q467-30 343,41T149.5,238T80,528q0,177 68,307.5T337,1038t280,72q168,0 285.5-78.5T1077,810t43-337H881v88q-1,176-62,257T627,899q-148,0-220-91.5T335,540q0-164 72-254t210-90q89,0 153.5,39.5T870,350l238-72Q1046,132 916.5,51T631-30ZM259,473V655h743V473H259Z" />
      <glyph unicode="&#xeb;" glyph-name="gid75" horiz-adv-x="1204" d="M714,1247v220H934V1247H714Zm-413,0v220H521V1247H301ZM631-30Q467-30 343,41T149.5,238T80,528q0,177 68,307.5T337,1038t280,72q168,0 285.5-78.5T1077,810t43-337H881v88q-1,176-62,257T627,899q-148,0-220-91.5T335,540q0-164 72-254t210-90q89,0 153.5,39.5T870,350l238-72Q1046,132 916.5,51T631-30ZM259,473V655h743V473H259Z" />
      <glyph unicode="&#xec;" glyph-name="gid86" horiz-adv-x="561" d="M185,1235L31,1605H214l154-370H185ZM160,0V1080H401V0H160Z" />
      <glyph unicode="&#xed;" glyph-name="gid82" horiz-adv-x="561" d="M375,1235H192l155,370H530L375,1235ZM160,0V1080H401V0H160Z" />
      <glyph unicode="&#xee;" glyph-name="gid83" horiz-adv-x="561" d="M-81,1235l274,315H395l273-315H443L294,1413L144,1235H-81ZM160,0V1080H401V0H160Z" />
      <glyph unicode="&#xef;" glyph-name="gid84" horiz-adv-x="561" d="M377,1247v220H597V1247H377Zm-413,0v220H184V1247H-36ZM160,0V1080H401V0H160Z" />
      <glyph unicode="&#xf0;" glyph-name="gid71" horiz-adv-x="1193" d="M597-30Q443-30 327,37T145.5,224T80,502q0,159 65.5,279.5T327,969.5T597,1036q75,1 142.5-20T883,947q-13,97-81,180T631.5,1263.5T412,1326l36,185q157-5 279-64.5T929,1277q67-86 107-191.5t58.5-246T1113,509q0-164-63-285.5T871,36T597-30Zm0,214q131,0 202.5,85T871,504T799,738.5T597,822q-133,1-204-82.5T322,504q0-153 71.5-236.5T597,184Zm37,891L500,1193l321,373l135-119L634,1075Z" />
      <glyph unicode="&#xf1;" glyph-name="gid92" horiz-adv-x="1251" d="M794,1240q-48,0-91,21t-83,48.5T545.5,1358T482,1379q-33,0-44-32.5t1-79.5H287q-28,120 14.5,203.5T460,1554q48,0 91.5-21t83-48.5t74-48.5t64.5-21q31,0 43.5,32.5T815,1528H967q30-119-13-203.5T794,1240ZM887,0V520q0,51-7,113T847.5,752.5t-76,94.5T635,884q-46,0-91-15t-81.5-51.5T404,717.5T382,555L239,616q0,138 53.5,250T450,1044.5T706,1111q120,0 198-40t124-102t68-132t28.5-132.5T1131,603V0H887ZM138,0V1080H353V745h29V0H138Z" />
      <glyph unicode="&#xf2;" glyph-name="gid97" horiz-adv-x="1236" d="M515,1235L360,1605H543l155-370H515ZM617-30Q455-30 334,43T146.5,244.5T80,540q0,170 68,298t189,200t280,72q163,0 284-73t188-201.5T1156,540q0-168-67.5-296.5T900,42.5T617-30Zm0,226q144,0 214,96t70,248q0,157-71,250.5T617,884q-97,0-159.5-43.5T365,719.5T335,540q0-157 71.5-250.5T617,196Z" />
      <glyph unicode="&#xf3;" glyph-name="gid94" horiz-adv-x="1236" d="M712,1235H529l154,370H866L712,1235ZM617-30Q455-30 334,43T146.5,244.5T80,540q0,170 68,298t189,200t280,72q163,0 284-73t188-201.5T1156,540q0-168-67.5-296.5T900,42.5T617-30Zm0,226q144,0 214,96t70,248q0,157-71,250.5T617,884q-97,0-159.5-43.5T365,719.5T335,540q0-157 71.5-250.5T617,196Z" />
      <glyph unicode="&#xf4;" glyph-name="gid95" horiz-adv-x="1236" d="M241,1235l274,315H717l273-315H765L616,1413L466,1235H241ZM617-30Q455-30 334,43T146.5,244.5T80,540q0,170 68,298t189,200t280,72q163,0 284-73t188-201.5T1156,540q0-168-67.5-296.5T900,42.5T617-30Zm0,226q144,0 214,96t70,248q0,157-71,250.5T617,884q-97,0-159.5-43.5T365,719.5T335,540q0-157 71.5-250.5T617,196Z" />
      <glyph unicode="&#xf5;" glyph-name="gid99" horiz-adv-x="1236" d="M786,1240q-48,0-91,21t-83,48.5T537.5,1358T474,1379q-33,0-44-32.5t1-79.5H279q-28,120 14.5,203.5T452,1554q48,0 91.5-21t83-48.5t74-48.5t64.5-21q31,0 43.5,32.5T807,1528H959q30-119-13-203.5T786,1240ZM617-30Q455-30 334,43T146.5,244.5T80,540q0,170 68,298t189,200t280,72q163,0 284-73t188-201.5T1156,540q0-168-67.5-296.5T900,42.5T617-30Zm0,226q144,0 214,96t70,248q0,157-71,250.5T617,884q-97,0-159.5-43.5T365,719.5T335,540q0-157 71.5-250.5T617,196Z" />
      <glyph unicode="&#xf6;" glyph-name="gid96" horiz-adv-x="1236" d="M716,1247v220H936V1247H716Zm-414,0v220H522V1247H302ZM617-30Q455-30 334,43T146.5,244.5T80,540q0,170 68,298t189,200t280,72q163,0 284-73t188-201t67-296t-67.5-296.5T900,42.5T617-30Zm1,226q143,0 213,96t70,248q0,157-71,250.5T617,884q-97,0-159.5-43.5T365,719.5T335,541q0-158 71.5-251.5T618,196Z" />
      <glyph unicode="&#xf7;" glyph-name="gid245" horiz-adv-x="1080" d="M120,626V815H960V626H120ZM500,902v247H747V902H500Zm0-484V665H747V418H500Z" />
      <glyph unicode="&#xf8;" glyph-name="gid98" horiz-adv-x="1236" d="M212-25L52,135L231,314l72,37L842,888l21,56l161,161l160-161L1013,774l-59-25L425,220l-45-77L212-25Zm405-5Q455-30 334,43T146.5,244.5T80,540q0,170 68,298t189,200t280,72q163,0 284-73t188-201.5T1156,540q0-168-67.5-296.5T900,42.5T617-30Zm0,226q144,0 214,96t70,248q0,157-71,250.5T617,884q-97,0-159.5-43.5T365,719.5T335,540q0-157 71.5-250.5T617,196Z" />
      <glyph unicode="&#xf9;" glyph-name="gid112" horiz-adv-x="1251" d="M526,1235L372,1605H555l154-370H526ZM545-31Q425-31 347,9T223,111T155,243T126.5,375.5T120,477v603H364V560q0-50 7-112.5t32.5-120t76-94.5T616,196q46,0 91,15t81.5,51.5T847,363t22,162l143-61q0-138-53.5-250T801,35.5T545-31ZM898,0V335H869v745h242V0H898Z" />
      <glyph unicode="&#xfa;" glyph-name="gid109" horiz-adv-x="1251" d="M696,1235H514l154,370H851L696,1235ZM545-31Q425-31 347,9T223,111T155,243T126.5,375.5T120,477v603H364V560q0-50 7-112.5t32.5-120t76-94.5T616,196q46,0 91,15t81.5,51.5T847,363t22,162l143-61q0-138-53.5-250T801,35.5T545-31ZM898,0V335H869v745h242V0H898Z" />
      <glyph unicode="&#xfb;" glyph-name="gid110" horiz-adv-x="1251" d="M238,1235l273,315H713l273-315H761L612,1413L463,1235H238ZM545-31Q425-31 347,9T223,111T155,243T126.5,375.5T120,477v603H364V560q0-50 7-112.5t32.5-120t76-94.5T616,196q46,0 91,15t81.5,51.5T847,363t22,162l143-61q0-138-53.5-250T801,35.5T545-31ZM898,0V335H869v745h242V0H898Z" />
      <glyph unicode="&#xfc;" glyph-name="gid111" horiz-adv-x="1251" d="M712,1247v220H932V1247H712Zm-413,0v220H519V1247H299ZM545-31Q425-31 347,9T223,111T155,243T126.5,375.5T120,477v603H364V560q0-50 7-112.5t32.5-120t76-94.5T616,196q46,0 91,15t81.5,51.5T847,363t22,162l143-61q0-138-53.5-250T801,35.5T545-31ZM898,0V335H869v745h242V0H898Z" />
      <glyph unicode="&#xfd;" glyph-name="gid117" horiz-adv-x="1119" d="M663,1235H480l155,370H818L663,1235ZM282-480L490,91l4-168L23,1080H274L608,224H544l325,856h241L508-480H282Z" />
      <glyph unicode="&#xfe;" glyph-name="gid102" horiz-adv-x="1232" d="M140,850v590H382V850H140ZM659-30Q501-30 394,45T233,249.5T179,540q0,163 54,292t158.5,203.5T650,1110q153,0 265.5-74.5t174.5-203T1152,540q0-162-61-291T919,45T659-30ZM138-480V1080H351V322h30V-480H138ZM622,186q94,0 155,47t90.5,127.5T897,540q0,98-30,178.5t-93,128T614,894q-92,0-150-44.5t-85.5-124T351,540q0-105 27.5-185t87-124.5T622,186Z" />
      <glyph unicode="&#xff;" glyph-name="gid118" horiz-adv-x="1119" d="M669,1247v220H889V1247H669Zm-413,0v220H476V1247H256ZM282-480L490,91l4-168L23,1080H274L608,224H544l325,856h241L508-480H282Z" />
      <glyph unicode="&#x2013;" glyph-name="gid208" horiz-adv-x="1080" d="M120,536V725H960V536H120Z" />
      <glyph unicode="&#x2014;" glyph-name="gid209" horiz-adv-x="1560" d="M120,536V725H1440V536H120Z" />
      <glyph unicode="&#x2018;" glyph-name="gid218" horiz-adv-x="568" d="M398,929q-123-21-184.5,46T152,1173v267H398V1183H271q-6-45 3.5-80.5T311,1048t73-16l14-103Z" />
      <glyph unicode="&#x2019;" glyph-name="gid219" horiz-adv-x="568" d="M170,928l14,104q46-4 73,15.5t36.5,55T298,1183H170v257H417V1173q0-131-62-198T170,928Z" />
      <glyph unicode="&#x201a;" glyph-name="gid214" horiz-adv-x="607" d="M120-255l14,104q46-4 73,15.5t36.5,55T248,0H120V257H367V-10q0-131-62-198T120-255Z" />
      <glyph unicode="&#x201c;" glyph-name="gid216" horiz-adv-x="902" d="M742,1443l-15-104q-46,4-73-15.5t-36.5-55T614,1188H742V931H495v267q0,131 62,198.5T742,1443Zm-335,0l-15-104q-46,4-73-15.5t-36.5-55T279,1188H407V931H160v267q0,131 62,198.5T407,1443Z" />
      <glyph unicode="&#x201d;" glyph-name="gid217" horiz-adv-x="902" d="M160,932l14,104q46-4 73,15.5t36.5,55T288,1187H160v257H407V1177q0-131-62-198T160,932Zm335,0l14,104q46-4 73,15.5t36.5,55T623,1187H495v257H742V1177q0-131-62-198T495,932Z" />
      <glyph unicode="&#x201e;" glyph-name="gid215" horiz-adv-x="902" d="M160-255l14,104q46-4 73,15.5t36.5,55T288,0H160V257H407V-10q0-131-62-198T160-255Zm335,0l14,104q46-4 73,15.5t36.5,55T623,0H495V257H742V-10q0-131-62-198T495-255Z" />
      <glyph unicode="&#x2022;" glyph-name="gid185" horiz-adv-x="1407" d="M709,347q-80,0-146,37T458.5,485.5T420,630q0,81 39,145.5t104,101T709,913q75,0 138.5-36.5T949,775.5T987,630q0-80-38-144.5T847.5,384T709,347Z" />
      <glyph unicode="&#x2039;" glyph-name="gid222" horiz-adv-x="1275" d="M760,150L280,630l480,480L910,961L568,630L910,299L760,150Z" />
      <glyph unicode="&#x203a;" glyph-name="gid223" horiz-adv-x="1275" d="M514,150L365,299L706,630L365,961l149,149L995,630L514,150Z" />
    </font>
</defs>
</svg>
