<?xml version="1.0" standalone="no"?>
<!DOCTYPE svg PUBLIC "-//W3C//DTD SVG 1.1//EN" "http://www.w3.org/Graphics/SVG/1.1/DTD/svg11.dtd">
<svg xmlns="http://www.w3.org/2000/svg">
  <defs>
    <font id="Manrope" horiz-adv-x="1121">
      <font-face font-family="Manrope ExtraLight Medium" units-per-em="2000" panose-1="0 0 0 0 0 0 0 0 0 0" ascent="2132" descent="-600" alphabetic="0" />
      <glyph unicode=" " glyph-name="gid231" horiz-adv-x="400" />
      <glyph unicode="!" glyph-name="gid180" horiz-adv-x="658" d="M240,0V184H418V0H240Zm0,360V1440H418V360H240Z" />
      <glyph unicode="&quot;" glyph-name="gid224" horiz-adv-x="834" d="M120,1080v360H298V1080H120Zm336,0v360H634V1080H456Z" />
      <glyph unicode="#" glyph-name="gid187" horiz-adv-x="1848" d="M400,1L512,420H120l45,170H558l77,292H243l46,169H681l104,389H961L856,1051h305l104,389h176l-105-389h392l-45-169H1291l-79-292h392l-45-170H1167L1055,1H880L991,420H687L575,1H400ZM733,590h304l78,292H811L733,590Z" />
      <glyph unicode="$" glyph-name="gid237" horiz-adv-x="1204" d="M519-198V33H697V-198H519Zm0,1605v232H697V1407H519ZM622-30Q476-30 359.5,22.5T168,171.5T70,399l175,29q32-133 135.5-211T630,139q147,0 238,71t91,183q0,82-48.5,132T748,610L419,712q-295,92-295,352q0,122 59.5,213.5t167,142T601,1469q139-1 248-51.5T1029.5,1273t96.5-225l-180-33q-14,85-61.5,149T764,1263.5T600,1300q-85,1-152.5-28T341,1191t-39-119q0-73 54.5-123.5T528,862l270-80q178-53 257-142.5T1134,401q0-129-63.5-226T891.5,24T622-30Z" />
      <glyph unicode="%" glyph-name="gid254" horiz-adv-x="1802" d="M300,0L180,120L1502,1440l120-120L300,0ZM1322-30q-99,0-180.5,48.5T1011,148.5T962,330q0,98 50,180t132,131t178,49q99,0 181-48.5t130.5-130T1682,330t-48.5-181.5T1503,18.5T1322-30Zm0,157q55,0 101.5,28t74,74T1525,330t-27.5,101.5t-74,74T1322,533t-101-27.5t-74-74T1119,330t28-101t74-74t101-28ZM480,750q-99,0-181,48.5t-130.5,130T120,1110q0,98 50,180t132,131t178,49q99,0 180.5-48.5t130.5-130T840,1110T791,928.5t-130.5-130T480,750Zm0,157q55,0 101.5,28t74,74T683,1110t-27.5,101.5t-74,74T480,1313t-101-27.5t-74-74T277,1110t28-101t74-74t101-28Z" />
      <glyph unicode="&amp;" glyph-name="gid260" horiz-adv-x="1314" d="M608-30Q488-30 384,5T210,115q-54,60-80.5,132.5T100,401q0,79 23,154.5T196,690q26,32 58.5,54.5T320,783q-69,74-105.5,139T178,1079q0,117 60.5,211.5T404,1429q51,22 104.5,30.5T613,1468q86,0 167-24t138-78q38-32 65-73.5t42-86.5l-174-45q-19,51-63,86q-35,30-81.5,41T613,1299q-78,0-141-30q-56-27-84-75.5T360,1079q0-57 19.5-93.5T434,908q21-22 47.5-46.5T536,811L960,417q3,25 4,51t1,50l-1,199h163V483q0-71-4.5-121T1108,279l183-169L1175-14L1023,130q-39-44-93-77T822,3Q771-16 717-23T608-30Zm4,171q49,0 89,6t76,23q48,23 74,44t43,39L455,655q-36-12-67.5-32T333,576q-26-32-38.5-75T282,410q1-51 17-94t45-77q44-51 119-74.5T612,141Z" />
      <glyph unicode="&apos;" glyph-name="gid225" horiz-adv-x="458" d="M120,1080v360H298V1080H120Z" />
      <glyph unicode="(" glyph-name="gid194" horiz-adv-x="870" d="M653-366Q536-231 452-63T323,290T280,660q-2,186 43,371t129,352.5T653,1686l132-100q-118-140-193.5-291T480,984.5T443,660q1-163 37.5-323.5t112-312T785-265L653-366Z" />
      <glyph unicode=")" glyph-name="gid195" horiz-adv-x="870" d="M217-366L85-265Q202-127 277.5,24.5T390,336.5T427,660q0,165-36.5,324.5T278.5,1295T85,1586l132,100q117-135 201.5-302.5t129-352.5T590,660q2-185-42.5-370T418.5-63T217-366Z" />
      <glyph unicode="*" glyph-name="gid186" horiz-adv-x="892" d="M276,762L145,857l155,195L60,1122l50,154l234-87l-9,251H497l-9-251l234,87l50-154l-240-70L686,857L555,762L416,968L276,762Z" />
      <glyph unicode="+" glyph-name="gid242" horiz-adv-x="1150" d="M502,265V647H120V794H502v381H649V794h381V647H649V265H502Z" />
      <glyph unicode="," glyph-name="gid176" horiz-adv-x="556" d="M120-224l11,83q42-3 63,16t27,52t2,73H120V226H316V-30q0-105-51.5-158T120-224Z" />
      <glyph unicode="-" glyph-name="gid206" horiz-adv-x="840" d="M120,557V704H720V557H120Z" />
      <glyph unicode="." glyph-name="gid175" horiz-adv-x="540" d="M172,0V196H368V0H172Z" />
      <glyph unicode="/" glyph-name="gid188" horiz-adv-x="805" d="M504,1440H685L301,0H120L504,1440Z" />
      <glyph unicode="0" glyph-name="gid131" horiz-adv-x="1252" d="M626-30Q486-30 376.5,33.5t-173,173T140,456V984q0,140 63.5,250t173,173T626,1470t250-63t173-173t63-250V456q0-140-63-249.5T876,33.5T626-30Zm0,171q85,0 154,41T890,292.5T931,446V995q0,85-41,154T780,1259t-154,41q-84,0-153.5-41T362,1149T321,995V446q0-84 41-153.5T472.5,182T626,141Z" />
      <glyph unicode="1" glyph-name="gid132" horiz-adv-x="812" d="M391,0V1243L120,1079v199l271,162H572V0H391Z" />
      <glyph unicode="2" glyph-name="gid133" horiz-adv-x="1157" d="M100,1l1,160L740,736q80,72 107.5,136.5T875,1005q0,83-38,150T733.5,1261T585,1300q-86,0-153-40.5T326.5,1152T289,1006H107q0,136 63,240.5t171.5,164T588,1470q134,0 240-61.5t167.5-167T1057,1003q0-94-23.5-163T961,712.5T838,588L307,111l-23,60h773V1H100Z" />
      <glyph unicode="3" glyph-name="gid134" horiz-adv-x="1125" d="M535-28Q428-28 336,11.5t-158.5,112T80,296l171,49q33-100 110-152t173-51q88,2 152.5,40.5T786.5,288T822,443q0,134-80,217.5T532,744q-36,0-75.5-10T383,706L297,847l534,483l23-60H137v170H986V1269L531,833l-2,63q143,10 250-47T945.5,686T1005,443q0-138-62-244T775,32.5T535-28Z" />
      <glyph unicode="4" glyph-name="gid135" horiz-adv-x="1192" d="M762,0V265H100V434L575,1440H777L302,434H762V839H942V434h150V265H942V0H762Z" />
      <glyph unicode="5" glyph-name="gid136" horiz-adv-x="1161" d="M566-30Q455-30 359.5,16t-163,126.5T100,328l171,46q18-71 64-122.5t107.5-80T571,143q88,0 158.5,42.5T841,298.5T882,453q0,87-42.5,157.5T726,722T571,763q-95,0-162.5-39.5T302,627L144,687l44,753H961V1271H274l79,74L316,742l-39,51q60,64 143.5,99T591,927q134,0 240-62.5t168-170T1061,453q0-133-68-242.5T812.5,35.5T566-30Z" />
      <glyph unicode="6" glyph-name="gid137" horiz-adv-x="1242" d="M631-30Q494-30 382.5,36t-177,180.5T140,475V954q0,151 65.5,267.5t180,182T647,1469q119,0 221.5-48.5T1041,1281L908,1163q-43,63-112,100t-149,37q-95,0-168.5-45.5T363,1134.5T321,974V685l-39,44q63,90 160,144t210,54q134,0 240.5-63t168-170.5T1122,452t-67-243T876.5,35T631-30Zm0,172q86,0 157,41.5t112.5,112T942,452T900.5,609t-112,112.5T632,763T475.5,721.5T363,609T321,452q0-85 41.5-155.5T474.5,184T631,142Z" />
      <glyph unicode="7" glyph-name="gid138" horiz-adv-x="1025" d="M216,0L734,1269H80v171H925V1269L408,0H216Z" />
      <glyph unicode="8" glyph-name="gid139" horiz-adv-x="1182" d="M590-30Q452-30 346,25.5T180,180T120,411q0,129 61.5,233T367,804l-3-65Q263,788 209,877.5T155,1076q0,122 56,210t154,136t225,48t225-48t154-136t56-210q0-109-51-197.5T817,739l-4,64q124-54 186.5-158.5T1062,411q0-132-60.5-231T834.5,25.5T590-30Zm0,170q126,0 204.5,69.5T873,411q0,133-77.5,202.5T590,683q-127,0-204.5-69.5T308,411q0-132 78-201.5T590,140Zm0,714q110,0 178,55.5T836,1076t-68,166.5T590,1298q-109,0-177.5-55.5T344,1076t68.5-166.5T590,854Z" />
      <glyph unicode="9" glyph-name="gid140" horiz-adv-x="1242" d="M611,1469q138,0 249-66t176.5-180T1102,964V485q0-151-65-267T857.5,36T595-30Q477-30 374.5,19T201,158L334,276q44-62 113-99.5T595,139q96,0 169.5,46t115,120T921,465V754l39-44q-62-90-159-144T590,512q-134,0-240,63T182,745.5T120,987t67,243.5t178.5,174T611,1469Zm0-172q-86,0-156.5-41.5T342,1143.5T300,987t41.5-156.5T453.5,718T610,676t157,42T879.5,830.5T921,987q0,85-41.5,155.5T767.5,1255T611,1297Z" />
      <glyph unicode=":" glyph-name="gid177" horiz-adv-x="627" d="M220,150V346H416V150H220Zm1,584V930H417V734H221Z" />
      <glyph unicode=";" glyph-name="gid178" horiz-adv-x="636" d="M220-224l11,83q42-3 63,16t27,52t2,73H220V226H416V-30q0-105-51.5-158T220-224Zm0,1108v196H416V884H220Z" />
      <glyph unicode="&lt;" glyph-name="gid248" horiz-adv-x="1244" d="M753,157L280,630l473,473L865,992L497,630L865,268L753,157Z" />
      <glyph unicode="=" glyph-name="gid246" horiz-adv-x="1500" d="M240,823V970H1260V823H240Zm0-353V617H1260V470H240Z" />
      <glyph unicode="&gt;" glyph-name="gid247" horiz-adv-x="1244" d="M491,157L379,268L747,630L379,992l112,111L964,630L491,157Z" />
      <glyph unicode="?" glyph-name="gid182" horiz-adv-x="1067" d="M415,392q0,75 9.5,136.5T466,648q29,56 69,91.5T621,808t91,81q40,45 53,90.5t13,96.5q0,45-10.5,81.5T733,1220q-36,45-89.5,62T532,1299q-55,0-103.5-15T348,1237q-32-29-47-70.5T286,1077H100q6,87 41.5,165.5T240,1372q59,50 135,73.5T528,1469q102,0 193.5-31T874,1335q47-51 70-117t23-139q0-89-35.5-166T836,774q-33-36-71.5-66t-73-60T637,582q-26-47-29.5-86.5T604,392H415ZM416,0V219H604V0H416Z" />
      <glyph unicode="@" glyph-name="gid259" horiz-adv-x="1814" d="M908-210q-161,0-297.5,55T373-1T216,232T160,523q0,178 56.5,319.5t158,241.5t238,153T909,1290q190,0 332-59.5t235.5-162t138-231.5T1653,568q-7-191-85-291T1339,177q-88,0-158,41t-95,118l53-4q-38-74-108-105.5T886,195q-96,0-168.5,41.5t-114,116T562,525q0,102 43,176T722,815.5T889,856q65,0 135-27t108-82l-40-48V828h120l-2-342q0-75 32.5-118T1344,325q53,0 85.5,30t48.5,82.5T1496,560q5,154-42,264t-130.5,181t-188,104.5T919,1143q-145,0-257.5-47t-190-131.5T354.5,768T317,526q3-131 48-239.5T490.5,100t189-120.5T916-63q78,0 155.5,19T1211,8l52-134q-82-42-172-63T908-210ZM896,344q75,0 123.5,43T1068,526q0,91-45,137T900,709q-90,0-136.5-48.5T717,526q0-87 48-134.5T896,344Z" />
      <glyph unicode="A" glyph-name="gid1" horiz-adv-x="1292" d="M40,0L522,1440H770L1252,0H1067L616,1336h56L225,0H40ZM272,337V504h748V337H272Z" />
      <glyph unicode="B" glyph-name="gid10" horiz-adv-x="1238" d="M140,0V1440H701q129,0 220.5-53t140-139.5T1110,1061q0-117-60-205T888,735l-2,49q139-37 216-136t77-236q0-126-51.5-218T979.5,51T751,0H140ZM320,170H717q80,0 143,29.5T959.5,283T996,413q0,73-32.5,131t-91,92.5T737,671H320V170Zm0,669H699q64,0 115.5,27.5t82,77.5T927,1061q0,93-63,152t-165,59H320V839Z" />
      <glyph unicode="C" glyph-name="gid11" horiz-adv-x="1446" d="M732-30Q517-30 367,65T138.5,329T60,720t78.5,391T367,1375t365,95q250,0 411.5-127T1366,1001l-181-48q-44,161-157,254t-296,93q-161,0-268-73T303,1023.5T248,720q-1-172 53-302.5t162-204T732,140q183,0 296,93.5T1185,487l181-48q-61-214-222.5-341.5T732-30Z" />
      <glyph unicode="D" glyph-name="gid13" horiz-adv-x="1362" d="M140,0V1440H584q22,0 77-1t105-8q167-22 279.5-121.5T1215,1057t57-337t-57-337T1045.5,130.5T766,9Q716,3 660.5,1.5T584,0H140ZM323,170H584q38,0 85,2.5t82,8.5q118,22 191,99t107,192t34,248q0,136-34.5,251T941,1162t-190,97q-35,7-83,9t-84,2H323V170Z" />
      <glyph unicode="E" glyph-name="gid15" horiz-adv-x="1150" d="M140,0V1440h910V1271H318V820H930V651H318V169h732V0H140Z" />
      <glyph unicode="F" glyph-name="gid20" horiz-adv-x="1020" d="M140,0V1440H980V1262H318V809H860V631H318V0H140Z" />
      <glyph unicode="G" glyph-name="gid21" horiz-adv-x="1428" d="M723-30Q575-30 453,22T243,171.5t-135.5,236T60,720q0,230 82,398t231,259.5T723,1469q242,0 390-112.5T1317,1049l-180-37q-45,131-148,209t-257,78q-161,1-267.5-71.5T304,1024T249,720q-1-172 53-302T463.5,214.5T732,140q139-1 234,53t147,156t63,245H870V741h494q3-20 3.5-47.5T1368,656q0-197-73.5-352.5T1077.5,59T723-30Z" />
      <glyph unicode="H" glyph-name="gid22" horiz-adv-x="1394" d="M140,0V1440H318V805h758v635h178V0H1076V636H318V0H140Z" />
      <glyph unicode="I" glyph-name="gid23" horiz-adv-x="498" d="M160,0V1440H338V0H160Z" />
      <glyph unicode="J" glyph-name="gid28" horiz-adv-x="952" d="M400-29Q249-29 144,53T0,273l177,42q16-73 77.5-124T396,140q52,0 106,25.5T585,249q20,40 23,88.5T611,452v988H791V452q0-62-0.5-111t-10-93.5T744,157Q690,62 599.5,16.5T400-29Z" />
      <glyph unicode="K" glyph-name="gid29" horiz-adv-x="1223" d="M140,0V1440H318V764l630,676h224L518,741L1223,0H993L318,704V0H140Z" />
      <glyph unicode="L" glyph-name="gid30" horiz-adv-x="1036" d="M160,0V1440H338V169h668V0H160Z" />
      <glyph unicode="M" glyph-name="gid31" horiz-adv-x="1691" d="M140,0V1440H302L846,293l541,1147h164V1H1382V1049L893,0H798L309,1049V0H140Z" />
      <glyph unicode="N" glyph-name="gid32" horiz-adv-x="1391" d="M140,0V1440H320L1071,315V1440h180V0H1071L320,1126V0H140Z" />
      <glyph unicode="O" glyph-name="gid34" horiz-adv-x="1464" d="M732-30Q517-30 367,65T138.5,329T60,720t78.5,391T367,1375t365,95q216,0 366-95t228-264t78-391t-78-391T1098,65T732-30Zm0,170q161-1 268.5,72.5t161,204.5T1215,720q0,173-53.5,303t-161,203T732,1300t-267.5-72T304,1024T249,720q-1-172 53-302T463.5,214.5T732,140Z" />
      <glyph unicode="P" glyph-name="gid42" horiz-adv-x="1231" d="M140,0V1440H709q21,0 50-1.5t56-6.5q117-18 196.5-80T1131,1195.5T1171,986q0-114-40.5-208.5t-120-157T815,540q-27-4-56-6t-50-2H318V0H140ZM318,701H703q19,0 43.5,2t46.5,7q69,16 112.5,58.5t63.5,100T989,986t-20,117.5T905.5,1204T793,1262q-22,6-46.5,7.5T703,1271H318V701Z" />
      <glyph unicode="Q" glyph-name="gid44" horiz-adv-x="1464" d="M1270-29L877,362L994,479L1385,88L1270-29ZM732-30Q517-30 367,65T138.5,329T60,720t78.5,391T367,1375t365,95q216,0 366-95t228-264t78-391t-78-391T1098,65T732-30Zm0,170q161-1 268.5,72.5t161,204.5T1215,720q0,173-53.5,303t-161,203T732,1300t-267.5-72T304,1024T249,720q-1-172 53-302T463.5,214.5T732,140Z" />
      <glyph unicode="R" glyph-name="gid45" horiz-adv-x="1281" d="M140,0V1440H709q21,0 50-1.5t56-6.5q117-18 196.5-80T1131,1195.5T1171,986q0-167-87-289.5T829,543l-68-11H318V0H140ZM997,0L713,586l176,54L1201,0H997ZM318,701H703q19,0 43.5,2t46.5,7q69,16 112.5,58.5t63.5,100T989,986t-20,117.5T905.5,1204T793,1262q-22,6-46.5,7.5T703,1271H318V701Z" />
      <glyph unicode="S" glyph-name="gid46" horiz-adv-x="1260" d="M651-30Q498-30 375.5,22t-202,148.5T70,399l184,29q35-136 145.5-212.5T660,139q97,0 175.5,30.5T960,257t46,135q0,48-16.5,82.5t-45,59T880,575t-75,28L438,712q-60,18-116,45.5t-100,69t-70,100T126,1065q0,128 66.5,218.5T373,1422t257,47q145-1 259.5-51.5t190-144.5T1181,1048l-189-33q-15,88-66.5,151.5t-128.5,98T628,1300q-88,1-159-28t-113-80.5T314,1073q0-66 38-106.5t93.5-64T554,864l274-79q47-13 108.5-36T1056,684.5t96-110T1190,402t-41.5-185T1033,81.5T861-1.5T651-30Z" />
      <glyph unicode="T" glyph-name="gid47" horiz-adv-x="1200" d="M511,0V1271H20v169H1180V1271H689V0H511Z" />
      <glyph unicode="U" glyph-name="gid48" horiz-adv-x="1416" d="M708-30Q541-30 413,39T212.5,232.5T140,525v914l180,1V540q0-102 34.5-177.5T446,237t125.5-74.5T708,138q69,0 138,25t125.5,74.5T1062,363t34,177v900h180V525q0-167-72.5-292T1003,39T708-30Z" />
      <glyph unicode="V" glyph-name="gid53" horiz-adv-x="1232" d="M492,0L10,1440H195L614,189l423,1251h185L740,0H492Z" />
      <glyph unicode="W" glyph-name="gid54" horiz-adv-x="1898" d="M447,0L30,1440H216L536,301L855,1439l187,1L1362,301l319,1139h187L1451,0H1273L949,1129L625,0H447Z" />
      <glyph unicode="X" glyph-name="gid55" horiz-adv-x="1245" d="M20,0L515,729L33,1440H250L623,879l372,561h218L731,729L1225,0H1008L623,578L238,0H20Z" />
      <glyph unicode="Y" glyph-name="gid56" horiz-adv-x="1149" d="M485,0V599L0,1440H207L575,803l367,637h207L665,599V0H485Z" />
      <glyph unicode="Z" glyph-name="gid58" horiz-adv-x="1261" d="M100,0V32L861,1271H130v169H1161v-34L404,169h747V0H100Z" />
      <glyph unicode="[" glyph-name="gid198" horiz-adv-x="825" d="M280-432V1782H675V1620H442V-270H675V-432H280Z" />
      <glyph unicode="\" glyph-name="gid189" horiz-adv-x="805" d="M301,1440L685,0H504L120,1440H301Z" />
      <glyph unicode="]" glyph-name="gid199" horiz-adv-x="825" d="M545-432H150v162H383V1620H150v162H545V-432Z" />
      <glyph unicode="^" glyph-name="gid252" horiz-adv-x="1346" d="M211,998l472,474l474-473L1046,887L683,1255L322,886L211,998Z" />
      <glyph unicode="_" glyph-name="gid210" horiz-adv-x="1320" d="M0-223V-76H1320V-223H0Z" />
      <glyph unicode="`" glyph-name="gid272" horiz-adv-x="1012" d="M469,1605L338,1935H483l131-330H469Z" />
      <glyph unicode="a" glyph-name="gid59" horiz-adv-x="1125" d="M447-30Q326-30 244.5,14.5T121.5,132T80,292q0,85 32.5,147.5t91.5,104T345,609q77,21 172.5,36.5T711,674t183,25l-64-37q3,144-57.5,213T564,944q-98,0-171.5-44.5T289,755L120,806q39,142 151,223t295,81q147,0 252.5-52.5T970,899q23-50 29-108.5t6-122.5V0H847V259l37-24Q823,104 713.5,37T447-30Zm27,149q96,0 166.5,34.5t113.5,91T810,368q15,50 16.5,111.5T828,574l62-27q-87-12-171-23T560,500.5T425,471q-44-14-82.5-36t-62-56.5T257,293q0-44 22.5-84t70-65T474,119Z" />
      <glyph unicode="b" glyph-name="gid67" horiz-adv-x="1200" d="M636-30Q484-30 380,45.5t-157.5,205T169,541q0,163 53.5,292t158,203T637,1110q150,0 258.5-74.5T1062,832t58-291t-58-291T895.5,45.5T636-30ZM139,0V1440H318V795H298V0H139ZM614,133q107,0 177,54T896,333.5T931,541q0,114-34.5,206t-106,146T609,947q-105,0-174-51.5t-103-143T298,541q0-118 33.5-210.5T435,185.5T614,133Z" />
      <glyph unicode="c" glyph-name="gid68" horiz-adv-x="1122" d="M595-30Q431-30 316.5,43.5T142,246T80,540q2,169 63.5,297.5T320,1038t277,72q171,0 294.5-84T1057,796L881,743q-34,94-110.5,146T595,941q-111,0-183-51.5t-107-142T269,540q2-180 83.5-290.5T595,139q106,0 176,48.5T877,328l180-47Q1001,130 882,50T595-30Z" />
      <glyph unicode="d" glyph-name="gid70" horiz-adv-x="1201" d="M564-30Q413-30 305,45.5T138.5,250T80,541t58.5,291T305,1035.5T563,1110q153,0 257-74T977.5,833T1031,541q0-161-53.5-290.5T820,45.5T564-30Zm22,163q109,0 179,52.5t103.5,145T902,541q0,120-33.5,211.5T766,895.5T591,947q-110,0-181.5-54t-106-146T269,541q0-115 35-207.5T409.5,187T586,133ZM902,0V795H882v645h179V0H902Z" />
      <glyph unicode="e" glyph-name="gid72" horiz-adv-x="1181" d="M608-30Q449-30 330.5,40.5T146,237.5T80,533q0,177 65,306.5t181.5,200T600,1110q163,0 277.5-75t172-214T1099,490H919v64q-3,199-81,297.5T606,950q-165,0-251-106T269,540q0-191 86-296T600,139q107,0 186,49T910,329l171-59Q1018,127 891.5,48.5T608-30ZM209,490V633h798V490H209Z" />
      <glyph unicode="f" glyph-name="gid77" horiz-adv-x="725" d="M243,0V1139q0,42 4,85.5t18,85t46,76.5q37,41 81,58.5t89.5,21.5t86.5,4H705V1322H578q-79,0-118-38.5T421,1167V0H243ZM60,933v147H705V933H60Z" />
      <glyph unicode="g" glyph-name="gid78" horiz-adv-x="1200" d="M577-510q-85,0-166,26T262.5-405.5T150-273l163,86q40-79 113.5-115T578-338q103,0 171,37.5T849.5-189T881-5V290h21v790h158V-7q0-44-2.5-85T1047-173q-21-115-83-189.5t-160-111T577-510ZM564-30Q413-30 305,45.5T138.5,250T80,541t58.5,291T305,1035.5T563,1110q153,0 257-74T977.5,833T1031,541q0-161-53.5-290.5T820,45.5T564-30Zm22,163q109,0 179,52.5t103.5,145T902,541q0,120-33.5,211.5T766,895.5T591,947q-110,0-181.5-54t-106-146T269,541q0-115 35-207.5T409.5,187T586,133Z" />
      <glyph unicode="h" glyph-name="gid79" horiz-adv-x="1209" d="M909,0V541q0,77-13.5,148t-47,127.5t-90,89.5T616,939q-67,0-121.5-22.5T401,848T340.5,732.5T319,569L202,605q0,157 56.5,269.5t159,173T659,1108q105,0 179-33t123-87.5t77-122t39.5-137T1089,597V0H909ZM139,0V1440H299V645h20V0H139Z" />
      <glyph unicode="i" glyph-name="gid80" horiz-adv-x="498" d="M160,1271v184H338V1271H160ZM160,0V1080H338V0H160Z" />
      <glyph unicode="j" glyph-name="gid87" horiz-adv-x="526" d="M-20-480v170H38q78,0 119,39t41,124V1080H376V-208q0-133-68.5-202.5T105-480H-20ZM198,1271v184H376V1271H198Z" />
      <glyph unicode="k" glyph-name="gid88" horiz-adv-x="1020" d="M139,0l1,1440H320V560l453,520h231L527,540L1060,0H811L320,520V0H139Z" />
      <glyph unicode="l" glyph-name="gid89" horiz-adv-x="498" d="M160,0V1470H338V0H160Z" />
      <glyph unicode="m" glyph-name="gid90" horiz-adv-x="1730" d="M1431,0l1,691q0,121-64.5,189.5T1200,949q-60,0-114-27.5t-88-86T964,686l-94,38q-2,115 47.5,201.5T1053,1060t194,48q169,0 266-102.5T1610,730L1609,0H1431ZM139,0V1080H298V791h20V0H139ZM786,0l1,684q0,124-64,194.5T553,949q-105,0-170-72T318,686l-94,56q0,105 50,188t136,130.5T605,1108t190-46T920,930.5T964,727L963,0H786Z" />
      <glyph unicode="n" glyph-name="gid91" horiz-adv-x="1209" d="M909,0V541q0,77-13.5,148t-47,127.5t-90,89.5T616,939q-67,0-121.5-22.5T401,848T340.5,732.5T319,569L202,605q0,157 56.5,269.5t159,173T659,1108q105,0 179-33t123-87.5t77-122t39.5-137T1089,597V0H909ZM139,0V1080H299V791h20V0H139Z" />
      <glyph unicode="o" glyph-name="gid93" horiz-adv-x="1201" d="M600-30Q439-30 322.5,43T143,245T80,541q0,170 64,298t181,199.5T600,1110q162,0 279-72.5t179.5-201T1121,541q0-169-63-297.5T878,42.5T600-30Zm0,169q168,0 250,112t82,290q0,183-83,291.5T600,941q-113,0-186-51T305,749T269,541q0-182 84-292T600,139Z" />
      <glyph unicode="p" glyph-name="gid101" horiz-adv-x="1200" d="M636-30Q484-30 380,45.5t-157.5,205T169,541q0,163 53.5,292t158,203T637,1110q150,0 258.5-74.5T1062,832t58-291t-58-291T895.5,45.5T636-30ZM139-480V1080H298V285h20V-480H139ZM614,133q107,0 177,54T896,333.5T931,541q0,114-34.5,206t-106,146T609,947q-105,0-174-51.5t-103-143T298,541q0-118 33.5-210.5T435,185.5T614,133Z" />
      <glyph unicode="q" glyph-name="gid103" horiz-adv-x="1201" d="M564-30Q413-30 305,45.5T138.5,250T80,541t58.5,291T305,1035.5T563,1110q153,0 257-74T977.5,833T1031,541q0-161-53.5-290.5T820,45.5T564-30Zm22,163q109,0 179,52.5t103.5,145T902,541q0,120-33.5,211.5T766,895.5T591,947q-110,0-181.5-54t-106-146T269,541q0-115 35-207.5T409.5,187T586,133ZM882-480V285h20v795h159V-480H882Z" />
      <glyph unicode="r" glyph-name="gid104" horiz-adv-x="747" d="M140,0V1080H299V819l-26,34q19,50 49.5,92t68.5,69q42,34 95,52t108,21.5t103-7.5V913q-56,15-123,8T450,872q-52-37-80.5-90T330,667.5T319,542V0H140Z" />
      <glyph unicode="s" glyph-name="gid105" horiz-adv-x="1061" d="M548-29Q355-29 231.5,55.5T80,292l182,29q22-88 101-139.5T559,130q111,0 174,46t63,125q0,46-21,74.5T688.5,429T491,489q-143,38-225,79T149,663T114,794q0,95 52,166.5T311.5,1071T529,1110q123,0 220-39T905.5,960.5T976,794L794,761q-13,87-83.5,137T529,951q-105,4-170.5-37T293,803q0-39 24.5-67t91-53T602,626q143-36 225.5-78.5T945,447.5T980,306q0-156-115-245.5T548-29Z" />
      <glyph unicode="t" glyph-name="gid107" horiz-adv-x="823" d="M743,0Q647-19 553.5-15.5T387,22.5T276,130q-32,64-34.5,129.5T239,408v972H417V416q0-66 1.5-113T439,222q36-64 114.5-75T743,153V0ZM20,933v147H743V933H20Z" />
      <glyph unicode="u" glyph-name="gid108" horiz-adv-x="1209" d="M550-28Q446-28 371.5,5T248,93T171,215T131.5,352T120,483v597H300V539q0-76 14-147t47.5-128t90-90T593,141q67,0 122,23t94,68.5T869,348t21,163l117-36q0-156-56.5-269T791.5,32.5T550-28ZM910,0V289H890v791h179V0H910Z" />
      <glyph unicode="v" glyph-name="gid113" horiz-adv-x="1046" d="M432,0L40,1080H220L523,227l302,853h181L614,0H432Z" />
      <glyph unicode="w" glyph-name="gid114" horiz-adv-x="1558" d="M370,0L40,1081l177-1L458,290l243,790H858l242-790l242,790h176L1188,0H1040L779,821L518,0H370Z" />
      <glyph unicode="x" glyph-name="gid115" horiz-adv-x="1072" d="M20,0L433,546L29,1080H241L537,684l293,396h212L638,546L1052,0H839L537,408L233,0H20Z" />
      <glyph unicode="y" glyph-name="gid116" horiz-adv-x="1076" d="M290-480L499,88l3-168L30,1080H217L587,147H523l347,933h181L463-480H290Z" />
      <glyph unicode="z" glyph-name="gid119" horiz-adv-x="1062" d="M40,0V32L695,918H94v162H982v-34L328,162H948V0H40Z" />
      <glyph unicode="{" glyph-name="gid196" horiz-adv-x="859" d="M649-432q-113,0-182.5,70T397-181V454q0,28-16,52L295,627q-15,22-15,48.5T295,723l86,121q16,26 16,52v634q0,112 69.5,182T649,1782H774V1612H659q-38,0-65-26.5T567,1520V896q0-82-48-150l-51-71l51-71q48-67 48-150V-171q0-38 27-65t65-27H774V-432H649Z" />
      <glyph unicode="|" glyph-name="gid267" horiz-adv-x="538" d="M180,0V1440H358V0H180Z" />
      <glyph unicode="}" glyph-name="gid197" horiz-adv-x="859" d="M210-432H85v169H200q39,0 65.5,27T292-171V454q0,83 48,150l51,71l-51,71q-48,68-48,150v624q0,39-26.5,65.5T200,1612H85v170H210q113,0 182.5-70T462,1530V896q0-26 16-52l86-121q16-21 16-47.5T564,627L478,506q-16-24-16-52V-181q0-111-69.5-181T210-432Z" />
      <glyph unicode="~" glyph-name="gid250" horiz-adv-x="1360" d="M899,447q-62,0-120,26T667.5,533T566,593t-90,26q-51,0-67-44.5t1-99.5H241q-23,94-4.5,170.5t75,121.5T459,812q63,0 121.5-26t112-60T794,666t90-26q47,0 65.5,43.5T950,787h169q23-93 5-170t-74.5-123.5T899,447Z" />
      <glyph unicode="&#xa0;" glyph-name="gid232" horiz-adv-x="400" />
      <glyph unicode="&#xa1;" glyph-name="gid181" horiz-adv-x="658" d="M240,1080H418V896H240v184Zm0-360H418V-360H240V720Z" />
      <glyph unicode="&#xa2;" glyph-name="gid235" horiz-adv-x="1122" d="M529-59V124q-144,15-243.5,91T134,413.5T80,690q2,157 55,279t152.5,196.5T529,1255v185H676V1254q141-18 242-98.5T1057,946L881,893q-34,94-110.5,146T595,1091q-111,0-183-51.5t-107-142T269,690q2-180 83.5-290.5T595,289q106,0 176,48.5T877,478l180-47q-51-132-148-209.5T676,126V-59H529Z" />
      <glyph unicode="&#xa3;" glyph-name="gid239" horiz-adv-x="1142" d="M70,0V169h77q60,0 102,43.5T291,314v777q0,110 51.5,196T482,1421.5T679,1470q98,0 172-43t128.5-123.5T1072,1112l-162-53q-37,119-92,180t-140,61q-93,0-149.5-59.5T472,1084l-1-915h534V0H70Zm0,643V813H815V643H70Z" />
      <glyph unicode="&#xa4;" glyph-name="gid236" horiz-adv-x="1302" d="M651,196q-108,0-203,41T281,350.5T168,518T127,722q0,108 41,203t113,167t167,113t203,41q109,0 204-41t167.5-113T1136,925t41-203q0-109-41-204T1022.5,350.5T855,237T651,196ZM180,130L60,250L283,473L404,353L180,130ZM284,966L60,1190l120,120l223-223L284,966Zm838-836L899,353l120,120l223-223L1122,130ZM651,352q102,0 186,50.5t133.5,134T1020,720q0,102-50.5,186t-135,133.5T651,1089q-102,0-185.5-49.5T332.5,906T283,720q0-100 49.5-183.5t133-134T651,352Zm368,615L899,1087l223,223l120-120L1019,967Z" />
      <glyph unicode="&#xa5;" glyph-name="gid240" horiz-adv-x="1149" d="M185,519V666H965V519H185Zm0-303V363H965V216H185ZM485,0V599L0,1440H207L575,803l367,637h207L665,599V0H485Z" />
      <glyph unicode="&#xa6;" glyph-name="gid268" horiz-adv-x="538" d="M180,676v764H358V676H180Zm0-1020V420H358V-344H180Z" />
      <glyph unicode="&#xa7;" glyph-name="gid262" horiz-adv-x="1061" d="M551-299q-104,0-196.5,33.5T197-161T110,22L292,51q17-67 60-109t98.5-62T561-140q56,0 105,19t79.5,57T776,31q0,55-32,85.5T644.5,169T471,219q-117,31-201.5,67.5T139.5,377T94,514q0,99 58,161.5t146.5,90T479,786l10-65q-96-26-156-71.5T273,536q0-54 39.5-84.5t109-51T582,356q117-31 201.5-67T914,194.5T960,38q0-110-54-185T759.5-260.5T551-299Zm61,552l-3,67q48,5 93.5,29T777,413.5T806,511q0,55-32,85.5T674.5,649T501,699q-117,31-201.5,67t-130,92T124,1004q0,108 58,178t147.5,104T513,1320q103,0 192.5-38t149-108.5T926,1004L744,971q-12,70-48.5,111.5t-87,60.5T504,1162t-100-17.5t-73.5-50T303,1016q0-54 40.5-85T454,880t158-44q116-31 201-67t131-93.5T990,522q0-101-49-168T806.5,260.5T612,253Z" />
      <glyph unicode="&#xa8;" glyph-name="gid271" horiz-adv-x="1052" d="M632,1636v180H812V1636H632Zm-392,0v180H420V1636H240Z" />
      <glyph unicode="&#xa9;" glyph-name="gid263" horiz-adv-x="1662" d="M831-75Q672-75 532-15T286,151T120,397T60,696q0,160 60,300t166,245.5T532,1407t299,60q160,0 300-60t245.5-165.5T1542,996t60-300q0-159-60-299T1376.5,151T1131-15T831-75Zm11,348q-94,0-166,31.5T549,404q-52,66-72.5,141.5T456,698q1,81 22.5,155.5T549,989q55,67 128.5,99.5T849,1121q55,0 102.5-11t95.5-41q51-30 88.5-77.5T1189,881l-143-41q-11,30-31,57.5T967,946q-26,20-58.5,29.5T842,985q-54,0-99-22t-77-62q-32-41-44-94.5T610,699q0-58 13.5-111T666,494q30-41 75.5-62.5T843,410q76,0 127,37q27,21 44,45.5t29,54.5l146-36q-20-57-54-101.5T1061,336q-45-31-97-47T842,273ZM831,96q124,0 232.5,46.5t191,129t129,192T1430,697t-46.5,232.5t-129,191t-190.5,129T831,1296t-234-46.5t-191.5-129T276.5,930T230,697t46.5-234t129-191.5t192-129T831,96Z" />
      <glyph unicode="&#xaa;" glyph-name="gid125" horiz-adv-x="633" d="M262,540q-89,0-135.5,48.5T80,703q0,60 31.5,100T206,864q50,16 123.5,26.5T482,912l-40-35q3,67-23,98.5T326,1007q-39,0-74-18.5T204,927L100,959q20,69 76.5,110T327,1110q72,0 126.5-24t79.5-77q14-28 17-57.5t3-64.5V555H454V675l16-20q-35-59-84.5-87T262,540Zm21,91q64,0 101,32.5T430,729q9,24 10,55.5t1,47.5l37-13q-78-12-129.5-20T261,780q-32-11-51-29t-19-47q0-31 23-52t69-21Z" />
      <glyph unicode="&#xab;" glyph-name="gid220" horiz-adv-x="1105" d="M873,103L525,541L873,978l102-80L690,541L975,183L873,103Zm-365,0L160,541L508,978l102-80L325,541L610,183L508,103Z" />
      <glyph unicode="&#xac;" glyph-name="gid251" horiz-adv-x="1200" d="M933,384V627H120V774h960V384H933Z" />
      <glyph unicode="&#xad;" glyph-name="gid207" horiz-adv-x="840" d="M120,557V704H720V557H120Z" />
      <glyph unicode="&#xae;" glyph-name="gid264" horiz-adv-x="1270" d="M635,565q-102,0-192,38.5t-158,107t-106.5,158T140,1061q0,102 38.5,191.5T285,1410t158,106.5T635,1555q103,0 192.5-38.5T985,1410t106.5-157.5T1130,1061q0-103-38.5-192.5T985,710.5t-157.5-107T635,565Zm1,130q100,0 183,50T951.5,878t49.5,183q0,101-49.5,184T819,1377t-183,49q-101,0-184-49T319.5,1245T270,1061q0-100 49.5-183T452,745t184-50ZM471,829v468H673q68,0 112-43.5T830,1144q0-41-21.5-78.5T745,1007l88-178H741L662,992H552V829H471Zm81,239H674q30,0 51.5,22t21.5,54q0,36-21,56t-52,20H552V1068Z" />
      <glyph unicode="&#xaf;" glyph-name="gid277" horiz-adv-x="992" d="M240,1680v146H752V1680H240Z" />
      <glyph unicode="&#xb0;" glyph-name="gid266" horiz-adv-x="900" d="M420,750q-99,0-181,48.5t-130.5,130T60,1110q0,98 50,180t132,131t178,49q99,0 180.5-48.5t130.5-130T780,1110T731,928.5t-130.5-130T420,750Zm0,157q55,0 101.5,28t74,74T623,1110t-27.5,101.5t-74,74T420,1313t-101-27.5t-74-74T217,1110t28-101t74-74t101-28Z" />
      <glyph unicode="&#xb1;" glyph-name="gid249" horiz-adv-x="1200" d="M527,440V687H120V834H527v246H674V834h406V687H674V440H527ZM120,148V295h960V148H120Z" />
      <glyph unicode="&#xb2;" glyph-name="gid163" horiz-adv-x="808" d="M100,540l1,112l394,355q48,43 65.5,81.5T578,1165q0,75-48,125.5T408,1341q-51,0-91-24t-62.5-64T233,1167H103q0,87 39.5,153t109,103T410,1460q85,0 152.5-38.5T669,1316t39-152q0-61-16-104t-48.5-79.5T563,901L241,611l-19,49H708V540H100Z" />
      <glyph unicode="&#xb3;" glyph-name="gid164" horiz-adv-x="789" d="M369,519q-100,0-180,56.5T80,728l122,34q19-60 65-91t102-31q77,1 124,50.5T540,816q0,78-47.5,127.5T368,993q-22,0-44.5-6T280,971l-60,99l336,300l19-50H116v120H657V1319L374,1049l-3,51q91,5 158-31.5T632.5,966T669,816q0-86-39.5-153T522,557.5T369,519Z" />
      <glyph unicode="&#xb4;" glyph-name="gid273" horiz-adv-x="1012" d="M544,1605H399l131,330H675L544,1605Z" />
      <glyph unicode="&#xb5;" glyph-name="gid253" horiz-adv-x="1228" d="M139-480V1080H319V539q0-76 14-147t47.5-128t90-90T612,141q67,0 122,23t94,68.5T888,348t21,163v569h179V0H929V143Q870,59 777.5,15.5T569-28Q482-28 413.5,1T298,84V-480H139Z" />
      <glyph unicode="&#xb6;" glyph-name="gid261" horiz-adv-x="1323" d="M683-282V532H592q-13,0-42,1.5T486,540q-115,18-194.5,80T171,777T130,986t40.5,208.5t120,157.5T486,1432q35,6 63.5,7t42.5,1H861V-282H683Zm332,0V1440h178V-282H1015Z" />
      <glyph unicode="&#xb7;" glyph-name="gid184" horiz-adv-x="480" d="M243,510q-51,0-87,34.5T120,630q0,52 36,86t87,34q48,0 82.5-34T360,630q0-51-34.5-85.5T243,510Z" />
      <glyph unicode="&#xb8;" glyph-name="gid278" horiz-adv-x="805" d="M371-481q-37,0-69.5,9.5T240-448l43,115q45-16 73-16q36,0 55.5,22T431-279q0,44-40,63.5T299-181L372,24l121,1L446-107q55-25 88-68.5T567-284q0-85-58-141T371-481Z" />
      <glyph unicode="&#xb9;" glyph-name="gid162" horiz-adv-x="658" d="M290,540v762L120,1199v140l170,101H418V540H290Z" />
      <glyph unicode="&#xba;" glyph-name="gid126" horiz-adv-x="694" d="M347,540q-122,0-194.5,80T80,826q0,127 74,205.5T347,1110q122,0 194.5-79.5T614,826q0-127-73-206.5T347,540Zm-1,106q75,0 112,50t37,130q0,81-37.5,130T346,1005q-75,0-110.5-49.5T200,825t36.5-130T346,646Z" />
      <glyph unicode="&#xbb;" glyph-name="gid221" horiz-adv-x="1105" d="M232,103L130,183L415,541L130,898l102,80L580,541L232,103Zm365,0L495,183L780,541L495,898l102,80L945,541L597,103Z" />
      <glyph unicode="&#xbc;" glyph-name="gid173" horiz-adv-x="1988" d="M290,540v762L120,1199v140l170,101H418V540H290ZM1531,0V159H1122V279l294,621h144L1266,279h265V525h127V279h90V159h-90V0H1531ZM429,0L315,87L1344,1447l113-87L429,0Z" />
      <glyph unicode="&#xbd;" glyph-name="gid172" horiz-adv-x="1922" d="M290,540v762L120,1199v140l170,101H418V540H290ZM1214,0l1,112l394,355q48,43 65.5,81.5T1692,625q0,75-48,125.5T1522,801q-51,0-91-24t-63-64t-21-86H1217q0,87 39.5,153.5t108.5,103T1524,920q85,0 152-38.5T1782.5,776T1822,624q0-61-16.5-104T1757,440.5T1677,361L1355,71l-19,49h486V0H1214ZM429,0L315,87L1344,1447l113-87L429,0Z" />
      <glyph unicode="&#xbe;" glyph-name="gid174" horiz-adv-x="1991" d="M369,519q-100,0-180,56.5T80,728l122,34q19-60 65-91t102-31q77,1 124,50.5T540,816q0,78-47.5,127.5T368,993q-22,0-44.5-6T280,971l-60,99l336,300l19-50H116v120H657V1319L374,1049l-3,51q91,5 158-31.5T632.5,966T669,816q0-86-39.5-153T522,557.5T369,519ZM1654,0V159H1245V279l294,621h144L1389,279h265V525h127V279h90V159h-90V0H1654ZM560,0L446,87L1475,1447l113-87L560,0Z" />
      <glyph unicode="&#xbf;" glyph-name="gid183" horiz-adv-x="1067" d="M652,688q0-75-9-136T601,432q-28-55-68.5-90.5t-86-68.5T355,191q-38-44-52-89.5T289,4q0-44 11-80t34-64q36-44 90-61.5T535-219q56,0 104.5,15.5T719-157q34,30 48.5,71.5T781,3H967q-6-86-41-165T827-292q-58-49-134-73T539-389q-102,0-193,31.5T193-255q-46,52-69.5,118.5T100,1q0,90 36,167t95,138q34,36 72.5,66.5T376,433t54,65q28,48 30.5,88T463,688H652Zm-1,392V861H463v219H651Z" />
      <glyph unicode="&#xc0;" glyph-name="gid6" horiz-adv-x="1292" d="M556,1605L425,1935H570l131-330H556ZM1252,0H1067L620,1336h56L225,0H40L522,1440H770L1252,0ZM1020,337H272V504h748V337Z" />
      <glyph unicode="&#xc1;" glyph-name="gid2" horiz-adv-x="1292" d="M736,1605H591l131,330H867L736,1605ZM40,0L522,1440H770L1252,0H1067L616,1336h56L225,0H40ZM272,337V504h748V337H272Z" />
      <glyph unicode="&#xc2;" glyph-name="gid4" horiz-adv-x="1292" d="M322,1605l244,285H724l244-285H793L645,1780L497,1605H322ZM40,0L522,1440H770L1252,0H1067L616,1336h56L225,0H40ZM272,337V504h748V337H272Z" />
      <glyph unicode="&#xc3;" glyph-name="gid8" horiz-adv-x="1292" d="M802,1658q-44,0-85,18.5T638,1719t-72,42.5T502,1780q-36,0-47-31.5t0-70.5H335q-24,100 17,169.5T490,1917q45,0 86-18.5t79.5-42.5t72.5-42.5t63-18.5q34,0 47,31t0,73H958q25-98-16-169.5T802,1658ZM40,0L522,1440H770L1252,0H1067L616,1336h56L225,0H40ZM272,337V504h748V337H272Z" />
      <glyph unicode="&#xc4;" glyph-name="gid5" horiz-adv-x="1292" d="M753,1636v180H933V1636H753Zm-392,0v180H541V1636H361ZM40,0L522,1440H770L1252,0H1067L616,1336h56L225,0H40ZM272,337V504h748V337H272Z" />
      <glyph unicode="&#xc5;" glyph-name="gid7" horiz-adv-x="1292" d="M647,1555q-63,0-116,31.5t-84.5,84T415,1787t31.5,116.5t84,84T647,2019q65,0 117.5-31.5t83.5-84T879,1787t-31-116.5t-84-84T647,1555Zm0,122q47,0 78.5,32.5T757,1787q0,46-31.5,78T647,1897q-45,0-77.5-32T537,1787q0-45 32.5-77.5T647,1677ZM40,0L522,1440H770L1252,0H1067L616,1336h56L225,0H40ZM272,337V504h748V337H272Z" />
      <glyph unicode="&#xc6;" glyph-name="gid9" horiz-adv-x="1850" d="M40,0L522,1440H905V1271H581l90,64L225,0H40ZM272,337V504H970V337H272ZM840,0V1440h910V1271H1018V820h612V651H1018V169h732V0H840Z" />
      <glyph unicode="&#xc7;" glyph-name="gid12" horiz-adv-x="1446" d="M715-481q-37,0-69.5,9.5T584-448l43,115q45-16 73-16q36,0 55.5,22T775-279q0,44-40,63.5T643-181L716,24l121,1L790-107q55-25 88-68.5T911-284q0-85-58-141T715-481ZM732-30Q517-30 367,65T138.5,329T60,720t78.5,391T367,1375t365,95q250,0 411.5-127T1366,1001l-181-48q-44,161-157,254t-296,93q-161,0-268-73T303,1023.5T248,720q-1-172 53-302.5t162-204T732,140q183,0 296,93.5T1185,487l181-48q-61-214-222.5-341.5T732-30Z" />
      <glyph unicode="&#xc8;" glyph-name="gid19" horiz-adv-x="1150" d="M550,1605L419,1935H564l131-330H550ZM140,0V1440h910V1271H318V820H930V651H318V169h732V0H140Z" />
      <glyph unicode="&#xc9;" glyph-name="gid16" horiz-adv-x="1150" d="M693,1605H548l131,330H824L693,1605ZM140,0V1440h910V1271H318V820H930V651H318V169h732V0H140Z" />
      <glyph unicode="&#xca;" glyph-name="gid17" horiz-adv-x="1150" d="M260,1605l244,285H662l244-285H731L583,1780L435,1605H260ZM140,0V1440h910V1271H318V820H930V651H318V169h732V0H140Z" />
      <glyph unicode="&#xcb;" glyph-name="gid18" horiz-adv-x="1150" d="M685,1636v180H865V1636H685Zm-392,0v180H473V1636H293ZM140,0V1440h910V1271H318V820H930V651H318V169h732V0H140Z" />
      <glyph unicode="&#xcc;" glyph-name="gid27" horiz-adv-x="498" d="M174,1605L43,1935H188l131-330H174ZM160,0V1440H338V0H160Z" />
      <glyph unicode="&#xcd;" glyph-name="gid24" horiz-adv-x="498" d="M325,1605H180l131,330H456L325,1605ZM160,0V1440H338V0H160Z" />
      <glyph unicode="&#xce;" glyph-name="gid25" horiz-adv-x="498" d="M-76,1605l244,285H326l244-285H395L247,1780L99,1605H-76ZM160,0V1440H338V0H160Z" />
      <glyph unicode="&#xcf;" glyph-name="gid26" horiz-adv-x="498" d="M355,1636v180H535V1636H355Zm-392,0v180H143V1636H-37ZM160,0V1440H338V0H160Z" />
      <glyph unicode="&#xd0;" glyph-name="gid14" horiz-adv-x="1355" d="M20,647V794H665V647H20ZM133,0V1440H577q22,0 77-1t105-8q167-22 279.5-121.5T1208,1057t57-337t-57-337T1038.5,130.5T759,9Q709,3 653.5,1.5T577,0H133ZM316,170H577q38,0 85,2.5t82,8.5q118,22 191,99t107,192t34,248q0,136-34.5,251T934,1162t-190,97q-35,7-83,9t-84,2H316V170Z" />
      <glyph unicode="&#xd1;" glyph-name="gid33" horiz-adv-x="1391" d="M876,1608q-44,0-85,18.5T712,1669t-72,42.5T576,1730q-36,0-47-31.5t0-70.5H409q-24,100 17,169.5T564,1867q45,0 86-18.5t79.5-42.5t72.5-42.5t63-18.5q34,0 47,31t0,73h120q25-98-16-169.5T876,1608ZM140,0V1440H320L1071,315V1440h180V0H1071L320,1126V0H140Z" />
      <glyph unicode="&#xd2;" glyph-name="gid38" horiz-adv-x="1464" d="M650,1605L519,1935H664l131-330H650ZM732-30Q517-30 367,65T138.5,329T60,720t78.5,391T367,1375t365,95q216,0 366-95t228-264t78-391t-78-391T1098,65T732-30Zm0,170q161-1 268.5,72.5t161,204.5T1215,720q0,173-53.5,303t-161,203T732,1300t-267.5-72T304,1024T249,720q-1-172 53-302T463.5,214.5T732,140Z" />
      <glyph unicode="&#xd3;" glyph-name="gid35" horiz-adv-x="1464" d="M820,1605H675l131,330H951L820,1605ZM732-30Q517-30 367,65T138.5,329T60,720t78.5,391T367,1375t365,95q216,0 366-95t228-264t78-391t-78-391T1098,65T732-30Zm0,170q161-1 268.5,72.5t161,204.5T1215,720q0,173-53.5,303t-161,203T732,1300t-267.5-72T304,1024T249,720q-1-172 53-302T463.5,214.5T732,140Z" />
      <glyph unicode="&#xd4;" glyph-name="gid36" horiz-adv-x="1464" d="M407,1605l244,285H809l244-285H878L730,1780L582,1605H407ZM732-30Q517-30 367,65T138.5,329T60,720t78.5,391T367,1375t365,95q216,0 366-95t228-264t78-391t-78-391T1098,65T732-30Zm0,170q161-1 268.5,72.5t161,204.5T1215,720q0,173-53.5,303t-161,203T732,1300t-267.5-72T304,1024T249,720q-1-172 53-302T463.5,214.5T732,140Z" />
      <glyph unicode="&#xd5;" glyph-name="gid40" horiz-adv-x="1464" d="M732-30Q517-30 367,65T138.5,329T60,720t78.5,391T367,1375t365,95q216,0 366-95t228-264t78-391t-78-391T1098,65T732-30Zm0,170q161-1 268.5,72.5t161,204.5T1215,720q0,173-53.5,303t-161,203T732,1300t-267.5-72T304,1024T249,720q-1-172 53-302T463.5,214.5T732,140ZM902,1608q-44,0-85,18.5T738,1669t-72,42.5T602,1730q-36,0-47-31.5t0-70.5H435q-24,100 17,169.5T590,1867q45,0 86-18.5t79.5-42.5t72.5-42.5t63-18.5q34,0 47,31t0,73h120q25-98-16-169.5T902,1608Z" />
      <glyph unicode="&#xd6;" glyph-name="gid37" horiz-adv-x="1464" d="M838,1636v180h180V1636H838Zm-392,0v180H626V1636H446ZM732-30Q517-30 367,65T138.5,329T60,720t78.5,391T367,1375t365,95q216,0 366-95t228-264t78-391t-78-391T1098,65T732-30Zm0,170q161-1 268.5,72.5t161,204.5T1215,720q0,173-53.5,303t-161,203T732,1300t-267.5-72T304,1024T249,720q-1-172 53-302T463.5,214.5T732,140Z" />
      <glyph unicode="&#xd7;" glyph-name="gid244" horiz-adv-x="988" d="M765,346L494,617L224,346L120,451L390,721L121,990l104,104L494,825l270,269L868,990L598,721L868,451L765,346Z" />
      <glyph unicode="&#xd8;" glyph-name="gid39" horiz-adv-x="1464" d="M179-26L52,88L231,285l28,27l844,925l16,21l186,205l127-114l-202-223l-21-17L365,182l-20-26L179-26Zm553-4Q517-30 367,65T138.5,329T60,720t78.5,391T367,1375t365,95q216,0 366-95t228-264t78-391t-78-391T1098,65T732-30Zm0,170q161-1 268.5,72.5t161,204.5T1215,720q0,173-53.5,303t-161,203T732,1300t-267.5-72T304,1024T249,720q-1-172 53-302T463.5,214.5T732,140Z" />
      <glyph unicode="&#xd9;" glyph-name="gid52" horiz-adv-x="1416" d="M656,1605L525,1935H670l131-330H656ZM708-30Q541-30 413,39T212.5,232.5T140,525v914l180,1V540q0-102 34.5-177.5T446,237t125.5-74.5T708,138q69,0 138,25t125.5,74.5T1062,363t34,177v900h180V525q0-167-72.5-292T1003,39T708-30Z" />
      <glyph unicode="&#xda;" glyph-name="gid49" horiz-adv-x="1416" d="M768,1605H623l131,330H899L768,1605ZM708-30Q541-30 413,39T212.5,232.5T140,525v914l180,1V540q0-102 34.5-177.5T446,237t125.5-74.5T708,138q69,0 138,25t125.5,74.5T1062,363t34,177v900h180V525q0-167-72.5-292T1003,39T708-30Z" />
      <glyph unicode="&#xdb;" glyph-name="gid50" horiz-adv-x="1416" d="M383,1605l244,285H785l244-285H854L706,1780L558,1605H383ZM708-30Q541-30 413,39T212.5,232.5T140,525v914l180,1V540q0-102 34.5-177.5T446,237t125.5-74.5T708,138q69,0 138,25t125.5,74.5T1062,363t34,177v900h180V525q0-167-72.5-292T1003,39T708-30Z" />
      <glyph unicode="&#xdc;" glyph-name="gid51" horiz-adv-x="1416" d="M814,1636v180H994V1636H814Zm-392,0v180H602V1636H422ZM708-30Q541-30 413,39T212.5,232.5T140,525v914l180,1V540q0-102 34.5-177.5T446,237t125.5-74.5T708,138q69,0 138,25t125.5,74.5T1062,363t34,177v900h180V525q0-167-72.5-292T1003,39T708-30Z" />
      <glyph unicode="&#xdd;" glyph-name="gid57" horiz-adv-x="1149" d="M633,1605H488l131,330H764L633,1605ZM485,0V599L0,1440H207L575,803l367,637h207L665,599V0H485Z" />
      <glyph unicode="&#xde;" glyph-name="gid43" horiz-adv-x="1213" d="M140,0V1440H320V1174H696q77,0 150-26q56-18 105.5-51.5T1037,1017q55-60 85.5-138T1153,720q1-78-27.5-152T1048,434q-60-76-154-121.5T696,267H320V0H140ZM320,436H695q58,0 115.5,28.5T907,542q30,38 47.5,84T970,720q-1,55-21,106.5T891,916q-36,39-89,63.5T695,1004H320V436Z" />
      <glyph unicode="&#xdf;" glyph-name="gid106" horiz-adv-x="1221" d="M646-29q-55,0-99.5,6.5T462,0V175q37-13 76.5-20.5T626,147q132,0 213,69.5T920,417q0,130-99.5,198.5T559,686V846q67,7 121,34t85,75.5T796,1076q0,107-67,166t-170,59q-70,0-128.5-30T345,1172q-12-31-17.5-72.5T322,1014V0H139V1062q0,47 5.5,87t17.5,73q30,85 87.5,140T386,1443.5T558,1470q121,0 216-48t149.5-136T978,1078q0-95-39-171.5T822,791q49-12 98.5-42.5t90-78.5T1076,558t25-143q0-203-116.5-323.5T646-29Z" />
      <glyph unicode="&#xe0;" glyph-name="gid63" horiz-adv-x="1125" d="M505,1245L374,1575H519l131-330H505ZM447-30Q326-30 244.5,14.5T121.5,132T80,292q0,85 32.5,147.5t91.5,104T345,609q77,21 172.5,36.5T711,674t183,25l-64-37q3,144-57.5,213T564,944q-98,0-171.5-44.5T289,755L120,806q39,142 151,223t295,81q147,0 252.5-52.5T970,899q23-50 29-108.5t6-122.5V0H847V259l37-24Q823,104 713.5,37T447-30Zm27,149q96,0 166.5,34.5t113.5,91T810,368q15,50 16.5,111.5T828,574l62-27q-87-12-171-23T560,500.5T425,471q-44-14-82.5-36t-62-56.5T257,293q0-44 22.5-84t70-65T474,119Z" />
      <glyph unicode="&#xe1;" glyph-name="gid60" horiz-adv-x="1125" d="M649,1245H504l131,330H780L649,1245ZM447-30Q326-30 244.5,14.5T121.5,132T80,292q0,85 32.5,147.5t91.5,104T345,609q77,21 172.5,36.5T711,674t183,25l-64-37q3,144-57.5,213T564,944q-98,0-171.5-44.5T289,755L120,806q39,142 151,223t295,81q147,0 252.5-52.5T970,899q23-50 29-108.5t6-122.5V0H847V259l37-24Q823,104 713.5,37T447-30Zm27,149q96,0 166.5,34.5t113.5,91T810,368q15,50 16.5,111.5T828,574l62-27q-87-12-171-23T560,500.5T425,471q-44-14-82.5-36t-62-56.5T257,293q0-44 22.5-84t70-65T474,119Z" />
      <glyph unicode="&#xe2;" glyph-name="gid61" horiz-adv-x="1125" d="M254,1245l244,285H656l244-285H725L577,1420L429,1245H254ZM447-30Q326-30 244.5,14.5T121.5,132T80,292q0,85 32.5,147.5t91.5,104T345,609q77,21 172.5,36.5T711,674t183,25l-64-37q3,144-57.5,213T564,944q-98,0-171.5-44.5T289,755L120,806q39,142 151,223t295,81q147,0 252.5-52.5T970,899q23-50 29-108.5t6-122.5V0H847V259l37-24Q823,104 713.5,37T447-30Zm27,149q96,0 166.5,34.5t113.5,91T810,368q15,50 16.5,111.5T828,574l62-27q-87-12-171-23T560,500.5T425,471q-44-14-82.5-36t-62-56.5T257,293q0-44 22.5-84t70-65T474,119Z" />
      <glyph unicode="&#xe3;" glyph-name="gid65" horiz-adv-x="1125" d="M746,1248q-44,0-85,18.5T582,1309t-72,42.5T446,1370q-36,0-47-31.5t0-70.5H279q-24,100 17,169.5T434,1507q45,0 86-18.5t79.5-42.5t72.5-42.5t63-18.5q34,0 47,31t0,73H902q25-98-16-169.5T746,1248ZM447-30Q326-30 244.5,14.5T121.5,132T80,292q0,85 32.5,147.5t91.5,104T345,609q77,21 172.5,36.5T711,674t183,25l-64-37q3,144-57.5,213T564,944q-98,0-171.5-44.5T289,755L120,806q39,142 151,223t295,81q147,0 252.5-52.5T970,899q23-50 29-108.5t6-122.5V0H847V259l37-24Q823,104 713.5,37T447-30Zm27,149q96,0 166.5,34.5t113.5,91T810,368q15,50 16.5,111.5T828,574l62-27q-87-12-171-23T560,500.5T425,471q-44-14-82.5-36t-62-56.5T257,293q0-44 22.5-84t70-65T474,119Z" />
      <glyph unicode="&#xe4;" glyph-name="gid62" horiz-adv-x="1125" d="M690,1276v180H870V1276H690Zm-392,0v180H478V1276H298ZM447-30Q326-30 244.5,14.5T121.5,132T80,292q0,85 32.5,147.5t91.5,104T345,609q77,21 172.5,36.5T711,674t183,25l-64-37q3,144-57.5,213T564,944q-98,0-171.5-44.5T289,755L120,806q39,142 151,223t295,81q147,0 252.5-52.5T970,899q23-50 29-108.5t6-122.5V0H847V259l37-24Q823,104 713.5,37T447-30Zm27,149q96,0 166.5,34.5t113.5,91T810,368q15,50 16.5,111.5T828,574l62-27q-87-12-171-23T560,500.5T425,471q-44-14-82.5-36t-62-56.5T257,293q0-44 22.5-84t70-65T474,119Z" />
      <glyph unicode="&#xe5;" glyph-name="gid64" horiz-adv-x="1125" d="M577,1195q-64,0-116.5,31.5t-84,84T345,1427t31.5,116.5t84,84T577,1659t116.5-31.5t84-84T809,1427t-31.5-116.5t-84-84T577,1195Zm0,122q46,0 78,32.5t32,77.5q0,46-32,78t-78,32q-45,0-77.5-32T467,1427q0-45 32.5-77.5T577,1317ZM447-30Q326-30 244.5,14.5T121.5,132T80,292q0,85 32.5,147.5t91.5,104T345,609q77,21 172.5,36.5T711,674t183,25l-64-37q3,144-57.5,213T564,944q-98,0-171.5-44.5T289,755L120,806q39,142 151,223t295,81q147,0 252.5-52.5T970,899q23-50 29-108.5t6-122.5V0H847V259l37-24Q823,104 713.5,37T447-30Zm27,149q96,0 166.5,34.5t113.5,91T810,368q15,50 16.5,111.5T828,574l62-27q-87-12-171-23T560,500.5T425,471q-44-14-82.5-36t-62-56.5T257,293q0-44 22.5-84t70-65T474,119Z" />
      <glyph unicode="&#xe6;" glyph-name="gid66" horiz-adv-x="1880" d="M1335-30q-156,0-268,73T895,243T835,534q0,172 59.5,302T1065,1038t264,72q161,0 267.5-78.5T1754,813t44-323H1628v64q-3,185-70.5,290.5T1327,950q-110,0-179.5-52.5t-102-145T1013,540q0-182 79.5-291.5T1327,139q97,0 173,47.5T1619,329l161-59q-39-96-106.5-163T1519,5T1335-30ZM474,118q108,0 192,50T786,290q22,43 31.5,92.5t11,93.5t0.5,70l51-37L591,495q-43-2-100-8.5t-110-26t-88.5-59T257,295q0-83 58-130t159-47ZM458-30Q279-30 179.5,58.5T80,291q0,89 34.5,148.5t90.5,95t121,54t127.5,26T563,625l297,16l-33-32q9,115-19,189T719,908T567,944q-96,0-173-42T286,762L120,813q29,91 92.5,157.5t155,103T570,1110q170,0 274-72T984,837q15-48 18-94.5t3-82.5L923,256Q877,149 805,86.5T644-3T458-30ZM956,490V637h755V490H956Z" />
      <glyph unicode="&#xe7;" glyph-name="gid69" horiz-adv-x="1122" d="M551-481q-37,0-69.5,9.5T420-448l43,115q45-16 73-16q36,0 55.5,22T611-279q0,44-40,63.5T479-181L552,24l121,1L626-107q55-25 88-68.5T747-284q0-85-58-141T551-481ZM595-30Q431-30 316.5,43.5T142,246T80,540q2,169 63.5,297.5T320,1038t277,72q171,0 294.5-84T1057,796L881,743q-34,94-110.5,146T595,941q-111,0-183-51.5t-107-142T269,540q2-180 83.5-290.5T595,139q106,0 176,48.5T877,328l180-47Q1001,130 882,50T595-30Z" />
      <glyph unicode="&#xe8;" glyph-name="gid76" horiz-adv-x="1181" d="M538,1245L407,1575H552l131-330H538ZM608-30Q449-30 330.5,40.5T146,237.5T80,533q0,177 65,306.5t181.5,200T600,1110q163,0 277.5-75t172-214T1099,490H919v64q-3,199-81,297.5T606,950q-165,0-251-106T269,540q0-191 86-296T600,139q107,0 186,49T910,329l171-59Q1018,127 891.5,48.5T608-30ZM209,490V633h798V490H209Z" />
      <glyph unicode="&#xe9;" glyph-name="gid73" horiz-adv-x="1181" d="M694,1245H549l131,330H825L694,1245ZM608-30Q449-30 330.5,40.5T146,237.5T80,533q0,177 65,306.5t181.5,200T600,1110q163,0 277.5-75t172-214T1099,490H919v64q-3,199-81,297.5T606,950q-165,0-251-106T269,540q0-191 86-296T600,139q107,0 186,49T910,329l171-59Q1018,127 891.5,48.5T608-30ZM209,490V633h798V490H209Z" />
      <glyph unicode="&#xea;" glyph-name="gid74" horiz-adv-x="1181" d="M275,1245l244,285H677l244-285H746L598,1420L450,1245H275ZM608-30Q449-30 330.5,40.5T146,237.5T80,533q0,177 65,306.5t181.5,200T600,1110q163,0 277.5-75t172-214T1099,490H919v64q-3,199-81,297.5T606,950q-165,0-251-106T269,540q0-191 86-296T600,139q107,0 186,49T910,329l171-59Q1018,127 891.5,48.5T608-30ZM209,490V633h798V490H209Z" />
      <glyph unicode="&#xeb;" glyph-name="gid75" horiz-adv-x="1181" d="M706,1276v180H886V1276H706Zm-392,0v180H494V1276H314ZM608-30Q449-30 330.5,40.5T146,237.5T80,533q0,177 65,306.5t181.5,200T600,1110q163,0 277.5-75t172-214T1099,490H919v64q-3,199-81,297.5T606,950q-165,0-251-106T269,540q0-191 86-296T600,139q107,0 186,49T910,329l171-59Q1018,127 891.5,48.5T608-30ZM209,490V633h798V490H209Z" />
      <glyph unicode="&#xec;" glyph-name="gid86" horiz-adv-x="498" d="M174,1245L43,1575H188l131-330H174ZM160,0V1080H338V0H160Z" />
      <glyph unicode="&#xed;" glyph-name="gid82" horiz-adv-x="498" d="M325,1245H180l131,330H456L325,1245ZM160,0V1080H338V0H160Z" />
      <glyph unicode="&#xee;" glyph-name="gid83" horiz-adv-x="498" d="M-66,1245l244,285H336l244-285H405L257,1420L109,1245H-66ZM160,0V1080H338V0H160Z" />
      <glyph unicode="&#xef;" glyph-name="gid84" horiz-adv-x="498" d="M355,1276v180H535V1276H355Zm-392,0v180H143V1276H-37ZM160,0V1080H338V0H160Z" />
      <glyph unicode="&#xf0;" glyph-name="gid71" horiz-adv-x="1174" d="M588-30Q433-31 319.5,36t-176,187.5T80,503q1,161 64,281.5t176.5,187T588,1037q92,1 175.5-30.5T918,908q-15,123-81,219T666.5,1281.5T431,1349l26,144q165-7 289.5-75.5T948,1224q56-81 88-178t45-227t13-311q0-164-61.5-285.5T857.5,35T588-30Zm0,162q158,0 241.5,100T913,505q0,174-85.5,273T588,875q-158,2-242.5-97.5T261,504q0-176 85-274t242-98Zm35,976l-107,92l304,365l107-92L623,1108Z" />
      <glyph unicode="&#xf1;" glyph-name="gid92" horiz-adv-x="1209" d="M761,1248q-44,0-85,18.5T597,1309t-72,42.5T461,1370q-36,0-47-31.5t0-70.5H294q-24,100 17,169.5T449,1507q45,0 86-18.5t79.5-42.5t72.5-42.5t63-18.5q34,0 47,31t0,73H917q25-98-16-169.5T761,1248ZM909,0V541q0,77-13.5,148t-47,127.5t-90,89.5T616,939q-67,0-121.5-22.5T401,848T340.5,732.5T319,569L202,605q0,157 56.5,269.5t159,173T659,1108q105,0 179-33t123-87.5t77-122t39.5-137T1089,597V0H909ZM139,0V1080H299V791h20V0H139Z" />
      <glyph unicode="&#xf2;" glyph-name="gid97" horiz-adv-x="1201" d="M518,1245L387,1575H532l131-330H518ZM600-30Q439-30 322.5,43T143,245T80,541q0,170 64,298t181,199.5T600,1110q162,0 279-72.5t179.5-201T1121,541q0-169-63-297.5T878,42.5T600-30Zm0,169q168,0 250,112t82,290q0,183-83,291.5T600,941q-113,0-186-51T305,749T269,541q0-182 84-292T600,139Z" />
      <glyph unicode="&#xf3;" glyph-name="gid94" horiz-adv-x="1201" d="M673,1245H528l131,330H804L673,1245ZM600-30Q439-30 322.5,43T143,245T80,541q0,170 64,298t181,199.5T600,1110q162,0 279-72.5t179.5-201T1121,541q0-169-63-297.5T878,42.5T600-30Zm0,169q168,0 250,112t82,290q0,183-83,291.5T600,941q-113,0-186-51T305,749T269,541q0-182 84-292T600,139Z" />
      <glyph unicode="&#xf4;" glyph-name="gid95" horiz-adv-x="1201" d="M276,1245l244,285H678l244-285H747L599,1420L451,1245H276ZM600-30Q439-30 322.5,43T143,245T80,541q0,170 64,298t181,199.5T600,1110q162,0 279-72.5t179.5-201T1121,541q0-169-63-297.5T878,42.5T600-30Zm0,169q168,0 250,112t82,290q0,183-83,291.5T600,941q-113,0-186-51T305,749T269,541q0-182 84-292T600,139Z" />
      <glyph unicode="&#xf5;" glyph-name="gid99" horiz-adv-x="1201" d="M757,1248q-44,0-85,18.5T593,1309t-72,42.5T457,1370q-36,0-47-31.5t0-70.5H290q-24,100 17,169.5T445,1507q45,0 86-18.5t79.5-42.5t72.5-42.5t63-18.5q34,0 47,31t0,73H913q25-98-16-169.5T757,1248ZM600-30Q439-30 322.5,43T143,245T80,541q0,170 64,298t181,199.5T600,1110q162,0 279-72.5t179.5-201T1121,541q0-169-63-297.5T878,42.5T600-30Zm0,169q168,0 250,112t82,290q0,183-83,291.5T600,941q-113,0-186-51T305,749T269,541q0-182 84-292T600,139Z" />
      <glyph unicode="&#xf6;" glyph-name="gid96" horiz-adv-x="1201" d="M707,1276v180H887V1276H707Zm-392,0v180H495V1276H315ZM600-30Q439-30 322.5,43T143,244.5T80,541q0,170 64,298t181,199.5T600,1110q162,0 279-72.5t179.5-201T1121,541q0-169-63-297.5T878,42.5T600-30Zm0,169q168,0 250,112t82,290q0,183-83,291.5T600,941q-113,0-186-51T305,749T269,541q0-182 84-292T600,139Z" />
      <glyph unicode="&#xf7;" glyph-name="gid245" horiz-adv-x="1080" d="M120,647V794H960V647H120ZM492,902v196H688V902H492Zm0-484V614H688V418H492Z" />
      <glyph unicode="&#xf8;" glyph-name="gid98" horiz-adv-x="1201" d="M164-15L44,105L217,278l52,31L863,901l23,44l151,150l120-120L990,810l-44-24L364,204l-36-55L164-15ZM600-30Q439-30 322.5,43T143,245T80,541q0,170 64,298t181,199.5T600,1110q162,0 279-72.5t179.5-201T1121,541q0-169-63-297.5T878,42.5T600-30Zm0,169q168,0 250,112t82,290q0,183-83,291.5T600,941q-113,0-186-51T305,749T269,541q0-182 84-292T600,139Z" />
      <glyph unicode="&#xf9;" glyph-name="gid112" horiz-adv-x="1209" d="M535,1245L404,1575H549l131-330H535ZM550-28Q446-28 371.5,5T248,93T171,215T131.5,352T120,483v597H300V539q0-76 14-147t47.5-128t90-90T593,141q67,0 122,23t94,68.5T869,348t21,163l117-36q0-156-56.5-269T791.5,32.5T550-28ZM910,0V289H890v791h179V0H910Z" />
      <glyph unicode="&#xfa;" glyph-name="gid109" horiz-adv-x="1209" d="M660,1245H515l131,330H791L660,1245ZM550-28Q446-28 371.5,5T248,93T171,215T131.5,352T120,483v597H300V539q0-76 14-147t47.5-128t90-90T593,141q67,0 122,23t94,68.5T869,348t21,163l117-36q0-156-56.5-269T791.5,32.5T550-28ZM910,0V289H890v791h179V0H910Z" />
      <glyph unicode="&#xfb;" glyph-name="gid110" horiz-adv-x="1209" d="M269,1245l244,285H671l244-285H740L592,1420L444,1245H269ZM550-28Q446-28 371.5,5T248,93T171,215T131.5,352T120,483v597H300V539q0-76 14-147t47.5-128t90-90T593,141q67,0 122,23t94,68.5T869,348t21,163l117-36q0-156-56.5-269T791.5,32.5T550-28ZM910,0V289H890v791h179V0H910Z" />
      <glyph unicode="&#xfc;" glyph-name="gid111" horiz-adv-x="1209" d="M700,1276v180H880V1276H700Zm-392,0v180H488V1276H308ZM550-28Q446-28 371.5,5T248,93T171,215T131.5,352T120,483v597H300V539q0-76 14-147t47.5-128t90-90T593,141q67,0 122,23t94,68.5T869,348t21,163l117-36q0-156-56.5-269T791.5,32.5T550-28ZM910,0V289H890v791h179V0H910Z" />
      <glyph unicode="&#xfd;" glyph-name="gid117" horiz-adv-x="1076" d="M615,1245H470l131,330H746L615,1245ZM290-480L499,88l3-168L30,1080H217L587,147H523l347,933h181L463-480H290Z" />
      <glyph unicode="&#xfe;" glyph-name="gid102" horiz-adv-x="1200" d="M140,823v617H319V823H140ZM636-30Q484-30 380,45.5t-157.5,205T169,541q0,163 53.5,292t158,203T637,1110q150,0 258.5-74.5T1062,832t58-291t-58-291T895.5,45.5T636-30ZM139-480V1080H298V285h20V-480H139ZM614,133q107,0 177,54T896,333.5T931,541q0,114-34.5,206t-106,146T609,947q-105,0-174-51.5t-103-143T298,541q0-118 33.5-210.5T435,185.5T614,133Z" />
      <glyph unicode="&#xff;" glyph-name="gid118" horiz-adv-x="1076" d="M655,1276v180H835V1276H655Zm-392,0v180H443V1276H263ZM290-480L499,88l3-168L30,1080H217L587,147H523l347,933h181L463-480H290Z" />
      <glyph unicode="&#x2013;" glyph-name="gid208" horiz-adv-x="1080" d="M120,557V704H960V557H120Z" />
      <glyph unicode="&#x2014;" glyph-name="gid209" horiz-adv-x="1560" d="M120,557V704H1440V557H120Z" />
      <glyph unicode="&#x2018;" glyph-name="gid218" horiz-adv-x="485" d="M335,990q-93-17-144.5,36T139,1184v256H335V1214H232q-3-40 3-73t27-52t62-16l11-83Z" />
      <glyph unicode="&#x2019;" glyph-name="gid219" horiz-adv-x="485" d="M150,990l11,83q42-3 63,16t27,52t2,73H150v226H346V1184q0-105-51.5-158T150,990Z" />
      <glyph unicode="&#x201a;" glyph-name="gid214" horiz-adv-x="556" d="M120-224l11,83q42-3 63,16t27,52t2,73H120V226H316V-30q0-105-51.5-158T120-224Z" />
      <glyph unicode="&#x201c;" glyph-name="gid216" horiz-adv-x="797" d="M637,1448l-11-83q-41,3-62-16t-27-52t-3-73H637V998H441v256q0,105 51.5,158.5T637,1448Zm-281,0l-11-83q-41,3-62-16t-27-52t-3-73H356V998H160v256q0,105 51.5,158.5T356,1448Z" />
      <glyph unicode="&#x201d;" glyph-name="gid217" horiz-adv-x="797" d="M160,1000l11,83q42-3 63,16t27,52t2,73H160v226H356V1194q0-105-51.5-158T160,1000Zm281,0l11,83q42-3 63,16t27,52t2,73H441v226H637V1194q0-105-51.5-158T441,1000Z" />
      <glyph unicode="&#x201e;" glyph-name="gid215" horiz-adv-x="797" d="M160-224l11,83q42-3 63,16t27,52t2,73H160V226H356V-30q0-105-51.5-158T160-224Zm281,0l11,83q42-3 63,16t27,52t2,73H441V226H637V-30q0-105-51.5-158T441-224Z" />
      <glyph unicode="&#x2022;" glyph-name="gid185" horiz-adv-x="1340" d="M675,380q-71,0-128.5,33t-92,89.5T420,630t34.5,128t92,89.5T675,880q66,0 122-32.5T886.5,758T920,630T886.5,502.5T797,413T675,380Z" />
      <glyph unicode="&#x2039;" glyph-name="gid222" horiz-adv-x="1244" d="M753,157L280,630l473,473L865,992L497,630L865,268L753,157Z" />
      <glyph unicode="&#x203a;" glyph-name="gid223" horiz-adv-x="1244" d="M491,157L379,268L747,630L379,992l112,111L964,630L491,157Z" />
    </font>
</defs>
</svg>
