<?xml version="1.0" standalone="no"?>
<!DOCTYPE svg PUBLIC "-//W3C//DTD SVG 1.1//EN" "http://www.w3.org/Graphics/SVG/1.1/DTD/svg11.dtd">
<svg xmlns="http://www.w3.org/2000/svg">
<defs >
<font id="LibreFranklin" horiz-adv-x="568" ><font-face
    font-family="Libre Franklin Thin ExtraLight"
    units-per-em="1000"
    panose-1="0 0 0 0 0 0 0 0 0 0"
    ascent="966"
    descent="-246"
    alphabetic="0" />
<glyph unicode=" " horiz-adv-x="219" />
<glyph unicode="!" horiz-adv-x="235" d="M153 12Q153 0 139 0H93Q82 0 82 11V77Q82 86 89 86H145Q153 86 153 78V12ZM136 165Q136 160 134 158T125 155H108Q103 155 101 157T98 164L86 734Q86 738 87 740T92 742H143Q150 742 150 735L136 165Z" />
<glyph unicode="&quot;" horiz-adv-x="380" d="M282 552Q281 547 279 544T270 541H251Q246 541 245 543T242 549L221 735Q221 739 223 740T228 742H296Q303 742 303 735L282 552ZM138 552Q137 547 135 544T126 541H107Q102 541 101 543T98 549L77 735Q77 739 79
740T84 742H152Q159 742 159 735L138 552Z" />
<glyph unicode="#" horiz-adv-x="603" d="M170 9Q169 4 167 2T161 0L136 4Q131 5 130 6T129 11L240 735Q241 738 243 740T248 742L274 738Q283 737 282 726L170 9ZM375 9Q374 4 372 2T365 0L340 4Q336 5 335 6T333 11L444 735Q445 738 447 740T452 742L478 738Q487
737 486 726L375 9ZM528 258Q528 248 516 248H52Q47 248 45 250T43 256V282Q43 290 48 290H520Q528 290 528 283V258ZM561 468Q561 458 549 458H85Q80 458 78 460T76 466V492Q76 500 81 500H553Q561 500 561 493V468Z" />
<glyph unicode="$" horiz-adv-x="581" d="M542 169Q542 119 516 79T444 15T337 -9Q332 -9 330 -11T328 -16V-82Q328 -92 320 -92H293Q285 -92 285 -85V-16Q285 -12 284 -11T279 -9Q191 -9 136 21T42 111Q34 122 43 127L63 142Q67 145 72 145T80 141Q117 92 161
66T277 40Q285 39 285 47V327Q285 336 279 342T262 354Q190 385 147 413T84 475T65 556Q65 611 92 652T166 720T276 751Q279 751 281 753T284 759V813Q284 817 285 819T290 821H318Q324 821 325 819T327 810V757Q327 750 335 750Q396 745 441 721T524 657Q533 649
524 642L499 620Q494 617 492 618T484 625Q461 654 422 674T336 700Q331 701 329 699T327 692V402Q327 392 338 387L368 375Q424 351 463 322T522 255T542 169V169ZM284 694Q284 703 274 701Q206 695 164 656T121 557Q121 530 134 506T178 460T264 412Q272 409
278 411T284 424V694ZM328 46Q328 39 335 40Q404 40 444 77T485 171Q485 223 452 257T345 323Q338 326 333 325T328 315V46V46Z" />
<glyph unicode="%" horiz-adv-x="902" d="M229 753Q277 753 314 729T372 657T393 541Q393 472 373 424T315 352T229 327Q181 327 143 351T84 424T63 541Q63 610 84 657T143 728T229 753V753ZM228 362Q285 362 318 412T351 540Q351 619 318 669T228 719Q190 719
163 696T120 632T105 540Q105 489 120 449T162 385T228 362V362ZM675 416Q724 416 761 392T818 320T839 204Q839 135 819 87T761 15T675 -10Q627 -10 590 14T531 87T509 204Q509 273 530 320T589 391T675 416V416ZM674 24Q711 24 738 48T781 112T797 203Q797 254
782 294T739 357T674 381Q638 381 610 358T567 294T551 203Q551 153 566 113T610 48T674 24V24ZM232 4Q227 -4 216 -4H198Q190 -4 189 0T192 10L680 745Q682 749 685 749T693 750H716Q720 750 722 749T720 741L232 4Z" />
<glyph unicode="&amp;" horiz-adv-x="749" d="M319 753Q367 753 405 736T467 686T491 607Q491 569 473 534T413 465T302 401Q295 398 295 395T299 385L480 170Q485 165 486 165T495 171Q516 191 539 219T583 278T621 337T644 384Q647 393 658 389L680 381Q684
380 686 377T687 369Q678 339 653 297T594 212T526 135Q521 130 522 127T528 119Q547 100 578 84T646 57T715 47Q727 47 727 36V15Q727 7 724 4T711 0Q676 0 633 12T550 45T485 86Q480 89 477 89T470 85Q423 42 368 19T251 -5Q154 -5 97 48T40 188Q40 247 73 297T187
396Q197 402 197 406T188 421Q154 456 137 492T120 568Q120 621 146 662T217 728T319 753V753ZM320 709Q275 709 243 690T194 638T177 568Q177 540 187 515T224 460L248 434Q250 431 255 431T265 432Q358 477 397 518T437 608Q437 659 403 684T320 709V709ZM250
357Q244 365 238 366T223 362Q164 334 130 287T96 185Q96 142 117 110T174 59T258 40Q307 40 354 60T435 113Q442 119 443 124T438 136L250 357V357Z" />
<glyph unicode="&apos;" horiz-adv-x="236" d="M138 552Q137 547 135 544T126 541H107Q102 541 101 543T98 549L77 735Q77 739 79 740T84 742H152Q159 742 159 735L138 552Z" />
<glyph unicode="(" horiz-adv-x="272" d="M246 742Q251 742 252 740T251 735Q202 637 168 520T134 284Q134 171 161 64T241 -157Q243 -160 242 -162T236 -165H219Q214 -165 210 -159Q169 -88 139 -19T93 125T77 285Q77 410 117 526T220 736Q225 742 233 742H246V742Z" />
<glyph unicode=")" horiz-adv-x="272" d="M26 742V742H39Q48 742 52 736Q114 642 154 526T195 285Q195 200 179 125T133 -19T62 -159Q58 -165 53 -165H36Q32 -165 31 -163T31 -157Q84 -44 111 63T138 284Q138 403 105 520T21 735Q20 737 21 739T26 742Z" />
<glyph unicode="*" horiz-adv-x="339" d="M177 563Q176 564 176 564T173 563L99 445Q97 444 95 444T89 445L64 462Q60 465 64 471L146 577Q147 579 147 580T143 583L32 615Q28 616 30 623L39 648Q41 654 47 651L152 612Q155 610 156 611T158 616L150 736Q150 739
152 740T158 742H192Q195 742 196 741T197 736L192 616Q192 609 196 611L305 657Q310 660 312 655L320 630Q321 623 317 621L208 584Q205 583 205 581T206 577L284 478Q287 474 286 472T282 466L259 450Q255 447 252 448T248 450L177 563Z" />
<glyph unicode="+" horiz-adv-x="545" d="M477 360Q477 351 465 351L77 350Q73 350 71 351T68 358V386Q68 394 74 394L469 395Q477 395 477 388V360ZM260 168Q251 168 251 180L250 568Q250 573 251 575T258 577H286Q294 577 294 571L295 176Q295 168 288 168H260Z" />
<glyph unicode="," horiz-adv-x="193" d="M50 -136Q47 -136 46 -133T47 -125L90 -11Q95 0 82 0H72Q63 0 63 8V79Q63 86 70 86H127Q134 86 134 80V17Q134 11 132 5L72 -129Q70 -132 67 -134T58 -136H50V-136Z" />
<glyph unicode="-" horiz-adv-x="381" d="M313 252Q313 243 301 243L77 242Q73 242 71 243T68 250V280Q68 288 74 288L305 289Q313 289 313 282V252Z" />
<glyph unicode="." horiz-adv-x="188" d="M130 12Q130 0 115 0H69Q58 0 58 11V77Q58 87 66 87H122Q130 87 130 78V12Z" />
<glyph unicode="/" horiz-adv-x="331" d="M22 -56Q14 -56 16 -50L267 735Q269 742 276 742H308Q318 742 314 731L67 -47Q65 -52 62 -54T54 -56H22V-56Z" />
<glyph unicode="0" horiz-adv-x="678" d="M340 752Q395 752 442 728T526 657T582 537T602 369Q602 241 567 157T473 32T339 -10Q264 -10 205 31T111 156T76 367Q76 464 96 536T153 656T236 728T340 752V752ZM340 39Q401 39 446 73T517 180T543 369Q543 487 517
560T445 668T339 703Q280 703 234 669T162 560T135 369Q135 253 161 181T234 74T340 39V39Z" />
<glyph unicode="1" horiz-adv-x="444" d="M390 50Q398 50 398 43V7Q398 6 397 3T390 0H62Q55 0 55 7V43Q55 50 62 50H199Q206 50 206 54V667Q206 676 199 674L63 620Q54 617 54 628V656Q54 661 55 662T60 666L200 736Q208 740 212 741T224 742H255Q263 742 263
732V56Q263 50 269 50H390V50Z" />
<glyph unicode="2" horiz-adv-x="577" d="M299 306Q338 345 366 377T412 440T440 498T449 557Q449 606 424 638T361 686T283 703Q253 703 220 693T155 662T100 607Q98 603 94 602T83 605L62 621Q56 626 56 629T60 639Q101 698 165 725T290 752Q345 752 394 732T474
667T506 552Q506 506 489 466T435 381T336 273L126 63Q121 58 123 55T132 51H504Q513 51 513 42V9Q513 5 512 3T504 0H68Q61 0 58 2T55 13V38Q55 46 56 51T62 61T72 73L299 306Z" />
<glyph unicode="3" horiz-adv-x="628" d="M82 643Q76 650 82 656Q116 690 150 711T221 742T300 752Q373 752 425 728T507 662T536 567Q536 510 501 466T405 401Q394 397 394 395T405 389Q446 379 481 354T537 290T559 200Q559 143 529 95T438 19T286 -10Q240 -10
199 0T121 31T51 88Q47 91 47 93T52 99L78 122Q83 127 85 126T90 122Q120 91 151 73T218 47T292 39Q392 39 447 83T502 197Q502 253 471 290T390 347T289 366H199Q189 366 189 373V405Q189 413 199 413H272Q330 413 377 433T451 488T479 566Q479 605 457 636T394
685T302 703Q248 703 201 683T116 625Q112 620 109 620T100 625L82 643V643Z" />
<glyph unicode="4" horiz-adv-x="629" d="M398 736Q400 739 404 740T414 742H453Q463 742 463 732V268Q463 259 470 259H570Q581 259 581 252V221Q581 211 570 211H471Q463 211 463 201V10Q463 0 452 0H415Q405 0 405 10V204Q405 211 397 211H62Q51 211 51 221V257Q51
262 53 267T61 281L398 736V736ZM393 259Q402 259 402 266V641Q402 652 399 653T388 645L112 272Q102 259 119 259H393Z" />
<glyph unicode="5" horiz-adv-x="644" d="M536 742Q543 742 545 740T546 732L543 699Q542 694 542 693T533 691H181Q171 691 171 683L151 421Q150 415 153 412T161 411Q198 431 238 448T338 465Q400 465 455 443T545 372T580 243Q580 163 544 107T445 20T303 -10Q236
-10 174 13T62 86Q58 91 58 93T63 100L88 124Q93 128 99 121Q129 96 157 77T217 47T294 37Q367 37 417 63T495 135T522 242Q522 304 496 343T428 400T336 418Q274 418 227 395T143 350Q136 346 135 347T128 351L100 368Q91 373 92 373T94 385L121 733Q121 739 123
740T136 742H536Z" />
<glyph unicode="6" horiz-adv-x="649" d="M368 752Q400 752 425 746T472 730T510 705T542 673Q544 670 545 667T542 661L510 642Q507 640 504 641T497 647Q474 673 444 688T369 703Q286 703 234 663T158 555T133 401Q133 384 135 380T149 381Q190 401 238 419T351
438Q428 438 481 410T561 332T588 221Q588 152 555 100T467 19T344 -10Q261 -10 201 33T109 160T76 362Q76 484 110 571T210 705T368 752V752ZM351 389Q322 389 286 383T216 365T158 338Q145 328 140 319T135 290Q135 253 147 210T186 127T252 64T347 39Q400 39
441 63T506 128T531 220Q531 266 510 304T449 366T351 389V389Z" />
<glyph unicode="7" horiz-adv-x="590" d="M532 742Q536 742 538 740T540 735V708Q540 701 538 696T531 681Q489 620 450 547T375 398T313 249T266 117T239 15Q237 0 227 0H187Q174 0 177 14Q190 70 215 145T276 309T361 491T470 679Q474 684 473 687T464 691H52Q46
691 46 700L49 734Q51 742 61 742H532Z" />
<glyph unicode="8" horiz-adv-x="661" d="M332 752Q401 752 452 727T533 657T562 549Q562 500 538 462T458 381Q444 372 457 367Q502 353 532 328T579 267T595 190Q595 130 562 85T469 15T329 -10Q249 -10 191 13T101 80T70 185Q70 239 97 283T184 366Q198 375
198 379T184 391Q155 406 134 428T102 480T90 544Q90 603 121 650T207 724T332 752V752ZM332 704Q280 704 238 683T172 627T147 546Q147 440 266 415L379 390Q394 387 415 399T457 435T493 489T507 553Q507 621 460 662T332 704V704ZM331 38Q426 38 482 79T538
192Q538 245 510 277T420 323L273 357Q258 360 234 349T185 315T143 260T125 188Q125 117 179 78T331 38V38Z" />
<glyph unicode="9" horiz-adv-x="645" d="M282 -10Q249 -10 222 -4T173 12T132 38T99 70Q97 72 96 75T99 82L131 100Q134 102 137 101T144 96Q167 69 200 54T282 39Q363 39 413 79T488 187T512 342Q512 359 510 363T496 362Q457 341 410 323T298 304Q223 304 171
332T91 410T63 521Q63 591 95 642T183 723T306 752Q388 752 447 709T537 582T569 380Q569 259 535 172T437 37T282 -10V-10ZM296 353Q328 353 363 360T432 380T488 411Q502 420 506 429T511 458Q511 495 499 537T462 617T398 680T304 704Q252 704 210 680T144 615T120
523Q120 477 141 438T202 376T296 353V353Z" />
<glyph unicode=":" horiz-adv-x="188" d="M130 427Q130 415 115 415H69Q58 415 58 426V492Q58 502 66 502H122Q130 502 130 493V427ZM130 15Q130 3 115 3H69Q58 3 58 14V80Q58 89 66 89H122Q130 89 130 81V15Z" />
<glyph unicode=";" horiz-adv-x="214" d="M50 -136Q47 -136 46 -133T47 -125L90 -11Q95 0 82 0H72Q63 0 63 8V79Q63 86 70 86H127Q134 86 134 80V17Q134 11 132 5L72 -129Q70 -133 67 -134T58 -136H50V-136ZM69 415Q58 415 58 426V492Q58 501 66 501H122Q130 501
130 493V427Q130 415 115 415H69V415Z" />
<glyph unicode="&lt;" horiz-adv-x="528" d="M458 190Q458 181 453 178T440 178L68 326Q63 328 61 330T58 337V377Q58 382 60 384T68 388L440 538Q450 542 454 539T459 528V498Q459 489 444 482L129 357L443 232Q451 228 454 225T458 216V190Z" />
<glyph unicode="=" horiz-adv-x="545" d="M477 460Q477 451 465 451L77 450Q73 450 71 451T68 458V486Q68 494 74 494L469 495Q477 495 477 488V460ZM477 239Q477 229 465 229L77 228Q73 228 71 230T68 236V265Q68 273 74 273L469 274Q477 274 477 267V239Z" />
<glyph unicode="&gt;" horiz-adv-x="528" d="M70 216Q70 221 73 224T85 232L399 357L84 482Q69 489 69 498V528Q69 536 73 539T87 538L460 388Q465 387 467 385T469 377V337Q469 333 467 331T460 326L87 178Q80 175 75 178T70 190V216V216Z" />
<glyph unicode="?" horiz-adv-x="516" d="M280 12Q280 0 266 0H220Q214 0 212 2T209 11V77Q209 86 217 86H272Q280 86 280 78V12ZM42 617Q38 619 38 621T38 626Q70 684 131 718T265 752Q331 752 378 730T452 667T479 571Q479 518 458 478T406 404T344 336T291
262T269 166Q269 163 267 160T261 157H229Q220 157 220 168Q220 226 240 269T291 348T351 417T403 486T424 570Q424 632 381 668T265 705Q228 705 191 692T127 656T87 606Q86 603 84 602T78 602L42 617Z" />
<glyph unicode="@" horiz-adv-x="834" d="M651 -46Q606 -78 552 -95T436 -113Q346 -113 275 -84T154 -4T78 116T52 261Q52 342 80 414T162 542T288 629T449 661Q513 661 575 643T687 585T768 485T798 340Q798 264 773 206T704 114T607 81Q570 81 549 93T521 137Q519
145 517 145T510 139Q488 108 454 88T367 67Q332 67 301 88T251 150T232 243Q232 308 256 360T323 444T421 475Q462 475 492 456T540 405Q541 404 543 404T546 408L556 444Q557 449 563 449H596Q604 449 602 443L564 215Q556 167 567 148T609 128Q646 128 676 153T726
225T745 334Q745 409 719 462T649 549T553 598T448 614Q369 614 306 586T197 509T129 396T105 258Q105 194 126 136T190 32T298 -40T449 -66Q492 -66 522 -58T577 -36T625 -7Q638 1 645 -8L658 -26Q663 -33 660 -38T651 -46V-46ZM287 245Q287 184 310 150T374 115Q410
115 440 136T492 191T520 267Q529 322 516 357T478 410T424 427Q382 427 351 402T304 337T287 245V245Z" />
<glyph unicode="A" horiz-adv-x="706" d="M59 0Q55 0 53 3T51 11L315 730Q317 737 321 739T332 742H375Q391 742 394 731L655 12Q657 7 655 4T647 0H612Q601 0 598 9L520 225Q519 229 517 230T510 232H194Q187 232 184 225L104 8Q103 3 100 2T92 0H59V0ZM490 280Q501
280 498 291L360 667Q356 677 353 677T345 666L205 289Q202 280 211 280H490Z" />
<glyph unicode="B" horiz-adv-x="687" d="M119 0Q115 0 113 2T110 9V731Q110 737 112 739T120 742H331Q458 742 527 693T597 551Q597 488 565 446T466 382Q462 381 462 378T466 373Q535 359 575 316T615 197Q615 98 542 49T335 0H119V0ZM330 47Q444 47 500 81T556
193Q556 251 528 285T452 335T343 351H179Q167 351 167 342V58Q167 47 175 47H330ZM343 399Q377 399 411 405T474 427T520 472T538 544Q538 622 482 658T328 695H177Q167 695 167 686V409Q167 399 175 399H343Z" />
<glyph unicode="C" horiz-adv-x="698" d="M376 752Q423 752 467 736T547 692T606 629T634 554Q635 549 634 547T628 545L583 541Q580 540 579 542T576 548Q559 618 506 660T378 703Q260 703 198 618T135 369Q135 210 197 125T385 40Q462 40 512 76T592 191Q594
195 599 194L639 183Q641 182 642 180T642 174Q632 142 615 114T573 64T519 24T454 -1T381 -10Q284 -10 216 35T111 164T75 369Q75 489 111 575T214 706T376 752V752Z" />
<glyph unicode="D" horiz-adv-x="707" d="M121 742Q124 742 141 742T181 742T222 741T246 741Q385 740 470 700T594 580T633 379Q633 248 590 164T458 40T232 0H120Q110 0 110 11V731Q110 737 113 739T121 742V742ZM177 694Q167 694 167 680V57Q167 47 179 47H226Q351
47 427 79T538 182T573 371Q573 498 536 568T423 666T229 694H177V694Z" />
<glyph unicode="E" horiz-adv-x="616" d="M110 731Q110 742 120 742H543Q550 742 550 734V703Q550 694 541 694H177Q167 694 167 685V407Q167 399 177 399H459Q467 399 467 391V359Q467 355 466 353T458 351H177Q167 351 167 342V57Q167 48 177 48H556Q565 48
565 40V8Q565 4 563 2T557 0H120Q110 0 110 11V731V731Z" />
<glyph unicode="F" horiz-adv-x="587" d="M110 731Q110 742 120 742H533Q540 742 540 734V703Q540 694 531 694H177Q167 694 167 685V394Q167 386 177 386H469Q477 386 477 378V346Q477 339 468 339H177Q167 339 167 329V8Q167 0 159 0H120Q115 0 113 2T110 11V731V731Z" />
<glyph unicode="G" horiz-adv-x="732" d="M373 -10Q281 -10 214 34T111 164T75 368Q75 491 112 577T216 707T375 752Q439 752 495 725T589 654T633 557Q633 553 633 551T628 548L584 540Q581 540 579 541T576 547Q568 591 540 626T470 682T375 703Q298 703 244
664T163 552T135 374Q135 265 162 191T243 78T375 39Q432 39 474 59T543 111T583 181T598 253V327Q598 336 587 336H404Q400 336 398 337T396 343V370Q396 377 402 377H641Q645 377 647 375T649 369V11Q649 4 647 2T639 0H620Q614 0 611 1T606 10L604 113Q603 118
601 118T595 113Q576 79 546 51T473 7T373 -10V-10Z" />
<glyph unicode="H" horiz-adv-x="727" d="M174 362Q167 362 167 355V10Q167 0 156 0H120Q115 0 113 2T110 11V731Q110 742 120 742H158Q167 742 167 731V420Q167 410 177 410H551Q560 410 560 419V732Q560 742 569 742H608Q617 742 617 731V11Q617 5 615 3T607
0H571Q560 0 560 10V354Q560 362 552 362H174Z" />
<glyph unicode="I" horiz-adv-x="278" d="M158 742Q167 742 167 731V13Q167 6 165 3T154 0H122Q115 0 113 2T110 11V731Q110 742 120 742H158Z" />
<glyph unicode="J" horiz-adv-x="403" d="M297 148Q297 74 266 32T160 -10Q119 -10 89 0T51 14Q49 16 47 18T46 25L55 62Q56 70 64 67Q80 60 99 52T153 43Q202 43 221 67T240 161V732Q240 742 249 742H289Q297 742 297 731V148V148Z" />
<glyph unicode="K" horiz-adv-x="680" d="M631 9Q633 5 632 3T627 0H578Q569 0 566 6L316 402Q311 409 304 402L175 259Q167 251 167 242V10Q167 0 156 0H121Q116 0 113 2T110 10V733Q110 742 119 742H159Q167 742 167 733V332Q167 328 169 328T175 331L546 737Q548
740 551 741T559 742H604Q609 742 610 739T608 733L355 455Q352 452 355 447L631 9V9Z" />
<glyph unicode="L" horiz-adv-x="591" d="M110 731Q110 742 120 742H158Q167 742 167 731V57Q167 48 177 48H536Q545 48 545 40V8Q545 4 543 2T537 0H120Q115 0 113 2T110 11V731V731Z" />
<glyph unicode="M" horiz-adv-x="885" d="M120 0Q110 0 110 11V731Q110 742 120 742H162Q168 742 171 741T176 733L433 85Q436 76 440 76T448 86L708 734Q712 742 720 742H765Q775 742 775 731V11Q775 0 765 0H729Q723 0 721 2T718 10V617Q718 622 717 621T714
617L472 11Q468 0 455 0H423Q408 0 404 11L166 612Q165 615 164 615T163 612V10Q163 5 161 3T152 0H120V0Z" />
<glyph unicode="N" horiz-adv-x="755" d="M636 742Q645 742 645 732V11Q645 5 643 3T635 0H613Q607 0 603 0T593 7L175 621Q170 629 167 628T163 621V10Q163 0 152 0H120Q110 0 110 11V731Q110 742 120 742H147Q153 742 156 741T163 734L579 123Q584 116 588 118T593
125V732Q593 742 602 742H636Z" />
<glyph unicode="O" horiz-adv-x="759" d="M380 -10Q285 -10 217 33T112 160T75 367Q75 492 112 578T217 708T381 752Q476 752 543 708T647 579T684 369Q684 247 648 162T543 34T380 -10V-10ZM382 39Q502 39 563 120T624 369Q624 538 562 620T381 703Q260 703 198
620T135 369Q135 203 198 121T382 39V39Z" />
<glyph unicode="P" horiz-adv-x="678" d="M617 533Q617 459 584 413T491 345T356 323H176Q167 323 167 314V10Q167 0 158 0H119Q115 0 113 2T110 9V731Q110 742 120 742H349Q427 742 487 721T582 654T617 533V533ZM557 536Q557 596 532 630T459 680T347 695H177Q167
695 167 686V381Q167 371 175 371H354Q446 371 501 409T557 536V536Z" />
<glyph unicode="Q" horiz-adv-x="760" d="M75 369Q75 494 111 579T216 708T380 752Q475 752 543 709T647 580T684 369Q684 237 645 155T534 29Q529 25 529 20Q529 7 548 -13T599 -50T667 -73Q673 -74 674 -76T675 -81V-108Q675 -117 670 -119T654 -122Q618 -122
571 -97T475 -5Q470 2 460 -1Q441 -5 421 -7T380 -10Q287 -10 219 32T113 159T75 369V369ZM135 367Q135 201 197 120T380 39Q499 39 562 120T625 369Q625 533 563 618T380 703Q259 703 197 618T135 367V367Z" />
<glyph unicode="R" horiz-adv-x="683" d="M605 15Q608 10 605 5T597 0H558Q551 0 545 10L406 341Q402 351 385 351H179Q172 351 170 348T167 340V12Q167 0 156 0H121Q115 0 113 2T110 10V731Q110 742 120 742H383Q493 742 554 696T615 556Q615 496 592 457T535
395T465 364Q458 363 461 356L605 15V15ZM349 398Q452 398 504 433T556 549Q556 623 512 659T381 695H179Q167 695 167 687V408Q167 398 175 398H349V398Z" />
<glyph unicode="S" horiz-adv-x="623" d="M500 622Q470 656 426 679T318 703Q238 703 189 665T140 556Q140 538 148 514T181 467T258 424L398 374Q488 343 524 296T561 185Q561 123 531 80T445 13T312 -10Q256 -10 209 3T126 44T59 114Q55 119 56 124T65 134L82
146Q90 152 94 152T103 146Q130 111 158 87T222 51T311 39Q398 39 451 72T504 181Q504 210 494 233T456 277T376 318L225 375Q171 395 140 424T97 486T84 553Q84 617 114 661T197 728T320 752Q368 752 407 741T479 707T541 655Q544 652 545 649T541 640L514 617Q510
613 508 614T500 622V622Z" />
<glyph unicode="T" horiz-adv-x="628" d="M46 734Q46 738 47 740T54 742H574Q579 742 580 740T582 734V702Q582 694 573 694H363Q353 694 353 685V11Q353 0 343 0H306Q295 0 295 11V685Q295 694 285 694H55Q46 694 46 702V734Z" />
<glyph unicode="U" horiz-adv-x="704" d="M603 234Q603 152 576 98T492 17T352 -10Q266 -10 211 18T128 103T100 249V730Q100 742 109 742H147Q158 742 158 731V230Q158 134 207 87T355 39Q421 39 465 60T532 125T554 233V732Q554 742 563 742H595Q603 742 603
732V234V234Z" />
<glyph unicode="V" horiz-adv-x="694" d="M635 742Q640 742 642 739T643 732L382 12Q378 0 365 0H325Q308 0 305 11L51 731Q50 736 52 739T60 742H94Q104 742 107 733L338 78Q346 57 354 79L590 734Q593 742 602 742H635V742Z" />
<glyph unicode="W" horiz-adv-x="1027" d="M966 742Q972 742 973 739T974 731L767 12Q764 0 750 0H712Q696 0 692 11L516 640Q515 644 514 644T512 640L332 12Q328 0 314 0H275Q260 0 256 11L54 730Q53 736 55 739T64 742H97Q104 742 106 741T111 733L291 88Q294
78 297 78T303 89L486 734Q487 737 490 739T501 742H533Q539 742 542 741T546 733L726 88Q729 78 732 78T738 89L922 734Q923 739 926 740T935 742H966V742Z" />
<glyph unicode="X" horiz-adv-x="668" d="M614 13Q620 5 618 3T609 0H564Q559 0 555 5L342 320Q337 328 333 328T321 317L110 5Q109 2 106 1T100 0H58Q53 0 51 2T54 13L293 369Q297 375 297 380T292 391L62 732Q61 735 61 738T66 742H114Q120 742 122 741T125
737L325 438Q330 432 333 432T342 439L542 737Q544 740 546 741T552 742H600Q604 742 604 740T603 734L372 392Q368 387 368 384T371 375L614 13V13Z" />
<glyph unicode="Y" horiz-adv-x="647" d="M591 742Q597 742 599 739T598 730L359 327Q356 323 356 319T355 304V14Q355 0 339 0H310Q303 0 301 3T298 12V295Q298 303 297 307T292 316L49 729Q45 734 47 738T57 742H91Q99 742 102 740T109 732L313 384Q320 372
325 372T337 382L540 732Q544 739 547 740T557 742H591V742Z" />
<glyph unicode="Z" horiz-adv-x="607" d="M62 0Q58 0 56 1T53 8V25Q53 31 54 34T61 44L474 687Q478 694 470 694H73Q68 694 67 696T65 702V735Q65 742 71 742H546Q553 742 553 735V716Q553 712 551 710T547 702L129 56Q127 52 128 50T132 48H545Q552 48 552 42V8Q552
5 551 3T544 0H62V0Z" />
<glyph unicode="[" horiz-adv-x="272" d="M102 735Q102 742 111 742H250Q257 742 257 737V707Q257 701 250 701H162Q153 701 153 691V-117Q153 -121 154 -122T159 -124H248Q256 -124 256 -132V-156Q256 -165 248 -165H113Q103 -165 103 -156L102 735V735Z" />
<glyph unicode="\" horiz-adv-x="331" d="M276 -56Q272 -56 269 -54T264 -47L16 731Q13 742 22 742H54Q62 742 63 735L314 -50Q317 -56 309 -56H276V-56Z" />
<glyph unicode="]" horiz-adv-x="272" d="M170 735V735L169 -156Q169 -165 159 -165H25Q16 -165 16 -156V-132Q16 -124 25 -124H113Q117 -124 118 -123T120 -117L119 691Q119 701 111 701H23Q15 701 15 707V737Q15 742 23 742H161Q170 742 170 735Z" />
<glyph unicode="^" horiz-adv-x="476" d="M242 453Q240 458 237 458T232 453L109 145Q108 141 106 140T98 138H64Q54 138 59 149L202 504Q211 527 223 535T249 537T272 504L417 146Q420 136 410 136H377Q373 136 370 138T364 144L242 453Z" />
<glyph unicode="_" horiz-adv-x="505" d="M437 -95Q437 -105 425 -105L77 -106Q73 -106 71 -104T68 -97V-67Q68 -59 74 -59L429 -58Q437 -58 437 -65V-95Z" />
<glyph unicode="`" horiz-adv-x="275" d="M22 747Q25 753 31 751L261 660Q267 657 264 649L258 632Q257 628 255 627T246 626L19 699Q8 704 11 713L22 747V747Z" />
<glyph unicode="a" horiz-adv-x="540" d="M402 70Q362 30 316 10T215 -10Q136 -10 91 29T46 135Q46 187 74 223T158 281T296 310L395 318Q403 319 407 322T412 333V363Q412 425 373 461T269 497Q219 497 179 475T106 408Q103 404 101 403T95 403L65 419Q62 421
62 423T64 430Q96 478 147 509T271 540Q330 540 373 520T438 460T461 368V11Q461 5 459 3T451 0H425Q421 0 418 2T415 11L413 68Q411 81 402 70V70ZM412 263Q412 280 398 278L314 271Q258 267 217 257T150 230T110 191T97 140Q97 90 132 62T226 34Q262 34 296 47T357
81Q384 103 398 126T412 171V263V263Z" />
<glyph unicode="b" horiz-adv-x="594" d="M100 0Q93 0 91 3T88 14V731Q88 742 98 742H129Q138 742 138 730V479Q138 469 141 469T151 474Q157 480 177 495T233 525T320 540Q397 540 444 504T514 405T537 267Q537 139 477 65T309 -10Q259 -10 225 5T171 39T144
67Q140 72 137 72T134 64L131 14Q131 0 116 0H100ZM138 178Q138 138 162 106T223 53T302 33Q352 33 393 58T459 134T484 267Q484 373 440 435T309 497Q256 497 212 473T138 413V178Z" />
<glyph unicode="c" horiz-adv-x="538" d="M296 540Q343 540 379 526T444 487T495 429Q500 421 494 418L463 403Q457 400 451 407Q426 440 402 459T353 487T301 497Q242 497 198 468T130 387T106 265Q106 195 130 143T198 62T301 33Q351 33 391 57T463 132Q466
137 468 137T473 136L501 121Q506 118 503 110Q486 82 464 60T416 22T360 -2T296 -10Q225 -10 170 24T85 120T54 263Q54 344 85 406T171 504T296 540V540Z" />
<glyph unicode="d" horiz-adv-x="594" d="M469 0Q463 0 461 3T458 12V61Q458 69 455 70T446 65Q437 56 417 38T364 5T284 -10Q220 -10 168 19T86 108T55 256Q55 340 85 404T169 504T296 540Q350 540 384 523T441 486Q450 479 453 481T456 493V731Q456 742 465
742H497Q506 742 506 732V13Q506 5 503 3T493 0H469V0ZM456 423Q420 458 383 477T301 497Q245 497 201 469T132 388T107 259Q107 182 133 132T201 57T294 33Q340 33 376 55T434 109T456 170V423V423Z" />
<glyph unicode="e" horiz-adv-x="578" d="M106 238Q106 184 132 137T202 62T301 34Q359 34 401 57T472 125Q475 130 477 130T483 128L511 112Q517 108 512 101Q488 64 457 40T386 3T299 -10Q227 -10 172 24T86 119T54 261Q54 349 86 411T173 506T299 540Q371 540
422 509T502 417T531 273Q531 266 530 260T517 252H113Q109 252 108 248T106 238V238ZM462 293Q473 293 476 296T479 307Q479 359 457 402T395 471T299 497Q236 497 193 467T129 389T107 293H462Z" />
<glyph unicode="f" horiz-adv-x="367" d="M336 530Q338 530 340 528T342 523V496Q342 489 335 489H206Q199 489 199 481V12Q199 0 189 0H158Q149 0 149 11V482Q149 489 143 489H33Q26 489 26 496V523Q26 526 27 528T33 530H142Q149 530 149 538V617Q149 679 176
710T265 742H339Q347 742 347 734V709Q347 705 345 703T338 701H261Q225 701 212 681T199 623V537Q199 530 206 530H336V530Z" />
<glyph unicode="g" horiz-adv-x="586" d="M538 532Q549 532 553 529T557 518V500Q557 493 554 489T540 484Q521 483 509 481T485 471Q461 459 465 448Q470 436 477 418T485 369Q485 325 464 289T397 231T280 209Q224 209 193 202T148 184T135 161Q135 144 160
136T240 125L362 118Q444 114 482 78T520 -18Q520 -93 456 -134T277 -175Q159 -175 96 -137T33 -29Q33 7 55 38T125 94Q136 100 125 105Q105 114 95 127T85 157Q85 169 92 181T114 204T155 223Q161 225 160 228T154 235Q113 258 93 290T73 369Q73 449 129 493T287
538Q338 538 372 527T432 493Q437 489 441 489T451 492Q461 501 474 510T504 525T538 532V532ZM281 250Q359 250 398 281T437 371Q437 431 398 464T281 497Q205 497 164 464T122 371Q122 312 163 281T281 250V250ZM186 81Q169 82 145 69T102 32T82 -23Q82 -58 106
-83T175 -121T286 -134Q376 -134 423 -107T470 -20Q470 19 446 43T360 70L186 81Z" />
<glyph unicode="h" horiz-adv-x="578" d="M98 0Q88 0 88 10V732Q88 742 97 742H126Q135 742 135 733V461Q135 456 137 455T143 458Q181 485 210 503T270 530T335 540Q415 540 456 499T497 392V11Q497 0 486 0H457Q452 0 450 2T447 10V375Q447 432 419 464T328
496Q294 496 266 486T207 456T138 406V10Q138 0 127 0H98V0Z" />
<glyph unicode="i" horiz-adv-x="226" d="M138 13Q138 6 136 3T125 0H100Q92 0 90 2T88 11V519Q88 530 98 530H128Q138 530 138 519V13ZM143 656Q143 640 129 640H95Q88 640 86 644T83 654V728Q83 742 96 742H130Q143 742 143 729V656Z" />
<glyph unicode="j" horiz-adv-x="226" d="M138 -46Q138 -109 114 -139T19 -170Q-25 -170 -35 -169T-46 -160V-134Q-46 -131 -45 -129T-39 -127L17 -125Q55 -124 71 -106T88 -41V519Q88 530 99 530H129Q138 530 138 519V-46V-46ZM143 656Q143 640 129 640H95Q83
640 83 654V728Q83 742 96 742H130Q143 742 143 729V656Z" />
<glyph unicode="k" horiz-adv-x="544" d="M511 13Q515 7 514 4T505 0H465Q461 0 458 2T452 8L277 293Q276 295 274 296T268 293L145 168Q141 164 140 160T138 151V13Q138 6 136 3T125 0H100Q92 0 90 2T88 11V731Q88 742 98 742H128Q138 742 138 731V241Q138 232
140 231T148 236L424 520Q433 530 442 530H480Q489 530 489 526T483 514L316 344Q314 342 314 339T315 331L511 13V13Z" />
<glyph unicode="l" horiz-adv-x="226" d="M138 13Q138 6 136 3T125 0H100Q88 0 88 11V731Q88 742 98 742H128Q138 742 138 731V13Z" />
<glyph unicode="m" horiz-adv-x="899" d="M98 0Q88 0 88 10V520Q88 530 97 530H126Q135 530 135 521V460Q135 455 137 454T143 457Q178 484 206 502T263 530T326 540Q388 540 422 513T468 453Q470 449 474 450T483 456Q517 483 546 502T603 530T666 540Q740 540
779 499T818 392V11Q818 0 808 0H778Q773 0 771 2T768 10V375Q768 432 742 464T659 496Q624 496 594 484T539 453T494 419Q486 412 482 406T478 389V11Q478 0 468 0H438Q433 0 431 2T428 10V375Q428 432 403 464T319 496Q271 496 232 474T138 406V10Q138 0 127
0H98V0Z" />
<glyph unicode="n" horiz-adv-x="578" d="M98 0Q88 0 88 10V520Q88 530 97 530H126Q135 530 135 521V460Q135 455 137 454T143 457Q180 484 210 502T269 530T335 540Q414 540 455 499T497 392V11Q497 0 486 0H457Q452 0 450 2T447 10V375Q447 432 419 464T328
496Q294 496 265 486T206 456T138 406V10Q138 0 127 0H98V0Z" />
<glyph unicode="o" horiz-adv-x="598" d="M299 -10Q225 -10 170 24T85 120T54 262Q54 344 85 406T171 504T300 540Q374 540 428 505T513 408T544 264Q544 183 514 122T428 25T299 -10V-10ZM301 34Q361 34 403 62T469 142T492 264Q492 334 469 386T402 467T300
497Q241 497 198 468T130 386T106 264Q106 195 130 143T197 63T301 34V34Z" />
<glyph unicode="p" horiz-adv-x="592" d="M125 530Q136 530 136 518V469Q136 461 139 460T148 465Q157 475 175 492T226 525T310 540Q373 540 424 511T505 423T536 275Q536 189 507 125T424 26T298 -10Q248 -10 212 5T152 40Q144 47 141 46T138 33V-154Q138 -165
128 -165H97Q88 -165 88 -155V517Q88 525 90 527T101 530H125V530ZM138 107Q173 73 210 53T292 33Q348 33 391 61T459 142T484 271Q484 350 458 399T390 473T300 497Q252 497 215 476T158 424T138 364V107V107Z" />
<glyph unicode="q" horiz-adv-x="594" d="M495 530Q501 530 504 528T507 516V-154Q507 -165 497 -165H465Q457 -165 457 -153V34Q457 45 455 47T442 41Q416 21 376 6T287 -10Q216 -10 164 25T84 122T56 268Q56 350 83 411T162 506T286 540Q341 540 374 527T425
497T451 472Q460 463 462 475L466 516Q467 525 470 527T482 530H495ZM457 352Q457 390 436 423T378 476T294 497Q244 497 202 472T134 397T108 269Q108 195 132 142T199 61T296 33Q342 33 384 53T457 107V352Z" />
<glyph unicode="r" horiz-adv-x="362" d="M98 0Q93 0 91 2T88 10V520Q88 530 97 530H126Q135 530 135 521V454Q135 449 137 448T143 451Q172 484 198 503T249 531T301 540Q336 540 336 529V496Q336 490 331 490Q325 490 318 490T297 491Q274 491 246 480T194 450T154
408T138 361V10Q138 0 127 0H98V0Z" />
<glyph unicode="s" horiz-adv-x="504" d="M402 423Q380 457 341 477T247 497Q185 497 145 471T104 397Q104 374 122 352T197 311L331 268Q392 249 421 216T450 139Q450 95 423 62T350 9T245 -10Q170 -10 112 21T29 101Q28 104 28 107T31 112L58 128Q60 130 63
130T68 127Q86 98 111 77T169 45T245 33Q288 33 323 45T379 80T399 133Q399 166 373 189T286 230L183 261Q108 283 81 316T54 388Q54 434 79 468T148 521T248 540Q311 540 361 516T441 448Q443 445 443 443T440 438L412 422Q410 420 407 420T402 423V423Z" />
<glyph unicode="t" horiz-adv-x="365" d="M188 489Q180 489 180 481V128Q180 75 196 58T243 41H320Q324 41 326 40T328 34V13Q328 6 321 4Q314 3 297 2T264 1T239 0Q178 0 154 28T130 120V481Q130 489 123 489H33Q26 489 26 496V523Q26 530 33 530H124Q131 530
131 537L140 699Q140 710 149 710H171Q181 710 181 698V537Q181 530 188 530H324Q331 530 331 523V496Q331 489 324 489H188Z" />
<glyph unicode="u" horiz-adv-x="573" d="M248 34Q298 34 343 61T435 135V520Q435 530 446 530H475Q485 530 485 520V10Q485 0 476 0H447Q438 0 438 9V72Q438 77 437 78T430 75Q369 25 326 8T243 -10Q196 -10 160 8T102 61T80 138V519Q80 530 90 530H120Q130 530
130 520V160Q130 104 161 69T248 34V34Z" />
<glyph unicode="v" horiz-adv-x="534" d="M494 530Q500 530 502 527T502 520L297 12Q292 0 277 0H258Q242 0 237 11L32 519Q31 524 33 527T41 530H72Q77 530 80 528T85 521L262 81Q269 62 278 82L455 522Q457 526 459 528T467 530H494V530Z" />
<glyph unicode="w" horiz-adv-x="786" d="M742 530Q747 530 749 527T750 520L602 11Q601 5 597 3T585 0H553Q537 0 534 11L399 433Q396 441 393 441T388 433L262 11Q261 5 257 3T246 0H211Q195 0 192 11L36 519Q35 524 37 527T44 530H76Q81 530 84 528T89 521L223
81Q226 71 230 71T237 82L371 523Q373 527 375 528T382 530H410Q415 530 418 528T423 521L564 81Q567 71 570 71T577 82L706 522Q708 526 711 528T720 530H742V530Z" />
<glyph unicode="x" horiz-adv-x="522" d="M485 14Q491 6 490 3T483 0H441Q430 0 427 6L267 223Q263 229 260 229T252 223L85 6Q82 0 71 0H41Q34 0 32 3T36 16L227 258Q231 264 231 268T227 277L47 519Q44 523 46 526T53 530H92Q97 530 99 529T105 524L260 316Q268
306 275 316L427 524Q429 528 432 529T440 530H473Q479 530 479 527T478 521L298 283Q294 279 294 274T299 265L485 14V14Z" />
<glyph unicode="y" horiz-adv-x="513" d="M108 -165Q79 -165 62 -164T44 -154V-134Q44 -127 49 -125T73 -122H134Q157 -122 176 -105T208 -62T225 -10T221 37L32 517Q30 522 31 526T41 530H71Q76 530 79 528T84 521L252 90Q256 81 261 81T270 94L435 522Q437 526
439 528T446 530H474Q479 530 481 527T481 520L254 -70Q243 -98 229 -116T196 -145T156 -160T108 -165V-165Z" />
<glyph unicode="z" horiz-adv-x="463" d="M42 0Q38 0 37 1T35 8V33Q35 38 37 43T44 54L358 481Q364 490 355 490H65Q60 490 59 491T57 498V522Q57 530 64 530H414Q420 530 420 523V497Q420 490 418 485T412 474L97 48Q91 41 100 41H419Q426 41 426 34V9Q426 5
425 3T417 0H42V0Z" />
<glyph unicode="{" horiz-adv-x="276" d="M116 649Q116 676 128 697T166 730T229 742H253Q261 742 261 737V707Q261 701 253 701H231Q208 701 194 695T174 678T167 648V417Q167 378 154 351T120 310T72 292Q66 291 66 289T72 285Q98 283 119 270T153 232T167 164V-69Q167
-97 181 -110T232 -124H252Q261 -124 261 -132V-156Q261 -165 252 -165H230Q191 -165 166 -153T128 -119T116 -70V162Q116 186 104 211T67 252T5 268Q0 268 0 275V303Q0 310 5 310Q61 311 88 342T116 419V649V649Z" />
<glyph unicode="|" horiz-adv-x="266" d="M119 -165Q111 -165 111 -158L110 839Q110 843 112 845T117 847H147Q156 847 156 836V-156Q156 -165 148 -165H119Z" />
<glyph unicode="}" horiz-adv-x="276" d="M160 649V649V419Q160 374 187 343T271 310Q276 310 276 303V275Q276 268 271 268Q234 268 209 252T172 211T160 162V-70Q160 -97 148 -118T111 -152T46 -165H24Q15 -165 15 -156V-132Q15 -124 24 -124H44Q82 -124 95
-111T109 -69V164Q109 206 122 231T157 270T204 285Q211 286 211 288T204 292Q178 295 156 309T122 351T109 417V648Q109 666 103 677T82 695T45 701H23Q15 701 15 707V737Q15 742 23 742H47Q84 742 109 731T147 698T160 649Z" />
<glyph unicode="~" horiz-adv-x="548" d="M480 372Q468 359 441 345T371 331Q340 331 317 338T274 354T233 370T185 377Q148 377 124 365T84 337Q80 333 78 333T74 339L65 361Q62 368 67 371Q88 390 114 404T181 419Q209 419 232 412T277 396T321 380T371 373Q409
373 428 385T461 410Q468 417 473 407L483 384Q485 381 484 379T480 372V372Z" />
<glyph unicode="&#xa0;" horiz-adv-x="219" />
<glyph unicode="&#xa1;" horiz-adv-x="235" d="M153 452Q153 444 145 444H90Q82 444 82 453V519Q82 530 93 530H139Q153 530 153 518V452V452ZM150 -158Q150 -161 148 -163T143 -165H92Q90 -165 88 -163T86 -157L99 367Q99 371 101 373T108 375H125Q131 375 134
373T137 365L150 -158V-158Z" />
<glyph unicode="&#xa2;" horiz-adv-x="558" d="M309 14Q309 0 295 0H276Q263 0 263 13V115Q263 126 273 126H300Q309 126 309 117V14V14ZM309 630Q309 616 295 616H276Q263 616 263 629V732Q263 742 273 742H300Q309 742 309 733V630V630ZM296 651Q343 651 379
637T444 598T495 540Q500 532 494 529L463 514Q457 511 451 518Q426 551 402 570T353 598T301 608Q242 608 198 579T130 498T106 376Q106 306 130 254T198 173T301 144Q351 144 391 168T463 243Q466 248 468 248T473 247L501 232Q506 229 503 221Q486 193 464 171T416
133T360 109T296 101Q225 101 170 135T85 231T54 374Q54 455 85 517T171 615T296 651V651Z" />
<glyph unicode="&#xa3;" horiz-adv-x="601" d="M21 0Q12 0 12 9V39Q12 47 20 47H53Q93 46 121 87T150 215Q150 242 147 276T138 352Q137 357 132 357H40Q35 357 35 364V393Q35 399 40 399H122Q131 399 129 406L112 478Q96 541 106 591T144 678T214 733T304 752Q347
752 384 739T449 703T487 655Q489 651 487 650T480 646L450 634Q442 630 438 637Q422 667 391 684T308 702Q266 702 232 686T177 640T156 565Q156 524 165 478T183 406Q185 400 189 400H357Q363 400 363 395V364Q363 358 357 358H200Q192 358 192 351Q198 323 201
294T204 233Q204 179 194 143T171 86T151 55Q147 51 148 50T153 48H356Q409 48 444 65T498 124Q502 132 509 129L537 119Q545 115 543 110Q521 55 473 28T357 0H21V0Z" />
<glyph unicode="&#xa4;" horiz-adv-x="518" d="M258 199Q202 199 158 230Q151 235 146 229L105 187Q96 179 86 187L72 202Q64 211 72 219L113 260Q119 267 113 277Q100 297 93 321T85 373Q85 401 93 426T116 472Q120 480 115 485L74 526Q66 536 74 545L88 559Q97
568 105 559L147 517Q152 512 159 516Q180 530 205 538T258 546Q313 546 356 515Q364 511 369 516L415 562Q422 569 428 562L448 542Q453 536 448 530L401 483Q396 478 400 472Q414 451 422 426T431 373Q431 346 423 322T400 276Q396 268 401 263L448 217Q454 210
448 204L428 184Q422 178 417 184L371 229Q364 236 359 232Q337 216 312 208T258 199V199ZM260 248Q296 248 324 265T368 311T385 373Q385 406 369 434T324 480T260 498Q225 498 197 481T152 435T135 373Q135 340 151 312T196 266T260 248V248Z" />
<glyph unicode="&#xa5;" horiz-adv-x="585" d="M559 742Q565 742 567 739T566 730L329 334Q326 330 325 326T324 312V14Q324 0 308 0H280Q273 0 270 3T267 12V298Q267 307 266 310T262 320L20 729Q17 734 19 738T29 742H67Q74 742 77 740T84 732L287 383Q292 374
295 374T304 382L512 732Q516 739 518 740T529 742H559V742ZM484 306Q484 297 472 297L117 296Q112 296 110 298T108 304V330Q108 338 114 338L476 339Q484 339 484 332V306ZM484 164Q484 155 472 155L117 154Q112 154 110 156T108 162V188Q108 196 114 196L476
197Q484 197 484 190V164Z" />
<glyph unicode="&#xa6;" horiz-adv-x="266" d="M119 442Q111 442 111 449L110 839Q110 843 112 845T117 847H147Q156 847 156 836V450Q156 442 148 442H119ZM119 -165Q111 -165 111 -158L110 232Q110 236 112 238T117 240H147Q156 240 156 230V-156Q156 -165 148
-165H119Z" />
<glyph unicode="&#xa7;" horiz-adv-x="480" d="M337 197Q384 171 410 140T436 66Q436 28 413 -2T348 -51T251 -69Q188 -69 131 -39T46 42Q44 45 44 47T46 51L74 68Q77 70 80 70T84 66Q109 26 153 1T253 -24Q310 -24 347 -1T384 64Q384 94 361 121T270 175L173
212Q111 236 84 271T56 351Q56 398 87 432T165 483Q120 506 97 528T65 573T56 620Q56 658 79 687T142 734T237 752Q297 752 344 725T416 660Q419 657 419 655T416 650L391 635Q387 633 384 633T378 636Q353 667 319 687T242 707Q179 707 144 684T108 624Q108 598
127 573T206 523L295 486Q371 455 403 415T436 326Q436 274 406 244T337 197V197ZM273 226Q302 224 327 236T368 270T384 318Q384 355 367 382T288 434L225 459Q194 456 167 441T123 403T107 356Q107 325 125 303T204 255L273 226V226Z" />
<glyph unicode="&#xa8;" horiz-adv-x="197" d="M68 654Q68 647 66 644T55 641H22Q15 641 13 643T10 652V731Q10 742 20 742H59Q68 742 68 732V654ZM187 654Q187 647 185 644T174 641H141Q134 641 132 643T129 652V731Q129 742 139 742H178Q187 742 187 732V654Z" />
<glyph unicode="&#xa9;" horiz-adv-x="830" d="M415 -10Q336 -10 267 19T146 101T64 222T34 371Q34 450 63 519T145 640T267 722T415 752Q494 752 563 723T684 641T766 519T796 371Q796 292 767 223T685 101T563 20T415 -10V-10ZM415 38Q481 38 540 61T647 128T720
233T747 371Q747 446 721 507T647 613T541 681T415 705Q347 705 288 682T182 614T109 508T83 371Q83 295 109 234T181 128T287 61T415 38V38ZM417 590Q453 590 482 578T534 544T575 496Q577 493 576 491T574 488L541 472Q537 470 533 477Q510 511 482 529T421 547Q358
547 319 500T279 375Q279 297 319 250T421 202Q461 202 493 223T544 280Q547 286 554 281L577 269Q582 266 579 260Q566 238 549 220T512 188T467 167T417 159Q361 159 318 186T252 261T228 373Q228 437 252 485T319 562T417 590V590Z" />
<glyph unicode="&#xaa;" horiz-adv-x="405" d="M190 749Q251 749 283 719T316 635V472Q316 457 317 447T325 420Q327 415 325 413T318 411H290Q286 411 284 412T281 418L275 454Q274 460 266 455Q241 429 216 417T156 405Q104 405 75 429T46 497Q46 545 86 572T206
606L264 612Q275 614 275 621V638Q275 713 186 713Q157 713 135 703T93 664Q90 660 85 662L57 672Q56 673 56 675T57 680Q74 712 108 730T190 749V749ZM90 498Q90 472 111 456T168 440Q212 440 246 471Q260 483 267 495T275 521V569Q275 579 265 578L217 574Q152
569 121 550T90 498V498Z" />
<glyph unicode="&#xab;" horiz-adv-x="427" d="M376 82Q380 77 368 77H352Q346 77 344 81L209 249Q202 257 208 264L345 442Q347 445 348 445T352 446H370Q374 446 376 444T376 438L265 263Q261 256 265 251L376 82ZM206 82Q210 77 199 77H183Q177 77 174 81L39
249Q33 257 38 264L175 442Q177 445 179 445T183 446H201Q204 446 206 444T206 438L96 263Q92 256 96 251L206 82Z" />
<glyph unicode="&#xac;" horiz-adv-x="545" d="M477 360Q477 351 465 351L77 350Q73 350 71 351T68 358V386Q68 394 74 394L469 395Q477 395 477 388V360ZM477 219Q477 209 468 209H440Q432 209 432 216L431 378Q431 386 438 386H468Q477 386 477 375V219Z" />
<glyph unicode="&#xad;" horiz-adv-x="381" d="M313 252Q313 243 301 243L77 242Q73 242 71 243T68 250V280Q68 288 74 288L305 289Q313 289 313 282V252Z" />
<glyph unicode="&#xae;" horiz-adv-x="545" d="M273 275Q207 275 153 307T66 393T34 513Q34 579 66 633T152 719T273 752Q339 752 393 720T479 633T511 513Q511 447 479 393T393 307T273 275V275ZM273 312Q331 312 376 337T446 407T472 513Q472 574 447 619T376
689T273 715Q214 715 169 690T99 619T73 513Q73 452 98 407T169 337T273 312V312ZM356 398Q357 396 356 395T353 393H326Q324 393 322 396L282 503Q281 505 281 505T274 506H221Q217 506 217 502V397Q217 393 213 393H188Q185 393 185 396V626Q185 630 187 630H288Q324
630 343 616T363 572Q363 542 348 529T315 510Q312 510 314 507L356 398V398ZM281 535Q301 535 315 542T330 568Q330 581 320 591T278 601H221Q219 601 218 602T217 598V539Q217 535 220 535H281V535Z" />
<glyph unicode="&#xaf;" horiz-adv-x="282" d="M272 689Q272 680 261 680H18Q13 680 12 682T10 689V715Q10 723 16 723H266Q272 723 272 717V689Z" />
<glyph unicode="&#xb0;" horiz-adv-x="464" d="M384 706Q384 661 364 627T310 573T232 554Q188 554 154 573T100 626T80 706Q80 751 100 785T154 838T232 858Q276 858 310 839T364 785T384 706V706ZM337 705Q337 754 308 784T230 815Q182 815 153 785T124 705Q125
656 153 625T231 594Q280 594 308 625T337 705V705Z" />
<glyph unicode="&#xb1;" horiz-adv-x="545" d="M477 89Q477 80 465 80L77 79Q73 79 71 80T68 87V115Q68 123 74 123L469 124Q477 124 477 117V89ZM477 432Q477 422 465 422L77 421Q73 421 71 423T68 430V458Q68 466 74 466L469 467Q477 467 477 460V432ZM260 240Q251
240 251 251L250 639Q250 645 251 646T258 648H286Q294 648 294 643V248Q294 240 287 240H260Z" />
<glyph unicode="&#xb2;" horiz-adv-x="452" d="M206 576Q239 609 260 635T291 685T301 734Q301 765 285 785T245 816T196 826Q168 826 136 812T81 766Q77 759 70 765L57 774Q53 778 53 780T55 785Q82 823 122 840T201 857Q236 857 266 844T316 804T336 731Q336
703 326 678T291 624T229 556L97 424Q94 421 95 419T101 416H335Q341 416 341 410V390Q341 384 336 384H61Q56 384 55 386T53 393V408Q53 415 55 419T64 430L206 576Z" />
<glyph unicode="&#xb3;" horiz-adv-x="467" d="M80 789Q76 792 80 797Q111 828 144 842T217 857Q285 857 325 824T365 740Q365 704 343 677T283 636Q276 633 276 632T283 629Q321 619 350 588T379 510Q379 456 337 417T209 378Q164 378 129 392T60 439Q58 441
58 442T60 447L77 461Q82 466 84 461Q113 432 144 421T212 409Q275 409 309 436T343 508Q343 543 324 566T274 602T210 614H153Q147 614 147 619V638Q147 644 153 644H199Q253 644 291 671T329 740Q329 777 298 802T218 827Q185 827 155 814T101 777Q99 774 96
774T90 777L80 789V789Z" />
<glyph unicode="&#xb4;" horiz-adv-x="275" d="M268 716Q271 707 260 703L33 630Q28 629 26 630T20 636L15 652Q12 661 18 663L248 755Q254 757 257 751L268 716Z" />
<glyph unicode="&#xb5;" horiz-adv-x="573" d="M249 34Q297 34 342 61T435 135V520Q435 530 446 530H475Q485 530 485 520V10Q485 0 476 0H447Q438 0 438 9V72Q438 78 437 79T430 76Q372 30 333 11T249 -9Q214 -10 184 0T130 33V-152Q130 -159 128 -162T117 -165H92Q80
-165 80 -154V519Q80 530 90 530H120Q130 530 130 520V140Q130 112 146 88T190 49T249 34V34Z" />
<glyph unicode="&#xb6;" horiz-adv-x="540" d="M403 705Q399 705 399 700V-79Q399 -81 398 -83T394 -85H365Q359 -85 359 -79V701Q359 705 354 705H319Q314 705 314 700V-79Q314 -85 308 -85H280Q274 -85 274 -79V301Q274 304 270 304Q201 305 152 335T79 413T54
515Q54 571 79 623T157 709T286 742H454Q459 742 459 737V709Q459 705 454 705H403Z" />
<glyph unicode="&#xb7;" horiz-adv-x="179" d="M133 343Q133 331 119 331H56Q45 331 45 342V406Q45 416 53 416H126Q133 416 133 408V343Z" />
<glyph unicode="&#xb8;" horiz-adv-x="202" d="M192 -129Q192 -155 178 -171T141 -196T90 -205Q67 -205 49 -200T14 -184Q9 -182 10 -177L20 -156Q22 -152 27 -155Q38 -163 50 -168T85 -173Q116 -173 130 -163T144 -131Q144 -108 125 -97T66 -84Q62 -84 61 -83T62
-79L98 5H135L111 -54Q110 -58 114 -58Q145 -60 162 -71T185 -98T192 -129V-129Z" />
<glyph unicode="&#xb9;" horiz-adv-x="367" d="M252 411Q257 411 257 407V385Q257 380 252 380H45Q40 380 40 385V407Q40 411 45 411H132Q135 411 135 414V799Q135 805 132 804L46 770Q40 769 40 775V793Q40 795 40 796T44 799L132 843Q137 845 139 846T146 847H166Q171
847 171 841V415Q171 411 175 411H252V411Z" />
<glyph unicode="&#xba;" horiz-adv-x="417" d="M208 751Q256 751 291 729T344 668T363 577Q363 528 346 490T293 429T208 407Q159 407 124 429T72 489T54 577Q54 629 72 668T126 729T208 751V751ZM208 713Q155 713 128 676T100 580Q100 517 127 480T208 443Q262
443 289 480T317 580Q317 639 290 676T208 713V713Z" />
<glyph unicode="&#xbb;" horiz-adv-x="426" d="M161 251Q166 257 161 263L50 438Q48 442 50 444T56 446H73Q76 446 77 446T81 442L218 264Q224 257 217 249L82 81Q80 77 73 77H58Q48 77 50 82L161 251V251ZM330 251Q335 257 330 263L220 438Q218 442 220 444T225
446H243Q245 446 246 446T251 442L388 264Q394 257 387 249L252 81Q249 77 243 77H227Q218 77 220 82L330 251V251Z" />
<glyph unicode="&#xbc;" horiz-adv-x="867" d="M257 307Q262 307 262 303V281Q262 276 257 276H50Q45 276 45 281V303Q45 307 50 307H137Q140 307 140 310V695Q140 701 137 700L51 666Q45 665 45 671V689Q45 691 45 692T49 695L137 739Q142 741 144 742T151 743H171Q176
743 176 737V311Q176 307 180 307H257V307ZM222 4Q217 -4 206 -4H188Q181 -4 180 0T183 10L670 745Q673 749 676 749T683 750H706Q710 750 712 749T711 741L222 4ZM702 463Q703 465 706 466T712 467H738Q743 467 743 461V168Q743 163 748 163H811Q818 163 818 159V139Q818
133 811 133H748Q743 133 743 127V7Q743 0 736 0H713Q707 0 707 7V129Q707 133 702 133H492Q484 133 484 139V161Q484 165 485 168T490 177L702 463V463ZM699 163Q705 163 705 167V404Q705 411 703 411T696 406L523 171Q517 163 527 163H699Z" />
<glyph unicode="&#xbd;" horiz-adv-x="929" d="M249 307Q254 307 254 303V281Q254 276 249 276H42Q37 276 37 281V303Q37 307 42 307H129Q132 307 132 310V695Q132 701 129 700L43 666Q37 665 37 671V689Q37 691 37 692T41 695L129 739Q134 741 136 742T143 743H163Q168
743 168 737V311Q168 307 172 307H249V307ZM212 4Q207 -4 196 -4H178Q171 -4 170 0T173 10L660 745Q663 749 666 749T673 750H696Q700 750 702 749T701 741L212 4ZM724 192Q757 225 778 251T809 301T819 350Q819 381 803 401T763 432T714 442Q686 442 654 428T599
382Q595 375 588 381L575 390Q571 394 571 396T573 401Q600 439 640 456T719 473Q754 473 784 460T834 420T854 347Q854 319 844 294T809 240T747 172L615 40Q612 37 613 35T619 32H853Q859 32 859 26V6Q859 0 854 0H579Q574 0 573 2T571 9V24Q571 31 573 35T582
46L724 192Z" />
<glyph unicode="&#xbe;" horiz-adv-x="893" d="M66 684Q62 687 66 692Q97 723 130 737T203 752Q271 752 311 719T351 635Q351 599 329 572T269 531Q262 528 262 527T269 524Q307 514 336 483T365 405Q365 351 323 312T195 273Q150 273 115 287T46 334Q44 336 44
337T46 342L63 356Q68 361 70 356Q99 327 130 316T198 304Q261 304 295 331T329 403Q329 438 310 461T260 497T196 509H139Q133 509 133 514V533Q133 539 139 539H185Q239 539 277 566T315 635Q315 672 284 697T204 722Q171 722 141 709T87 672Q85 669 82 669T76
672L66 684V684ZM282 4Q277 -4 266 -4H248Q241 -4 240 0T243 10L730 745Q733 749 736 749T743 750H766Q770 750 772 749T771 741L282 4ZM746 463Q747 465 750 466T756 467H782Q787 467 787 461V168Q787 163 792 163H855Q862 163 862 159V139Q862 133 855 133H792Q787
133 787 127V7Q787 0 780 0H757Q751 0 751 7V129Q751 133 746 133H536Q528 133 528 139V161Q528 165 529 168T534 177L746 463V463ZM743 163Q749 163 749 167V404Q749 411 747 411T740 406L567 171Q561 163 571 163H743Z" />
<glyph unicode="&#xbf;" horiz-adv-x="508" d="M228 518Q228 530 243 530H289Q294 530 297 528T300 519V453Q300 444 292 444H236Q228 444 228 452V518ZM467 -40Q470 -41 471 -44T470 -49Q439 -107 378 -141T243 -175Q178 -175 130 -153T56 -89T30 6Q30 48 44
78T83 131T134 177T185 225T224 284T239 364Q239 368 241 370T247 373H279Q288 373 288 363Q288 313 274 277T236 213T187 164T138 120T100 71T85 7Q85 -54 128 -90T244 -127Q281 -127 317 -114T382 -78T422 -29Q424 -26 425 -25T431 -25L467 -40Z" />
<glyph unicode="&#xc0;" horiz-adv-x="706" d="M59 0Q55 0 53 3T51 11L315 730Q317 737 321 739T332 742H375Q391 742 394 731L655 12Q657 7 655 4T647 0H612Q601 0 598 9L520 225Q519 229 517 230T510 232H194Q187 232 184 225L104 8Q103 3 100 2T92 0H59V0ZM490
280Q501 280 498 291L360 667Q356 677 353 677T345 666L205 289Q202 280 211 280H490ZM244 959Q247 965 253 963L483 872Q489 869 486 861L480 844Q479 840 477 839T468 838L241 911Q230 916 233 925L244 959V959Z" />
<glyph unicode="&#xc1;" horiz-adv-x="706" d="M59 0Q55 0 53 3T51 11L315 730Q317 737 321 739T332 742H375Q391 742 394 731L655 12Q657 7 655 4T647 0H612Q601 0 598 9L520 225Q519 229 517 230T510 232H194Q187 232 184 225L104 8Q103 3 100 2T92 0H59V0ZM490
280Q501 280 498 291L360 667Q356 677 353 677T345 666L205 289Q202 280 211 280H490ZM483 928Q486 919 475 915L248 842Q243 841 241 842T235 848L230 864Q227 873 233 875L463 967Q469 969 472 963L483 928Z" />
<glyph unicode="&#xc2;" horiz-adv-x="706" d="M59 0Q55 0 53 3T51 11L315 730Q317 737 321 739T332 742H375Q391 742 394 731L655 12Q657 7 655 4T647 0H612Q601 0 598 9L520 225Q519 229 517 230T510 232H194Q187 232 184 225L104 8Q103 3 100 2T92 0H59V0ZM490
280Q501 280 498 291L360 667Q356 677 353 677T345 666L205 289Q202 280 211 280H490ZM362 908Q355 914 353 914T342 908L281 859Q276 855 274 854T265 853H225Q219 853 219 856T222 863L322 945Q327 950 331 952T343 955H366Q372 955 376 952T383 946L482 863Q494
853 481 853H436Q431 853 428 854T420 859L362 908Z" />
<glyph unicode="&#xc3;" horiz-adv-x="706" d="M59 0Q55 0 53 3T51 11L315 730Q317 737 321 739T332 742H375Q391 742 394 731L655 12Q657 7 655 4T647 0H612Q601 0 598 9L520 225Q519 229 517 230T510 232H194Q187 232 184 225L104 8Q103 3 100 2T92 0H59V0ZM490
280Q501 280 498 291L360 667Q356 677 353 677T345 666L205 289Q202 280 211 280H490ZM481 901Q471 894 455 888T412 881Q386 881 368 887T333 899T295 905Q273 905 261 898T238 885Q234 883 231 883T226 889L219 908Q218 912 218 914T221 917Q236 929 252 936T291
944Q314 944 333 938T372 926T413 919Q430 919 441 923T465 935Q470 938 473 938T478 932L487 911Q489 906 481 901V901Z" />
<glyph unicode="&#xc4;" horiz-adv-x="706" d="M59 0Q55 0 53 3T51 11L315 730Q317 737 321 739T332 742H375Q391 742 394 731L655 12Q657 7 655 4T647 0H612Q601 0 598 9L520 225Q519 229 517 230T510 232H194Q187 232 184 225L104 8Q103 3 100 2T92 0H59V0ZM490
280Q501 280 498 291L360 667Q356 677 353 677T345 666L205 289Q202 280 211 280H490ZM322 866Q322 859 320 856T309 853H276Q269 853 267 855T264 864V943Q264 954 274 954H313Q322 954 322 944V866ZM441 866Q441 859 439 856T428 853H395Q388 853 386 855T383
864V943Q383 954 393 954H432Q441 954 441 944V866Z" />
<glyph unicode="&#xc5;" horiz-adv-x="706" d="M59 0Q55 0 53 3T51 11L315 730Q317 737 321 739T332 742H375Q391 742 394 731L655 12Q657 7 655 4T647 0H612Q601 0 598 9L520 225Q519 229 517 230T510 232H194Q187 232 184 225L104 8Q103 3 100 2T92 0H59V0ZM490
280Q501 280 498 291L360 667Q356 677 353 677T345 666L205 289Q202 280 211 280H490ZM454 865Q454 821 425 793T353 764Q311 764 282 793T252 867Q252 894 265 915T302 950T353 964Q381 964 404 951T440 915T454 865V865ZM409 864Q409 889 393 905T352 922Q329
922 312 906T294 864Q294 841 311 823T352 805Q377 805 393 823T409 864V864Z" />
<glyph unicode="&#xc6;" horiz-adv-x="973" d="M914 48Q922 48 922 40V8Q922 4 921 2T914 0H506Q496 0 496 11V227Q496 232 490 232H240Q231 232 227 225L103 8Q101 3 98 2T90 0H57Q52 0 51 3T52 11L461 730Q464 737 468 739T480 742H900Q908 742 908 734V703Q908
694 899 694H563Q553 694 553 685V407Q553 399 563 399H826Q834 399 834 391V359Q834 355 833 353T825 351H563Q553 351 553 342V57Q553 48 562 48H914V48ZM487 280Q496 280 496 290V669Q495 680 491 680T479 668L259 289Q254 280 262 280H487V280Z" />
<glyph unicode="&#xc7;" horiz-adv-x="698" d="M376 752Q423 752 467 736T547 692T606 629T634 554Q635 549 634 547T628 545L583 541Q580 540 579 542T576 548Q559 618 506 660T378 703Q260 703 198 618T135 369Q135 210 197 125T385 40Q462 40 512 76T592 191Q594
195 599 194L639 183Q641 182 642 180T642 174Q632 142 615 114T573 64T519 24T454 -1T381 -10Q284 -10 216 35T111 164T75 369Q75 489 111 575T214 706T376 752V752ZM458 -129Q458 -155 444 -171T407 -196T356 -205Q333 -205 315 -200T280 -184Q275 -182 276 -177L286
-156Q288 -152 293 -155Q304 -163 316 -168T351 -173Q382 -173 396 -163T410 -131Q410 -108 391 -97T332 -84Q328 -84 327 -83T328 -79L364 5H401L377 -54Q376 -58 380 -58Q411 -60 428 -71T451 -98T458 -129V-129Z" />
<glyph unicode="&#xc8;" horiz-adv-x="616" d="M110 731Q110 742 120 742H543Q550 742 550 734V703Q550 694 541 694H177Q167 694 167 685V407Q167 399 177 399H459Q467 399 467 391V359Q467 355 466 353T458 351H177Q167 351 167 342V57Q167 48 177 48H556Q565
48 565 40V8Q565 4 563 2T557 0H120Q110 0 110 11V731V731ZM236 959Q239 965 245 963L475 872Q481 869 478 861L472 844Q471 840 469 839T460 838L233 911Q222 916 225 925L236 959V959Z" />
<glyph unicode="&#xc9;" horiz-adv-x="616" d="M110 731Q110 742 120 742H543Q550 742 550 734V703Q550 694 541 694H177Q167 694 167 685V407Q167 399 177 399H459Q467 399 467 391V359Q467 355 466 353T458 351H177Q167 351 167 342V57Q167 48 177 48H556Q565
48 565 40V8Q565 4 563 2T557 0H120Q110 0 110 11V731V731ZM475 928Q478 919 467 915L240 842Q235 841 233 842T227 848L222 864Q219 873 225 875L455 967Q461 969 464 963L475 928Z" />
<glyph unicode="&#xca;" horiz-adv-x="616" d="M110 731Q110 742 120 742H543Q550 742 550 734V703Q550 694 541 694H177Q167 694 167 685V407Q167 399 177 399H459Q467 399 467 391V359Q467 355 466 353T458 351H177Q167 351 167 342V57Q167 48 177 48H556Q565
48 565 40V8Q565 4 563 2T557 0H120Q110 0 110 11V731V731ZM354 908Q347 914 345 914T334 908L273 859Q268 855 266 854T257 853H217Q211 853 211 856T214 863L314 945Q319 950 323 952T335 955H358Q364 955 368 952T375 946L474 863Q486 853 473 853H428Q423 853
420 854T412 859L354 908Z" />
<glyph unicode="&#xcb;" horiz-adv-x="616" d="M110 731Q110 742 120 742H543Q550 742 550 734V703Q550 694 541 694H177Q167 694 167 685V407Q167 399 177 399H459Q467 399 467 391V359Q467 355 466 353T458 351H177Q167 351 167 342V57Q167 48 177 48H556Q565
48 565 40V8Q565 4 563 2T557 0H120Q110 0 110 11V731V731ZM313 866Q313 859 311 856T300 853H267Q260 853 258 855T255 864V943Q255 954 265 954H304Q313 954 313 944V866ZM432 866Q432 859 430 856T419 853H386Q379 853 377 855T374 864V943Q374 954 384 954H423Q432
954 432 944V866Z" />
<glyph unicode="&#xcc;" horiz-adv-x="278" d="M158 742Q167 742 167 731V13Q167 6 165 3T154 0H122Q115 0 113 2T110 11V731Q110 742 120 742H158ZM33 959Q36 965 42 963L272 872Q278 869 275 861L269 844Q268 840 266 839T257 838L30 911Q19 916 22 925L33 959V959Z" />
<glyph unicode="&#xcd;" horiz-adv-x="278" d="M158 742Q167 742 167 731V13Q167 6 165 3T154 0H122Q115 0 113 2T110 11V731Q110 742 120 742H158ZM272 928Q275 919 264 915L37 842Q32 841 30 842T24 848L19 864Q16 873 22 875L252 967Q258 969 261 963L272 928Z" />
<glyph unicode="&#xce;" horiz-adv-x="278" d="M158 742Q167 742 167 731V13Q167 6 165 3T154 0H122Q115 0 113 2T110 11V731Q110 742 120 742H158ZM151 908Q144 914 142 914T131 908L70 859Q65 855 63 854T54 853H14Q8 853 8 856T11 863L111 945Q116 950 120
952T132 955H155Q161 955 165 952T172 946L271 863Q283 853 270 853H225Q220 853 217 854T209 859L151 908Z" />
<glyph unicode="&#xcf;" horiz-adv-x="278" d="M158 742Q167 742 167 731V13Q167 6 165 3T154 0H122Q115 0 113 2T110 11V731Q110 742 120 742H158ZM110 866Q110 859 108 856T97 853H64Q57 853 55 855T52 864V943Q52 954 62 954H101Q110 954 110 944V866ZM229
866Q229 859 227 856T216 853H183Q176 853 174 855T171 864V943Q171 954 181 954H220Q229 954 229 944V866Z" />
<glyph unicode="&#xd0;" horiz-adv-x="709" d="M348 361Q348 349 333 349H45Q39 349 37 352T34 360V388Q34 397 42 397H340Q348 397 348 389V361ZM122 742Q125 742 142 742T182 742T223 741T247 741Q387 740 472 700T595 580T634 379Q634 248 591 164T459 40T234
0H122Q111 0 111 11V731Q111 737 114 739T122 742V742ZM179 694Q169 694 169 680V57Q169 47 180 47H227Q352 47 428 79T540 182T575 371Q575 498 538 568T424 666T230 694H179V694Z" />
<glyph unicode="&#xd1;" horiz-adv-x="755" d="M636 742Q645 742 645 732V11Q645 5 643 3T635 0H613Q607 0 603 0T593 7L175 621Q170 629 167 628T163 621V10Q163 0 152 0H120Q110 0 110 11V731Q110 742 120 742H147Q153 742 156 741T163 734L579 123Q584 116
588 118T593 125V732Q593 742 602 742H636ZM522 901Q512 894 496 888T453 881Q427 881 409 887T374 899T336 905Q314 905 302 898T279 885Q275 883 272 883T267 889L260 908Q259 912 259 914T262 917Q277 929 293 936T332 944Q355 944 374 938T413 926T454 919Q471
919 482 923T506 935Q511 938 514 938T519 932L528 911Q530 906 522 901V901Z" />
<glyph unicode="&#xd2;" horiz-adv-x="759" d="M380 -10Q285 -10 217 33T112 160T75 367Q75 492 112 578T217 708T381 752Q476 752 543 708T647 579T684 369Q684 247 648 162T543 34T380 -10V-10ZM382 39Q502 39 563 120T624 369Q624 538 562 620T381 703Q260
703 198 620T135 369Q135 203 198 121T382 39V39ZM273 959Q276 965 282 963L512 872Q518 869 515 861L509 844Q508 840 506 839T497 838L270 911Q259 916 262 925L273 959V959Z" />
<glyph unicode="&#xd3;" horiz-adv-x="759" d="M380 -10Q285 -10 217 33T112 160T75 367Q75 492 112 578T217 708T381 752Q476 752 543 708T647 579T684 369Q684 247 648 162T543 34T380 -10V-10ZM382 39Q502 39 563 120T624 369Q624 538 562 620T381 703Q260
703 198 620T135 369Q135 203 198 121T382 39V39ZM512 928Q515 919 504 915L277 842Q272 841 270 842T264 848L259 864Q256 873 262 875L492 967Q498 969 501 963L512 928Z" />
<glyph unicode="&#xd4;" horiz-adv-x="759" d="M380 -10Q285 -10 217 33T112 160T75 367Q75 492 112 578T217 708T381 752Q476 752 543 708T647 579T684 369Q684 247 648 162T543 34T380 -10V-10ZM382 39Q502 39 563 120T624 369Q624 538 562 620T381 703Q260
703 198 620T135 369Q135 203 198 121T382 39V39ZM391 908Q384 914 382 914T371 908L310 859Q305 855 303 854T294 853H254Q248 853 248 856T251 863L351 945Q356 950 360 952T372 955H395Q401 955 405 952T412 946L511 863Q523 853 510 853H465Q460 853 457 854T449
859L391 908Z" />
<glyph unicode="&#xd5;" horiz-adv-x="759" d="M380 -10Q285 -10 217 33T112 160T75 367Q75 492 112 578T217 708T381 752Q476 752 543 708T647 579T684 369Q684 247 648 162T543 34T380 -10V-10ZM382 39Q502 39 563 120T624 369Q624 538 562 620T381 703Q260
703 198 620T135 369Q135 203 198 121T382 39V39ZM510 901Q500 894 484 888T441 881Q415 881 397 887T362 899T324 905Q302 905 290 898T267 885Q263 883 260 883T255 889L248 908Q247 912 247 914T250 917Q265 929 281 936T320 944Q343 944 362 938T401 926T442
919Q459 919 470 923T494 935Q499 938 502 938T507 932L516 911Q518 906 510 901V901Z" />
<glyph unicode="&#xd6;" horiz-adv-x="759" d="M380 -10Q285 -10 217 33T112 160T75 367Q75 492 112 578T217 708T381 752Q476 752 543 708T647 579T684 369Q684 247 648 162T543 34T380 -10V-10ZM382 39Q502 39 563 120T624 369Q624 538 562 620T381 703Q260
703 198 620T135 369Q135 203 198 121T382 39V39ZM350 866Q350 859 348 856T337 853H304Q297 853 295 855T292 864V943Q292 954 302 954H341Q350 954 350 944V866ZM469 866Q469 859 467 856T456 853H423Q416 853 414 855T411 864V943Q411 954 421 954H460Q469 954
469 944V866Z" />
<glyph unicode="&#xd7;" horiz-adv-x="522" d="M431 185Q424 178 416 186L72 529Q69 532 69 535T72 541L92 561Q98 567 102 563L450 215Q452 213 452 210T451 205L431 185ZM74 203Q67 210 75 218L417 561Q421 565 424 565T430 561L450 541Q456 537 451 532L104
184Q98 178 94 183L74 203Z" />
<glyph unicode="&#xd8;" horiz-adv-x="713" d="M690 724Q695 719 691 712L606 615Q633 569 647 507T661 369Q661 247 625 162T520 34T357 -10Q288 -10 233 13T139 80L67 -2Q62 -9 58 -9T46 -4L28 13Q18 23 24 30L107 125Q80 171 66 231T52 367Q52 492 89 578T194
708T357 752Q426 752 480 729T574 660L649 745Q657 754 663 749L690 724V724ZM115 369Q115 308 123 259T149 172L538 620Q477 702 357 702Q237 702 176 620T115 369V369ZM598 369Q598 430 590 480T564 569L175 122Q238 40 358 40Q479 40 538 121T598 369V369Z"
/>
<glyph unicode="&#xd9;" horiz-adv-x="704" d="M603 234Q603 152 576 98T492 17T352 -10Q266 -10 211 18T128 103T100 249V730Q100 742 109 742H147Q158 742 158 731V230Q158 134 207 87T355 39Q421 39 465 60T532 125T554 233V732Q554 742 563 742H595Q603 742
603 732V234V234ZM248 959Q251 965 257 963L487 872Q493 869 490 861L484 844Q483 840 481 839T472 838L245 911Q234 916 237 925L248 959V959Z" />
<glyph unicode="&#xda;" horiz-adv-x="704" d="M603 234Q603 152 576 98T492 17T352 -10Q266 -10 211 18T128 103T100 249V730Q100 742 109 742H147Q158 742 158 731V230Q158 134 207 87T355 39Q421 39 465 60T532 125T554 233V732Q554 742 563 742H595Q603 742
603 732V234V234ZM487 928Q490 919 479 915L252 842Q247 841 245 842T239 848L234 864Q231 873 237 875L467 967Q473 969 476 963L487 928Z" />
<glyph unicode="&#xdb;" horiz-adv-x="704" d="M603 234Q603 152 576 98T492 17T352 -10Q266 -10 211 18T128 103T100 249V730Q100 742 109 742H147Q158 742 158 731V230Q158 134 207 87T355 39Q421 39 465 60T532 125T554 233V732Q554 742 563 742H595Q603 742
603 732V234V234ZM366 908Q359 914 357 914T346 908L285 859Q280 855 278 854T269 853H229Q223 853 223 856T226 863L326 945Q331 950 335 952T347 955H370Q376 955 380 952T387 946L486 863Q498 853 485 853H440Q435 853 432 854T424 859L366 908Z" />
<glyph unicode="&#xdc;" horiz-adv-x="704" d="M603 234Q603 152 576 98T492 17T352 -10Q266 -10 211 18T128 103T100 249V730Q100 742 109 742H147Q158 742 158 731V230Q158 134 207 87T355 39Q421 39 465 60T532 125T554 233V732Q554 742 563 742H595Q603 742
603 732V234V234ZM325 866Q325 859 323 856T312 853H279Q272 853 270 855T267 864V943Q267 954 277 954H316Q325 954 325 944V866ZM444 866Q444 859 442 856T431 853H398Q391 853 389 855T386 864V943Q386 954 396 954H435Q444 954 444 944V866Z" />
<glyph unicode="&#xdd;" horiz-adv-x="647" d="M591 742Q597 742 599 739T598 730L359 327Q356 323 356 319T355 304V14Q355 0 339 0H310Q303 0 301 3T298 12V295Q298 303 297 307T292 316L49 729Q45 734 47 738T57 742H91Q99 742 102 740T109 732L313 384Q320
372 325 372T337 382L540 732Q544 739 547 740T557 742H591V742ZM450 928Q453 919 442 915L215 842Q210 841 208 842T202 848L197 864Q194 873 200 875L430 967Q436 969 439 963L450 928Z" />
<glyph unicode="&#xde;" horiz-adv-x="678" d="M618 389Q618 314 584 268T491 201T357 180H176Q167 180 167 170V10Q167 0 158 0H119Q115 0 113 2T110 9V731Q110 742 120 742H158Q167 742 167 731V586Q167 581 174 581H349Q428 581 488 561T583 499T618 389V389ZM558
389Q558 469 501 501T348 533H177Q167 533 167 525V238Q167 227 175 227H355Q447 227 502 264T558 389V389Z" />
<glyph unicode="&#xdf;" horiz-adv-x="588" d="M312 742Q372 742 406 722T455 671T470 607Q470 568 453 544T410 504T355 474Q311 450 294 437T277 399Q277 376 293 366T352 342Q377 334 408 322T467 291T515 239T534 159Q534 104 508 66T439 9T345 -10Q311 -10
274 -2T210 22Q203 26 206 32L224 60Q227 65 234 61Q257 48 280 41T337 33Q405 33 444 65T484 155Q484 199 463 225T409 266T337 292Q313 301 288 311T246 340T229 395Q229 433 252 457T328 508Q350 520 370 532T405 562T419 609Q419 651 389 675T304 699Q238 699
196 659T153 535V11Q155 0 145 0H112Q103 0 103 9V477Q103 487 95 487H36Q29 487 29 493V521Q29 523 30 525T36 528H96Q101 528 102 530T103 537Q103 584 118 622T160 686T226 727T312 742V742Z" />
<glyph unicode="&#xe0;" horiz-adv-x="540" d="M402 70Q362 30 316 10T215 -10Q136 -10 91 29T46 135Q46 187 74 223T158 281T296 310L395 318Q403 319 407 322T412 333V363Q412 425 373 461T269 497Q219 497 179 475T106 408Q103 404 101 403T95 403L65 419Q62
421 62 423T64 430Q96 478 147 509T271 540Q330 540 373 520T438 460T461 368V11Q461 5 459 3T451 0H425Q421 0 418 2T415 11L413 68Q411 81 402 70V70ZM412 263Q412 280 398 278L314 271Q258 267 217 257T150 230T110 191T97 140Q97 90 132 62T226 34Q262 34 296
47T357 81Q384 103 398 126T412 171V263V263ZM158 747Q161 753 167 751L397 660Q403 657 400 649L394 632Q393 628 391 627T382 626L155 699Q144 704 147 713L158 747V747Z" />
<glyph unicode="&#xe1;" horiz-adv-x="540" d="M402 70Q362 30 316 10T215 -10Q136 -10 91 29T46 135Q46 187 74 223T158 281T296 310L395 318Q403 319 407 322T412 333V363Q412 425 373 461T269 497Q219 497 179 475T106 408Q103 404 101 403T95 403L65 419Q62
421 62 423T64 430Q96 478 147 509T271 540Q330 540 373 520T438 460T461 368V11Q461 5 459 3T451 0H425Q421 0 418 2T415 11L413 68Q411 81 402 70V70ZM412 263Q412 280 398 278L314 271Q258 267 217 257T150 230T110 191T97 140Q97 90 132 62T226 34Q262 34 296
47T357 81Q384 103 398 126T412 171V263V263ZM398 716Q401 707 390 703L163 630Q158 629 156 630T150 636L145 652Q142 661 148 663L378 755Q384 757 387 751L398 716Z" />
<glyph unicode="&#xe2;" horiz-adv-x="540" d="M402 70Q362 30 316 10T215 -10Q136 -10 91 29T46 135Q46 187 74 223T158 281T296 310L395 318Q403 319 407 322T412 333V363Q412 425 373 461T269 497Q219 497 179 475T106 408Q103 404 101 403T95 403L65 419Q62
421 62 423T64 430Q96 478 147 509T271 540Q330 540 373 520T438 460T461 368V11Q461 5 459 3T451 0H425Q421 0 418 2T415 11L413 68Q411 81 402 70V70ZM412 263Q412 280 398 278L314 271Q258 267 217 257T150 230T110 191T97 140Q97 90 132 62T226 34Q262 34 296
47T357 81Q384 103 398 126T412 171V263V263ZM277 696Q270 702 268 702T257 696L196 647Q191 643 189 642T180 641H140Q134 641 134 644T137 651L237 733Q242 738 246 740T258 743H281Q287 743 291 740T298 734L397 651Q409 641 396 641H351Q346 641 343 642T335
647L277 696Z" />
<glyph unicode="&#xe3;" horiz-adv-x="540" d="M402 70Q362 30 316 10T215 -10Q136 -10 91 29T46 135Q46 187 74 223T158 281T296 310L395 318Q403 319 407 322T412 333V363Q412 425 373 461T269 497Q219 497 179 475T106 408Q103 404 101 403T95 403L65 419Q62
421 62 423T64 430Q96 478 147 509T271 540Q330 540 373 520T438 460T461 368V11Q461 5 459 3T451 0H425Q421 0 418 2T415 11L413 68Q411 81 402 70V70ZM412 263Q412 280 398 278L314 271Q258 267 217 257T150 230T110 191T97 140Q97 90 132 62T226 34Q262 34 296
47T357 81Q384 103 398 126T412 171V263V263ZM396 689Q386 682 370 676T327 669Q301 669 283 675T248 687T210 693Q188 693 176 686T153 673Q149 671 146 671T141 677L134 696Q133 700 133 702T136 705Q151 717 167 724T206 732Q229 732 248 726T287 714T328 707Q345
707 356 711T380 723Q385 726 388 726T393 720L402 699Q404 694 396 689V689Z" />
<glyph unicode="&#xe4;" horiz-adv-x="540" d="M402 70Q362 30 316 10T215 -10Q136 -10 91 29T46 135Q46 187 74 223T158 281T296 310L395 318Q403 319 407 322T412 333V363Q412 425 373 461T269 497Q219 497 179 475T106 408Q103 404 101 403T95 403L65 419Q62
421 62 423T64 430Q96 478 147 509T271 540Q330 540 373 520T438 460T461 368V11Q461 5 459 3T451 0H425Q421 0 418 2T415 11L413 68Q411 81 402 70V70ZM412 263Q412 280 398 278L314 271Q258 267 217 257T150 230T110 191T97 140Q97 90 132 62T226 34Q262 34 296
47T357 81Q384 103 398 126T412 171V263V263ZM236 654Q236 647 234 644T223 641H190Q183 641 181 643T178 652V731Q178 742 188 742H227Q236 742 236 732V654ZM355 654Q355 647 353 644T342 641H309Q302 641 300 643T297 652V731Q297 742 307 742H346Q355 742 355
732V654Z" />
<glyph unicode="&#xe5;" horiz-adv-x="540" d="M402 70Q362 30 316 10T215 -10Q136 -10 91 29T46 135Q46 187 74 223T158 281T296 310L395 318Q403 319 407 322T412 333V363Q412 425 373 461T269 497Q219 497 179 475T106 408Q103 404 101 403T95 403L65 419Q62
421 62 423T64 430Q96 478 147 509T271 540Q330 540 373 520T438 460T461 368V11Q461 5 459 3T451 0H425Q421 0 418 2T415 11L413 68Q411 81 402 70V70ZM412 263Q412 280 398 278L314 271Q258 267 217 257T150 230T110 191T97 140Q97 90 132 62T226 34Q262 34 296
47T357 81Q384 103 398 126T412 171V263V263ZM368 701Q368 657 339 629T267 600Q225 600 196 629T166 703Q166 730 179 751T216 786T267 800Q295 800 318 787T354 751T368 701V701ZM323 700Q323 725 307 741T266 758Q243 758 226 742T208 700Q208 677 225 659T266
641Q291 641 307 659T323 700V700Z" />
<glyph unicode="&#xe6;" horiz-adv-x="928" d="M476 252Q464 252 461 248T457 227Q457 193 472 159T513 96T574 51T651 34Q700 34 732 48T786 84T822 125Q826 130 828 130T834 128L860 112Q866 109 862 101Q843 69 812 44T739 5T647 -10Q587 -10 548 10T483 57T442
106Q440 110 437 106Q418 82 390 56T320 10T212 -10Q134 -10 90 29T46 136Q46 211 105 255T288 309L394 318Q403 319 407 322T412 333V363Q412 425 374 461T264 497Q218 497 179 475T105 408Q101 403 99 402T93 403L65 419Q62 421 62 423T64 430Q86 466 117 490T188
527T272 540Q345 540 388 512T447 426Q478 483 530 511T650 540Q719 540 771 509T852 418T881 273Q881 263 878 258T863 252H476V252ZM647 497Q595 497 553 472T485 401T459 294L812 293Q824 293 826 296T829 309Q829 360 806 403T742 471T647 497V497ZM412 262Q412
270 410 273T397 276L307 270Q235 264 189 248T121 204T98 139Q98 91 132 61T226 34Q278 37 320 56T387 107T412 176V262V262Z" />
<glyph unicode="&#xe7;" horiz-adv-x="538" d="M296 540Q343 540 379 526T444 487T495 429Q500 421 494 418L463 403Q457 400 451 407Q426 440 402 459T353 487T301 497Q242 497 198 468T130 387T106 265Q106 195 130 143T198 62T301 33Q351 33 391 57T463 132Q466
137 468 137T473 136L501 121Q506 118 503 110Q486 82 464 60T416 22T360 -2T296 -10Q225 -10 170 24T85 120T54 263Q54 344 85 406T171 504T296 540V540ZM374 -129Q374 -155 360 -171T323 -196T272 -205Q249 -205 231 -200T196 -184Q191 -182 192 -177L202 -156Q204
-152 209 -155Q220 -163 232 -168T267 -173Q298 -173 312 -163T326 -131Q326 -108 307 -97T248 -84Q244 -84 243 -83T244 -79L280 5H317L293 -54Q292 -58 296 -58Q327 -60 344 -71T367 -98T374 -129V-129Z" />
<glyph unicode="&#xe8;" horiz-adv-x="578" d="M106 238Q106 184 132 137T202 62T301 34Q359 34 401 57T472 125Q475 130 477 130T483 128L511 112Q517 108 512 101Q488 64 457 40T386 3T299 -10Q227 -10 172 24T86 119T54 261Q54 349 86 411T173 506T299 540Q371
540 422 509T502 417T531 273Q531 266 530 260T517 252H113Q109 252 108 248T106 238V238ZM462 293Q473 293 476 296T479 307Q479 359 457 402T395 471T299 497Q236 497 193 467T129 389T107 293H462ZM188 747Q191 753 197 751L427 660Q433 657 430 649L424 632Q423
628 421 627T412 626L185 699Q174 704 177 713L188 747V747Z" />
<glyph unicode="&#xe9;" horiz-adv-x="578" d="M106 238Q106 184 132 137T202 62T301 34Q359 34 401 57T472 125Q475 130 477 130T483 128L511 112Q517 108 512 101Q488 64 457 40T386 3T299 -10Q227 -10 172 24T86 119T54 261Q54 349 86 411T173 506T299 540Q371
540 422 509T502 417T531 273Q531 266 530 260T517 252H113Q109 252 108 248T106 238V238ZM462 293Q473 293 476 296T479 307Q479 359 457 402T395 471T299 497Q236 497 193 467T129 389T107 293H462ZM428 716Q431 707 420 703L193 630Q188 629 186 630T180 636L175
652Q172 661 178 663L408 755Q414 757 417 751L428 716Z" />
<glyph unicode="&#xea;" horiz-adv-x="578" d="M106 238Q106 184 132 137T202 62T301 34Q359 34 401 57T472 125Q475 130 477 130T483 128L511 112Q517 108 512 101Q488 64 457 40T386 3T299 -10Q227 -10 172 24T86 119T54 261Q54 349 86 411T173 506T299 540Q371
540 422 509T502 417T531 273Q531 266 530 260T517 252H113Q109 252 108 248T106 238V238ZM462 293Q473 293 476 296T479 307Q479 359 457 402T395 471T299 497Q236 497 193 467T129 389T107 293H462ZM307 696Q300 702 298 702T287 696L226 647Q221 643 219 642T210
641H170Q164 641 164 644T167 651L267 733Q272 738 276 740T288 743H311Q317 743 321 740T328 734L427 651Q439 641 426 641H381Q376 641 373 642T365 647L307 696Z" />
<glyph unicode="&#xeb;" horiz-adv-x="578" d="M106 238Q106 184 132 137T202 62T301 34Q359 34 401 57T472 125Q475 130 477 130T483 128L511 112Q517 108 512 101Q488 64 457 40T386 3T299 -10Q227 -10 172 24T86 119T54 261Q54 349 86 411T173 506T299 540Q371
540 422 509T502 417T531 273Q531 266 530 260T517 252H113Q109 252 108 248T106 238V238ZM462 293Q473 293 476 296T479 307Q479 359 457 402T395 471T299 497Q236 497 193 467T129 389T107 293H462ZM266 654Q266 647 264 644T253 641H220Q213 641 211 643T208
652V731Q208 742 218 742H257Q266 742 266 732V654ZM385 654Q385 647 383 644T372 641H339Q332 641 330 643T327 652V731Q327 742 337 742H376Q385 742 385 732V654Z" />
<glyph unicode="&#xec;" horiz-adv-x="226" d="M138 13Q138 6 136 3T125 0H100Q92 0 90 2T88 11V519Q88 530 98 530H128Q138 530 138 519V13ZM4 747Q7 753 13 751L243 660Q249 657 246 649L240 632Q239 628 237 627T228 626L1 699Q-10 704 -7 713L4 747V747Z" />
<glyph unicode="&#xed;" horiz-adv-x="226" d="M138 13Q138 6 136 3T125 0H100Q92 0 90 2T88 11V519Q88 530 98 530H128Q138 530 138 519V13ZM244 716Q247 707 236 703L9 630Q4 629 2 630T-4 636L-9 652Q-12 661 -6 663L224 755Q230 757 233 751L244 716Z" />
<glyph unicode="&#xee;" horiz-adv-x="226" d="M138 13Q138 6 136 3T125 0H100Q92 0 90 2T88 11V519Q88 530 98 530H128Q138 530 138 519V13ZM123 696Q116 702 114 702T103 696L42 647Q37 643 35 642T26 641H-14Q-20 641 -20 644T-17 651L83 733Q88 738 92 740T104
743H127Q133 743 137 740T144 734L243 651Q255 641 242 641H197Q192 641 189 642T181 647L123 696Z" />
<glyph unicode="&#xef;" horiz-adv-x="226" d="M138 13Q138 6 136 3T125 0H100Q92 0 90 2T88 11V519Q88 530 98 530H128Q138 530 138 519V13ZM82 654Q82 647 80 644T69 641H36Q29 641 27 643T24 652V731Q24 742 34 742H73Q82 742 82 732V654ZM201 654Q201 647
199 644T188 641H155Q148 641 146 643T143 652V731Q143 742 153 742H192Q201 742 201 732V654Z" />
<glyph unicode="&#xf0;" horiz-adv-x="598" d="M544 257Q544 179 515 119T431 24T297 -10Q225 -10 170 23T85 116T54 252Q54 330 84 390T168 485T291 520Q341 520 382 503T453 456Q431 508 392 555T289 644L126 552Q118 548 112 557L103 572Q100 577 101 579T104
583L254 667Q229 681 202 694T143 720Q139 722 139 725T142 731L164 747Q169 750 172 751T182 749Q215 736 243 723T298 693L400 750Q407 754 410 749L423 726Q426 721 421 718L334 669Q450 591 497 486T544 257V257ZM301 34Q357 34 400 63T467 142T492 254Q492
317 467 367T399 447T300 477Q245 477 201 447T132 367T106 254Q106 192 131 143T201 64T301 34V34Z" />
<glyph unicode="&#xf1;" horiz-adv-x="578" d="M98 0Q88 0 88 10V520Q88 530 97 530H126Q135 530 135 521V460Q135 455 137 454T143 457Q180 484 210 502T269 530T335 540Q414 540 455 499T497 392V11Q497 0 486 0H457Q452 0 450 2T447 10V375Q447 432 419 464T328
496Q294 496 265 486T206 456T138 406V10Q138 0 127 0H98V0ZM432 689Q422 682 406 676T363 669Q337 669 319 675T284 687T246 693Q224 693 212 686T189 673Q185 671 182 671T177 677L170 696Q169 700 169 702T172 705Q187 717 203 724T242 732Q265 732 284 726T323
714T364 707Q381 707 392 711T416 723Q421 726 424 726T429 720L438 699Q440 694 432 689V689Z" />
<glyph unicode="&#xf2;" horiz-adv-x="598" d="M299 -10Q225 -10 170 24T85 120T54 262Q54 344 85 406T171 504T300 540Q374 540 428 505T513 408T544 264Q544 183 514 122T428 25T299 -10V-10ZM301 34Q361 34 403 62T469 142T492 264Q492 334 469 386T402 467T300
497Q241 497 198 468T130 386T106 264Q106 195 130 143T197 63T301 34V34ZM192 747Q195 753 201 751L431 660Q437 657 434 649L428 632Q427 628 425 627T416 626L189 699Q178 704 181 713L192 747V747Z" />
<glyph unicode="&#xf3;" horiz-adv-x="598" d="M299 -10Q225 -10 170 24T85 120T54 262Q54 344 85 406T171 504T300 540Q374 540 428 505T513 408T544 264Q544 183 514 122T428 25T299 -10V-10ZM301 34Q361 34 403 62T469 142T492 264Q492 334 469 386T402 467T300
497Q241 497 198 468T130 386T106 264Q106 195 130 143T197 63T301 34V34ZM431 716Q434 707 423 703L196 630Q191 629 189 630T183 636L178 652Q175 661 181 663L411 755Q417 757 420 751L431 716Z" />
<glyph unicode="&#xf4;" horiz-adv-x="598" d="M299 -10Q225 -10 170 24T85 120T54 262Q54 344 85 406T171 504T300 540Q374 540 428 505T513 408T544 264Q544 183 514 122T428 25T299 -10V-10ZM301 34Q361 34 403 62T469 142T492 264Q492 334 469 386T402 467T300
497Q241 497 198 468T130 386T106 264Q106 195 130 143T197 63T301 34V34ZM310 696Q303 702 301 702T290 696L229 647Q224 643 222 642T213 641H173Q167 641 167 644T170 651L270 733Q275 738 279 740T291 743H314Q320 743 324 740T331 734L430 651Q442 641 429
641H384Q379 641 376 642T368 647L310 696Z" />
<glyph unicode="&#xf5;" horiz-adv-x="598" d="M299 -10Q225 -10 170 24T85 120T54 262Q54 344 85 406T171 504T300 540Q374 540 428 505T513 408T544 264Q544 183 514 122T428 25T299 -10V-10ZM301 34Q361 34 403 62T469 142T492 264Q492 334 469 386T402 467T300
497Q241 497 198 468T130 386T106 264Q106 195 130 143T197 63T301 34V34ZM430 689Q420 682 404 676T361 669Q335 669 317 675T282 687T244 693Q222 693 210 686T187 673Q183 671 180 671T175 677L168 696Q167 700 167 702T170 705Q185 717 201 724T240 732Q263
732 282 726T321 714T362 707Q379 707 390 711T414 723Q419 726 422 726T427 720L436 699Q438 694 430 689V689Z" />
<glyph unicode="&#xf6;" horiz-adv-x="598" d="M299 -10Q225 -10 170 24T85 120T54 262Q54 344 85 406T171 504T300 540Q374 540 428 505T513 408T544 264Q544 183 514 122T428 25T299 -10V-10ZM301 34Q361 34 403 62T469 142T492 264Q492 334 469 386T402 467T300
497Q241 497 198 468T130 386T106 264Q106 195 130 143T197 63T301 34V34ZM270 654Q270 647 268 644T257 641H224Q217 641 215 643T212 652V731Q212 742 222 742H261Q270 742 270 732V654ZM389 654Q389 647 387 644T376 641H343Q336 641 334 643T331 652V731Q331
742 341 742H380Q389 742 389 732V654Z" />
<glyph unicode="&#xf7;" horiz-adv-x="545" d="M317 179Q317 167 303 167H239Q229 167 229 178V243Q229 252 236 252H310Q317 252 317 244V179ZM477 360Q477 351 465 351L77 350Q73 350 71 351T68 358V386Q68 394 74 394L469 395Q477 395 477 388V360ZM317 505Q317
493 303 493H239Q229 493 229 504V569Q229 578 236 578H310Q317 578 317 570V505Z" />
<glyph unicode="&#xf8;" horiz-adv-x="577" d="M54 5Q49 0 45 0T36 5L25 17Q15 27 25 37L521 524Q531 533 539 524L554 510Q560 501 554 495L54 5ZM297 -10Q224 -10 169 24T83 120T52 262Q52 344 83 406T169 504T298 540Q372 540 426 505T511 408T542 264Q542
183 512 122T426 25T297 -10V-10ZM299 34Q359 34 401 62T467 142T490 264Q490 334 467 386T401 467T298 497Q239 497 196 468T128 386T104 264Q104 195 128 143T195 63T299 34V34Z" />
<glyph unicode="&#xf9;" horiz-adv-x="573" d="M248 34Q298 34 343 61T435 135V520Q435 530 446 530H475Q485 530 485 520V10Q485 0 476 0H447Q438 0 438 9V72Q438 77 437 78T430 75Q369 25 326 8T243 -10Q196 -10 160 8T102 61T80 138V519Q80 530 90 530H120Q130
530 130 520V160Q130 104 161 69T248 34V34ZM161 747Q164 753 170 751L400 660Q406 657 403 649L397 632Q396 628 394 627T385 626L158 699Q147 704 150 713L161 747V747Z" />
<glyph unicode="&#xfa;" horiz-adv-x="573" d="M248 34Q298 34 343 61T435 135V520Q435 530 446 530H475Q485 530 485 520V10Q485 0 476 0H447Q438 0 438 9V72Q438 77 437 78T430 75Q369 25 326 8T243 -10Q196 -10 160 8T102 61T80 138V519Q80 530 90 530H120Q130
530 130 520V160Q130 104 161 69T248 34V34ZM400 716Q403 707 392 703L165 630Q160 629 158 630T152 636L147 652Q144 661 150 663L380 755Q386 757 389 751L400 716Z" />
<glyph unicode="&#xfb;" horiz-adv-x="573" d="M248 34Q298 34 343 61T435 135V520Q435 530 446 530H475Q485 530 485 520V10Q485 0 476 0H447Q438 0 438 9V72Q438 77 437 78T430 75Q369 25 326 8T243 -10Q196 -10 160 8T102 61T80 138V519Q80 530 90 530H120Q130
530 130 520V160Q130 104 161 69T248 34V34ZM279 696Q272 702 270 702T259 696L198 647Q193 643 191 642T182 641H142Q136 641 136 644T139 651L239 733Q244 738 248 740T260 743H283Q289 743 293 740T300 734L399 651Q411 641 398 641H353Q348 641 345 642T337
647L279 696Z" />
<glyph unicode="&#xfc;" horiz-adv-x="573" d="M248 34Q298 34 343 61T435 135V520Q435 530 446 530H475Q485 530 485 520V10Q485 0 476 0H447Q438 0 438 9V72Q438 77 437 78T430 75Q369 25 326 8T243 -10Q196 -10 160 8T102 61T80 138V519Q80 530 90 530H120Q130
530 130 520V160Q130 104 161 69T248 34V34ZM239 654Q239 647 237 644T226 641H193Q186 641 184 643T181 652V731Q181 742 191 742H230Q239 742 239 732V654ZM358 654Q358 647 356 644T345 641H312Q305 641 303 643T300 652V731Q300 742 310 742H349Q358 742 358
732V654Z" />
<glyph unicode="&#xfd;" horiz-adv-x="513" d="M108 -165Q79 -165 62 -164T44 -154V-134Q44 -127 49 -125T73 -122H134Q157 -122 176 -105T208 -62T225 -10T221 37L32 517Q30 522 31 526T41 530H71Q76 530 79 528T84 521L252 90Q256 81 261 81T270 94L435 522Q437
526 439 528T446 530H474Q479 530 481 527T481 520L254 -70Q243 -98 229 -116T196 -145T156 -160T108 -165V-165ZM390 716Q393 707 382 703L155 630Q150 629 148 630T142 636L137 652Q134 661 140 663L370 755Q376 757 379 751L390 716Z" />
<glyph unicode="&#xfe;" horiz-adv-x="590" d="M125 742Q136 742 136 730V469Q136 461 139 460T148 465Q157 475 175 492T226 525T310 540Q373 540 424 511T505 423T536 275Q536 189 507 125T424 26T298 -10Q248 -10 212 5T152 40Q144 47 141 46T138 33V-154Q138
-165 128 -165H97Q88 -165 88 -155V729Q88 737 90 739T101 742H125V742ZM138 107Q173 73 210 53T292 33Q348 33 391 61T459 142T484 271Q484 350 458 399T390 473T300 497Q252 497 215 476T158 424T138 364V107V107Z" />
<glyph unicode="&#xff;" horiz-adv-x="513" d="M108 -165Q79 -165 62 -164T44 -154V-134Q44 -127 49 -125T73 -122H134Q157 -122 176 -105T208 -62T225 -10T221 37L32 517Q30 522 31 526T41 530H71Q76 530 79 528T84 521L252 90Q256 81 261 81T270 94L435 522Q437
526 439 528T446 530H474Q479 530 481 527T481 520L254 -70Q243 -98 229 -116T196 -145T156 -160T108 -165V-165ZM228 654Q228 647 226 644T215 641H182Q175 641 173 643T170 652V731Q170 742 180 742H219Q228 742 228 732V654ZM347 654Q347 647 345 644T334 641H301Q294
641 292 643T289 652V731Q289 742 299 742H338Q347 742 347 732V654Z" />
<glyph unicode="&#x2013;" horiz-adv-x="545" d="M477 246Q477 236 465 236H77Q73 236 71 237T68 244V274Q68 282 74 282L469 283Q477 283 477 276V246Z" />
<glyph unicode="&#x2014;" horiz-adv-x="866" d="M798 246Q798 236 787 236H77Q73 236 71 237T68 244V274Q68 282 74 282L790 283Q798 283 798 276V246Z" />
<glyph unicode="&#x2018;" horiz-adv-x="213" d="M158 742Q162 742 163 739T164 734L119 641Q116 633 117 630T123 626L140 625Q146 625 147 623T149 617V545Q149 538 143 538H65Q58 538 58 544V610Q58 613 60 617L129 736Q131 740 134 741T141 742H158V742Z" />
<glyph unicode="&#x2019;" horiz-adv-x="213" d="M54 538Q51 538 50 540T49 546L94 639Q97 647 96 650T89 654H72Q68 654 66 656T63 662V735Q63 742 70 742H148Q154 742 154 735V669Q154 667 152 663L84 544Q83 540 80 539T71 538H54V538Z" />
<glyph unicode="&#x201a;" horiz-adv-x="213" d="M54 -117Q51 -117 50 -114T49 -109L94 -15Q97 -8 96 -4T89 0H72Q68 0 66 2T63 8V81Q63 88 70 88H148Q154 88 154 81V15Q154 13 152 9L84 -111Q83 -114 80 -115T71 -117H54V-117Z" />
<glyph unicode="&#x201c;" horiz-adv-x="366" d="M218 538Q211 538 211 544V610Q211 613 213 617L281 736Q284 740 287 741T294 742H311Q315 742 316 739T317 734L272 641Q269 633 270 630T276 626L293 625Q299 625 300 623T302 617V545Q302 538 295 538H218V538ZM65
538Q58 538 58 544V610Q58 613 60 617L129 736Q131 740 134 741T141 742H158Q162 742 163 739T164 734L119 641Q116 633 117 630T123 626L140 625Q146 625 147 623T149 617V545Q149 538 143 538H65V538Z" />
<glyph unicode="&#x201d;" horiz-adv-x="366" d="M207 538Q204 538 203 540T202 546L247 639Q250 647 249 650T242 654H225Q221 654 219 656T216 662V735Q216 742 223 742H301Q307 742 307 735V669Q307 667 305 663L237 544Q236 540 233 539T224 538H207V538ZM54
538Q51 538 50 540T49 546L94 639Q97 647 96 650T89 654H72Q68 654 66 656T63 662V735Q63 742 70 742H148Q154 742 154 735V669Q154 667 152 663L84 544Q83 540 80 539T71 538H54V538Z" />
<glyph unicode="&#x201e;" horiz-adv-x="366" d="M207 -117Q204 -117 203 -114T202 -109L247 -15Q250 -8 249 -4T242 0H225Q221 0 219 2T216 8V81Q216 88 223 88H301Q307 88 307 81V15Q307 13 305 9L237 -111Q236 -114 233 -115T224 -117H207V-117ZM54 -117Q51
-117 50 -114T49 -109L94 -15Q97 -8 96 -4T89 0H72Q68 0 66 2T63 8V81Q63 88 70 88H148Q154 88 154 81V15Q154 13 152 9L84 -111Q83 -114 80 -115T71 -117H54V-117Z" />
<glyph unicode="&#x2022;" horiz-adv-x="298" d="M149 300Q127 300 110 310T82 338T72 377Q72 398 82 416T109 444T149 454Q170 454 188 444T216 416T226 377Q226 356 216 338T188 310T149 300V300Z" />
<glyph unicode="&#x2039;" horiz-adv-x="256" d="M206 82Q210 77 199 77H183Q177 77 174 81L39 249Q33 257 38 264L175 442Q177 445 179 445T183 446H201Q204 446 206 444T206 438L96 263Q92 256 96 251L206 82Z" />
<glyph unicode="&#x203a;" horiz-adv-x="257" d="M162 251Q166 257 162 263L51 438Q49 442 51 444T57 446H74Q77 446 78 446T82 442L219 264Q224 258 218 249L83 81Q81 77 74 77H59Q49 77 51 82L162 251V251Z" />
</font>
</defs>
</svg>
