<?xml version="1.0" standalone="no"?>
<!DOCTYPE svg PUBLIC "-//W3C//DTD SVG 1.1//EN" "http://www.w3.org/Graphics/SVG/1.1/DTD/svg11.dtd">
<svg xmlns="http://www.w3.org/2000/svg">
<defs >
<font id="Karla" horiz-adv-x="1049" ><font-face
    font-family="Karla Light"
    units-per-em="2000"
    panose-1="2 11 0 4 3 5 3 3 0 3"
    ascent="1834"
    descent="-504"
    alphabetic="0" />
<glyph unicode=" " horiz-adv-x="459" />
<glyph unicode="!" horiz-adv-x="539" d="M228 309L211 1215H332L316 309H228ZM271 -18Q231 -18 205 8T178 71Q178 108 204 135T271 163Q311 163 338 136T366 71Q366 34 339 8T271 -18Z" />
<glyph unicode="&quot;" horiz-adv-x="531" d="M370 938L355 1360H477L460 938H370ZM70 938L55 1360H177L160 938H70Z" />
<glyph unicode="#" horiz-adv-x="1198" d="M279 60L310 346H102L110 428H317L357 807H150L157 889H367L395 1170H503L475 889H801L832 1170H938L909 889H1122L1112 807H900L862 428H1074L1064 346H852L821 60H713L744 346H418L387 60H279ZM425 428H751L791 807H465L425
428Z" />
<glyph unicode="$" horiz-adv-x="1202" d="M603 -22Q509 -22 426 3T279 77T179 197T142 361H254Q254 267 300 206T427 116T606 86Q712 86 784 120T894 209T931 325Q931 409 879 465T728 551L607 590V698L773 647Q903 606 982 529T1062 322Q1062 237 1011 159T858
29T603 -22ZM552 -172V1399H651V-172H552ZM586 592L506 618Q342 671 260 741T177 937Q177 1077 285 1166T601 1255Q786 1255 889 1173T1014 958H897Q882 1050 806 1101T600 1152Q454 1152 378 1090T301 932Q301 855 346 810T492 733L586 701V592Z" />
<glyph unicode="%" horiz-adv-x="1412" d="M227 0L1056 1235H1180L350 0H227ZM1039 -19Q976 -19 920 13T829 107T794 261Q794 351 829 412T920 506T1039 538Q1105 538 1162 506T1253 413T1288 261Q1288 170 1254 108T1162 13T1039 -19ZM1039 67Q1105 67 1146 114T1188
261Q1188 358 1147 406T1039 454Q974 454 933 406T892 261Q892 161 933 114T1039 67ZM367 700Q304 700 248 732T157 825T122 977Q122 1067 157 1129T248 1223T367 1255Q432 1255 489 1224T581 1130T616 977Q616 887 581 826T489 732T367 700ZM367 784Q431 784 472
831T513 977Q513 1075 472 1124T367 1174Q301 1174 261 1125T220 977Q220 879 260 832T367 784Z" />
<glyph unicode="&amp;" horiz-adv-x="1778" d="M1443 -22Q1377 -22 1320 5T1194 93L527 673Q451 739 410 814T368 971Q368 1054 413 1118T539 1218T731 1254Q832 1254 909 1218T1031 1118T1075 975Q1075 903 1042 840T932 720T727 606L660 671Q783 727 844 777T926
876T947 975Q947 1053 888 1105T731 1158Q612 1158 553 1097T493 955Q493 897 520 843T614 732L1285 148Q1328 112 1359 97T1437 81Q1489 81 1529 120T1578 253H1693Q1685 121 1622 50T1443 -22ZM645 -22Q542 -22 456 5T307 82T210 197T175 337Q175 489 295 564T649
660L668 586Q481 566 391 507T300 339Q300 269 339 211T456 117T647 81Q774 81 878 134T1067 281T1215 495T1323 752L1409 706Q1362 558 1293 426T1131 194T917 36T645 -22Z" />
<glyph unicode="&apos;" horiz-adv-x="227" d="M53 1354H175L158 932H68L53 1354Z" />
<glyph unicode="(" horiz-adv-x="667" d="M531 1427L614 1372Q500 1258 424 1131T309 871T270 603Q270 402 357 204T614 -165L531 -224Q346 -51 246 165T146 603Q146 827 246 1041T531 1427Z" />
<glyph unicode=")" horiz-adv-x="667" d="M137 -224L52 -165Q223 5 310 203T398 603Q398 737 359 870T243 1131T52 1372L137 1427Q321 1256 421 1042T522 603Q522 455 477 309T346 27T137 -224Z" />
<glyph unicode="*" horiz-adv-x="828" d="M174 834L358 1017L118 1103L160 1192L379 1083L364 1348H464L449 1083L668 1193L710 1102L471 1019L655 834L579 768L416 979L252 768L174 834Z" />
<glyph unicode="+" horiz-adv-x="1037" d="M462 982H575V540H1001V442H575V0H462V442H36V540H462V982Z" />
<glyph unicode="," horiz-adv-x="374" d="M156 -191L66 -148Q118 -122 152 -91T196 -10Q159 -8 133 13T107 71Q107 104 131 128T194 153Q242 153 274 117T306 29Q306 -32 270 -92T156 -191Z" />
<glyph unicode="-" horiz-adv-x="671" d="M68 521V622H603V521H68Z" />
<glyph unicode="." horiz-adv-x="320" d="M66 71Q66 107 92 135T158 163Q198 163 226 135T254 71Q254 34 226 8T158 -18Q119 -18 93 8T66 71Z" />
<glyph unicode="/" horiz-adv-x="823" d="M118 -136L614 1448H733L233 -136H118Z" />
<glyph unicode="0" horiz-adv-x="1148" d="M574 -22Q432 -22 327 49T164 262T106 618Q106 831 164 972T327 1184T574 1255Q716 1255 821 1185T984 973T1043 618Q1043 405 985 263T821 49T574 -22ZM574 86Q747 86 834 225T922 618Q922 871 835 1010T574 1149Q404
1149 316 1010T227 618Q227 365 315 226T574 86Z" />
<glyph unicode="1" horiz-adv-x="635" d="M324 1237H424V0H308V1102Q262 1064 209 1045T102 1022V1137Q163 1147 220 1171T324 1237Z" />
<glyph unicode="2" horiz-adv-x="1134" d="M132 0V168Q132 277 168 348T269 466T416 545L655 641Q756 683 807 748T858 913Q858 1019 786 1085T585 1151Q456 1151 376 1099T284 943H154Q163 1040 216 1110T362 1217T584 1255Q700 1255 791 1210T934 1085T986 903Q986
808 950 738T852 618T709 535L462 434Q357 393 303 334T248 179V108H972V0H132Z" />
<glyph unicode="3" horiz-adv-x="1149" d="M578 -22Q488 -22 405 3T256 79T152 202T114 372H230Q231 277 278 214T404 118T578 86Q727 86 808 160T889 344Q889 414 855 468T746 555T546 587H419V680H490Q652 680 745 742T839 916Q839 1013 765 1081T558 1149Q458
1149 380 1109T271 956H155Q172 1065 229 1130T371 1225T557 1255Q674 1255 766 1213T911 1095T964 923Q964 824 907 755T741 647Q861 616 938 539T1016 337Q1016 233 964 152T813 25T578 -22Z" />
<glyph unicode="4" horiz-adv-x="1080" d="M711 1255H816V412H1030V315H816V0H702V315H56V406L711 1255ZM705 1061L195 406H705V1061Z" />
<glyph unicode="5" horiz-adv-x="1111" d="M549 -22Q441 -22 347 18T196 137T138 331H252Q252 211 338 149T549 86Q697 86 778 174T860 393Q860 656 526 656H220L271 1235H926V1130H365L390 1177L346 713L326 729Q374 740 432 744T539 748Q744 748 863 660T982
393Q982 275 930 181T781 33T549 -22Z" />
<glyph unicode="6" horiz-adv-x="1110" d="M581 -22Q436 -22 330 60T165 282T106 596Q106 801 165 949T337 1176T608 1255Q712 1255 790 1215T918 1104T979 939H850Q833 1035 776 1092T610 1149Q429 1149 327 994T225 570Q225 529 227 474T236 372Q241 510 293
589T424 702T594 736Q704 736 793 688T934 553T987 354Q987 242 936 157T793 25T581 -22ZM581 86Q705 86 784 158T863 355Q863 482 784 554T581 626Q500 626 437 590T337 493T300 355Q300 231 379 159T581 86Z" />
<glyph unicode="7" horiz-adv-x="911" d="M133 0L739 1127H48V1235H876V1132L286 0H133Z" />
<glyph unicode="8" horiz-adv-x="1197" d="M598 -22Q460 -22 351 24T179 150T116 332Q116 429 165 498T302 605T502 642Q524 642 546 641T592 634V594Q485 594 405 558T281 463T237 338Q237 256 284 200T413 115T598 86Q763 86 860 144T958 296Q958 373 905 421T760
502L426 629Q365 652 303 692T199 792T157 934Q157 1025 210 1098T362 1213T598 1255Q727 1255 825 1211T978 1091T1033 919Q1033 839 995 772T880 663T691 622Q669 622 649 624T604 633V674Q693 674 762 704T872 789T912 915Q912 982 873 1035T763 1118T598 1149Q507
1149 436 1119T323 1040T281 930Q281 854 332 810T473 732L801 608Q937 558 1009 488T1082 299Q1082 205 1025 133T859 19T598 -22Z" />
<glyph unicode="9" horiz-adv-x="1130" d="M555 -22Q436 -22 345 28T202 167T150 366H270Q272 238 346 162T553 86Q676 86 752 157T865 358T902 666Q902 710 900 746T891 829Q881 722 834 649T710 537T533 499Q426 499 338 548T198 684T145 882Q145 996 195 1079T337
1209T550 1255Q654 1255 741 1213T891 1090T989 897T1024 643Q1024 439 975 290T822 60T555 -22ZM549 609Q630 609 694 645T795 743T832 879Q832 1004 751 1077T550 1150Q425 1150 346 1077T266 879Q266 754 345 682T549 609Z" />
<glyph unicode=":" horiz-adv-x="422" d="M117 153Q117 189 143 217T209 245Q249 245 277 217T305 153Q305 116 277 90T209 64Q170 64 144 90T117 153ZM117 773Q117 809 143 837T209 865Q249 865 277 837T305 773Q305 736 277 710T209 684Q170 684 144 710T117 773Z" />
<glyph unicode=";" horiz-adv-x="475" d="M207 -191L117 -148Q169 -122 203 -91T247 -10Q210 -8 184 13T158 71Q158 104 182 128T245 153Q293 153 325 117T357 29Q357 -32 321 -92T207 -191ZM161 773Q161 809 187 837T253 865Q293 865 321 837T349 773Q349 736
321 710T253 684Q214 684 188 710T161 773Z" />
<glyph unicode="&lt;" horiz-adv-x="857" d="M689 1096L764 1006L158 570V616L764 185L689 92L78 544V642L689 1096Z" />
<glyph unicode="=" horiz-adv-x="956" d="M158 354H797V255H158V354ZM158 720H797V618H158V720Z" />
<glyph unicode="&gt;" horiz-adv-x="857" d="M171 92L96 185L697 616V570L96 1006L171 1096L782 642V544L171 92Z" />
<glyph unicode="?" horiz-adv-x="978" d="M356 286V381Q356 468 373 524T434 623T553 708Q622 746 664 778T726 851T746 949Q746 1034 676 1091T484 1149Q352 1149 283 1100T192 958H66Q81 1089 185 1172T483 1255Q604 1255 691 1212T824 1099T871 944Q871 842
819 774T649 640Q581 601 542 569T486 493T469 377V286H356ZM414 -22Q375 -22 349 4T322 67Q322 104 348 132T413 160Q452 160 481 133T510 68Q510 32 481 5T414 -22Z" />
<glyph unicode="@" horiz-adv-x="1789" d="M1063 -323Q853 -323 682 -266T389 -103T200 147T134 465Q134 633 195 776T367 1027T630 1195T964 1255Q1132 1255 1268 1204T1500 1061T1648 850T1700 591Q1700 477 1667 383T1576 220T1446 114T1296 77Q1218 77 1170
115T1116 224L1113 253Q1079 182 1018 130T859 77Q778 77 707 117T591 234T546 418Q546 511 580 592T675 735T812 831T972 865Q1084 865 1150 797T1217 589V264Q1217 211 1236 185T1297 159Q1360 159 1425 212T1534 362T1579 593Q1579 756 1504 882T1293 1081T969
1154Q806 1154 675 1099T450 946T306 721T255 450Q255 248 354 95T634 -144T1063 -230V-323ZM871 171Q955 171 1011 223T1113 369V590Q1113 682 1081 727T978 773Q907 773 834 730T711 606T662 415Q662 298 721 235T871 171Z" />
<glyph unicode="A" horiz-adv-x="1098" d="M56 0L483 1235H620L1041 0H919L805 343H296L177 0H56ZM326 437H773L549 1091L326 437Z" />
<glyph unicode="B" horiz-adv-x="1217" d="M210 0V1235H653Q785 1235 872 1190T1002 1072T1045 915Q1045 808 986 728T805 620Q884 610 943 566T1034 461T1067 333Q1067 268 1046 208T976 102T848 28T652 0H210ZM326 101H652Q810 101 877 168T945 338Q945 442
870 505T652 568H326V101ZM326 1136V666H649Q772 666 849 729T926 909Q926 1017 852 1076T651 1136H326Z" />
<glyph unicode="C" horiz-adv-x="1206" d="M628 -22Q465 -22 348 62T169 293T106 628Q106 832 175 971T363 1183T628 1255Q817 1255 936 1159T1107 910L981 882Q939 1007 845 1079T628 1152Q523 1152 433 1093T287 916T231 628Q231 475 273 352T404 156T628 83Q788
83 884 169T981 398H1110Q1110 268 1048 174T877 29T628 -22Z" />
<glyph unicode="D" horiz-adv-x="1294" d="M210 1235H552Q738 1235 873 1159T1083 944T1157 618Q1157 433 1083 294T874 78T552 0H210V1235ZM326 1135V98H552Q702 98 810 166T976 351T1035 618Q1035 768 977 884T810 1068T552 1135H326Z" />
<glyph unicode="E" horiz-adv-x="1100" d="M208 0V1235H952V1136H324V674H916V575H324V101H952V0H208Z" />
<glyph unicode="F" horiz-adv-x="1026" d="M210 0V1235H947V1136H326V680H909V580H326V0H210Z" />
<glyph unicode="G" horiz-adv-x="1255" d="M636 -22Q491 -22 370 53T178 267T106 600Q106 765 153 888T281 1092T467 1214T684 1255Q814 1255 918 1204T1107 1041L1006 991Q930 1074 849 1111T681 1149Q560 1149 457 1083T291 894T228 600Q228 452 277 336T419
153T641 86Q736 86 811 130T930 266T974 502H1020Q1020 343 982 225T860 43T636 -22ZM999 0L974 301V504L646 516V600H1089V0H999Z" />
<glyph unicode="H" horiz-adv-x="1300" d="M210 1235H326V675H976V1235H1089V0H976V577H326V0H210V1235Z" />
<glyph unicode="I" horiz-adv-x="536" d="M210 0V1235H326V0H210Z" />
<glyph unicode="J" horiz-adv-x="767" d="M8 66V191Q74 145 142 118T279 91Q394 91 441 159T488 344V1235H603V344Q603 217 565 136T456 17T284 -22Q207 -22 140 3T8 66Z" />
<glyph unicode="K" horiz-adv-x="1169" d="M918 1235H1080L305 434V603L918 1235ZM522 708L1113 0H959L436 632L522 708ZM210 1235H328V0H210V1235Z" />
<glyph unicode="L" horiz-adv-x="909" d="M326 1235V101H899V0H210V1235H326Z" />
<glyph unicode="M" horiz-adv-x="1667" d="M210 1235H377L842 330H828L1293 1235H1457V0H1339V1128H1363L875 166H796L310 1121H326V0H210V1235Z" />
<glyph unicode="N" horiz-adv-x="1335" d="M209 1235H359L1021 147H1009V1235H1125V0H984L308 1111H325V0H209V1235Z" />
<glyph unicode="O" horiz-adv-x="1254" d="M628 -22Q480 -22 362 48T175 259T106 614Q106 830 175 972T362 1185T628 1255Q775 1255 893 1185T1080 972T1149 614Q1149 399 1080 258T893 48T628 -22ZM628 87Q814 87 921 220T1028 616Q1028 874 921 1012T628 1151Q443
1151 335 1012T227 614Q227 353 335 220T628 87Z" />
<glyph unicode="P" horiz-adv-x="1080" d="M207 0V1235H584Q785 1235 888 1132T991 860Q991 693 888 592T584 490H325V0H207ZM325 591H584Q725 591 798 662T872 860Q872 988 799 1062T584 1136H325V591Z" />
<glyph unicode="Q" horiz-adv-x="1268" d="M628 -22Q480 -22 362 48T175 259T106 614Q106 830 175 972T362 1185T628 1255Q775 1255 893 1185T1080 972T1149 614Q1149 399 1080 258T893 48T628 -22ZM993 -321Q910 -321 846 -280T723 -155L595 23L711 45L827 -114Q862
-160 896 -179T963 -201Q1017 -201 1061 -186T1157 -146V-282Q1113 -301 1073 -311T993 -321ZM628 87Q814 87 921 220T1028 616Q1028 874 921 1012T628 1151Q443 1151 335 1012T227 614Q227 353 335 220T628 87Z" />
<glyph unicode="R" horiz-adv-x="1194" d="M210 0V1235H627Q833 1235 936 1136T1040 876Q1040 717 937 618T627 518H326V0H210ZM915 0L547 551H676L1064 0H915ZM326 604H621Q768 604 844 678T921 872Q921 994 846 1065T627 1136H326V604Z" />
<glyph unicode="S" horiz-adv-x="1176" d="M587 -22Q466 -22 365 22T203 152T142 361H254Q254 267 300 206T421 116T585 86Q686 86 758 119T868 207T907 322Q907 410 854 465T699 552L494 618Q335 673 255 742T175 937Q175 1077 281 1166T586 1255Q765 1255 867
1173T986 958H871Q855 1050 784 1099T586 1149Q450 1149 376 1088T301 931Q301 854 348 810T496 731L744 651Q874 611 953 533T1033 324Q1033 233 982 154T832 27T587 -22Z" />
<glyph unicode="T" horiz-adv-x="970" d="M12 1136V1235H959V1136H516L542 1163V0H426V1163L452 1136H12Z" />
<glyph unicode="U" horiz-adv-x="1269" d="M178 1235H294V436Q294 251 387 169T632 86Q782 86 874 168T967 436V1235H1083V436Q1083 281 1027 180T869 28T632 -22Q497 -22 395 28T235 179T178 436V1235Z" />
<glyph unicode="V" horiz-adv-x="1085" d="M533 120L925 1235H1050L601 0H482L36 1235H160L551 120H533Z" />
<glyph unicode="W" horiz-adv-x="1735" d="M32 1235H164L496 103H457L803 1083H882L1216 107H1177L1573 1235H1701L1258 0H1136L828 895H862L539 0H417L32 1235Z" />
<glyph unicode="X" horiz-adv-x="1241" d="M113 0L547 613L108 1235H245L624 701L980 1235H1122L687 614L1124 0H984L609 522L252 0H113Z" />
<glyph unicode="Y" horiz-adv-x="1059" d="M20 1235H162L547 599H510L898 1235H1038L588 506V0H469V506L20 1235Z" />
<glyph unicode="Z" horiz-adv-x="1146" d="M146 0V108L924 1166V1122L146 1130V1235H1038V1126L273 89L258 113L1038 105V0H146Z" />
<glyph unicode="[" horiz-adv-x="596" d="M210 -162V1400H554V1300H326V-62H554V-162H210Z" />
<glyph unicode="\" horiz-adv-x="823" d="M94 1448L590 -136H709L209 1448H94Z" />
<glyph unicode="]" horiz-adv-x="516" d="M306 -162V1400H-38V1300H190V-62H-38V-162H306Z" />
<glyph unicode="^" horiz-adv-x="811" d="M43 517L370 1155H458L785 517H654L393 1056H435L177 517H43Z" />
<glyph unicode="_" horiz-adv-x="1406" d="M110 0V101H1299V0H110Z" />
<glyph unicode="`" horiz-adv-x="612" d="M448 1129L106 1448L191 1518L508 1177L448 1129Z" />
<glyph unicode="a" horiz-adv-x="1066" d="M789 0L774 197V617Q774 760 712 820T535 880Q471 880 416 862T328 803T295 696H163Q163 797 213 857T347 944T535 971Q637 971 717 936T843 822T890 615V0H789ZM459 -22Q345 -22 271 19T161 126T125 260Q125 360 173
420T303 507T482 534Q555 534 633 518T784 472V394Q722 421 641 437T494 453Q392 453 320 409T248 260Q248 181 301 126T474 71Q555 71 623 110T732 207T774 324H803Q803 233 761 154T641 27T459 -22Z" />
<glyph unicode="b" horiz-adv-x="1164" d="M619 -22Q521 -22 443 27T318 171T272 397H326Q326 294 367 224T474 117T612 81Q693 81 762 128T873 264T915 478Q915 602 873 689T762 823T610 870Q537 870 472 834T367 728T326 552H272Q272 683 317 776T442 920T625
971Q736 971 829 912T979 742T1036 478Q1036 325 979 213T827 40T619 -22ZM210 0V1360H326V216L298 0H210Z" />
<glyph unicode="c" horiz-adv-x="1018" d="M530 -22Q419 -22 322 39T166 212T106 477Q106 632 165 742T322 912T530 971Q604 971 664 950T771 890T851 801T902 692L781 674Q752 766 686 818T528 870Q450 870 382 825T270 693T227 477Q227 361 265 272T372 132T528
81Q649 81 715 141T781 310H902Q902 212 855 137T724 20T530 -22Z" />
<glyph unicode="d" horiz-adv-x="1164" d="M544 -22Q431 -22 336 39T183 213T126 478Q126 631 182 741T332 911T537 971Q640 971 720 921T845 777T890 552H837Q837 657 797 727T691 834T552 870Q471 870 402 823T290 689T247 478Q247 353 289 264T401 128T553
81Q623 81 688 117T795 223T837 397H890Q890 265 845 171T721 28T544 -22ZM854 0L837 216V1360H952V0H854Z" />
<glyph unicode="e" horiz-adv-x="1010" d="M527 -22Q403 -22 309 41T160 216T106 471Q106 627 159 739T307 911T527 971Q632 971 705 929T824 813T887 648T902 458H201V538H831L785 508Q788 573 778 637T739 756T659 843T528 876Q426 876 358 824T257 688T223
509V460Q223 351 256 264T357 126T527 75Q632 75 698 126T778 278H902Q887 183 836 116T705 14T527 -22Z" />
<glyph unicode="f" horiz-adv-x="660" d="M260 0V1112Q260 1202 294 1260T387 1345T520 1373Q557 1373 595 1368T671 1349L649 1254Q617 1267 586 1273T527 1280Q493 1280 458 1267T399 1218T375 1111V0H260ZM98 865V949H583V865H98Z" />
<glyph unicode="g" horiz-adv-x="1111" d="M530 -487Q393 -487 290 -448T130 -341T72 -192Q72 -77 156 -18T378 42L421 -7Q308 -7 246 -56T184 -189Q184 -272 270 -332T530 -392Q660 -392 758 -356T912 -260T968 -131Q968 -81 931 -44T816 -7H421Q324 -7 259 21T161
95T127 193Q127 253 160 293T247 355T358 376L373 328Q342 328 310 314T256 271T233 198Q233 149 273 115T421 81H816Q942 81 1013 24T1085 -127Q1085 -215 1019 -298T829 -434T530 -487ZM566 270Q458 270 374 314T240 438T191 621Q191 725 240 804T373 927T566
971Q671 971 754 927T887 804T936 621Q936 518 887 439T755 315T566 270ZM565 356Q684 356 752 431T821 621Q821 736 753 809T566 882Q447 882 378 809T308 621Q308 507 377 432T565 356ZM865 821L808 835Q808 918 837 980T924 1078T1067 1113L1055 995Q963 995
914 953T865 821Z" />
<glyph unicode="h" horiz-adv-x="1187" d="M897 0V559Q897 710 825 790T625 870Q532 870 465 819T362 676T326 461H275Q275 617 317 731T443 908T651 971Q761 971 841 922T966 781T1010 559V0H897ZM210 0V1360H326V0H210Z" />
<glyph unicode="i" horiz-adv-x="566" d="M273 1199Q236 1199 213 1222T190 1280Q190 1314 213 1334T273 1355Q312 1355 334 1335T356 1280Q356 1245 334 1222T273 1199ZM215 0V950H331V0H215Z" />
<glyph unicode="j" horiz-adv-x="606" d="M312 1199Q274 1199 253 1222T232 1280Q232 1314 253 1334T312 1355Q350 1355 372 1335T395 1280Q395 1245 373 1222T312 1199ZM80 -487Q15 -487 -49 -468T-182 -407L-172 -305Q-109 -341 -53 -363T67 -386Q156 -386 206
-326T256 -145V953H369V-146Q369 -327 288 -407T80 -487Z" />
<glyph unicode="k" horiz-adv-x="1099" d="M210 0V1360H326V0H210ZM306 521L830 949H997L306 394V521ZM874 0L410 597L535 612L1018 0H874Z" />
<glyph unicode="l" horiz-adv-x="536" d="M210 0V1360H326V0H210Z" />
<glyph unicode="m" horiz-adv-x="1857" d="M1567 0V559Q1567 710 1495 790T1298 870Q1156 870 1083 763T1010 476H951Q951 593 975 685T1046 841T1162 938T1323 971Q1433 971 1513 922T1638 781T1682 559V0H1567ZM210 0V949H308L322 744Q365 851 448 911T651 971Q761
971 841 922T966 781T1010 559V0H897V559Q897 710 825 790T625 870Q532 870 465 819T362 676T326 461V0H210Z" />
<glyph unicode="n" horiz-adv-x="1187" d="M897 0V559Q897 710 825 790T625 870Q532 870 465 819T362 676T326 461H275Q275 617 317 731T443 908T651 971Q761 971 841 922T966 781T1010 559V0H897ZM210 0V949H308L326 715V0H210Z" />
<glyph unicode="o" horiz-adv-x="1073" d="M538 -22Q411 -22 314 35T162 203T106 475Q106 636 161 746T314 914T538 971Q665 971 762 914T914 747T969 475Q969 314 914 203T762 35T538 -22ZM536 79Q641 79 711 128T815 267T850 475Q850 654 774 763T540 872Q435
872 366 823T262 684T227 475Q227 297 303 188T536 79Z" />
<glyph unicode="p" horiz-adv-x="1144" d="M618 -22Q514 -22 436 27T314 168T270 389H326Q326 288 366 220T471 116T608 81Q687 81 757 127T871 261T915 477Q915 602 873 689T762 823T609 870Q537 870 472 834T367 729T326 556H270Q270 688 315 781T440 922T619
971Q730 971 825 912T978 742T1036 477Q1036 321 978 209T824 38T618 -22ZM210 -468V949H308L326 733V-468H210Z" />
<glyph unicode="q" horiz-adv-x="1144" d="M527 -22Q416 -22 320 37T165 209T106 477Q106 631 164 741T319 911T524 971Q624 971 703 923T829 781T875 556H817Q817 659 776 728T670 834T533 870Q451 870 382 824T270 690T227 477Q227 350 270 262T384 127T534
81Q606 81 670 115T776 218T817 389H863Q863 265 822 173T706 29T527 -22ZM1038 -487Q915 -451 866 -376T817 -162V733L847 949H930V-168Q930 -240 943 -282T990 -348T1082 -393L1038 -487Z" />
<glyph unicode="r" horiz-adv-x="692" d="M210 0V950H326V0H210ZM283 435Q283 613 314 731T410 908T576 967Q611 967 640 962T700 946L687 833Q658 844 623 851T562 859Q473 859 422 805T348 656T326 435H283Z" />
<glyph unicode="s" d="M545 -22Q407 -22 318 18T183 126T134 278H250Q256 177 331 126T538 74Q606 74 664 96T757 158T793 248Q793 312 746 348T597 410L424 462Q299 498 233 564T167 724Q167 836 264 903T517 971Q687 971 782 904T882 737H762Q751 808 689 842T517
877Q408 877 348 827T288 718Q288 604 484 551L654 498Q782 462 849 402T917 248Q917 179 873 117T745 17T545 -22Z" />
<glyph unicode="t" horiz-adv-x="733" d="M487 -22Q413 -22 356 7T266 93T233 234V1219H346V236Q346 74 496 74Q540 74 580 84T670 112L686 27Q637 5 588 -8T487 -22ZM70 865V949H667V865H70Z" />
<glyph unicode="u" horiz-adv-x="1190" d="M862 950H978V0H862V950ZM178 950H294V354Q294 222 358 153T545 83Q645 83 716 137T824 282T862 483H917Q917 331 870 218T737 44T533 -18Q423 -18 344 23T221 145T178 348V950Z" />
<glyph unicode="v" horiz-adv-x="988" d="M42 949H173L507 100H483L817 949H948L556 0H434L42 949Z" />
<glyph unicode="w" horiz-adv-x="1415" d="M42 949H162L423 120H405L663 906H751L1006 118H991L1252 949H1368L1057 0H945L696 737H714L466 0H355L42 949Z" />
<glyph unicode="x" horiz-adv-x="981" d="M62 0L416 475L62 950H202L494 563L777 950H918L560 475L915 0H774L484 390L202 0H62Z" />
<glyph unicode="y" horiz-adv-x="893" d="M47 949H174L513 101H480L732 949H852L498 -200Q459 -330 389 -408T202 -487Q142 -487 90 -468T-18 -414V-302Q34 -347 83 -366T186 -386Q253 -386 295 -342T365 -231T413 -97L440 0L47 949Z" />
<glyph unicode="z" horiz-adv-x="929" d="M102 0V93L696 855H102V949H830V855L240 93H830V0H102Z" />
<glyph unicode="{" horiz-adv-x="653" d="M633 -258Q492 -258 409 -199T291 -39T255 192V374Q255 463 237 500T180 538H154V647H180Q219 647 237 684T255 811V995Q255 1125 290 1227T409 1388T633 1447V1346Q486 1346 428 1254T369 994V811Q369 720 345 669T279
596V592Q320 570 344 520T369 377V194Q369 26 427 -66T633 -158V-258Z" />
<glyph unicode="|" horiz-adv-x="536" d="M210 -244V1480H326V-244H210Z" />
<glyph unicode="}" horiz-adv-x="653" d="M20 -258Q161 -258 244 -199T362 -39T398 192V374Q398 463 416 500T473 538H499V647H473Q434 647 416 684T398 811V995Q398 1125 363 1227T244 1388T20 1447V1346Q167 1346 225 1254T284 994V811Q284 720 308 669T374
596V592Q333 570 309 520T284 377V194Q284 26 226 -66T20 -158V-258Z" />
<glyph unicode="~" horiz-adv-x="974" d="M168 465L102 500Q135 598 185 645T295 693Q327 693 368 681T487 637Q575 602 611 592T675 582Q712 582 747 611T808 698L871 657Q837 557 785 513T669 469Q641 469 596 482T474 525Q390 558 354 569T290 581Q258 581
227 556T168 465Z" />
<glyph unicode="&#xa0;" horiz-adv-x="459" />
<glyph unicode="&#xa1;" horiz-adv-x="539" d="M228 887L211 -19H332L316 887H228ZM271 1214Q231 1214 205 1188T178 1125Q178 1088 204 1061T271 1033Q311 1033 338 1060T366 1125Q366 1162 339 1188T271 1214Z" />
<glyph unicode="&#xa2;" horiz-adv-x="1009" d="M479 -207V6H583V-207H479ZM479 943V1126H583V943H479ZM530 -22Q419 -22 322 39T166 212T106 477Q106 632 165 742T322 912T530 971Q604 971 664 950T771 890T851 801T902 692L781 674Q752 766 686 818T528 870Q450
870 382 825T270 693T227 477Q227 361 265 272T372 132T528 81Q649 81 715 141T781 310H902Q902 212 855 137T724 20T530 -22Z" />
<glyph unicode="&#xa3;" horiz-adv-x="1092" d="M90 63V98Q169 98 205 143T242 281V852Q242 975 278 1065T391 1205T590 1255Q717 1255 803 1186T914 980H799Q784 1069 725 1109T590 1149Q480 1149 419 1078T358 852V285Q358 166 304 115T90 63ZM38 0V98H696Q790
98 836 141T898 275H1019Q1008 151 937 76T695 0H38ZM52 520V606H730V520H52Z" />
<glyph unicode="&#xa4;" horiz-adv-x="1200" d="M600 231Q490 231 400 284T257 429T203 631Q203 739 256 828T400 971T600 1025Q710 1025 799 972T942 829T995 631Q995 520 942 429T800 285T600 231ZM600 345Q677 345 741 383T844 486T883 631Q883 709 845 772T742
873T600 911Q522 911 458 874T355 773T317 631Q317 551 355 487T457 384T600 345ZM866 827L796 897L975 1073L1045 1005L866 827ZM331 830L155 1003L223 1073L399 900L331 830ZM869 429L1045 256L977 183L801 359L869 429ZM331 429L399 359L223 183L155 256L331
429Z" />
<glyph unicode="&#xa5;" horiz-adv-x="1059" d="M469 0V506L20 1235H162L547 599H510L898 1235H1038L588 506V0H469ZM196 218V299H861V218H196ZM196 408V489H861V408H196Z" />
<glyph unicode="&#xa6;" horiz-adv-x="536" d="M210 690V1480H326V690H210ZM210 -244V546H326V-244H210Z" />
<glyph unicode="&#xa7;" horiz-adv-x="1200" d="M644 408Q712 408 770 430T864 492T900 586Q900 646 851 681T703 744L530 795Q405 831 340 898T274 1056Q274 1169 369 1237T627 1305Q792 1305 887 1238T988 1070H868Q859 1142 793 1176T635 1210Q511 1210 453
1160T395 1048Q395 939 590 884L760 832Q888 794 955 735T1023 586Q1023 513 979 451T851 350T651 311L644 408ZM560 788Q452 788 392 736T331 620Q331 510 527 455L697 403Q825 365 892 306T959 156Q959 85 917 22T789 -79T575 -118Q448 -118 360 -78T226 30T177
183H293Q296 84 373 32T568 -21Q686 -21 761 28T836 156Q836 218 786 253T639 315L467 366Q340 403 275 469T210 629Q210 746 307 814T560 883V788Z" />
<glyph unicode="&#xa8;" horiz-adv-x="693" d="M501 1138Q465 1138 440 1161T415 1219Q415 1254 440 1279T501 1305Q538 1305 563 1280T589 1219Q589 1185 564 1162T501 1138ZM192 1138Q155 1138 131 1161T106 1218Q106 1254 130 1278T192 1303Q229 1303 254 1279T280
1218Q280 1185 255 1162T192 1138Z" />
<glyph unicode="&#xa9;" horiz-adv-x="1358" d="M679 -12Q549 -12 435 37T233 173T97 374T48 619Q48 749 97 863T233 1065T434 1201T679 1250Q809 1250 923 1201T1125 1065T1261 864T1310 619Q1310 488 1261 374T1125 173T924 37T679 -12ZM679 53Q797 53 899 97T1079
219T1201 399T1245 619Q1245 736 1201 838T1079 1019T899 1141T679 1185Q563 1185 460 1141T279 1019T157 839T113 619Q113 502 157 400T279 219T460 97T679 53ZM676 221Q574 221 501 273T389 418T350 627Q350 754 393 841T511 973T676 1018Q793 1018 867 959T975
803L896 785Q870 863 811 908T676 954Q611 954 554 917T463 807T428 627Q428 532 454 455T535 332T676 286Q776 286 836 340T896 483H976Q976 361 892 291T676 221Z" />
<glyph unicode="&#xaa;" horiz-adv-x="1066" d="M789 0L774 197V617Q774 760 712 820T535 880Q471 880 416 862T328 803T295 696H163Q163 797 213 857T347 944T535 971Q637 971 717 936T843 822T890 615V0H789ZM459 -22Q345 -22 271 19T161 126T125 260Q125 360
173 420T303 507T482 534Q555 534 633 518T784 472V394Q722 421 641 437T494 453Q392 453 320 409T248 260Q248 181 301 126T474 71Q555 71 623 110T732 207T774 324H803Q803 233 761 154T641 27T459 -22Z" />
<glyph unicode="&#xab;" horiz-adv-x="1092" d="M216 499L610 901L513 953L106 525L513 98L610 150L216 552V499ZM593 499L987 901L890 953L483 525L890 98L987 150L593 552V499Z" />
<glyph unicode="&#xac;" horiz-adv-x="1200" d="M234 613H905V291H812V562L845 521H234V613Z" />
<glyph unicode="&#xad;" horiz-adv-x="1200" d="M68 521V622H603V521H68Z" />
<glyph unicode="&#xae;" horiz-adv-x="1358" d="M679 -12Q549 -12 435 37T233 173T97 374T48 619Q48 749 97 863T233 1065T434 1201T679 1250Q809 1250 923 1201T1125 1065T1261 864T1310 619Q1310 488 1261 374T1125 173T924 37T679 -12ZM679 53Q797 53 899 97T1079
219T1201 399T1245 619Q1245 736 1201 838T1079 1019T899 1141T679 1185Q563 1185 460 1141T279 1019T157 839T113 619Q113 502 157 400T279 219T460 97T679 53ZM876 260L659 585H735L964 260H876ZM460 260V987H706Q827 987 888 929T949 776Q949 683 888 624T706
565H528V260H460ZM528 616H703Q789 616 834 659T879 774Q879 846 835 888T706 930H528V616Z" />
<glyph unicode="&#xaf;" horiz-adv-x="802" d="M106 1266H697V1168H106V1266Z" />
<glyph unicode="&#xb0;" horiz-adv-x="633" d="M317 948Q248 948 192 981T101 1072T67 1197Q67 1267 101 1323T191 1413T317 1447Q386 1447 442 1413T532 1323T566 1198Q566 1129 532 1072T442 982T317 948ZM317 1033Q385 1033 432 1081T480 1198Q480 1265 433
1313T317 1361Q249 1361 201 1313T152 1197Q152 1130 200 1082T317 1033Z" />
<glyph unicode="&#xb1;" horiz-adv-x="956" d="M426 1026H529V681H852V598H529V252H426V598H103V681H426V1026ZM143 91H814V0H143V91Z" />
<glyph unicode="&#xb2;" horiz-adv-x="794" d="M132 499V600Q132 666 153 709T214 779T303 827L447 885Q507 910 538 949T569 1049Q569 1113 526 1152T404 1192Q327 1192 279 1161T223 1067H145Q150 1126 182 1168T270 1232T404 1255Q474 1255 528 1228T614 1152T646
1043Q646 986 625 944T565 871T479 821L330 760Q267 736 234 700T201 607V564H638V499H132Z" />
<glyph unicode="&#xb3;" horiz-adv-x="791" d="M393 486Q339 486 289 501T199 546T137 621T114 723H184Q184 666 212 628T288 570T393 551Q483 551 532 595T581 706Q581 748 561 781T495 833T374 853H297V909H340Q438 909 494 946T550 1051Q550 1109 506 1150T381
1191Q321 1191 274 1167T208 1075H138Q149 1141 183 1180T268 1237T381 1255Q451 1255 506 1230T594 1159T626 1055Q626 995 591 954T491 889Q564 870 610 824T657 702Q657 639 626 591T535 514T393 486Z" />
<glyph unicode="&#xb4;" horiz-adv-x="612" d="M166 1129L106 1177L423 1518L508 1448L166 1129Z" />
<glyph unicode="&#xb5;" horiz-adv-x="1190" d="M862 950H978V0H862V950ZM178 950H294V354Q294 222 358 153T545 83Q645 83 716 137T824 282T862 483H917Q917 331 870 218T737 44T533 -18Q423 -18 344 23T221 145T178 348V950ZM178 -410V950H294V-410H178Z" />
<glyph unicode="&#xb6;" horiz-adv-x="1200" d="M538 490Q337 490 235 591T132 861Q132 1029 234 1132T538 1235H890V1134H613V490H538ZM564 -252V1235H659V-252H564ZM828 -252V1235H922V-252H828Z" />
<glyph unicode="&#xb7;" horiz-adv-x="320" d="M66 499Q66 535 92 563T158 591Q198 591 226 563T254 499Q254 462 226 436T158 410Q119 410 93 436T66 499Z" />
<glyph unicode="&#xb8;" horiz-adv-x="622" d="M106 -350L130 -293Q207 -336 269 -342T369 -327T409 -268Q412 -230 379 -202T298 -155T203 -126L271 45L353 40L288 -123L249 -68Q336 -90 397 -118T490 -184T518 -272Q514 -329 470 -362T361 -406T228 -402T106 -350Z" />
<glyph unicode="&#xb9;" horiz-adv-x="507" d="M235 1237H295V492H226V1156Q198 1133 166 1121T101 1108V1177Q138 1183 172 1197T235 1237Z" />
<glyph unicode="&#xba;" horiz-adv-x="1073" d="M538 -22Q411 -22 314 35T162 203T106 475Q106 636 161 746T314 914T538 971Q665 971 762 914T914 747T969 475Q969 314 914 203T762 35T538 -22ZM536 79Q641 79 711 128T815 267T850 475Q850 654 774 763T540 872Q435
872 366 823T262 684T227 475Q227 297 303 188T536 79Z" />
<glyph unicode="&#xbb;" horiz-adv-x="1092" d="M877 499L483 901L580 953L987 525L580 98L483 150L877 552V499ZM500 499L106 901L203 953L610 525L203 98L106 150L500 552V499Z" />
<glyph unicode="&#xbc;" horiz-adv-x="1735" d="M237 1345H296V600H226V1264Q198 1241 166 1229T102 1216V1285Q138 1291 172 1305T237 1345ZM252 -13L1193 1334H1284L340 -13H252ZM1493 756H1556V248H1685V189H1556V0H1487V189H1098V245L1493 756ZM1489 639L1183
245H1489V639Z" />
<glyph unicode="&#xbd;" horiz-adv-x="1836" d="M237 1345H296V600H226V1264Q198 1241 166 1229T102 1216V1285Q138 1291 172 1305T237 1345ZM252 -13L1193 1334H1284L340 -13H252ZM1174 0V101Q1174 199 1222 248T1345 328L1489 386Q1550 411 1580 450T1611 551Q1611
615 1568 654T1447 694Q1369 694 1321 663T1266 568H1188Q1193 627 1225 669T1313 733T1447 756Q1517 756 1571 729T1657 654T1689 545Q1689 458 1642 406T1522 322L1373 261Q1310 237 1277 201T1244 108V65H1680V0H1174Z" />
<glyph unicode="&#xbe;" horiz-adv-x="2018" d="M393 578Q321 578 257 605T154 685T114 815H183Q184 729 246 686T393 642Q483 642 532 687T581 798Q581 862 534 903T374 945H298V1001H340Q438 1001 494 1038T550 1143Q550 1202 506 1243T381 1284Q321 1284 274
1259T208 1167H139Q154 1265 221 1306T381 1348Q486 1348 556 1292T626 1147Q626 1088 591 1047T492 981Q564 962 610 916T657 795Q657 701 587 640T393 578ZM535 -13L1476 1334H1567L623 -13H535ZM1776 756H1839V248H1968V189H1839V0H1770V189H1381V245L1776 756ZM1772
639L1466 245H1772V639Z" />
<glyph unicode="&#xbf;" horiz-adv-x="978" d="M581 906V811Q581 724 564 668T503 569T384 484Q315 446 273 414T211 341T191 243Q191 158 261 101T453 43Q585 43 654 92T745 234H871Q856 103 752 20T454 -63Q333 -63 246 -20T113 93T66 248Q66 350 118 418T288
552Q356 591 395 623T451 699T468 815V906H581ZM523 1214Q562 1214 588 1188T615 1125Q615 1088 589 1060T524 1032Q485 1032 456 1059T427 1124Q427 1160 456 1187T523 1214Z" />
<glyph unicode="&#xc0;" horiz-adv-x="1098" d="M56 0L483 1235H620L1041 0H919L805 343H296L177 0H56ZM326 437H773L549 1091L326 437ZM699 1416L357 1735L442 1805L759 1464L699 1416Z" />
<glyph unicode="&#xc1;" horiz-adv-x="1098" d="M56 0L483 1235H620L1041 0H919L805 343H296L177 0H56ZM326 437H773L549 1091L326 437ZM495 1408L435 1456L752 1797L837 1727L495 1408Z" />
<glyph unicode="&#xc2;" horiz-adv-x="1098" d="M56 0L483 1235H620L1041 0H919L805 343H296L177 0H56ZM326 437H773L549 1091L326 437ZM325 1359L253 1415L551 1729L849 1415L779 1359L531 1624H571L325 1359Z" />
<glyph unicode="&#xc3;" horiz-adv-x="1098" d="M56 0L483 1235H620L1041 0H919L805 343H296L177 0H56ZM326 437H773L549 1091L326 437ZM302 1392L253 1425Q277 1515 318 1560T413 1606Q437 1606 464 1597T559 1553Q626 1518 649 1509T694 1499Q723 1499 751 1524T800
1606L852 1570Q836 1512 812 1472T759 1412T697 1392Q670 1392 638 1404T536 1451Q477 1482 456 1490T413 1498Q382 1498 354 1475T302 1392Z" />
<glyph unicode="&#xc4;" horiz-adv-x="1098" d="M56 0L483 1235H620L1041 0H919L805 343H296L177 0H56ZM326 437H773L549 1091L326 437ZM706 1425Q670 1425 645 1448T620 1506Q620 1541 645 1566T706 1592Q743 1592 768 1567T794 1506Q794 1472 769 1449T706 1425ZM397
1425Q360 1425 336 1448T311 1505Q311 1541 335 1565T397 1590Q434 1590 459 1566T485 1505Q485 1472 460 1449T397 1425Z" />
<glyph unicode="&#xc5;" horiz-adv-x="1098" d="M56 0L483 1235H620L1041 0H919L805 343H296L177 0H56ZM326 437H773L549 1091L326 437ZM552 1351Q503 1351 462 1375T396 1441T371 1533Q371 1583 395 1624T461 1690T553 1715Q602 1715 643 1690T709 1624T734 1533Q734
1483 710 1442T644 1376T552 1351ZM552 1440Q592 1440 618 1467T645 1533Q645 1572 619 1599T552 1626Q514 1626 487 1599T460 1533Q460 1494 487 1467T552 1440Z" />
<glyph unicode="&#xc6;" horiz-adv-x="1638" d="M1491 1235V1136H868L891 1158V627L868 664H1454V565H868L891 595V53L868 102H1491V0H775V377L799 343H329L388 371L244 0H124L606 1235H1491ZM799 437L775 400V1157L799 1136H651L701 1173L405 414L381 437H799Z" />
<glyph unicode="&#xc7;" horiz-adv-x="1206" d="M628 -22Q465 -22 348 62T169 293T106 628Q106 832 175 971T363 1183T628 1255Q817 1255 936 1159T1107 910L981 882Q939 1007 845 1079T628 1152Q523 1152 433 1093T287 916T231 628Q231 475 273 352T404 156T628
83Q788 83 884 169T981 398H1110Q1110 268 1048 174T877 29T628 -22ZM443 -350L467 -293Q544 -336 606 -342T706 -327T746 -268Q749 -230 716 -202T635 -155T540 -126L608 45L690 40L625 -123L586 -68Q673 -90 734 -118T827 -184T855 -272Q851 -329 807 -362T698
-406T565 -402T443 -350Z" />
<glyph unicode="&#xc8;" horiz-adv-x="1100" d="M208 0V1235H952V1136H324V674H916V575H324V101H952V0H208ZM697 1416L355 1735L440 1805L757 1464L697 1416Z" />
<glyph unicode="&#xc9;" horiz-adv-x="1100" d="M208 0V1235H952V1136H324V674H916V575H324V101H952V0H208ZM493 1408L433 1456L750 1797L835 1727L493 1408Z" />
<glyph unicode="&#xca;" horiz-adv-x="1100" d="M208 0V1235H952V1136H324V674H916V575H324V101H952V0H208ZM323 1359L251 1415L549 1729L847 1415L777 1359L529 1624H569L323 1359Z" />
<glyph unicode="&#xcb;" horiz-adv-x="1100" d="M208 0V1235H952V1136H324V674H916V575H324V101H952V0H208ZM703 1425Q667 1425 642 1448T617 1506Q617 1541 642 1566T703 1592Q740 1592 765 1567T791 1506Q791 1472 766 1449T703 1425ZM394 1425Q357 1425 333
1448T308 1505Q308 1541 332 1565T394 1590Q431 1590 456 1566T482 1505Q482 1472 457 1449T394 1425Z" />
<glyph unicode="&#xcc;" horiz-adv-x="536" d="M210 0V1235H326V0H210ZM415 1416L73 1735L158 1805L475 1464L415 1416Z" />
<glyph unicode="&#xcd;" horiz-adv-x="536" d="M210 0V1235H326V0H210ZM211 1408L151 1456L468 1797L553 1727L211 1408Z" />
<glyph unicode="&#xce;" horiz-adv-x="536" d="M210 0V1235H326V0H210ZM41 1359L-31 1415L267 1729L565 1415L495 1359L247 1624H287L41 1359Z" />
<glyph unicode="&#xcf;" horiz-adv-x="536" d="M210 0V1235H326V0H210ZM421 1425Q385 1425 360 1448T335 1506Q335 1541 360 1566T421 1592Q458 1592 483 1567T509 1506Q509 1472 484 1449T421 1425ZM112 1425Q75 1425 51 1448T26 1505Q26 1541 50 1565T112 1590Q149
1590 174 1566T200 1505Q200 1472 175 1449T112 1425Z" />
<glyph unicode="&#xd0;" horiz-adv-x="1294" d="M44 667H665V568H44V667ZM210 1235H552Q738 1235 873 1159T1083 944T1157 618Q1157 433 1083 294T874 78T552 0H210V1235ZM326 1135V98H552Q702 98 810 166T976 351T1035 618Q1035 768 977 884T810 1068T552 1135H326Z" />
<glyph unicode="&#xd1;" horiz-adv-x="1335" d="M209 1235H359L1021 147H1009V1235H1125V0H984L308 1111H325V0H209V1235ZM417 1392L368 1425Q392 1515 433 1560T528 1606Q552 1606 579 1597T674 1553Q741 1518 764 1509T809 1499Q838 1499 866 1524T915 1606L967
1570Q951 1512 927 1472T874 1412T812 1392Q785 1392 753 1404T651 1451Q592 1482 571 1490T528 1498Q497 1498 469 1475T417 1392Z" />
<glyph unicode="&#xd2;" horiz-adv-x="1254" d="M628 -22Q480 -22 362 48T175 259T106 614Q106 830 175 972T362 1185T628 1255Q775 1255 893 1185T1080 972T1149 614Q1149 399 1080 258T893 48T628 -22ZM628 87Q814 87 921 220T1028 616Q1028 874 921 1012T628
1151Q443 1151 335 1012T227 614Q227 353 335 220T628 87ZM783 1416L441 1735L526 1805L843 1464L783 1416Z" />
<glyph unicode="&#xd3;" horiz-adv-x="1254" d="M628 -22Q480 -22 362 48T175 259T106 614Q106 830 175 972T362 1185T628 1255Q775 1255 893 1185T1080 972T1149 614Q1149 399 1080 258T893 48T628 -22ZM628 87Q814 87 921 220T1028 616Q1028 874 921 1012T628
1151Q443 1151 335 1012T227 614Q227 353 335 220T628 87ZM579 1408L519 1456L836 1797L921 1727L579 1408Z" />
<glyph unicode="&#xd4;" horiz-adv-x="1254" d="M628 -22Q480 -22 362 48T175 259T106 614Q106 830 175 972T362 1185T628 1255Q775 1255 893 1185T1080 972T1149 614Q1149 399 1080 258T893 48T628 -22ZM628 87Q814 87 921 220T1028 616Q1028 874 921 1012T628
1151Q443 1151 335 1012T227 614Q227 353 335 220T628 87ZM409 1359L337 1415L635 1729L933 1415L863 1359L615 1624H655L409 1359Z" />
<glyph unicode="&#xd5;" horiz-adv-x="1254" d="M628 -22Q480 -22 362 48T175 259T106 614Q106 830 175 972T362 1185T628 1255Q775 1255 893 1185T1080 972T1149 614Q1149 399 1080 258T893 48T628 -22ZM628 87Q814 87 921 220T1028 616Q1028 874 921 1012T628
1151Q443 1151 335 1012T227 614Q227 353 335 220T628 87ZM386 1392L337 1425Q361 1515 402 1560T497 1606Q521 1606 548 1597T643 1553Q710 1518 733 1509T778 1499Q807 1499 835 1524T884 1606L936 1570Q920 1512 896 1472T843 1412T781 1392Q754 1392 722 1404T620
1451Q561 1482 540 1490T497 1498Q466 1498 438 1475T386 1392Z" />
<glyph unicode="&#xd6;" horiz-adv-x="1254" d="M628 -22Q480 -22 362 48T175 259T106 614Q106 830 175 972T362 1185T628 1255Q775 1255 893 1185T1080 972T1149 614Q1149 399 1080 258T893 48T628 -22ZM628 87Q814 87 921 220T1028 616Q1028 874 921 1012T628
1151Q443 1151 335 1012T227 614Q227 353 335 220T628 87ZM789 1425Q753 1425 728 1448T703 1506Q703 1541 728 1566T789 1592Q826 1592 851 1567T877 1506Q877 1472 852 1449T789 1425ZM480 1425Q443 1425 419 1448T394 1505Q394 1541 418 1565T480 1590Q517 1590
542 1566T568 1505Q568 1472 543 1449T480 1425Z" />
<glyph unicode="&#xd7;" horiz-adv-x="1038" d="M221 120L142 201L438 500L142 794L221 875L520 579L816 875L897 794L599 500L897 201L816 120L520 416L221 120Z" />
<glyph unicode="&#xd8;" horiz-adv-x="1254" d="M108 0L1030 1238H1137L212 0H108ZM626 -22Q479 -22 361 48T174 259T104 614Q104 830 173 972T361 1185T626 1255Q774 1255 891 1185T1078 972T1148 614Q1148 399 1079 258T892 48T626 -22ZM626 87Q813 87 920 220T1027
616Q1027 874 920 1012T626 1151Q441 1151 333 1012T225 614Q225 353 333 220T626 87Z" />
<glyph unicode="&#xd9;" horiz-adv-x="1269" d="M178 1235H294V436Q294 251 387 169T632 86Q782 86 874 168T967 436V1235H1083V436Q1083 281 1027 180T869 28T632 -22Q497 -22 395 28T235 179T178 436V1235ZM781 1416L439 1735L524 1805L841 1464L781 1416Z" />
<glyph unicode="&#xda;" horiz-adv-x="1269" d="M178 1235H294V436Q294 251 387 169T632 86Q782 86 874 168T967 436V1235H1083V436Q1083 281 1027 180T869 28T632 -22Q497 -22 395 28T235 179T178 436V1235ZM578 1408L518 1456L835 1797L920 1727L578 1408Z" />
<glyph unicode="&#xdb;" horiz-adv-x="1269" d="M178 1235H294V436Q294 251 387 169T632 86Q782 86 874 168T967 436V1235H1083V436Q1083 281 1027 180T869 28T632 -22Q497 -22 395 28T235 179T178 436V1235ZM408 1359L336 1415L634 1729L932 1415L862 1359L614
1624H654L408 1359Z" />
<glyph unicode="&#xdc;" horiz-adv-x="1269" d="M178 1235H294V436Q294 251 387 169T632 86Q782 86 874 168T967 436V1235H1083V436Q1083 281 1027 180T869 28T632 -22Q497 -22 395 28T235 179T178 436V1235ZM788 1425Q752 1425 727 1448T702 1506Q702 1541 727
1566T788 1592Q825 1592 850 1567T876 1506Q876 1472 851 1449T788 1425ZM479 1425Q442 1425 418 1448T393 1505Q393 1541 417 1565T479 1590Q516 1590 541 1566T567 1505Q567 1472 542 1449T479 1425Z" />
<glyph unicode="&#xdd;" horiz-adv-x="1059" d="M20 1235H162L547 599H510L898 1235H1038L588 506V0H469V506L20 1235ZM473 1408L413 1456L730 1797L815 1727L473 1408Z" />
<glyph unicode="&#xde;" horiz-adv-x="1080" d="M207 0V1235H325V999L298 1025H584Q785 1025 888 922T991 650Q991 483 888 382T584 280H298L325 306V0H207ZM325 355L298 381H584Q725 381 798 452T872 650Q872 778 799 852T584 926H298L325 953V355Z" />
<glyph unicode="&#xdf;" horiz-adv-x="1192" d="M928 1076Q928 1001 899 951T830 866T761 798T731 724Q731 682 764 651T847 588T945 518T1027 422T1060 281Q1060 194 1020 125T911 17T755 -23Q698 -23 625 -6T495 39L499 147Q552 107 617 86T740 65Q810 65 854
93T918 167T938 262Q938 332 906 381T826 467T730 539T650 613T617 709Q617 764 647 803T717 878T787 957T818 1066Q818 1146 758 1204T578 1263Q455 1263 390 1187T325 931V0H210V933Q210 1064 251 1159T377 1305T589 1357Q706 1357 781 1318T892 1214T928 1076Z"
/>
<glyph unicode="&#xe0;" horiz-adv-x="1066" d="M789 0L774 197V617Q774 760 712 820T535 880Q471 880 416 862T328 803T295 696H163Q163 797 213 857T347 944T535 971Q637 971 717 936T843 822T890 615V0H789ZM459 -22Q345 -22 271 19T161 126T125 260Q125 360
173 420T303 507T482 534Q555 534 633 518T784 472V394Q722 421 641 437T494 453Q392 453 320 409T248 260Q248 181 301 126T474 71Q555 71 623 110T732 207T774 324H803Q803 233 761 154T641 27T459 -22ZM680 1129L338 1448L423 1518L740 1177L680 1129Z" />
<glyph unicode="&#xe1;" horiz-adv-x="1066" d="M789 0L774 197V617Q774 760 712 820T535 880Q471 880 416 862T328 803T295 696H163Q163 797 213 857T347 944T535 971Q637 971 717 936T843 822T890 615V0H789ZM459 -22Q345 -22 271 19T161 126T125 260Q125 360
173 420T303 507T482 534Q555 534 633 518T784 472V394Q722 421 641 437T494 453Q392 453 320 409T248 260Q248 181 301 126T474 71Q555 71 623 110T732 207T774 324H803Q803 233 761 154T641 27T459 -22ZM476 1122L416 1170L733 1511L818 1441L476 1122Z" />
<glyph unicode="&#xe2;" horiz-adv-x="1066" d="M789 0L774 197V617Q774 760 712 820T535 880Q471 880 416 862T328 803T295 696H163Q163 797 213 857T347 944T535 971Q637 971 717 936T843 822T890 615V0H789ZM459 -22Q345 -22 271 19T161 126T125 260Q125 360
173 420T303 507T482 534Q555 534 633 518T784 472V394Q722 421 641 437T494 453Q392 453 320 409T248 260Q248 181 301 126T474 71Q555 71 623 110T732 207T774 324H803Q803 233 761 154T641 27T459 -22ZM306 1073L234 1129L532 1443L830 1129L760 1073L512 1338H552L306
1073Z" />
<glyph unicode="&#xe3;" horiz-adv-x="1066" d="M789 0L774 197V617Q774 760 712 820T535 880Q471 880 416 862T328 803T295 696H163Q163 797 213 857T347 944T535 971Q637 971 717 936T843 822T890 615V0H789ZM459 -22Q345 -22 271 19T161 126T125 260Q125 360
173 420T303 507T482 534Q555 534 633 518T784 472V394Q722 421 641 437T494 453Q392 453 320 409T248 260Q248 181 301 126T474 71Q555 71 623 110T732 207T774 324H803Q803 233 761 154T641 27T459 -22ZM283 1105L234 1138Q258 1228 299 1273T394 1319Q418 1319
445 1310T540 1266Q607 1231 630 1222T675 1212Q704 1212 732 1237T781 1319L833 1283Q817 1225 793 1185T740 1125T678 1105Q651 1105 619 1117T517 1164Q458 1195 437 1203T394 1211Q363 1211 335 1188T283 1105Z" />
<glyph unicode="&#xe4;" horiz-adv-x="1066" d="M789 0L774 197V617Q774 760 712 820T535 880Q471 880 416 862T328 803T295 696H163Q163 797 213 857T347 944T535 971Q637 971 717 936T843 822T890 615V0H789ZM459 -22Q345 -22 271 19T161 126T125 260Q125 360
173 420T303 507T482 534Q555 534 633 518T784 472V394Q722 421 641 437T494 453Q392 453 320 409T248 260Q248 181 301 126T474 71Q555 71 623 110T732 207T774 324H803Q803 233 761 154T641 27T459 -22ZM686 1138Q650 1138 625 1161T600 1219Q600 1254 625 1279T686
1305Q723 1305 748 1280T774 1219Q774 1185 749 1162T686 1138ZM377 1138Q340 1138 316 1161T291 1218Q291 1254 315 1278T377 1303Q414 1303 439 1279T465 1218Q465 1185 440 1162T377 1138Z" />
<glyph unicode="&#xe5;" horiz-adv-x="1066" d="M789 0L774 197V617Q774 760 712 820T535 880Q471 880 416 862T328 803T295 696H163Q163 797 213 857T347 944T535 971Q637 971 717 936T843 822T890 615V0H789ZM459 -22Q345 -22 271 19T161 126T125 260Q125 360
173 420T303 507T482 534Q555 534 633 518T784 472V394Q722 421 641 437T494 453Q392 453 320 409T248 260Q248 181 301 126T474 71Q555 71 623 110T732 207T774 324H803Q803 233 761 154T641 27T459 -22ZM533 1064Q484 1064 443 1088T377 1154T352 1246Q352 1296
376 1337T442 1403T534 1428Q583 1428 624 1403T690 1337T715 1246Q715 1196 691 1155T625 1089T533 1064ZM533 1153Q573 1153 599 1180T626 1246Q626 1285 600 1312T533 1339Q495 1339 468 1312T441 1246Q441 1207 468 1180T533 1153Z" />
<glyph unicode="&#xe6;" horiz-adv-x="1679" d="M786 302H770V617Q770 759 708 819T531 880Q468 880 415 862T328 803T295 696H163Q163 797 213 857T343 944T514 971Q623 971 703 934T827 815T871 606V367L786 302ZM450 -22Q349 -22 276 16T164 120T125 267Q125
361 173 420T301 506T474 534Q553 534 632 517T781 472V394Q719 421 637 437T490 453Q391 453 320 409T248 264Q248 182 301 127T460 71Q548 71 618 109T729 206T770 324H847Q847 236 797 157T657 28T450 -22ZM1203 -22Q1075 -22 979 42T830 219T776 479Q776 625
829 736T976 909T1195 971Q1300 971 1373 929T1492 813T1556 648T1570 458H870V538H1500L1454 508Q1457 573 1447 637T1408 756T1327 843T1196 876Q1095 876 1028 824T926 688T891 509V460Q891 351 924 264T1026 126T1198 75Q1297 75 1365 125T1447 278H1570Q1556
185 1505 118T1376 14T1203 -22Z" />
<glyph unicode="&#xe7;" horiz-adv-x="1018" d="M530 -22Q419 -22 322 39T166 212T106 477Q106 632 165 742T322 912T530 971Q604 971 664 950T771 890T851 801T902 692L781 674Q752 766 686 818T528 870Q450 870 382 825T270 693T227 477Q227 361 265 272T372
132T528 81Q649 81 715 141T781 310H902Q902 212 855 137T724 20T530 -22ZM337 -349L361 -292Q438 -335 500 -341T600 -326T640 -267Q643 -229 610 -201T529 -154T434 -125L502 46L584 41L519 -122L480 -67Q567 -89 628 -117T721 -183T749 -271Q745 -328 701 -361T592
-405T459 -401T337 -349Z" />
<glyph unicode="&#xe8;" horiz-adv-x="1010" d="M527 -22Q403 -22 309 41T160 216T106 471Q106 627 159 739T307 911T527 971Q632 971 705 929T824 813T887 648T902 458H201V538H831L785 508Q788 573 778 637T739 756T659 843T528 876Q426 876 358 824T257 688T223
509V460Q223 351 256 264T357 126T527 75Q632 75 698 126T778 278H902Q887 183 836 116T705 14T527 -22ZM653 1129L311 1448L396 1518L713 1177L653 1129Z" />
<glyph unicode="&#xe9;" horiz-adv-x="1010" d="M527 -22Q403 -22 309 41T160 216T106 471Q106 627 159 739T307 911T527 971Q632 971 705 929T824 813T887 648T902 458H201V538H831L785 508Q788 573 778 637T739 756T659 843T528 876Q426 876 358 824T257 688T223
509V460Q223 351 256 264T357 126T527 75Q632 75 698 126T778 278H902Q887 183 836 116T705 14T527 -22ZM449 1122L389 1170L706 1511L791 1441L449 1122Z" />
<glyph unicode="&#xea;" horiz-adv-x="1010" d="M527 -22Q403 -22 309 41T160 216T106 471Q106 627 159 739T307 911T527 971Q632 971 705 929T824 813T887 648T902 458H201V538H831L785 508Q788 573 778 637T739 756T659 843T528 876Q426 876 358 824T257 688T223
509V460Q223 351 256 264T357 126T527 75Q632 75 698 126T778 278H902Q887 183 836 116T705 14T527 -22ZM279 1329L207 1385L505 1699L803 1385L733 1329L485 1594H525L279 1329Z" />
<glyph unicode="&#xeb;" horiz-adv-x="1010" d="M527 -22Q403 -22 309 41T160 216T106 471Q106 627 159 739T307 911T527 971Q632 971 705 929T824 813T887 648T902 458H201V538H831L785 508Q788 573 778 637T739 756T659 843T528 876Q426 876 358 824T257 688T223
509V460Q223 351 256 264T357 126T527 75Q632 75 698 126T778 278H902Q887 183 836 116T705 14T527 -22ZM659 1138Q623 1138 598 1161T573 1219Q573 1254 598 1279T659 1305Q696 1305 721 1280T747 1219Q747 1185 722 1162T659 1138ZM350 1138Q313 1138 289 1161T264
1218Q264 1254 288 1278T350 1303Q387 1303 412 1279T438 1218Q438 1185 413 1162T350 1138Z" />
<glyph unicode="&#xec;" horiz-adv-x="566" d="M215 0V950H331V0H215ZM674 1129L332 1448L417 1518L734 1177L674 1129Z" />
<glyph unicode="&#xed;" horiz-adv-x="566" d="M215 0V950H331V0H215ZM215 1378L155 1426L472 1767L557 1697L215 1378Z" />
<glyph unicode="&#xee;" horiz-adv-x="566" d="M215 0V950H331V0H215ZM45 1073L-27 1129L271 1443L569 1129L499 1073L251 1338H291L45 1073Z" />
<glyph unicode="&#xef;" horiz-adv-x="566" d="M215 0V950H331V0H215ZM681 1138Q645 1138 620 1161T595 1219Q595 1254 620 1279T681 1305Q718 1305 743 1280T769 1219Q769 1185 744 1162T681 1138ZM372 1138Q335 1138 311 1161T286 1218Q286 1254 310 1278T372
1303Q409 1303 434 1279T460 1218Q460 1185 435 1162T372 1138Z" />
<glyph unicode="&#xf0;" horiz-adv-x="1116" d="M546 -22Q432 -22 337 39T184 213T126 479Q126 631 182 741T332 911T536 971Q641 971 726 917T861 761T912 520H860Q859 641 813 718T697 832T554 870Q471 870 401 823T289 689T247 476Q247 353 288 265T400 129T558
81Q652 81 716 135T815 284T858 502Q868 672 839 827T751 1116T610 1352T432 1521L513 1598Q605 1533 688 1428T835 1191T937 908T975 601Q975 461 944 347T856 150T721 23T546 -22ZM455 1120L417 1200L972 1464L1009 1384L455 1120Z" />
<glyph unicode="&#xf1;" horiz-adv-x="1187" d="M897 0V559Q897 710 825 790T625 870Q532 870 465 819T362 676T326 461H275Q275 617 317 731T443 908T651 971Q761 971 841 922T966 781T1010 559V0H897ZM210 0V949H308L326 715V0H210ZM377 1122L328 1155Q352 1245
393 1290T488 1336Q512 1336 539 1327T634 1283Q701 1248 724 1239T769 1229Q798 1229 826 1254T875 1336L927 1300Q911 1242 887 1202T834 1142T772 1122Q745 1122 713 1134T611 1181Q552 1212 531 1220T488 1228Q457 1228 429 1205T377 1122Z" />
<glyph unicode="&#xf2;" horiz-adv-x="1073" d="M538 -22Q411 -22 314 35T162 203T106 475Q106 636 161 746T314 914T538 971Q665 971 762 914T914 747T969 475Q969 314 914 203T762 35T538 -22ZM536 79Q641 79 711 128T815 267T850 475Q850 654 774 763T540 872Q435
872 366 823T262 684T227 475Q227 297 303 188T536 79ZM684 1129L342 1448L427 1518L744 1177L684 1129Z" />
<glyph unicode="&#xf3;" horiz-adv-x="1073" d="M538 -22Q411 -22 314 35T162 203T106 475Q106 636 161 746T314 914T538 971Q665 971 762 914T914 747T969 475Q969 314 914 203T762 35T538 -22ZM536 79Q641 79 711 128T815 267T850 475Q850 654 774 763T540 872Q435
872 366 823T262 684T227 475Q227 297 303 188T536 79ZM480 1122L420 1170L737 1511L822 1441L480 1122Z" />
<glyph unicode="&#xf4;" horiz-adv-x="1073" d="M538 -22Q411 -22 314 35T162 203T106 475Q106 636 161 746T314 914T538 971Q665 971 762 914T914 747T969 475Q969 314 914 203T762 35T538 -22ZM536 79Q641 79 711 128T815 267T850 475Q850 654 774 763T540 872Q435
872 366 823T262 684T227 475Q227 297 303 188T536 79ZM310 1073L238 1129L536 1443L834 1129L764 1073L516 1338H556L310 1073Z" />
<glyph unicode="&#xf5;" horiz-adv-x="1073" d="M538 -22Q411 -22 314 35T162 203T106 475Q106 636 161 746T314 914T538 971Q665 971 762 914T914 747T969 475Q969 314 914 203T762 35T538 -22ZM536 79Q641 79 711 128T815 267T850 475Q850 654 774 763T540 872Q435
872 366 823T262 684T227 475Q227 297 303 188T536 79ZM287 1105L238 1138Q262 1228 303 1273T398 1319Q422 1319 449 1310T544 1266Q611 1231 634 1222T679 1212Q708 1212 736 1237T785 1319L837 1283Q821 1225 797 1185T744 1125T682 1105Q655 1105 623 1117T521
1164Q462 1195 441 1203T398 1211Q367 1211 339 1188T287 1105Z" />
<glyph unicode="&#xf6;" horiz-adv-x="1073" d="M538 -22Q411 -22 314 35T162 203T106 475Q106 636 161 746T314 914T538 971Q665 971 762 914T914 747T969 475Q969 314 914 203T762 35T538 -22ZM536 79Q641 79 711 128T815 267T850 475Q850 654 774 763T540 872Q435
872 366 823T262 684T227 475Q227 297 303 188T536 79ZM691 1138Q655 1138 630 1161T605 1219Q605 1254 630 1279T691 1305Q728 1305 753 1280T779 1219Q779 1185 754 1162T691 1138ZM382 1138Q345 1138 321 1161T296 1218Q296 1254 320 1278T382 1303Q419 1303
444 1279T470 1218Q470 1185 445 1162T382 1138Z" />
<glyph unicode="&#xf7;" horiz-adv-x="1026" d="M183 456V556H842V456H183ZM512 171Q476 171 452 195T427 253Q427 286 451 312T512 338Q549 338 573 312T598 253Q598 220 574 196T512 171ZM512 674Q476 674 452 697T427 756Q427 790 451 814T512 838Q549 838
573 814T598 756Q598 721 574 698T512 674Z" />
<glyph unicode="&#xf8;" horiz-adv-x="1073" d="M538 -22Q411 -22 314 35T162 203T106 475Q106 636 161 746T314 914T538 971Q665 971 762 914T914 747T969 475Q969 314 914 203T762 35T538 -22ZM536 79Q641 79 711 128T815 267T850 475Q850 654 774 763T540 872Q435
872 366 823T262 684T227 475Q227 297 303 188T536 79ZM322 1L1112 945H1221L427 1H322Z" />
<glyph unicode="&#xf9;" horiz-adv-x="1190" d="M862 950H978V0H862V950ZM178 950H294V354Q294 222 358 153T545 83Q645 83 716 137T824 282T862 483H917Q917 331 870 218T737 44T533 -18Q423 -18 344 23T221 145T178 348V950ZM761 1129L419 1448L504 1518L821
1177L761 1129Z" />
<glyph unicode="&#xfa;" horiz-adv-x="1190" d="M862 950H978V0H862V950ZM178 950H294V354Q294 222 358 153T545 83Q645 83 716 137T824 282T862 483H917Q917 331 870 218T737 44T533 -18Q423 -18 344 23T221 145T178 348V950ZM557 1122L497 1170L814 1511L899
1441L557 1122Z" />
<glyph unicode="&#xfb;" horiz-adv-x="1190" d="M862 950H978V0H862V950ZM178 950H294V354Q294 222 358 153T545 83Q645 83 716 137T824 282T862 483H917Q917 331 870 218T737 44T533 -18Q423 -18 344 23T221 145T178 348V950ZM387 1073L315 1129L613 1443L911
1129L841 1073L593 1338H633L387 1073Z" />
<glyph unicode="&#xfc;" horiz-adv-x="1190" d="M862 950H978V0H862V950ZM178 950H294V354Q294 222 358 153T545 83Q645 83 716 137T824 282T862 483H917Q917 331 870 218T737 44T533 -18Q423 -18 344 23T221 145T178 348V950ZM768 1138Q732 1138 707 1161T682
1219Q682 1254 707 1279T768 1305Q805 1305 830 1280T856 1219Q856 1185 831 1162T768 1138ZM459 1138Q422 1138 398 1161T373 1218Q373 1254 397 1278T459 1303Q496 1303 521 1279T547 1218Q547 1185 522 1162T459 1138Z" />
<glyph unicode="&#xfd;" horiz-adv-x="893" d="M47 949H174L513 101H480L732 949H852L498 -200Q459 -330 389 -408T202 -487Q142 -487 90 -468T-18 -414V-302Q34 -347 83 -366T186 -386Q253 -386 295 -342T365 -231T413 -97L440 0L47 949ZM390 1122L330 1170L647
1511L732 1441L390 1122Z" />
<glyph unicode="&#xfe;" horiz-adv-x="1200" d="M618 -22Q514 -22 436 27T314 168T270 389H326Q326 288 366 220T471 116T608 81Q687 81 757 127T871 261T915 477Q915 602 873 689T762 823T609 870Q537 870 472 834T367 729T326 556H270Q270 688 315 781T440 922T619
971Q730 971 825 912T978 742T1036 477Q1036 321 978 209T824 38T618 -22ZM210 -468V1235H326V-468H210Z" />
<glyph unicode="&#xff;" horiz-adv-x="893" d="M47 949H174L513 101H480L732 949H852L498 -200Q459 -330 389 -408T202 -487Q142 -487 90 -468T-18 -414V-302Q34 -347 83 -366T186 -386Q253 -386 295 -342T365 -231T413 -97L440 0L47 949ZM600 1138Q564 1138 539
1161T514 1219Q514 1254 539 1279T600 1305Q637 1305 662 1280T688 1219Q688 1185 663 1162T600 1138ZM291 1138Q254 1138 230 1161T205 1218Q205 1254 229 1278T291 1303Q328 1303 353 1279T379 1218Q379 1185 354 1162T291 1138Z" />
<glyph unicode="&#x2013;" horiz-adv-x="892" d="M110 521V622H784V521H110Z" />
<glyph unicode="&#x2014;" horiz-adv-x="1406" d="M110 521V622H1299V521H110Z" />
<glyph unicode="&#x2018;" horiz-adv-x="366" d="M184 878Q153 878 128 894T87 940T72 1007Q72 1066 110 1126T226 1226L312 1182Q260 1155 226 1121T180 1041Q222 1039 246 1020T271 964Q271 930 248 904T184 878Z" />
<glyph unicode="&#x2019;" horiz-adv-x="366" d="M102 878L16 922Q68 949 102 982T145 1060Q107 1062 81 1084T54 1142Q54 1177 79 1201T146 1226Q179 1226 203 1209T241 1163T254 1097Q254 1039 216 980T102 878Z" />
<glyph unicode="&#x201a;" horiz-adv-x="425" d="M162 -191L72 -148Q124 -122 158 -91T202 -10Q165 -8 139 13T113 71Q113 104 137 128T200 153Q248 153 280 117T312 29Q312 -32 276 -92T162 -191Z" />
<glyph unicode="&#x201c;" horiz-adv-x="713" d="M473 878Q442 878 417 894T376 940T361 1007Q361 1066 399 1126T515 1226L601 1182Q549 1155 515 1121T469 1041Q511 1039 535 1020T560 964Q560 930 537 904T473 878ZM184 878Q153 878 128 894T87 940T72 1007Q72
1066 110 1126T226 1226L312 1182Q260 1155 226 1121T180 1041Q222 1039 246 1020T271 964Q271 930 248 904T184 878Z" />
<glyph unicode="&#x201d;" horiz-adv-x="706" d="M441 878L355 922Q407 949 441 982T484 1060Q446 1062 420 1084T393 1142Q393 1177 418 1201T485 1226Q518 1226 542 1209T580 1163T593 1097Q593 1039 555 980T441 878ZM158 878L72 922Q124 949 158 982T201 1060Q163
1062 137 1084T110 1142Q110 1177 135 1201T202 1226Q235 1226 259 1209T297 1163T310 1097Q310 1039 272 980T158 878Z" />
<glyph unicode="&#x201e;" horiz-adv-x="792" d="M529 -191L439 -148Q491 -122 525 -91T569 -10Q532 -8 506 13T480 71Q480 104 504 128T567 153Q615 153 647 117T679 29Q679 -32 643 -92T529 -191ZM162 -191L72 -148Q124 -122 158 -91T202 -10Q165 -8 139 13T113
71Q113 104 137 128T200 153Q248 153 280 117T312 29Q312 -32 276 -92T162 -191Z" />
<glyph unicode="&#x2022;" horiz-adv-x="484" d="M61 477Q61 542 109 593T229 644Q302 644 353 593T404 477Q404 409 353 362T229 314Q158 314 110 361T61 477Z" />
<glyph unicode="&#x2039;" horiz-adv-x="714" d="M216 499L610 901L513 953L106 525L513 98L610 150L216 552V499Z" />
<glyph unicode="&#x203a;" horiz-adv-x="714" d="M202 98L106 150L499 552V499L106 901L202 953L610 525L202 98Z" />
</font>
</defs>
</svg>
