<?xml version="1.0" standalone="no"?>
<!DOCTYPE svg PUBLIC "-//W3C//DTD SVG 1.1//EN" "http://www.w3.org/Graphics/SVG/1.1/DTD/svg11.dtd">
<svg xmlns="http://www.w3.org/2000/svg">
<defs >
<font id="Karla" horiz-adv-x="1049" ><font-face
    font-family="Karla ExtraLight"
    units-per-em="2000"
    panose-1="2 11 0 4 3 5 3 3 0 3"
    ascent="1834"
    descent="-504"
    alphabetic="0" />
<glyph unicode=" " horiz-adv-x="443" />
<glyph unicode="!" horiz-adv-x="523" d="M239 264L225 1176H298L287 264H239ZM261 -18Q233 -18 213 1T193 47Q193 73 213 94T261 116Q289 116 309 95T330 47Q330 21 310 2T261 -18Z" />
<glyph unicode="&quot;" horiz-adv-x="449" d="M326 953L316 1356H398L386 953H326ZM62 953L52 1356H134L122 953H62Z" />
<glyph unicode="#" horiz-adv-x="1143" d="M282 58L314 352H98L104 409H318L360 810H146L150 867H368L396 1155H464L436 867H781L813 1155H879L849 867H1072L1064 810H843L803 409H1024L1016 352H795L763 58H695L727 352H382L350 58H282ZM386 409H731L773 810H428L386
409Z" />
<glyph unicode="$" horiz-adv-x="1141" d="M566 -20Q479 -20 403 5T270 77T179 192T146 345H216Q216 245 264 180T393 82T566 50Q678 50 755 88T872 188T913 316Q913 409 855 470T690 563L577 596V671L711 633Q834 596 915 521T997 314Q997 232 948 156T804 30T566
-20ZM533 -162V1373H608V-162H533ZM563 600L506 618Q344 669 264 736T184 925Q184 1059 283 1145T573 1231Q738 1231 834 1156T949 964H873Q858 1062 781 1112T573 1162Q422 1162 342 1094T262 922Q262 836 311 786T473 703L563 675V600Z" />
<glyph unicode="%" horiz-adv-x="1371" d="M232 0L1043 1213H1128L314 0H232ZM1000 -18Q940 -18 887 13T799 105T765 254Q765 340 799 399T886 490T1000 521Q1064 521 1118 490T1206 400T1240 254Q1240 166 1207 106T1119 14T1000 -18ZM1000 45Q1074 45 1120 96T1167
254Q1167 355 1121 407T1000 460Q927 460 881 408T835 254Q835 148 881 97T1000 45ZM358 694Q298 694 244 725T156 816T122 961Q122 1048 156 1108T244 1200T358 1231Q420 1231 474 1200T563 1109T597 961Q597 876 563 816T475 725T358 694ZM358 755Q429 755 474
807T520 961Q520 1065 475 1119T358 1174Q284 1174 239 1120T193 961Q193 859 238 807T358 755Z" />
<glyph unicode="&amp;" horiz-adv-x="1725" d="M1419 -20Q1364 -20 1316 2T1209 75L530 657Q449 726 408 802T366 959Q366 1041 409 1102T528 1197T703 1231Q792 1231 863 1197T975 1102T1017 963Q1017 898 988 838T886 720T686 602L639 649Q774 713 836 768T917
873T935 974Q935 1058 872 1115T703 1173Q573 1173 509 1105T444 950Q444 888 473 830T574 709L1265 114Q1310 77 1341 62T1419 46Q1473 46 1515 86T1568 227H1648Q1638 106 1580 43T1419 -20ZM619 -20Q519 -20 437 7T295 81T204 191T172 325Q172 477 290 550T646
645L645 590Q446 568 348 505T250 323Q250 248 291 185T416 83T621 44Q753 44 861 100T1054 255T1202 479T1307 744L1368 712Q1324 568 1259 436T1103 202T892 40T619 -20Z" />
<glyph unicode="&apos;" horiz-adv-x="181" d="M50 1354H132L120 951H60L50 1354Z" />
<glyph unicode="(" horiz-adv-x="621" d="M519 1399L572 1368Q459 1256 383 1127T267 861T228 591Q228 391 315 187T572 -185L519 -220Q344 -53 245 161T146 591Q146 809 245 1021T519 1399Z" />
<glyph unicode=")" horiz-adv-x="621" d="M102 -220L48 -185Q218 -18 306 186T394 591Q394 724 355 860T238 1126T48 1368L102 1399Q276 1234 376 1022T476 591Q476 448 431 303T302 25T102 -220Z" />
<glyph unicode="*" horiz-adv-x="832" d="M182 813L371 1003L124 1094L160 1165L386 1053L375 1327H453L442 1053L668 1165L704 1091L457 1005L646 813L584 760L416 974L248 760L182 813Z" />
<glyph unicode="+" horiz-adv-x="1020" d="M475 982H545V521H983V461H545V0H475V461H36V521H475V982Z" />
<glyph unicode="," horiz-adv-x="328" d="M133 -163L72 -135Q120 -112 148 -84T183 -10Q152 -11 131 5T110 51Q110 74 126 93T171 112Q205 112 230 85T256 18Q256 -30 228 -79T133 -163Z" />
<glyph unicode="-" horiz-adv-x="644" d="M60 528V593H585V528H60Z" />
<glyph unicode="." horiz-adv-x="282" d="M72 47Q72 73 92 94T140 116Q168 116 189 95T210 47Q210 21 189 2T140 -18Q112 -18 92 1T72 47Z" />
<glyph unicode="/" horiz-adv-x="781" d="M122 -128L612 1433H688L194 -128H122Z" />
<glyph unicode="0" horiz-adv-x="1107" d="M553 -20Q418 -20 319 50T165 260T110 608Q110 815 164 953T318 1161T553 1231Q689 1231 788 1162T943 954T998 608Q998 400 943 261T789 51T553 -20ZM553 50Q738 50 829 197T920 608Q920 871 829 1017T553 1163Q372
1163 280 1017T188 608Q188 345 280 198T553 50Z" />
<glyph unicode="1" horiz-adv-x="608" d="M316 1213H388V0H314V1129Q271 1087 217 1065T108 1039V1115Q167 1126 221 1149T316 1213Z" />
<glyph unicode="2" horiz-adv-x="1107" d="M136 0V149Q136 258 174 327T276 441T416 517L646 611Q751 655 805 725T860 904Q860 1021 781 1092T565 1163Q425 1163 340 1110T242 948H158Q169 1033 218 1096T353 1195T565 1231Q676 1231 761 1187T895 1066T944 894Q944
800 909 732T815 617T687 540L447 440Q333 395 272 328T210 153V70H928V0H136Z" />
<glyph unicode="3" horiz-adv-x="1116" d="M561 -20Q475 -20 396 4T256 77T158 196T122 359H192Q192 255 243 187T378 84T561 50Q719 50 804 130T890 329Q890 404 854 464T737 559T519 594H407V655H452Q630 655 734 722T838 910Q838 1015 758 1089T537 1163Q434
1163 354 1121T238 960H169Q187 1061 240 1120T371 1205T539 1231Q648 1231 733 1190T868 1075T918 909Q918 810 859 743T692 635Q812 607 892 531T972 328Q972 227 924 149T784 25T561 -20Z" />
<glyph unicode="4" horiz-adv-x="1042" d="M712 1235H774V385H984V324H774V0H702V324H60V385L712 1235ZM702 1096L150 385H702V1096Z" />
<glyph unicode="5" horiz-adv-x="1093" d="M533 -20Q436 -20 347 17T201 129T146 311H216Q216 184 308 117T533 50Q694 50 780 145T866 379Q866 664 509 664H235L283 1213H895V1147H343L361 1186L315 695L295 709Q343 720 398 723T502 727Q709 727 827 643T946
379Q946 265 897 175T756 32T533 -20Z" />
<glyph unicode="6" horiz-adv-x="1074" d="M559 -20Q421 -20 320 61T165 279T110 585Q110 784 166 929T329 1152T591 1231Q686 1231 758 1194T875 1091T936 938H850Q831 1040 770 1101T591 1163Q401 1163 295 1001T188 557Q188 512 190 451T200 336Q202 480 253
562T384 680T556 715Q662 715 749 668T889 538T942 344Q942 235 894 153T759 26T559 -20ZM559 50Q693 50 776 128T860 341Q860 478 777 556T559 634Q471 634 403 595T297 490T258 341Q258 206 342 128T559 50Z" />
<glyph unicode="7" horiz-adv-x="882" d="M149 0L759 1147H48V1213H847V1153L244 0H149Z" />
<glyph unicode="8" horiz-adv-x="1163" d="M581 -20Q453 -20 349 25T183 148T122 326Q122 424 172 495T310 604T513 642Q527 642 545 642T577 640V607Q462 607 378 567T247 462T200 325Q200 235 249 174T385 82T581 50Q749 50 854 114T960 283Q960 369 901 422T741
510L420 632Q361 654 302 692T202 787T162 921Q162 1007 213 1077T358 1189T581 1231Q705 1231 797 1189T941 1073T992 907Q992 826 955 758T842 647T652 605Q636 605 620 606T585 611V643Q682 643 756 676T872 770T914 908Q914 979 872 1037T756 1129T581 1163Q484
1163 408 1130T288 1041T244 920Q244 834 302 785T457 701L766 585Q900 536 971 467T1042 283Q1042 194 987 126T829 19T581 -20Z" />
<glyph unicode="9" horiz-adv-x="1099" d="M541 -20Q428 -20 342 30T209 166T161 360H236Q238 218 316 134T541 50Q669 50 749 124T868 334T906 658Q906 706 904 745T894 836Q887 730 842 655T720 539T538 498Q436 498 350 546T211 679T159 872Q159 982 206 1062T340
1187T542 1231Q641 1231 723 1190T864 1070T956 882T988 634Q988 433 942 287T798 60T541 -20ZM540 579Q627 579 695 618T803 725T843 872Q843 1007 757 1086T542 1165Q406 1165 322 1086T237 872Q237 736 321 658T540 579Z" />
<glyph unicode=":" horiz-adv-x="381" d="M122 146Q122 172 142 193T190 215Q218 215 239 194T260 146Q260 120 239 101T190 81Q162 81 142 100T122 146ZM122 774Q122 800 142 821T190 843Q218 843 239 822T260 774Q260 748 239 729T190 709Q162 709 142 728T122 774Z" />
<glyph unicode=";" horiz-adv-x="426" d="M181 -163L120 -135Q168 -112 196 -84T231 -10Q200 -11 179 5T158 51Q158 74 174 93T219 112Q253 112 278 85T304 18Q304 -30 276 -79T181 -163ZM158 774Q158 800 178 821T226 843Q254 843 275 822T296 774Q296 748 275
729T226 709Q198 709 178 728T158 774Z" />
<glyph unicode="&lt;" horiz-adv-x="806" d="M665 1048L712 989L122 562V589L712 167L665 105L74 546V604L665 1048Z" />
<glyph unicode="=" horiz-adv-x="937" d="M158 339H777V277H158V339ZM158 686H777V620H158V686Z" />
<glyph unicode="&gt;" horiz-adv-x="806" d="M145 105L98 167L681 589V562L98 989L145 1048L736 604V546L145 105Z" />
<glyph unicode="?" horiz-adv-x="959" d="M358 250V351Q358 438 374 494T433 594T554 683Q625 723 670 757T737 835T759 944Q759 1037 682 1100T471 1163Q330 1163 256 1113T156 964H72Q89 1080 188 1155T474 1231Q588 1231 669 1190T793 1083T836 938Q836 836
784 769T612 634Q543 593 503 559T446 479T428 353V250H358ZM393 -20Q366 -20 346 0T326 46Q326 72 345 94T392 116Q419 116 441 95T464 47Q464 21 442 1T393 -20Z" />
<glyph unicode="@" horiz-adv-x="1697" d="M1037 -284Q833 -284 667 -229T382 -73T199 168T134 476Q134 635 190 772T351 1012T598 1173T913 1231Q1073 1231 1202 1182T1422 1045T1563 842T1612 595Q1612 488 1581 398T1497 240T1377 136T1236 99Q1162 99 1118
138T1074 251V279Q1041 207 979 153T818 99Q741 99 672 137T558 248T514 427Q514 518 547 597T639 735T770 827T921 860Q1026 860 1088 795T1151 598V251Q1151 199 1170 172T1235 145Q1303 145 1371 202T1486 362T1532 599Q1532 765 1455 893T1240 1095T917 1169Q755
1169 626 1113T404 959T263 734T214 466Q214 259 316 103T604 -139T1037 -226V-284ZM820 159Q909 159 968 216T1076 372V601Q1076 704 1041 751T931 799Q856 799 779 754T649 625T597 423Q597 299 659 229T820 159Z" />
<glyph unicode="A" horiz-adv-x="1044" d="M60 0L482 1213H563L983 0H905L783 365H265L136 0H60ZM284 430H759L521 1117L284 430Z" />
<glyph unicode="B" horiz-adv-x="1189" d="M218 0V1213H633Q759 1213 841 1169T965 1054T1006 901Q1006 795 948 714T764 607Q845 599 904 554T996 447T1028 324Q1028 258 1007 199T938 96T815 26T631 0H218ZM292 64H633Q806 64 879 138T952 325Q952 438 870 507T633
576H292V64ZM292 1151V637H631Q761 637 845 705T930 904Q930 1023 848 1087T633 1151H292Z" />
<glyph unicode="C" horiz-adv-x="1184" d="M618 -20Q457 -20 344 65T170 296T110 620Q110 818 178 954T362 1160T618 1231Q793 1231 909 1140T1083 904L1001 882Q955 1015 851 1091T618 1167Q506 1167 409 1104T251 919T190 620Q190 463 234 333T373 125T618 46Q789
46 895 138T1001 387H1087Q1087 263 1025 172T857 30T618 -20Z" />
<glyph unicode="D" horiz-adv-x="1266" d="M218 1213H533Q715 1213 846 1138T1047 927T1118 608Q1118 427 1048 290T846 77T533 0H218V1213ZM292 1153V58H533Q692 58 806 130T981 326T1042 608Q1042 765 981 888T806 1082T533 1153H292Z" />
<glyph unicode="E" horiz-adv-x="1074" d="M216 0V1213H929V1151H290V647H893V584H290V64H929V0H216Z" />
<glyph unicode="F" horiz-adv-x="1002" d="M218 0V1213H927V1151H292V655H893V591H292V0H218Z" />
<glyph unicode="G" horiz-adv-x="1220" d="M628 -20Q487 -20 369 52T181 259T110 585Q110 752 157 874T285 1075T467 1192T676 1231Q787 1231 884 1189T1072 1057L1021 1009Q936 1092 850 1127T676 1163Q546 1163 434 1094T254 895T186 585Q186 433 238 312T389
121T627 50Q726 50 804 96T928 243T974 502H1018Q1018 344 980 227T857 45T628 -20ZM996 0L974 306V502L633 516V577H1050V0H996Z" />
<glyph unicode="H" horiz-adv-x="1261" d="M218 1213H292V647H972V1213H1042V0H972V586H292V0H218V1213Z" />
<glyph unicode="I" horiz-adv-x="510" d="M218 0V1213H292V0H218Z" />
<glyph unicode="J" horiz-adv-x="725" d="M0 70V156Q61 110 126 81T261 52Q386 52 436 126T486 323V1213H558V323Q558 207 524 131T424 17T261 -20Q188 -20 125 5T0 70Z" />
<glyph unicode="K" horiz-adv-x="1120" d="M912 1213H1017L270 438V554L912 1213ZM478 689L1049 0H947L419 640L478 689ZM218 1213H294V0H218V1213Z" />
<glyph unicode="L" horiz-adv-x="881" d="M292 1213V64H879V0H218V1213H292Z" />
<glyph unicode="M" horiz-adv-x="1638" d="M218 1213H326L825 269H813L1313 1213H1420V0H1344V1164H1364L847 174H794L279 1156H292V0H218V1213Z" />
<glyph unicode="N" horiz-adv-x="1300" d="M218 1213H331L1018 68H1008V1213H1082V0H976L283 1156H292V0H218V1213Z" />
<glyph unicode="O" horiz-adv-x="1215" d="M609 -20Q470 -20 357 48T177 254T110 601Q110 813 177 953T357 1162T609 1231Q747 1231 859 1163T1039 954T1106 601Q1106 391 1039 253T860 48T609 -20ZM609 52Q805 52 916 190T1028 603Q1028 875 917 1020T609 1165Q413
1165 301 1020T188 601Q188 328 300 190T609 52Z" />
<glyph unicode="P" horiz-adv-x="1052" d="M216 0V1213H565Q760 1213 856 1112T952 852Q952 695 856 596T565 496H292V0H216ZM292 561H565Q717 561 796 637T876 852Q876 992 797 1071T565 1151H292V561Z" />
<glyph unicode="Q" horiz-adv-x="1232" d="M609 -20Q470 -20 357 48T177 254T110 601Q110 813 177 953T357 1162T609 1231Q747 1231 859 1163T1039 954T1106 601Q1106 391 1039 253T860 48T609 -20ZM963 -307Q885 -307 828 -270T714 -154L588 16L678 15L794 -137Q832
-185 865 -205T928 -227Q984 -227 1027 -212T1122 -169V-267Q1079 -286 1040 -296T963 -307ZM609 52Q805 52 916 190T1028 603Q1028 875 917 1020T609 1165Q413 1165 301 1020T188 601Q188 328 300 190T609 52Z" />
<glyph unicode="R" horiz-adv-x="1161" d="M218 0V1213H613Q810 1213 906 1117T1002 868Q1002 715 906 619T613 522H292V0H218ZM924 0L548 531H634L1018 0H924ZM292 583H614Q766 583 846 662T926 870Q926 1001 846 1076T613 1151H292V583Z" />
<glyph unicode="S" horiz-adv-x="1141" d="M569 -20Q453 -20 357 24T203 149T146 345H216Q216 244 265 179T394 82T567 50Q678 50 755 88T873 187T914 314Q914 409 856 471T692 565L504 618Q342 671 262 737T182 925Q182 1059 281 1145T571 1231Q737 1231 833
1156T946 964H872Q856 1062 779 1112T571 1163Q422 1163 342 1094T262 919Q262 835 312 786T473 701L708 631Q834 597 914 521T994 314Q994 231 946 155T804 29T569 -20Z" />
<glyph unicode="T" horiz-adv-x="937" d="M12 1151V1213H926V1151H487L504 1168V0H430V1168L447 1151H12Z" />
<glyph unicode="U" horiz-adv-x="1230" d="M182 1213H256V417Q256 224 353 137T611 50Q769 50 865 137T962 417V1213H1036V417Q1036 265 982 169T832 26T611 -20Q487 -20 390 26T238 168T182 417V1213Z" />
<glyph unicode="V" horiz-adv-x="1043" d="M513 72L926 1213H1008L558 0H484L36 1213H116L529 72H513Z" />
<glyph unicode="W" horiz-adv-x="1680" d="M36 1213H122L460 66H429L787 1038H838L1176 66H1142L1561 1213H1641L1199 0H1121L794 940H833L485 0H408L36 1213Z" />
<glyph unicode="X" horiz-adv-x="1197" d="M129 0L554 601L123 1213H206L603 656L984 1213H1076L642 601L1063 0H978L591 543L216 0H129Z" />
<glyph unicode="Y" horiz-adv-x="1019" d="M22 1213H116L527 550H493L904 1213H996L550 495V0H472V495L22 1213Z" />
<glyph unicode="Z" horiz-adv-x="1107" d="M146 0V74L932 1166V1137L146 1147V1213H1007V1137L222 54L203 76L1007 66V0H146Z" />
<glyph unicode="[" horiz-adv-x="558" d="M218 -120V1337H510V1277H292V-60H510V-120H218Z" />
<glyph unicode="\" horiz-adv-x="781" d="M98 1434L588 -127H664L170 1434H98Z" />
<glyph unicode="]" horiz-adv-x="462" d="M243 -120V1337H-49V1277H169V-60H-49V-120H243Z" />
<glyph unicode="^" horiz-adv-x="726" d="M44 545L347 1137H399L702 545H616L360 1067H386L134 545H44Z" />
<glyph unicode="_" horiz-adv-x="1360" d="M110 0V65H1254V0H110Z" />
<glyph unicode="`" horiz-adv-x="575" d="M425 1134L110 1445L170 1495L467 1166L425 1134Z" />
<glyph unicode="a" horiz-adv-x="1030" d="M784 0L774 183V614Q774 771 705 835T515 899Q448 899 389 880T293 818T256 700H168Q168 798 217 855T345 937T515 962Q609 962 684 928T803 818T848 614V0H784ZM450 -20Q339 -20 269 21T164 124T130 252Q130 354 179
413T306 498T474 524Q544 524 625 506T780 455V398Q716 428 629 446T473 465Q365 465 287 417T208 252Q208 164 265 104T449 43Q532 43 606 84T727 187T774 311H794Q794 225 750 149T629 27T450 -20Z" />
<glyph unicode="b" horiz-adv-x="1141" d="M597 -20Q496 -20 417 29T291 170T245 385H292Q292 272 336 196T451 82T599 44Q685 44 759 94T878 241T924 474Q924 610 879 704T759 849T597 899Q520 899 450 861T336 746T292 554H245Q245 679 291 770T417 912T599
962Q707 962 799 904T948 736T1005 474Q1005 322 949 211T799 40T597 -20ZM218 0V1356H292V208L283 0H218Z" />
<glyph unicode="c" horiz-adv-x="1004" d="M522 -20Q414 -20 320 40T168 211T110 474Q110 625 168 734T320 902T522 962Q589 962 645 944T746 891T825 811T881 709L801 687Q767 789 693 844T520 899Q435 899 360 849T237 705T190 474Q190 352 232 255T348 101T520
44Q652 44 726 110T801 297H881Q881 201 834 130T705 19T522 -20Z" />
<glyph unicode="d" horiz-adv-x="1141" d="M544 -20Q434 -20 341 40T191 211T134 474Q134 626 190 735T339 903T540 962Q642 962 722 912T848 771T894 554H849Q849 669 805 745T691 860T542 899Q457 899 382 849T261 705T214 474Q214 338 260 242T381 95T544 44Q618
44 688 82T803 196T849 385H894Q894 261 849 170T724 30T544 -20ZM856 0L849 208V1356H921V0H856Z" />
<glyph unicode="e" horiz-adv-x="993" d="M520 -20Q396 -20 304 43T161 217T110 466Q110 620 160 731T303 902T520 962Q621 962 690 921T802 809T864 649T883 464H173V528H846L800 498Q803 568 792 638T749 768T662 863T520 899Q408 899 334 841T223 692T186 500V466Q186
348 222 253T333 101T520 45Q637 45 710 103T797 274H881Q866 178 816 113T690 14T520 -20Z" />
<glyph unicode="f" horiz-adv-x="634" d="M266 0V1120Q266 1205 297 1260T385 1341T514 1368Q546 1368 579 1363T647 1344L633 1279Q599 1294 567 1300T505 1307Q469 1307 431 1294T365 1240T338 1120V0H266ZM98 883V942H557V883H98Z" />
<glyph unicode="g" horiz-adv-x="1093" d="M520 -482Q394 -482 296 -445T143 -343T87 -198Q87 -79 175 -19T407 42L405 -2Q287 -2 222 -55T157 -198Q157 -286 246 -352T520 -419Q659 -419 766 -381T934 -278T995 -140Q995 -86 953 -44T824 -2H405Q309 -2 249 25T161
95T132 186Q132 245 165 284T250 343T354 363L353 326Q322 326 288 311T229 264T205 185Q205 133 246 96T405 59H824Q940 59 1005 2T1071 -141Q1071 -223 1006 -301T818 -431T520 -482ZM564 260Q459 260 378 305T251 429T205 612Q205 715 251 793T378 917T564 962Q666
962 745 917T871 794T917 612Q917 509 871 430T746 305T564 260ZM562 318Q690 318 766 401T843 612Q843 738 767 818T564 899Q434 899 358 819T281 612Q281 485 357 402T562 318ZM847 814L808 811Q808 892 833 953T913 1050T1053 1085L1041 1004Q948 1004 898 958T847
814Z" />
<glyph unicode="h" horiz-adv-x="1167" d="M913 0V556Q913 722 833 810T611 899Q510 899 439 844T330 693T292 470H251Q251 615 292 725T415 899T625 962Q731 962 811 914T937 776T983 556V0H913ZM218 0V1356H292V0H218Z" />
<glyph unicode="i" horiz-adv-x="535" d="M255 1217Q229 1217 212 1235T194 1278Q194 1301 211 1316T255 1331Q284 1331 300 1316T316 1278Q316 1253 300 1235T255 1217ZM218 0V942H292V0H218Z" />
<glyph unicode="j" horiz-adv-x="583" d="M304 1217Q276 1217 262 1235T247 1278Q247 1301 261 1316T304 1331Q332 1331 348 1316T365 1278Q365 1253 349 1235T304 1217ZM63 -482Q3 -482 -60 -462T-193 -395L-180 -329Q-114 -369 -57 -393T66 -418Q161 -418 215
-351T269 -157V946H339V-157Q339 -329 259 -405T63 -482Z" />
<glyph unicode="k" horiz-adv-x="1070" d="M218 0V1356H292V0H218ZM277 493L838 942H952L277 407V493ZM878 0L404 590L494 591L972 0H878Z" />
<glyph unicode="l" horiz-adv-x="510" d="M218 0V1356H292V0H218Z" />
<glyph unicode="m" horiz-adv-x="1843" d="M1589 0V556Q1589 722 1510 810T1292 899Q1137 899 1060 784T983 489H937Q937 594 959 681T1027 830T1141 927T1303 962Q1410 962 1490 914T1616 776T1661 556V0H1589ZM218 0V942H279L288 723Q330 834 414 898T625 962Q731
962 811 914T937 776T983 556V0H913V556Q913 722 833 810T611 899Q510 899 439 844T330 693T292 470V0H218Z" />
<glyph unicode="n" horiz-adv-x="1167" d="M913 0V556Q913 722 833 810T611 899Q510 899 439 844T330 693T292 470H251Q251 615 292 725T415 899T625 962Q731 962 811 914T937 776T983 556V0H913ZM218 0V942H279L292 693V0H218Z" />
<glyph unicode="o" horiz-adv-x="1053" d="M528 -20Q403 -20 309 37T163 205T110 472Q110 628 162 737T309 904T528 962Q653 962 746 905T892 738T945 472Q945 315 893 205T747 38T528 -20ZM528 44Q645 44 720 98T831 250T867 472Q867 660 785 779T527 899Q410
899 336 845T226 694T190 472Q190 284 271 164T528 44Z" />
<glyph unicode="p" horiz-adv-x="1117" d="M599 -20Q496 -20 417 30T292 171T247 388H292Q292 275 336 198T450 83T598 44Q683 44 757 94T878 241T924 474Q924 610 879 704T759 849T597 899Q521 899 451 861T337 746T292 556H247Q247 681 292 772T416 912T597
962Q706 962 799 903T948 735T1005 474Q1005 320 948 210T799 40T599 -20ZM218 -466V942H283L292 734V-466H218Z" />
<glyph unicode="q" horiz-adv-x="1117" d="M520 -20Q411 -20 318 39T167 209T110 474Q110 625 167 734T318 903T520 962Q622 962 701 913T826 772T872 556H824Q824 670 779 746T664 860T517 899Q432 899 358 849T237 705T190 474Q190 338 236 242T356 95T517 44Q595
44 665 82T779 196T824 388H870Q870 264 825 173T700 31T520 -20ZM1017 -482Q908 -447 866 -377T824 -173V734L835 942H894V-174Q894 -251 908 -296T957 -367T1053 -415L1017 -482Z" />
<glyph unicode="r" horiz-adv-x="659" d="M218 0V942H292V0H218ZM255 438Q255 611 282 727T371 901T538 960Q577 960 609 954T675 936L659 866Q629 878 592 887T528 896Q436 896 385 837T313 674T292 438H255Z" />
<glyph unicode="s" horiz-adv-x="1047" d="M544 -20Q406 -20 321 20T194 127T147 272H227Q233 160 316 103T544 45Q618 45 682 70T787 139T828 240Q828 311 775 351T606 421L447 464Q318 499 251 565T183 724Q183 832 275 897T512 962Q676 962 768 900T867 746H783Q770
825 701 862T512 899Q391 899 325 842T259 720Q259 590 482 531L631 490Q765 454 834 395T903 240Q903 173 861 114T739 17T544 -20Z" />
<glyph unicode="t" horiz-adv-x="714" d="M478 -20Q408 -20 356 8T274 90T245 221V1216H315V221Q315 45 477 45Q524 45 566 55T660 85L669 28Q623 6 575 -7T478 -20ZM72 883V942H655V883H72Z" />
<glyph unicode="u" horiz-adv-x="1167" d="M873 942H947V0H873V942ZM182 942H256V346Q256 200 326 123T533 46Q644 46 719 106T834 264T873 474H924Q924 330 877 219T742 45T532 -18Q420 -18 342 24T223 148T182 346V942Z" />
<glyph unicode="v" horiz-adv-x="971" d="M48 942H130L500 64H474L843 942H925L522 0H451L48 942Z" />
<glyph unicode="w" horiz-adv-x="1380" d="M48 942H124L403 80H387L666 902H710L985 78H973L1252 942H1326L1018 0H948L681 770H693L426 0H358L48 942Z" />
<glyph unicode="x" horiz-adv-x="937" d="M73 0L418 472L73 942H160L471 528L774 942H863L512 472L859 0H770L463 417L160 0H73Z" />
<glyph unicode="y" horiz-adv-x="853" d="M50 942H128L495 64H465L728 942H806L458 -208Q426 -323 360 -402T179 -482Q122 -482 75 -462T-24 -406V-327Q27 -376 75 -397T178 -418Q251 -418 296 -367T370 -242T418 -98L444 0L50 942Z" />
<glyph unicode="z" horiz-adv-x="907" d="M98 0V58L723 881H98V942H813V881L188 58H813V0H98Z" />
<glyph unicode="{" horiz-adv-x="608" d="M584 -239Q457 -239 385 -183T284 -28T254 192V374Q254 466 235 505T176 544H158V608H176Q215 608 234 648T254 778V962Q254 1087 283 1185T385 1341T584 1398V1336Q437 1336 382 1237T326 963V783Q326 693 306 646T251
579V577Q286 558 306 511T326 374V194Q326 20 381 -79T584 -179V-239Z" />
<glyph unicode="|" horiz-adv-x="510" d="M218 -244V1459H292V-244H218Z" />
<glyph unicode="}" horiz-adv-x="608" d="M24 -239Q151 -239 223 -183T324 -28T354 192V374Q354 466 373 505T432 544H450V608H432Q393 608 374 648T354 778V962Q354 1087 325 1185T223 1341T24 1398V1336Q171 1336 226 1237T282 963V783Q282 693 302 646T357
579V577Q322 558 302 511T282 374V194Q282 20 227 -79T24 -179V-239Z" />
<glyph unicode="~" horiz-adv-x="916" d="M143 485L98 508Q130 595 176 633T269 671Q297 671 335 659T452 615Q546 578 581 569T642 559Q678 559 713 588T776 677L817 650Q786 559 740 522T641 485Q614 485 570 498T449 541Q361 576 326 587T263 599Q233 599 203
575T143 485Z" />
<glyph unicode="&#xa0;" horiz-adv-x="443" />
<glyph unicode="&#xa1;" horiz-adv-x="523" d="M239 894L225 -18H298L287 894H239ZM261 1176Q233 1176 213 1157T193 1111Q193 1085 213 1064T261 1042Q289 1042 309 1063T330 1111Q330 1137 310 1156T261 1176Z" />
<glyph unicode="&#xa2;" horiz-adv-x="992" d="M488 -204V-7H561V-204H488ZM488 944V1109H561V944H488ZM522 -20Q414 -20 320 40T168 211T110 474Q110 625 168 734T320 902T522 962Q589 962 645 944T746 891T825 811T881 709L801 687Q767 789 693 844T520 899Q435
899 360 849T237 705T190 474Q190 352 232 255T348 101T520 44Q652 44 726 110T801 297H881Q881 201 834 130T705 19T522 -20Z" />
<glyph unicode="&#xa3;" horiz-adv-x="1053" d="M84 35V58Q164 58 203 104T242 244V839Q242 955 273 1043T376 1181T569 1231Q682 1231 765 1168T872 982H798Q780 1079 715 1121T569 1163Q448 1163 382 1086T316 839V244Q316 130 270 83T84 35ZM36 0V58H702Q795
58 842 103T906 242H980Q967 136 907 68T700 0H36ZM44 505V566H699V505H44Z" />
<glyph unicode="&#xa4;" horiz-adv-x="1200" d="M600 236Q493 236 405 288T265 430T212 628Q212 733 264 820T405 959T600 1011Q707 1011 794 959T934 820T986 628Q986 519 934 430T795 289T600 236ZM600 317Q684 317 753 358T865 470T907 628Q907 712 865 781T754
890T600 931Q515 931 445 891T334 781T293 628Q293 541 334 471T445 359T600 317ZM872 841L813 900L974 1057L1033 1000L872 841ZM328 841L167 998L224 1057L385 900L328 841ZM872 411L1033 254L976 190L815 352L872 411ZM328 411L385 352L224 190L167 254L328
411Z" />
<glyph unicode="&#xa5;" horiz-adv-x="1019" d="M472 0V495L22 1213H116L527 550H493L904 1213H996L550 495V0H472ZM183 235V298H837V235H183ZM183 416V480H837V416H183Z" />
<glyph unicode="&#xa6;" horiz-adv-x="510" d="M218 669V1459H292V669H218ZM218 -244V546H292V-244H218Z" />
<glyph unicode="&#xa7;" horiz-adv-x="1200" d="M649 385Q723 385 787 410T892 480T933 585Q933 652 878 691T711 761L552 804Q423 839 356 905T288 1063Q288 1172 379 1237T624 1302Q778 1302 872 1240T972 1086H888Q876 1166 803 1202T631 1239Q492 1239 428
1182T364 1057Q364 932 587 871L736 830Q870 793 939 734T1008 584Q1008 514 966 454T844 357T649 320V385ZM557 805Q437 805 371 746T304 616Q304 491 527 430L676 389Q810 352 879 293T948 142Q948 74 908 14T785 -84T579 -121Q450 -121 366 -81T239 27T192 171H272Q276
62 360 3T575 -56Q704 -56 788 -1T873 143Q873 213 816 252T651 320L492 363Q362 398 295 464T228 623Q228 736 320 803T557 870V805Z" />
<glyph unicode="&#xa8;" horiz-adv-x="637" d="M460 1136Q432 1136 413 1154T393 1200Q393 1226 412 1247T460 1269Q488 1269 508 1248T529 1200Q529 1173 509 1155T460 1136ZM177 1136Q149 1136 130 1154T110 1198Q110 1226 129 1246T178 1267Q206 1267 226 1247T246
1198Q246 1173 226 1155T177 1136Z" />
<glyph unicode="&#xa9;" horiz-adv-x="1336" d="M668 -12Q540 -12 428 36T230 169T96 367T48 608Q48 736 96 848T229 1046T427 1180T668 1228Q796 1228 908 1180T1106 1047T1240 849T1288 608Q1288 480 1240 368T1107 170T909 36T668 -12ZM668 35Q787 35 890 79T1073
203T1196 386T1241 608Q1241 727 1197 830T1073 1013T891 1136T668 1181Q550 1181 446 1137T263 1013T140 831T95 608Q95 490 139 386T263 203T446 80T668 35ZM665 214Q564 214 492 268T382 413T344 618Q344 743 387 828T504 958T665 1003Q775 1003 848 946T958
797L906 783Q877 867 812 915T665 963Q595 963 533 923T433 807T395 618Q395 520 423 438T510 306T665 256Q772 256 839 314T906 471H960Q960 353 875 284T665 214Z" />
<glyph unicode="&#xaa;" horiz-adv-x="1030" d="M784 0L774 183V614Q774 771 705 835T515 899Q448 899 389 880T293 818T256 700H168Q168 798 217 855T345 937T515 962Q609 962 684 928T803 818T848 614V0H784ZM450 -20Q339 -20 269 21T164 124T130 252Q130 354
179 413T306 498T474 524Q544 524 625 506T780 455V398Q716 428 629 446T473 465Q365 465 287 417T208 252Q208 164 265 104T449 43Q532 43 606 84T727 187T774 311H794Q794 225 750 149T629 27T450 -20Z" />
<glyph unicode="&#xab;" horiz-adv-x="1038" d="M182 495L590 918L515 946L110 520L515 94L590 122L182 545V495ZM522 495L930 918L855 946L450 520L855 94L930 122L522 545V495Z" />
<glyph unicode="&#xac;" horiz-adv-x="1200" d="M240 591H897V289H825V567L853 530H240V591Z" />
<glyph unicode="&#xad;" horiz-adv-x="1200" d="M60 528V593H585V528H60Z" />
<glyph unicode="&#xae;" horiz-adv-x="1336" d="M668 -12Q540 -12 428 36T230 169T96 367T48 608Q48 736 96 848T229 1046T427 1180T668 1228Q796 1228 908 1180T1106 1047T1240 849T1288 608Q1288 480 1240 368T1107 170T909 36T668 -12ZM668 35Q787 35 890 79T1073
203T1196 386T1241 608Q1241 727 1197 830T1073 1013T891 1136T668 1181Q550 1181 446 1137T263 1013T140 831T95 608Q95 490 139 386T263 203T446 80T668 35ZM885 243L660 562H711L942 243H885ZM462 243V971H699Q817 971 874 914T932 764Q932 672 875 614T699
556H506V243H462ZM506 593H699Q790 593 838 640T887 765Q887 843 839 888T699 934H506V593Z" />
<glyph unicode="&#xaf;" horiz-adv-x="774" d="M110 1233H666V1167H110V1233Z" />
<glyph unicode="&#xb0;" horiz-adv-x="583" d="M292 940Q228 940 176 971T92 1055T60 1172Q60 1236 91 1288T175 1371T292 1403Q356 1403 408 1372T491 1288T523 1172Q523 1108 492 1056T408 972T292 940ZM292 1000Q362 1000 412 1050T462 1172Q462 1242 412 1292T292
1342Q221 1342 171 1292T120 1172Q120 1101 170 1051T292 1000Z" />
<glyph unicode="&#xb1;" horiz-adv-x="937" d="M430 1001H505V642H844V583H505V223H430V583H91V642H430V1001ZM140 61H797V0H140V61Z" />
<glyph unicode="&#xb2;" horiz-adv-x="786" d="M136 489V579Q136 644 159 686T220 754T305 800L443 857Q506 884 539 926T572 1034Q572 1104 525 1147T394 1190Q310 1190 259 1158T200 1060H149Q156 1111 185 1149T267 1209T394 1231Q461 1231 512 1204T593 1131T623
1028Q623 971 602 930T545 861T468 814L323 754Q255 727 218 687T181 581V531H613V489H136Z" />
<glyph unicode="&#xb3;" horiz-adv-x="779" d="M387 477Q335 477 288 491T203 535T144 607T122 705H165Q165 643 195 602T276 540T387 519Q482 519 533 567T585 687Q585 732 564 768T493 826T362 847H294V884H321Q429 884 491 924T554 1037Q554 1100 506 1145T372
1190Q310 1190 262 1165T192 1067H151Q162 1128 194 1163T272 1215T374 1231Q439 1231 490 1206T572 1137T602 1037Q602 977 567 937T466 872Q538 855 586 809T635 687Q635 626 606 579T522 504T387 477Z" />
<glyph unicode="&#xb4;" horiz-adv-x="575" d="M152 1134L110 1166L407 1495L467 1445L152 1134Z" />
<glyph unicode="&#xb5;" horiz-adv-x="1167" d="M873 942H947V0H873V942ZM182 942H256V346Q256 200 326 123T533 46Q644 46 719 106T834 264T873 474H924Q924 330 877 219T742 45T532 -18Q420 -18 342 24T223 148T182 346V942ZM182 -414V942H256V-414H182Z" />
<glyph unicode="&#xb6;" horiz-adv-x="1200" d="M539 496Q344 496 248 595T152 853Q152 1010 248 1111T539 1213H856V1151H596V496H539ZM572 -252V1213H638V-252H572ZM822 -252V1213H888V-252H822Z" />
<glyph unicode="&#xb7;" horiz-adv-x="282" d="M72 487Q72 513 92 534T140 556Q168 556 189 535T210 487Q210 461 189 442T140 422Q112 422 92 441T72 487Z" />
<glyph unicode="&#xb8;" horiz-adv-x="620" d="M110 -344L131 -296Q212 -343 277 -349T382 -334T424 -272Q427 -230 391 -200T303 -150T209 -121L273 33L347 31L284 -118L243 -65Q326 -89 388 -117T483 -183T512 -271Q508 -328 465 -361T358 -403T228 -398T110 -344Z" />
<glyph unicode="&#xb9;" horiz-adv-x="497" d="M233 1213H277V482H232V1162Q206 1137 174 1124T108 1108V1154Q144 1160 176 1174T233 1213Z" />
<glyph unicode="&#xba;" horiz-adv-x="1053" d="M528 -20Q403 -20 309 37T163 205T110 472Q110 628 162 737T309 904T528 962Q653 962 746 905T892 738T945 472Q945 315 893 205T747 38T528 -20ZM528 44Q645 44 720 98T831 250T867 472Q867 660 785 779T527 899Q410
899 336 845T226 694T190 472Q190 284 271 164T528 44Z" />
<glyph unicode="&#xbb;" horiz-adv-x="1038" d="M858 495L450 918L525 946L930 520L525 94L450 122L858 545V495ZM518 495L110 918L185 946L590 520L185 94L110 122L518 545V495Z" />
<glyph unicode="&#xbc;" horiz-adv-x="1694" d="M234 1331H277V600H232V1280Q206 1255 174 1242T108 1226V1272Q143 1278 176 1292T234 1331ZM255 -10L1183 1317H1241L310 -10H255ZM1472 744H1509V232H1636V195H1509V0H1466V195H1079V232L1472 744ZM1466 660L1134
232H1466V660Z" />
<glyph unicode="&#xbd;" horiz-adv-x="1805" d="M234 1331H277V600H232V1280Q206 1255 174 1242T108 1226V1272Q143 1278 176 1292T234 1331ZM255 -10L1183 1317H1241L310 -10H255ZM1155 0V90Q1155 188 1205 235T1324 311L1462 368Q1526 394 1558 436T1591 545Q1591
616 1544 658T1414 701Q1329 701 1278 669T1219 571H1169Q1176 622 1205 660T1286 720T1414 742Q1481 742 1532 715T1612 643T1642 539Q1642 454 1596 403T1487 325L1343 265Q1274 238 1237 198T1200 92V42H1632V0H1155Z" />
<glyph unicode="&#xbe;" horiz-adv-x="1975" d="M386 580Q317 580 257 606T160 684T122 808H164Q164 714 230 668T386 622Q482 622 533 670T585 790Q585 858 535 904T361 950H294V987H321Q428 987 490 1027T553 1140Q553 1204 505 1248T372 1293Q310 1293 262
1268T192 1170H150Q167 1261 229 1297T373 1334Q471 1334 536 1279T601 1140Q601 1080 566 1040T465 975Q538 958 586 912T634 790Q634 699 570 640T386 580ZM536 -10L1464 1317H1522L591 -10H536ZM1753 744H1790V232H1917V195H1790V0H1747V195H1360V232L1753 744ZM1747
660L1415 232H1747V660Z" />
<glyph unicode="&#xbf;" horiz-adv-x="959" d="M550 906V805Q550 718 534 662T475 562T354 473Q283 433 238 399T171 321T149 212Q149 119 226 56T437 -7Q578 -7 652 43T752 192H836Q819 76 720 1T434 -75Q320 -75 239 -34T115 73T72 218Q72 320 124 387T296 522Q365
563 405 597T462 677T480 803V906H550ZM515 1176Q542 1176 562 1156T582 1110Q582 1084 563 1062T516 1040Q489 1040 467 1061T444 1109Q444 1135 466 1155T515 1176Z" />
<glyph unicode="&#xc0;" horiz-adv-x="1044" d="M60 0L482 1213H563L983 0H905L783 365H265L136 0H60ZM284 430H759L521 1117L284 430ZM667 1407L352 1718L412 1768L709 1439L667 1407Z" />
<glyph unicode="&#xc1;" horiz-adv-x="1044" d="M60 0L482 1213H563L983 0H905L783 365H265L136 0H60ZM284 430H759L521 1117L284 430ZM468 1398L426 1430L723 1759L783 1709L468 1398Z" />
<glyph unicode="&#xc2;" horiz-adv-x="1044" d="M60 0L482 1213H563L983 0H905L783 365H265L136 0H60ZM284 430H759L521 1117L284 430ZM292 1336L243 1373L521 1689L798 1373L753 1336L509 1612H533L292 1336Z" />
<glyph unicode="&#xc3;" horiz-adv-x="1044" d="M60 0L482 1213H563L983 0H905L783 365H265L136 0H60ZM284 430H759L521 1117L284 430ZM272 1372L239 1396Q263 1475 299 1513T380 1551Q403 1551 428 1543T526 1497Q598 1459 620 1450T664 1441Q693 1441 721 1467T770
1551L805 1525Q789 1472 768 1438T721 1388T666 1372Q642 1372 611 1383T506 1432Q443 1464 422 1472T380 1480Q350 1480 323 1456T272 1372Z" />
<glyph unicode="&#xc4;" horiz-adv-x="1044" d="M60 0L482 1213H563L983 0H905L783 365H265L136 0H60ZM284 430H759L521 1117L284 430ZM662 1409Q634 1409 615 1427T595 1473Q595 1499 614 1520T662 1542Q690 1542 710 1521T731 1473Q731 1446 711 1428T662 1409ZM379
1409Q351 1409 332 1427T312 1471Q312 1499 331 1519T380 1540Q408 1540 428 1520T448 1471Q448 1446 428 1428T379 1409Z" />
<glyph unicode="&#xc5;" horiz-adv-x="1044" d="M60 0L482 1213H563L983 0H905L783 365H265L136 0H60ZM284 430H759L521 1117L284 430ZM522 1333Q478 1333 441 1355T382 1414T360 1495Q360 1540 382 1576T441 1635T522 1657Q567 1657 603 1635T662 1577T684 1495Q684
1451 662 1414T604 1355T522 1333ZM522 1398Q563 1398 591 1426T619 1495Q619 1536 591 1564T522 1592Q482 1592 454 1564T425 1495Q425 1455 453 1427T522 1398Z" />
<glyph unicode="&#xc6;" horiz-adv-x="1593" d="M1448 1213V1151H815L832 1168V616L815 635H1412V572H815L832 590V37L815 65H1448V0H758V382L775 365H323L363 376L218 0H142L611 1213H1448ZM776 430L758 403V1168L775 1151H635L670 1169L380 419L371 430H776Z" />
<glyph unicode="&#xc7;" horiz-adv-x="1184" d="M618 -20Q457 -20 344 65T170 296T110 620Q110 818 178 954T362 1160T618 1231Q793 1231 909 1140T1083 904L1001 882Q955 1015 851 1091T618 1167Q506 1167 409 1104T251 919T190 620Q190 463 234 333T373 125T618
46Q789 46 895 138T1001 387H1087Q1087 263 1025 172T857 30T618 -20ZM434 -344L455 -296Q536 -343 601 -349T706 -334T748 -272Q751 -230 715 -200T627 -150T533 -121L597 33L671 31L608 -118L567 -65Q650 -89 712 -117T807 -183T836 -271Q832 -328 789 -361T682
-403T552 -398T434 -344Z" />
<glyph unicode="&#xc8;" horiz-adv-x="1074" d="M216 0V1213H929V1151H290V647H893V584H290V64H929V0H216ZM682 1407L367 1718L427 1768L724 1439L682 1407Z" />
<glyph unicode="&#xc9;" horiz-adv-x="1074" d="M216 0V1213H929V1151H290V647H893V584H290V64H929V0H216ZM483 1398L441 1430L738 1759L798 1709L483 1398Z" />
<glyph unicode="&#xca;" horiz-adv-x="1074" d="M216 0V1213H929V1151H290V647H893V584H290V64H929V0H216ZM307 1336L258 1373L536 1689L813 1373L768 1336L524 1612H548L307 1336Z" />
<glyph unicode="&#xcb;" horiz-adv-x="1074" d="M216 0V1213H929V1151H290V647H893V584H290V64H929V0H216ZM677 1409Q649 1409 630 1427T610 1473Q610 1499 629 1520T677 1542Q705 1542 725 1521T746 1473Q746 1446 726 1428T677 1409ZM394 1409Q366 1409 347
1427T327 1471Q327 1499 346 1519T395 1540Q423 1540 443 1520T463 1471Q463 1446 443 1428T394 1409Z" />
<glyph unicode="&#xcc;" horiz-adv-x="510" d="M218 0V1213H292V0H218ZM400 1407L85 1718L145 1768L442 1439L400 1407Z" />
<glyph unicode="&#xcd;" horiz-adv-x="510" d="M218 0V1213H292V0H218ZM201 1398L159 1430L456 1759L516 1709L201 1398Z" />
<glyph unicode="&#xce;" horiz-adv-x="510" d="M218 0V1213H292V0H218ZM25 1336L-24 1373L254 1689L531 1373L486 1336L242 1612H266L25 1336Z" />
<glyph unicode="&#xcf;" horiz-adv-x="510" d="M218 0V1213H292V0H218ZM395 1409Q367 1409 348 1427T328 1473Q328 1499 347 1520T395 1542Q423 1542 443 1521T464 1473Q464 1446 444 1428T395 1409ZM112 1409Q84 1409 65 1427T45 1471Q45 1499 64 1519T113 1540Q141
1540 161 1520T181 1471Q181 1446 161 1428T112 1409Z" />
<glyph unicode="&#xd0;" horiz-adv-x="1266" d="M44 638H660V575H44V638ZM218 1213H533Q715 1213 846 1138T1047 927T1118 608Q1118 427 1048 290T846 77T533 0H218V1213ZM292 1153V58H533Q692 58 806 130T981 326T1042 608Q1042 765 981 888T806 1082T533 1153H292Z" />
<glyph unicode="&#xd1;" horiz-adv-x="1300" d="M218 1213H331L1018 68H1008V1213H1082V0H976L283 1156H292V0H218V1213ZM400 1372L367 1396Q391 1475 427 1513T508 1551Q531 1551 556 1543T654 1497Q726 1459 748 1450T792 1441Q821 1441 849 1467T898 1551L933
1525Q917 1472 896 1438T849 1388T794 1372Q770 1372 739 1383T634 1432Q571 1464 550 1472T508 1480Q478 1480 451 1456T400 1372Z" />
<glyph unicode="&#xd2;" horiz-adv-x="1215" d="M609 -20Q470 -20 357 48T177 254T110 601Q110 813 177 953T357 1162T609 1231Q747 1231 859 1163T1039 954T1106 601Q1106 391 1039 253T860 48T609 -20ZM609 52Q805 52 916 190T1028 603Q1028 875 917 1020T609
1165Q413 1165 301 1020T188 601Q188 328 300 190T609 52ZM763 1407L448 1718L508 1768L805 1439L763 1407Z" />
<glyph unicode="&#xd3;" horiz-adv-x="1215" d="M609 -20Q470 -20 357 48T177 254T110 601Q110 813 177 953T357 1162T609 1231Q747 1231 859 1163T1039 954T1106 601Q1106 391 1039 253T860 48T609 -20ZM609 52Q805 52 916 190T1028 603Q1028 875 917 1020T609
1165Q413 1165 301 1020T188 601Q188 328 300 190T609 52ZM564 1398L522 1430L819 1759L879 1709L564 1398Z" />
<glyph unicode="&#xd4;" horiz-adv-x="1215" d="M609 -20Q470 -20 357 48T177 254T110 601Q110 813 177 953T357 1162T609 1231Q747 1231 859 1163T1039 954T1106 601Q1106 391 1039 253T860 48T609 -20ZM609 52Q805 52 916 190T1028 603Q1028 875 917 1020T609
1165Q413 1165 301 1020T188 601Q188 328 300 190T609 52ZM388 1336L339 1373L617 1689L894 1373L849 1336L605 1612H629L388 1336Z" />
<glyph unicode="&#xd5;" horiz-adv-x="1215" d="M609 -20Q470 -20 357 48T177 254T110 601Q110 813 177 953T357 1162T609 1231Q747 1231 859 1163T1039 954T1106 601Q1106 391 1039 253T860 48T609 -20ZM609 52Q805 52 916 190T1028 603Q1028 875 917 1020T609
1165Q413 1165 301 1020T188 601Q188 328 300 190T609 52ZM368 1372L335 1396Q359 1475 395 1513T476 1551Q499 1551 524 1543T622 1497Q694 1459 716 1450T760 1441Q789 1441 817 1467T866 1551L901 1525Q885 1472 864 1438T817 1388T762 1372Q738 1372 707 1383T602
1432Q539 1464 518 1472T476 1480Q446 1480 419 1456T368 1372Z" />
<glyph unicode="&#xd6;" horiz-adv-x="1215" d="M609 -20Q470 -20 357 48T177 254T110 601Q110 813 177 953T357 1162T609 1231Q747 1231 859 1163T1039 954T1106 601Q1106 391 1039 253T860 48T609 -20ZM609 52Q805 52 916 190T1028 603Q1028 875 917 1020T609
1165Q413 1165 301 1020T188 601Q188 328 300 190T609 52ZM758 1409Q730 1409 711 1427T691 1473Q691 1499 710 1520T758 1542Q786 1542 806 1521T827 1473Q827 1446 807 1428T758 1409ZM475 1409Q447 1409 428 1427T408 1471Q408 1499 427 1519T476 1540Q504 1540
524 1520T544 1471Q544 1446 524 1428T475 1409Z" />
<glyph unicode="&#xd7;" horiz-adv-x="1021" d="M199 131L150 181L459 494L150 800L199 851L512 542L820 851L871 800L560 494L871 181L820 131L512 439L199 131Z" />
<glyph unicode="&#xd8;" horiz-adv-x="1215" d="M125 0L1012 1216H1087L197 0H125ZM607 -20Q468 -20 355 48T175 254T108 601Q108 813 175 953T355 1162T607 1231Q745 1231 857 1163T1037 954T1104 601Q1104 391 1037 253T858 48T607 -20ZM607 52Q803 52 914 190T1026
603Q1026 875 915 1020T607 1165Q411 1165 299 1020T186 601Q186 328 298 190T607 52Z" />
<glyph unicode="&#xd9;" horiz-adv-x="1230" d="M182 1213H256V417Q256 224 353 137T611 50Q769 50 865 137T962 417V1213H1036V417Q1036 265 982 169T832 26T611 -20Q487 -20 390 26T238 168T182 417V1213ZM760 1407L445 1718L505 1768L802 1439L760 1407Z" />
<glyph unicode="&#xda;" horiz-adv-x="1230" d="M182 1213H256V417Q256 224 353 137T611 50Q769 50 865 137T962 417V1213H1036V417Q1036 265 982 169T832 26T611 -20Q487 -20 390 26T238 168T182 417V1213ZM561 1398L519 1430L816 1759L876 1709L561 1398Z" />
<glyph unicode="&#xdb;" horiz-adv-x="1230" d="M182 1213H256V417Q256 224 353 137T611 50Q769 50 865 137T962 417V1213H1036V417Q1036 265 982 169T832 26T611 -20Q487 -20 390 26T238 168T182 417V1213ZM385 1336L336 1373L614 1689L891 1373L846 1336L602
1612H626L385 1336Z" />
<glyph unicode="&#xdc;" horiz-adv-x="1230" d="M182 1213H256V417Q256 224 353 137T611 50Q769 50 865 137T962 417V1213H1036V417Q1036 265 982 169T832 26T611 -20Q487 -20 390 26T238 168T182 417V1213ZM755 1409Q727 1409 708 1427T688 1473Q688 1499 707
1520T755 1542Q783 1542 803 1521T824 1473Q824 1446 804 1428T755 1409ZM472 1409Q444 1409 425 1427T405 1471Q405 1499 424 1519T473 1540Q501 1540 521 1520T541 1471Q541 1446 521 1428T472 1409Z" />
<glyph unicode="&#xdd;" horiz-adv-x="1019" d="M22 1213H116L527 550H493L904 1213H996L550 495V0H472V495L22 1213ZM456 1398L414 1430L711 1759L771 1709L456 1398Z" />
<glyph unicode="&#xde;" horiz-adv-x="1052" d="M216 0V1213H292V986L275 1003H565Q760 1003 856 902T952 642Q952 485 856 386T565 286H275L292 303V0H216ZM292 334L275 351H565Q717 351 796 427T876 642Q876 782 797 861T565 941H275L292 958V334Z" />
<glyph unicode="&#xdf;" horiz-adv-x="1156" d="M887 1076Q887 1000 856 950T784 864T712 795T680 718Q680 675 713 643T796 579T895 509T978 412T1012 271Q1012 189 977 123T879 17T732 -22Q676 -22 601 -4T470 42L475 121Q525 81 595 60T724 38Q799 38 846 70T916
151T938 254Q938 326 905 376T822 465T724 539T641 615T607 712Q607 767 638 806T710 882T782 963T813 1075Q813 1158 752 1222T560 1287Q433 1287 362 1208T290 940V0H218V940Q218 1062 255 1154T370 1297T571 1348Q684 1348 753 1308T855 1206T887 1076Z" />
<glyph unicode="&#xe0;" horiz-adv-x="1030" d="M784 0L774 183V614Q774 771 705 835T515 899Q448 899 389 880T293 818T256 700H168Q168 798 217 855T345 937T515 962Q609 962 684 928T803 818T848 614V0H784ZM450 -20Q339 -20 269 21T164 124T130 252Q130 354
179 413T306 498T474 524Q544 524 625 506T780 455V398Q716 428 629 446T473 465Q365 465 287 417T208 252Q208 164 265 104T449 43Q532 43 606 84T727 187T774 311H794Q794 225 750 149T629 27T450 -20ZM660 1134L345 1445L405 1495L702 1166L660 1134Z" />
<glyph unicode="&#xe1;" horiz-adv-x="1030" d="M784 0L774 183V614Q774 771 705 835T515 899Q448 899 389 880T293 818T256 700H168Q168 798 217 855T345 937T515 962Q609 962 684 928T803 818T848 614V0H784ZM450 -20Q339 -20 269 21T164 124T130 252Q130 354
179 413T306 498T474 524Q544 524 625 506T780 455V398Q716 428 629 446T473 465Q365 465 287 417T208 252Q208 164 265 104T449 43Q532 43 606 84T727 187T774 311H794Q794 225 750 149T629 27T450 -20ZM461 1125L419 1157L716 1486L776 1436L461 1125Z" />
<glyph unicode="&#xe2;" horiz-adv-x="1030" d="M784 0L774 183V614Q774 771 705 835T515 899Q448 899 389 880T293 818T256 700H168Q168 798 217 855T345 937T515 962Q609 962 684 928T803 818T848 614V0H784ZM450 -20Q339 -20 269 21T164 124T130 252Q130 354
179 413T306 498T474 524Q544 524 625 506T780 455V398Q716 428 629 446T473 465Q365 465 287 417T208 252Q208 164 265 104T449 43Q532 43 606 84T727 187T774 311H794Q794 225 750 149T629 27T450 -20ZM285 1319L236 1356L514 1672L791 1356L746 1319L502 1595H526L285
1319Z" />
<glyph unicode="&#xe3;" horiz-adv-x="1030" d="M784 0L774 183V614Q774 771 705 835T515 899Q448 899 389 880T293 818T256 700H168Q168 798 217 855T345 937T515 962Q609 962 684 928T803 818T848 614V0H784ZM450 -20Q339 -20 269 21T164 124T130 252Q130 354
179 413T306 498T474 524Q544 524 625 506T780 455V398Q716 428 629 446T473 465Q365 465 287 417T208 252Q208 164 265 104T449 43Q532 43 606 84T727 187T774 311H794Q794 225 750 149T629 27T450 -20ZM265 1099L232 1123Q256 1202 292 1240T373 1278Q396 1278
421 1270T519 1224Q591 1186 613 1177T657 1168Q686 1168 714 1194T763 1278L798 1252Q782 1199 761 1165T714 1115T659 1099Q635 1099 604 1110T499 1159Q436 1191 415 1199T373 1207Q343 1207 316 1183T265 1099Z" />
<glyph unicode="&#xe4;" horiz-adv-x="1030" d="M784 0L774 183V614Q774 771 705 835T515 899Q448 899 389 880T293 818T256 700H168Q168 798 217 855T345 937T515 962Q609 962 684 928T803 818T848 614V0H784ZM450 -20Q339 -20 269 21T164 124T130 252Q130 354
179 413T306 498T474 524Q544 524 625 506T780 455V398Q716 428 629 446T473 465Q365 465 287 417T208 252Q208 164 265 104T449 43Q532 43 606 84T727 187T774 311H794Q794 225 750 149T629 27T450 -20ZM655 1136Q627 1136 608 1154T588 1200Q588 1226 607 1247T655
1269Q683 1269 703 1248T724 1200Q724 1173 704 1155T655 1136ZM372 1136Q344 1136 325 1154T305 1198Q305 1226 324 1246T373 1267Q401 1267 421 1247T441 1198Q441 1173 421 1155T372 1136Z" />
<glyph unicode="&#xe5;" horiz-adv-x="1030" d="M784 0L774 183V614Q774 771 705 835T515 899Q448 899 389 880T293 818T256 700H168Q168 798 217 855T345 937T515 962Q609 962 684 928T803 818T848 614V0H784ZM450 -20Q339 -20 269 21T164 124T130 252Q130 354
179 413T306 498T474 524Q544 524 625 506T780 455V398Q716 428 629 446T473 465Q365 465 287 417T208 252Q208 164 265 104T449 43Q532 43 606 84T727 187T774 311H794Q794 225 750 149T629 27T450 -20ZM515 1060Q471 1060 434 1082T375 1141T353 1222Q353 1267
375 1303T434 1362T515 1384Q560 1384 596 1362T655 1304T677 1222Q677 1178 655 1141T597 1082T515 1060ZM515 1125Q556 1125 584 1153T612 1222Q612 1263 584 1291T515 1319Q475 1319 447 1291T418 1222Q418 1182 446 1154T515 1125Z" />
<glyph unicode="&#xe6;" horiz-adv-x="1663" d="M784 301H774V614Q774 771 705 835T514 899Q448 899 389 880T293 818T256 700H168Q168 798 217 855T344 937T506 962Q606 962 683 928T804 818T848 614V340L784 301ZM439 -20Q344 -20 275 17T168 118T130 261Q130
355 178 413T304 497T468 524Q548 524 629 505T780 455V398Q716 428 629 446T471 465Q365 465 287 416T208 255Q208 165 266 104T436 43Q530 43 606 84T728 187T774 311H824Q824 225 773 149T635 27T439 -20ZM1195 -20Q1069 -20 976 42T831 216T780 475Q780 621
830 730T972 901T1186 962Q1289 962 1359 921T1472 809T1534 649T1553 464H843V528H1516L1470 498Q1473 568 1462 638T1419 768T1332 863T1189 899Q1078 899 1004 841T893 692T856 500V466Q856 348 892 253T1003 101T1193 45Q1303 45 1378 101T1467 274H1551Q1537
181 1488 115T1363 15T1195 -20Z" />
<glyph unicode="&#xe7;" horiz-adv-x="1004" d="M522 -20Q414 -20 320 40T168 211T110 474Q110 625 168 734T320 902T522 962Q589 962 645 944T746 891T825 811T881 709L801 687Q767 789 693 844T520 899Q435 899 360 849T237 705T190 474Q190 352 232 255T348
101T520 44Q652 44 726 110T801 297H881Q881 201 834 130T705 19T522 -20ZM332 -344L353 -296Q434 -343 499 -349T604 -334T646 -272Q649 -230 613 -200T525 -150T431 -121L495 33L569 31L506 -118L465 -65Q548 -89 610 -117T705 -183T734 -271Q730 -328 687 -361T580
-403T450 -398T332 -344Z" />
<glyph unicode="&#xe8;" horiz-adv-x="993" d="M520 -20Q396 -20 304 43T161 217T110 466Q110 620 160 731T303 902T520 962Q621 962 690 921T802 809T864 649T883 464H173V528H846L800 498Q803 568 792 638T749 768T662 863T520 899Q408 899 334 841T223 692T186
500V466Q186 348 222 253T333 101T520 45Q637 45 710 103T797 274H881Q866 178 816 113T690 14T520 -20ZM642 1134L327 1445L387 1495L684 1166L642 1134Z" />
<glyph unicode="&#xe9;" horiz-adv-x="993" d="M520 -20Q396 -20 304 43T161 217T110 466Q110 620 160 731T303 902T520 962Q621 962 690 921T802 809T864 649T883 464H173V528H846L800 498Q803 568 792 638T749 768T662 863T520 899Q408 899 334 841T223 692T186
500V466Q186 348 222 253T333 101T520 45Q637 45 710 103T797 274H881Q866 178 816 113T690 14T520 -20ZM443 1125L401 1157L698 1486L758 1436L443 1125Z" />
<glyph unicode="&#xea;" horiz-adv-x="993" d="M520 -20Q396 -20 304 43T161 217T110 466Q110 620 160 731T303 902T520 962Q621 962 690 921T802 809T864 649T883 464H173V528H846L800 498Q803 568 792 638T749 768T662 863T520 899Q408 899 334 841T223 692T186
500V466Q186 348 222 253T333 101T520 45Q637 45 710 103T797 274H881Q866 178 816 113T690 14T520 -20ZM267 1319L218 1356L496 1672L773 1356L728 1319L484 1595H508L267 1319Z" />
<glyph unicode="&#xeb;" horiz-adv-x="993" d="M520 -20Q396 -20 304 43T161 217T110 466Q110 620 160 731T303 902T520 962Q621 962 690 921T802 809T864 649T883 464H173V528H846L800 498Q803 568 792 638T749 768T662 863T520 899Q408 899 334 841T223 692T186
500V466Q186 348 222 253T333 101T520 45Q637 45 710 103T797 274H881Q866 178 816 113T690 14T520 -20ZM637 1136Q609 1136 590 1154T570 1200Q570 1226 589 1247T637 1269Q665 1269 685 1248T706 1200Q706 1173 686 1155T637 1136ZM354 1136Q326 1136 307 1154T287
1198Q287 1226 306 1246T355 1267Q383 1267 403 1247T423 1198Q423 1173 403 1155T354 1136Z" />
<glyph unicode="&#xec;" horiz-adv-x="535" d="M218 0V942H292V0H218ZM654 1134L339 1445L399 1495L696 1166L654 1134Z" />
<glyph unicode="&#xed;" horiz-adv-x="535" d="M218 0V942H292V0H218ZM199 1381L157 1413L454 1742L514 1692L199 1381Z" />
<glyph unicode="&#xee;" horiz-adv-x="535" d="M218 0V942H292V0H218ZM23 1063L-26 1100L252 1416L529 1100L484 1063L240 1339H264L23 1063Z" />
<glyph unicode="&#xef;" horiz-adv-x="535" d="M218 0V942H292V0H218ZM649 1136Q621 1136 602 1154T582 1200Q582 1226 601 1247T649 1269Q677 1269 697 1248T718 1200Q718 1173 698 1155T649 1136ZM366 1136Q338 1136 319 1154T299 1198Q299 1226 318 1246T367
1267Q395 1267 415 1247T435 1198Q435 1173 415 1155T366 1136Z" />
<glyph unicode="&#xf0;" horiz-adv-x="1110" d="M544 -20Q434 -20 341 40T191 211T134 474Q134 626 190 735T339 903T541 962Q642 962 727 911T863 762T916 522H871Q870 653 821 736T697 859T545 899Q457 899 382 849T260 704T214 472Q214 338 259 242T380 95T549
44Q650 44 718 102T823 265T869 505Q881 681 848 842T753 1139T612 1372T454 1519L494 1578Q572 1531 652 1434T799 1204T906 914T947 587Q947 455 920 344T841 152T715 25T544 -20ZM467 1123L440 1181L971 1429L998 1371L467 1123Z" />
<glyph unicode="&#xf1;" horiz-adv-x="1167" d="M913 0V556Q913 722 833 810T611 899Q510 899 439 844T330 693T292 470H251Q251 615 292 725T415 899T625 962Q731 962 811 914T937 776T983 556V0H913ZM218 0V942H279L292 693V0H218ZM374 1119L341 1143Q365 1222
401 1260T482 1298Q505 1298 530 1290T628 1244Q700 1206 722 1197T766 1188Q795 1188 823 1214T872 1298L907 1272Q891 1219 870 1185T823 1135T768 1119Q744 1119 713 1130T608 1179Q545 1211 524 1219T482 1227Q452 1227 425 1203T374 1119Z" />
<glyph unicode="&#xf2;" horiz-adv-x="1053" d="M528 -20Q403 -20 309 37T163 205T110 472Q110 628 162 737T309 904T528 962Q653 962 746 905T892 738T945 472Q945 315 893 205T747 38T528 -20ZM528 44Q645 44 720 98T831 250T867 472Q867 660 785 779T527 899Q410
899 336 845T226 694T190 472Q190 284 271 164T528 44ZM672 1134L357 1445L417 1495L714 1166L672 1134Z" />
<glyph unicode="&#xf3;" horiz-adv-x="1053" d="M528 -20Q403 -20 309 37T163 205T110 472Q110 628 162 737T309 904T528 962Q653 962 746 905T892 738T945 472Q945 315 893 205T747 38T528 -20ZM528 44Q645 44 720 98T831 250T867 472Q867 660 785 779T527 899Q410
899 336 845T226 694T190 472Q190 284 271 164T528 44ZM473 1125L431 1157L728 1486L788 1436L473 1125Z" />
<glyph unicode="&#xf4;" horiz-adv-x="1053" d="M528 -20Q403 -20 309 37T163 205T110 472Q110 628 162 737T309 904T528 962Q653 962 746 905T892 738T945 472Q945 315 893 205T747 38T528 -20ZM528 44Q645 44 720 98T831 250T867 472Q867 660 785 779T527 899Q410
899 336 845T226 694T190 472Q190 284 271 164T528 44ZM297 1063L248 1100L526 1416L803 1100L758 1063L514 1339H538L297 1063Z" />
<glyph unicode="&#xf5;" horiz-adv-x="1053" d="M528 -20Q403 -20 309 37T163 205T110 472Q110 628 162 737T309 904T528 962Q653 962 746 905T892 738T945 472Q945 315 893 205T747 38T528 -20ZM528 44Q645 44 720 98T831 250T867 472Q867 660 785 779T527 899Q410
899 336 845T226 694T190 472Q190 284 271 164T528 44ZM277 1099L244 1123Q268 1202 304 1240T385 1278Q408 1278 433 1270T531 1224Q603 1186 625 1177T669 1168Q698 1168 726 1194T775 1278L810 1252Q794 1199 773 1165T726 1115T671 1099Q647 1099 616 1110T511
1159Q448 1191 427 1199T385 1207Q355 1207 328 1183T277 1099Z" />
<glyph unicode="&#xf6;" horiz-adv-x="1053" d="M528 -20Q403 -20 309 37T163 205T110 472Q110 628 162 737T309 904T528 962Q653 962 746 905T892 738T945 472Q945 315 893 205T747 38T528 -20ZM528 44Q645 44 720 98T831 250T867 472Q867 660 785 779T527 899Q410
899 336 845T226 694T190 472Q190 284 271 164T528 44ZM667 1136Q639 1136 620 1154T600 1200Q600 1226 619 1247T667 1269Q695 1269 715 1248T736 1200Q736 1173 716 1155T667 1136ZM384 1136Q356 1136 337 1154T317 1198Q317 1226 336 1246T385 1267Q413 1267
433 1247T453 1198Q453 1173 433 1155T384 1136Z" />
<glyph unicode="&#xf7;" horiz-adv-x="1021" d="M201 460V522H819V460H201ZM510 204Q482 204 463 224T443 269Q443 294 462 316T510 338Q539 338 558 316T577 269Q577 244 558 224T510 204ZM510 647Q482 647 463 666T443 712Q443 738 462 757T510 777Q539 777
558 758T577 712Q577 685 558 666T510 647Z" />
<glyph unicode="&#xf8;" horiz-adv-x="1053" d="M528 -20Q403 -20 309 37T163 205T110 472Q110 628 162 737T309 904T528 962Q653 962 746 905T892 738T945 472Q945 315 893 205T747 38T528 -20ZM528 44Q645 44 720 98T831 250T867 472Q867 660 785 779T527 899Q410
899 336 845T226 694T190 472Q190 284 271 164T528 44ZM311 1L1090 931H1159L376 1H311Z" />
<glyph unicode="&#xf9;" horiz-adv-x="1167" d="M873 942H947V0H873V942ZM182 942H256V346Q256 200 326 123T533 46Q644 46 719 106T834 264T873 474H924Q924 330 877 219T742 45T532 -18Q420 -18 342 24T223 148T182 346V942ZM749 1134L434 1445L494 1495L791
1166L749 1134Z" />
<glyph unicode="&#xfa;" horiz-adv-x="1167" d="M873 942H947V0H873V942ZM182 942H256V346Q256 200 326 123T533 46Q644 46 719 106T834 264T873 474H924Q924 330 877 219T742 45T532 -18Q420 -18 342 24T223 148T182 346V942ZM550 1125L508 1157L805 1486L865
1436L550 1125Z" />
<glyph unicode="&#xfb;" horiz-adv-x="1167" d="M873 942H947V0H873V942ZM182 942H256V346Q256 200 326 123T533 46Q644 46 719 106T834 264T873 474H924Q924 330 877 219T742 45T532 -18Q420 -18 342 24T223 148T182 346V942ZM374 1063L325 1100L603 1416L880
1100L835 1063L591 1339H615L374 1063Z" />
<glyph unicode="&#xfc;" horiz-adv-x="1167" d="M873 942H947V0H873V942ZM182 942H256V346Q256 200 326 123T533 46Q644 46 719 106T834 264T873 474H924Q924 330 877 219T742 45T532 -18Q420 -18 342 24T223 148T182 346V942ZM744 1136Q716 1136 697 1154T677
1200Q677 1226 696 1247T744 1269Q772 1269 792 1248T813 1200Q813 1173 793 1155T744 1136ZM461 1136Q433 1136 414 1154T394 1198Q394 1226 413 1246T462 1267Q490 1267 510 1247T530 1198Q530 1173 510 1155T461 1136Z" />
<glyph unicode="&#xfd;" horiz-adv-x="853" d="M50 942H128L495 64H465L728 942H806L458 -208Q426 -323 360 -402T179 -482Q122 -482 75 -462T-24 -406V-327Q27 -376 75 -397T178 -418Q251 -418 296 -367T370 -242T418 -98L444 0L50 942ZM373 1125L331 1157L628
1486L688 1436L373 1125Z" />
<glyph unicode="&#xfe;" horiz-adv-x="1200" d="M599 -20Q496 -20 417 30T292 171T247 388H292Q292 275 336 198T450 83T598 44Q683 44 757 94T878 241T924 474Q924 610 879 704T759 849T597 899Q521 899 451 861T337 746T292 556H247Q247 681 292 772T416 912T597
962Q706 962 799 903T948 735T1005 474Q1005 320 948 210T799 40T599 -20ZM218 -466V1213H292V-466H218Z" />
<glyph unicode="&#xff;" horiz-adv-x="853" d="M50 942H128L495 64H465L728 942H806L458 -208Q426 -323 360 -402T179 -482Q122 -482 75 -462T-24 -406V-327Q27 -376 75 -397T178 -418Q251 -418 296 -367T370 -242T418 -98L444 0L50 942ZM567 1136Q539 1136 520
1154T500 1200Q500 1226 519 1247T567 1269Q595 1269 615 1248T636 1200Q636 1173 616 1155T567 1136ZM284 1136Q256 1136 237 1154T217 1198Q217 1226 236 1246T285 1267Q313 1267 333 1247T353 1198Q353 1173 333 1155T284 1136Z" />
<glyph unicode="&#x2013;" horiz-adv-x="837" d="M110 528V593H729V528H110Z" />
<glyph unicode="&#x2014;" horiz-adv-x="1360" d="M110 528V593H1254V528H110Z" />
<glyph unicode="&#x2018;" horiz-adv-x="305" d="M157 920Q135 920 116 932T84 966T72 1019Q72 1063 101 1113T197 1199L255 1171Q208 1146 179 1115T142 1042Q178 1042 197 1028T217 985Q217 960 202 940T157 920Z" />
<glyph unicode="&#x2019;" horiz-adv-x="305" d="M60 920L1 947Q49 973 77 1003T110 1073Q79 1072 57 1089T35 1136Q35 1162 53 1180T102 1199Q126 1199 144 1187T172 1152T183 1100Q183 1056 154 1007T60 920Z" />
<glyph unicode="&#x201a;" horiz-adv-x="378" d="M133 -163L72 -135Q120 -112 148 -84T183 -10Q152 -11 131 5T110 51Q110 74 126 93T171 112Q205 112 230 85T256 18Q256 -30 228 -79T133 -163Z" />
<glyph unicode="&#x201c;" horiz-adv-x="619" d="M399 920Q377 920 358 932T326 966T314 1019Q314 1063 343 1113T439 1199L497 1171Q450 1146 421 1115T384 1042Q420 1042 439 1028T459 985Q459 960 444 940T399 920ZM157 920Q135 920 116 932T84 966T72 1019Q72
1063 101 1113T197 1199L255 1171Q208 1146 179 1115T142 1042Q178 1042 197 1028T217 985Q217 960 202 940T157 920Z" />
<glyph unicode="&#x201d;" horiz-adv-x="613" d="M368 920L309 947Q357 973 385 1003T418 1073Q387 1072 365 1089T343 1136Q343 1162 361 1180T410 1199Q434 1199 452 1187T480 1152T491 1100Q491 1056 462 1007T368 920ZM131 920L72 947Q120 973 148 1003T181
1073Q150 1072 128 1089T106 1136Q106 1162 124 1180T173 1199Q197 1199 215 1187T243 1152T254 1100Q254 1056 225 1007T131 920Z" />
<glyph unicode="&#x201e;" horiz-adv-x="707" d="M462 -163L401 -135Q449 -112 477 -84T512 -10Q481 -11 460 5T439 51Q439 74 455 93T500 112Q534 112 559 85T585 18Q585 -30 557 -79T462 -163ZM133 -163L72 -135Q120 -112 148 -84T183 -10Q152 -11 131 5T110
51Q110 74 126 93T171 112Q205 112 230 85T256 18Q256 -30 228 -79T133 -163Z" />
<glyph unicode="&#x2022;" horiz-adv-x="413" d="M62 422Q62 469 98 508T186 548Q237 548 275 509T314 422Q314 374 276 339T186 303Q135 303 99 338T62 422Z" />
<glyph unicode="&#x2039;" horiz-adv-x="698" d="M182 495L590 918L515 946L110 520L515 94L590 122L182 545V495Z" />
<glyph unicode="&#x203a;" horiz-adv-x="698" d="M185 94L110 122L518 545V495L110 918L185 946L590 520L185 94Z" />
</font>
</defs>
</svg>
