<?xml version="1.0" standalone="no"?>
<!DOCTYPE svg PUBLIC "-//W3C//DTD SVG 1.1//EN" "http://www.w3.org/Graphics/SVG/1.1/DTD/svg11.dtd">
<svg xmlns="http://www.w3.org/2000/svg">
<defs >
<font id="Jost" horiz-adv-x="531" ><font-face
    font-family="Jost Black"
    units-per-em="1000"
    panose-1="0 0 0 0 0 0 0 0 0 0"
    ascent="1070"
    descent="-375"
    alphabetic="0" />
<glyph unicode=" " horiz-adv-x="301" />
<glyph unicode="!" horiz-adv-x="359" d="M155 700L115 250H275L390 700H155ZM49 75Q49 28 82 -1T167 -30Q220 -30 252 -1T285 75Q285 122 253 151T167 180Q115 180 82 151T49 75Z" />
<glyph unicode="&quot;" horiz-adv-x="534" d="M176 700L86 370L213 371L376 700H176ZM400 700L309 370L436 371L599 700H400Z" />
<glyph unicode="#" horiz-adv-x="684" d="M115 396L262 395L297 405H502L537 395H692L719 550H139L115 396ZM31 155H612L640 310H513L476 300H236L197 310H59L31 155ZM559 700L475 493L470 452L388 252L366 222L275 0H442L727 700H559ZM308 700L23 0H189L281 226L283
256L363 450L389 492L475 700H308Z" />
<glyph unicode="$" horiz-adv-x="628" d="M364 818L342 618H475L517 818H364ZM259 70L220 -112H371L391 70H259ZM501 475L670 563Q646 607 613 640T531 692T415 710Q343 710 280 685T174 615T122 511Q115 450 139 405T204 330T284 281Q312 270 339 260T383 236T396
202Q394 187 384 178T358 164T323 159Q290 159 266 172T222 209T183 266L26 160Q48 112 89 74T185 13T303 -10Q383 -10 452 12T567 82T624 200Q631 254 615 297T564 372T479 424Q457 433 432 440T385 457T351 480T343 513Q346 525 355 535T379 552T409 559Q430
559 446 548T476 518T501 475Z" />
<glyph unicode="%" horiz-adv-x="991" d="M76 526Q69 473 90 428T153 354T251 326Q308 326 358 353T442 426T483 525Q490 578 469 623T406 697T307 725Q250 725 201 698T118 626T76 526ZM229 524Q231 536 239 547T260 566T286 574Q301 574 310 567T325 549T329
527Q328 515 320 504T299 485T273 477Q258 477 248 484T233 502T229 524ZM574 177Q567 124 588 79T651 5T749 -23Q806 -23 856 4T940 77T981 176Q988 229 967 274T904 348T806 376Q749 376 699 349T616 277T574 177ZM728 175Q731 190 740 201T761 218T787 225Q799
225 808 218T823 200T827 178Q825 163 816 152T795 134T769 128Q757 128 747 135T732 153T728 175ZM770 700L78 0H286L979 700H770Z" />
<glyph unicode="&amp;" horiz-adv-x="775" d="M258 364L533 0H741L442 385Q421 411 403 434T376 478T370 521Q373 534 380 545T400 563T430 570Q446 570 456 563T472 544T476 523Q474 502 455 484T407 450T348 422Q319 410 282 398T207 369T136 329T79 272T50
191Q41 127 70 81T153 11T273 -15Q348 -15 416 8T543 71T651 158T738 254L626 356Q598 318 563 280T488 210T405 161T317 146Q293 147 278 155T256 178T252 209Q256 236 276 252T324 280T382 302T436 328Q490 361 535 390T611 454T647 544Q654 592 630 632T560
697T452 721Q385 721 329 696T236 629T192 537Q188 505 196 476T220 420T258 364Z" />
<glyph unicode="&apos;" horiz-adv-x="311" d="M176 700L86 370L213 371L376 700H176Z" />
<glyph unicode="(" horiz-adv-x="349" d="M273 780Q200 669 150 545T80 290Q62 166 74 42T130 -200H299Q263 -82 253 42T262 290Q283 421 333 543T448 779L273 780Z" />
<glyph unicode=")" horiz-adv-x="349" d="M131 -199Q205 -88 255 36T325 290Q343 414 331 538T275 781H106Q142 663 152 538T143 290Q122 160 72 38T-43 -199H131Z" />
<glyph unicode="*" horiz-adv-x="575" d="M573 606L327 484L341 397L601 434L573 606ZM529 281L370 466L297 419L369 175L529 281ZM218 178L367 413L301 466L89 288L218 178ZM68 436L319 398L358 479L148 605L68 436ZM289 700L293 440L380 441L471 700H289Z" />
<glyph unicode="+" horiz-adv-x="689" d="M66 185H632L664 370H98L66 185ZM316 565L217 -10H414L513 565H316Z" />
<glyph unicode="," horiz-adv-x="323" d="M89 109L-41 -147L106 -173L279 74L89 109Z" />
<glyph unicode="-" horiz-adv-x="223" d="M2 155H219L248 320H31L2 155Z" />
<glyph unicode="." horiz-adv-x="326" d="M38 85Q38 38 71 4T156 -30Q209 -30 241 4T274 85Q274 132 242 166T156 200Q104 200 71 166T38 85Z" />
<glyph unicode="/" horiz-adv-x="645" d="M540 700L-42 -149H155L728 700H540Z" />
<glyph unicode="0" horiz-adv-x="679" d="M277 350Q282 383 293 415T321 474T360 515T409 530Q430 529 442 518T462 488T471 446T472 398T468 350Q464 317 453 285T424 227T385 185T336 171Q315 172 303 183T283 212T274 254T273 302T277 350ZM70 350Q63 290 67
236T89 136T138 57T213 4T316 -15Q391 -15 452 12T560 88T635 204T675 350Q683 410 679 465T658 565T611 644T535 696T429 715Q356 715 295 688T188 612T111 496T70 350Z" />
<glyph unicode="1" horiz-adv-x="529" d="M107 458L294 498L209 0H416L539 717L140 643L107 458Z" />
<glyph unicode="2" horiz-adv-x="688" d="M-2 0H639L670 200L424 201L561 297Q609 332 645 377T688 481Q698 546 667 599T574 684T434 716Q339 717 269 678T155 573T98 431L310 430Q316 455 329 478T362 517T408 531Q430 531 443 522T460 498T463 466Q459 435
440 409T393 358T337 305L-2 0Z" />
<glyph unicode="3" horiz-adv-x="646" d="M314 336Q374 336 434 344T545 371T630 426T672 516Q681 579 650 623T559 692T425 715Q345 715 282 684T178 600T125 477L323 476Q329 495 340 510T369 536T408 545Q425 545 437 540T454 525T459 502Q457 478 436 461T385
435T326 424L314 336ZM314 -20Q399 -20 469 5T586 78T641 195Q649 254 625 293T554 355T447 388T323 399L309 295Q338 294 362 290T404 276T430 252T433 216Q430 193 416 178T381 157T339 151Q314 152 298 163T274 195T267 245H57Q52 175 80 115T168 18T314 -20Z"
/>
<glyph unicode="4" horiz-adv-x="745" d="M-2 116L691 115L723 300H577L554 266H300L437 412L398 187L367 176L338 0H565L685 700H503L-2 116Z" />
<glyph unicode="5" horiz-adv-x="673" d="M653 220Q661 285 639 335T573 415T472 445Q438 445 405 440T342 421L396 511L676 510L706 700H265L105 278Q158 295 214 303T316 310Q339 310 364 306T407 290T420 251Q416 224 396 210T347 191T287 185Q253 186 211
198T124 236L38 43Q100 18 170 2T325 -15Q378 -15 433 -1T535 42T614 115T653 220Z" />
<glyph unicode="6" horiz-adv-x="705" d="M284 255Q288 281 304 302T343 335T393 347Q419 347 436 335T462 302T466 256Q462 230 446 210T407 178T357 166Q332 167 314 178T288 210T284 255ZM411 695L202 480Q156 431 118 377T69 255Q58 168 92 107T191 13T338
-20Q422 -20 496 12T620 105T680 255Q687 320 663 371T594 453T493 483Q456 483 429 473T372 439L430 466L691 695H411Z" />
<glyph unicode="7" horiz-adv-x="631" d="M86 495H375L48 0H287L726 700H119L86 495Z" />
<glyph unicode="8" horiz-adv-x="656" d="M135 532Q128 482 146 445T200 384T278 347T364 335Q409 335 456 347T544 383T613 444T648 531Q655 579 638 615T587 674T509 708T418 720Q352 720 291 700T187 638T135 532ZM333 510Q336 526 345 539T368 561T402 570Q418
570 428 562T442 541T444 512Q442 497 433 483T408 460T374 451Q358 451 348 459T335 482T333 510ZM53 191Q46 139 65 100T121 34T206 -6T304 -20Q356 -20 408 -7T504 33T578 98T615 190Q623 246 602 286T541 351T455 388T363 400Q316 400 265 388T169 351T92 287T53
191ZM275 224Q278 241 288 256T316 280T354 290Q373 290 385 281T402 257T405 226Q402 206 391 190T363 165T324 156Q305 156 293 165T277 190T275 224Z" />
<glyph unicode="9" horiz-adv-x="705" d="M495 446Q491 420 475 399T436 366T386 354Q361 355 343 367T318 400T313 445Q317 471 333 491T372 524T422 535Q448 535 465 523T491 491T495 446ZM368 6L577 220Q624 269 662 323T709 445Q721 533 687 594T588 687T441
720Q357 720 283 688T159 595T99 445Q92 381 116 330T185 248T286 218Q322 218 349 228T406 262L348 235L88 6H368Z" />
<glyph unicode=":" horiz-adv-x="326" d="M33 85Q33 38 66 4T151 -30Q204 -30 236 4T269 85Q269 132 237 166T151 200Q99 200 66 166T33 85ZM96 455Q96 408 129 374T214 340Q267 340 299 374T332 455Q332 502 300 536T214 570Q162 570 129 536T96 455Z" />
<glyph unicode=";" horiz-adv-x="418" d="M157 445Q157 398 190 364T275 330Q328 330 360 364T393 445Q393 492 361 526T275 560Q223 560 190 526T157 445ZM123 109L-7 -147L140 -173L312 74L123 109Z" />
<glyph unicode="&lt;" horiz-adv-x="621" d="M340 267L592 351L628 548L93 337L69 203L531 -8L563 175L340 267Z" />
<glyph unicode="=" horiz-adv-x="614" d="M28 50H549L578 215H57L28 50ZM69 290H590L619 455H98L69 290Z" />
<glyph unicode="&gt;" horiz-adv-x="621" d="M319 269L66 184L31 -13L566 198L589 332L127 544L96 360L319 269Z" />
<glyph unicode="?" horiz-adv-x="649" d="M469 501Q463 474 437 451T372 415T285 400H252L242 220H403L418 282Q473 297 525 324T614 394T661 500Q669 553 651 595T598 666T517 710T422 725Q332 726 255 688T111 589L219 476Q254 514 301 540T396 565Q421 565
438 558T463 536T469 501ZM175 71Q175 29 208 0T290 -29Q340 -29 373 0T406 71Q406 113 373 141T290 170Q241 170 208 141T175 71Z" />
<glyph unicode="@" horiz-adv-x="747" d="M363 320Q365 337 375 361T399 402T429 415Q437 413 439 405T441 386T439 361Q437 345 427 321T402 279T374 266Q367 268 365 276T362 297T363 320ZM219 311Q214 269 222 233T254 174T322 151Q367 151 404 182T465 263T495
370Q499 408 490 444T457 505T396 530Q351 531 313 500T250 418T219 311ZM36 320Q25 249 38 185T89 72T185 -5T327 -35Q392 -35 450 -22T558 14L535 125Q493 110 450 98T356 86Q278 87 233 117T174 201T170 320Q180 380 207 432T275 525T369 587T486 610Q537 610
571 592T623 542T647 472T645 391Q644 365 637 340T619 294T596 264T572 257Q566 259 564 264T562 277T563 292Q565 299 566 306T569 319L619 520H482L432 311L441 261Q438 228 449 201T485 157T547 140Q592 139 631 157T701 209T752 289T779 390Q788 453 774 513T723
623T629 701T494 730Q407 730 330 698T190 608T88 477T36 320Z" />
<glyph unicode="A" horiz-adv-x="757" d="M187 90H550L578 248H215L187 90ZM416 382L468 189L448 133L494 0H734L478 753L-36 0H215L311 138L303 189L416 382Z" />
<glyph unicode="B" horiz-adv-x="706" d="M253 335H400Q470 335 533 355T639 416T692 520Q699 567 681 601T627 657T545 689T450 700H159L39 0H363Q443 0 510 18T621 78T675 192Q683 247 662 286T602 351T515 388T419 400H265L244 280H380Q401 280 419 276T449
261T456 228Q453 202 437 189T397 171T350 165H283L349 535H403Q434 535 450 523T461 484Q458 466 446 453T415 432T375 425H270L253 335Z" />
<glyph unicode="C" horiz-adv-x="689" d="M298 350Q305 388 324 418T371 469T433 501T504 513Q567 513 608 488T681 427L715 653Q673 683 626 701T512 720Q424 720 348 693T211 617T111 500T60 350Q48 270 67 203T132 85T245 8T398 -20Q466 -20 517 -1T615 47L648
272Q607 241 556 214T437 188Q401 188 373 200T325 233T299 284T298 350Z" />
<glyph unicode="D" horiz-adv-x="742" d="M159 700L39 0H265L385 700H159ZM314 0Q401 0 474 24T605 94T699 204T748 350Q760 429 742 493T681 604T571 675T421 700H307L273 511H391Q424 511 451 502T496 474T521 425T522 350Q513 290 484 255T413 205T325 190H220L186
0H314Z" />
<glyph unicode="E" horiz-adv-x="616" d="M186 0H532L563 175H217L186 0ZM276 525H622L653 700H307L276 525ZM233 275H560L590 445H263L233 275ZM159 700L39 0H246L366 700H159Z" />
<glyph unicode="F" horiz-adv-x="568" d="M274 515H581L614 700H307L274 515ZM228 245H526L556 415H258L228 245ZM159 700L39 0H246L366 700H159Z" />
<glyph unicode="G" horiz-adv-x="813" d="M429 240H575Q563 220 548 204T515 178T473 162T421 156Q380 156 352 171T307 214T285 276T286 350Q293 391 312 425T360 483T423 521T497 535Q542 535 566 511T604 452L816 543Q769 620 697 670T517 720Q431 720 354
694T216 618T114 501T60 350Q48 270 67 201T132 80T245 -1T397 -30Q494 -30 569 4T698 98T781 235T818 400H457L429 240Z" />
<glyph unicode="H" horiz-adv-x="805" d="M130 265H677L711 460H164L130 265ZM615 700L495 0H712L832 700H615ZM159 700L39 0H256L376 700H159Z" />
<glyph unicode="I" horiz-adv-x="354" d="M159 700L39 0H261L381 700H159Z" />
<glyph unicode="J" horiz-adv-x="374" d="M-112 -39L-250 -188Q-205 -213 -149 -231T-28 -250Q43 -250 107 -230T216 -166T273 -50L400 700H159L39 6Q35 -28 12 -49T-38 -70Q-57 -71 -76 -61T-112 -39Z" />
<glyph unicode="K" horiz-adv-x="758" d="M159 700L39 0H266L386 700H159ZM588 700L266 370L480 0H734L519 368L846 700H588Z" />
<glyph unicode="L" horiz-adv-x="558" d="M159 700L39 0H532L565 185H288L376 700H159Z" />
<glyph unicode="M" horiz-adv-x="912" d="M317 285L443 64L640 278L627 0H857L858 741L487 359L252 735L-1 0H232L317 285Z" />
<glyph unicode="N" horiz-adv-x="781" d="M601 700L545 382L164 733L39 0H246L301 318L683 -33L808 700H601Z" />
<glyph unicode="O" horiz-adv-x="815" d="M289 350Q295 386 311 417T351 472T407 509T476 522Q514 522 538 508T576 469T593 414T592 350Q586 315 570 284T530 229T474 192T405 179Q369 179 344 193T305 232T288 286T289 350ZM60 350Q49 272 66 204T126 83T234
0T382 -30Q466 -30 540 -1T674 79T771 200T821 350Q832 428 814 495T752 613T643 692T497 720Q415 720 342 693T209 616T111 499T60 350Z" />
<glyph unicode="P" horiz-adv-x="648" d="M159 700L39 0H256L376 700H159ZM268 526H402Q425 526 440 518T463 496T466 461Q462 440 449 425T415 403T370 395H245L214 220H352Q443 221 512 248T623 329T672 460Q679 537 653 590T568 671T421 700H297L268 526Z" />
<glyph unicode="Q" horiz-adv-x="881" d="M289 350Q295 386 312 417T354 472T411 509T480 522Q524 521 553 503T598 456T618 391T616 320Q609 285 593 256T551 204T495 171T426 159Q388 159 360 174T314 216T290 277T289 350ZM60 350Q49 272 67 203T129 82T238
0T387 -30Q471 -30 545 -1T676 79T771 200T821 350Q832 428 814 495T754 613T647 691T502 720Q420 720 346 693T211 616T112 499T60 350ZM361 300L646 -20H857L562 300H361Z" />
<glyph unicode="R" horiz-adv-x="679" d="M293 300L406 0H650L508 300H293ZM159 700L39 0H256L376 700H159ZM266 515H400Q423 515 439 507T462 485T465 451Q461 430 448 415T414 393T368 385H244L214 220H371Q461 220 530 249T641 332T692 460Q701 534 674 587T587
670T441 700H297L266 515Z" />
<glyph unicode="S" horiz-adv-x="652" d="M187 266L28 160Q47 104 88 61T186 -5T313 -30Q386 -30 453 -4T568 74T627 202Q634 254 620 296T571 371T485 423Q465 431 441 438T395 455T362 477T354 506Q357 518 367 525T391 536T418 540Q439 540 456 533T487 511T514
475L684 563Q666 606 633 641T550 698T434 720Q364 721 300 697T190 626T135 510Q129 464 141 428T176 363T229 314T289 280Q325 266 351 255T391 231T399 200Q396 185 385 176T358 162T326 157Q294 157 268 171T222 210T187 266Z" />
<glyph unicode="T" horiz-adv-x="602" d="M57 505H252L165 0H382L469 505H662L696 700H91L57 505Z" />
<glyph unicode="U" horiz-adv-x="724" d="M154 700L75 230Q63 140 94 80T189 -10T334 -40Q419 -40 491 -10T613 80T676 230L755 700H539L461 251Q456 225 443 203T407 168T356 156Q328 157 313 170T294 204T292 250L371 700H154Z" />
<glyph unicode="V" horiz-adv-x="757" d="M415 362L338 700H87L355 -52L857 700H597L415 362Z" />
<glyph unicode="W" horiz-adv-x="1077" d="M755 364L634 738L394 367L348 700H92L287 -48L571 301L745 -46L1172 700H908L755 364Z" />
<glyph unicode="X" horiz-adv-x="742" d="M548 700L437 534L381 700H117L279 359L-21 0H254L388 193L460 0H724L545 350L823 700H548Z" />
<glyph unicode="Y" horiz-adv-x="699" d="M545 700L401 478L334 700H89L261 279L212 0H434L479 270L801 700H545Z" />
<glyph unicode="Z" horiz-adv-x="645" d="M125 505H352L-27 0H566L599 185L346 186L733 700H159L125 505Z" />
<glyph unicode="[" horiz-adv-x="388" d="M350 615H448L474 780H184L30 -220H319L345 -55H247L350 615Z" />
<glyph unicode="\" horiz-adv-x="548" d="M108 700L328 0H506L286 700H108Z" />
<glyph unicode="]" horiz-adv-x="388" d="M91 -55H-7L-33 -220H256L411 780H121L95 615H194L91 -55Z" />
<glyph unicode="^" horiz-adv-x="495" d="M318 553L355 440H517L398 710H279L68 441H241L318 553Z" />
<glyph unicode="_" horiz-adv-x="534" d="M-57 -166H480L501 -45H-36L-57 -166Z" />
<glyph unicode="`" horiz-adv-x="364" d="M123 653L278 500L387 547L264 711L123 653Z" />
<glyph unicode="a" horiz-adv-x="626" d="M438 460L359 0H552L631 460H438ZM40 231Q32 165 51 111T112 24T213 -9Q259 -9 298 9T368 61T419 137T445 230Q451 277 444 320T417 397T363 450T283 470Q224 470 172 439T84 354T40 231ZM242 230Q246 253 260 274T296
308T341 320Q357 319 368 312T388 292T398 264T399 231Q396 213 387 197T364 167T334 147T301 141Q279 142 265 155T245 188T242 230Z" />
<glyph unicode="b" horiz-adv-x="626" d="M346 780H153L20 0H212L346 780ZM611 230Q619 297 600 351T539 437T438 470Q392 470 353 452T282 400T232 324T205 231Q199 184 206 141T234 63T288 10T368 -10Q427 -10 479 21T566 107T611 230ZM409 231Q405 208 391
187T355 153T310 141Q294 141 282 148T263 169T252 197T252 230Q255 248 264 264T287 293T317 313T349 320Q372 319 386 306T407 272T409 231Z" />
<glyph unicode="c" horiz-adv-x="481" d="M236 230Q241 256 257 276T299 309T353 322Q382 322 410 308T459 264L483 441Q455 453 424 461T347 470Q269 470 203 441T93 359T39 231Q29 158 59 104T149 20T283 -10Q329 -10 361 -1T422 21L444 197Q418 171 385 155T316
139Q290 140 270 151T241 182T236 230Z" />
<glyph unicode="d" horiz-adv-x="626" d="M493 780L359 0H552L686 780H493ZM40 231Q32 165 51 111T112 24T213 -9Q259 -9 298 9T368 61T419 137T445 230Q451 277 444 320T417 397T363 450T283 470Q224 470 172 439T84 354T40 231ZM242 230Q246 253 260 274T296
308T341 320Q357 319 368 312T388 292T398 264T399 231Q396 213 387 197T364 167T334 147T301 141Q279 142 265 155T245 188T242 230Z" />
<glyph unicode="e" horiz-adv-x="591" d="M298 -10Q394 -10 462 26T567 137L395 165Q379 143 357 132T303 120Q276 120 259 133T235 172T237 230Q245 262 253 284T272 321T298 343T333 350Q353 350 365 341T382 315T388 274Q388 267 384 257T374 238L412 284H136V190H573Q578
208 581 227T584 264Q584 327 559 373T482 444T353 470Q283 470 226 450T128 394T65 309T43 200Q43 135 74 88T163 16T298 -10Z" />
<glyph unicode="f" horiz-adv-x="368" d="M55 460L28 305H386L413 460H55ZM419 606L507 742Q483 763 450 781T364 800Q303 800 258 779T184 719T146 631L39 0H222L322 575Q324 590 332 603T352 623T380 631Q393 630 402 623T419 606Z" />
<glyph unicode="g" horiz-adv-x="616" d="M3 -34Q6 -100 31 -147T108 -219T244 -244Q324 -244 387 -216T491 -131T545 10L621 460H438L360 11Q356 -19 341 -43T303 -80T248 -94Q228 -94 215 -88T194 -69T184 -35L3 -34ZM42 241Q34 174 54 122T116 40T217 10Q262
10 301 27T371 75T421 149T447 240Q453 288 446 329T417 402T363 452T283 470Q225 470 173 442T86 362T42 241ZM243 239Q247 262 260 280T295 309T341 320Q356 320 368 315T389 299T400 274T401 241Q398 223 389 208T366 182T337 166T305 161Q283 162 268 172T247
199T243 239Z" />
<glyph unicode="h" horiz-adv-x="577" d="M346 780H153L20 0H212L346 780ZM361 280L311 0H503L556 310Q564 360 555 399T515 460T425 481Q365 481 326 453T264 379T233 281L260 280Q264 298 273 313T297 338T330 345Q348 343 355 334T362 310T361 280Z" />
<glyph unicode="i" horiz-adv-x="278" d="M110 622Q110 578 141 551T218 524Q263 524 294 551T326 622Q326 666 295 693T218 720Q173 720 142 693T110 622ZM98 460L19 0H204L283 460H98Z" />
<glyph unicode="j" horiz-adv-x="277" d="M110 622Q110 578 141 551T218 524Q263 524 294 551T326 622Q326 666 295 693T218 720Q173 720 142 693T110 622ZM-83 -55L-171 -191Q-147 -212 -114 -230T-28 -249Q33 -249 78 -228T152 -169T190 -80L282 460H99L15 -24Q13
-39 6 -51T-12 -72T-39 -80Q-53 -80 -64 -73T-83 -55Z" />
<glyph unicode="k" horiz-adv-x="640" d="M153 780L20 0H203L336 780H153ZM436 460L219 275L388 0H601L440 266L669 460H436Z" />
<glyph unicode="l" horiz-adv-x="286" d="M153 780L20 0H212L346 780H153Z" />
<glyph unicode="m" horiz-adv-x="820" d="M797 300Q803 349 797 387T764 449T681 471Q633 471 594 451T525 398Q520 421 506 437T469 463T409 471Q378 471 353 462T307 436T272 398L282 460H99L20 0H203L252 284Q255 304 263 317T282 338T307 345Q321 345 326
335T333 311T332 281L281 0H474L521 281Q525 302 533 316T553 337T579 345Q594 345 599 335T604 310T604 280L553 0H746L797 300Z" />
<glyph unicode="n" horiz-adv-x="587" d="M361 280L311 0H513L564 300Q572 351 561 389T516 450T423 471Q374 471 340 451T282 399L291 460H99L20 0H212L261 281Q264 302 272 316T293 337T324 345Q345 345 353 335T362 311T361 280Z" />
<glyph unicode="o" horiz-adv-x="598" d="M46 231Q37 159 67 105T154 20T286 -10Q363 -10 428 19T536 103T589 230Q598 302 569 356T482 441T349 471Q273 471 208 442T99 358T46 231ZM243 230Q247 254 260 273T294 305T335 316Q356 315 370 303T389 273T392 231Q389
207 375 188T342 157T300 146Q279 147 266 158T246 189T243 230Z" />
<glyph unicode="p" horiz-adv-x="626" d="M175 -220L291 460H99L-18 -220H175ZM611 230Q619 299 601 356T541 446T439 480Q391 480 353 460T286 404T240 325T215 230Q209 183 213 139T235 59T284 2T366 -20Q426 -20 478 12T566 101T611 230ZM409 231Q406 209 391
190T356 161T312 151Q297 152 285 157T264 173T253 198T252 229Q255 247 264 262T286 288T316 305T348 310Q370 309 384 299T406 271T409 231Z" />
<glyph unicode="q" horiz-adv-x="626" d="M322 -220H514L631 460H438L322 -220ZM40 231Q32 162 50 105T110 15T212 -19Q260 -19 298 1T365 56T411 136T436 230Q442 277 438 321T416 402T367 459T285 480Q225 481 173 449T85 360T40 231ZM242 229Q246 252 260 270T296
300T339 310Q354 309 366 304T387 288T398 263T399 231Q396 213 387 198T365 172T335 156T303 151Q282 152 267 162T246 189T242 229Z" />
<glyph unicode="r" horiz-adv-x="445" d="M287 460H99L20 0H207L287 460ZM386 263L487 428Q475 446 456 459T410 472Q371 472 332 445T265 373T227 281L241 195Q244 221 258 243T293 278T336 290Q353 290 365 282T386 263Z" />
<glyph unicode="s" horiz-adv-x="474" d="M83 183L4 48Q44 26 85 10T169 -15T261 -24Q315 -23 357 -7T426 44T459 130Q463 169 449 195T410 240T352 271Q328 280 305 287T267 302T256 326Q258 335 269 340T294 346Q326 346 361 328T424 283L488 414Q439 437 389
453T281 470Q231 470 188 455T118 410T84 335Q79 295 92 266T132 217T191 186Q218 177 236 170T263 156T270 135Q269 125 259 118T237 110Q219 108 196 116T144 141T83 183Z" />
<glyph unicode="t" horiz-adv-x="354" d="M55 460L28 305H376L403 460H55ZM165 620L58 0H241L348 620H165Z" />
<glyph unicode="u" horiz-adv-x="587" d="M251 180L301 460H99L48 160Q42 109 53 71T97 11T188 -11Q238 -11 272 9T330 62L320 0H513L592 460H400L351 178Q347 156 338 142T314 122T282 115Q264 115 257 125T250 150T251 180Z" />
<glyph unicode="v" horiz-adv-x="563" d="M50 460L256 -67L626 460H422L303 251L250 460H50Z" />
<glyph unicode="w" horiz-adv-x="786" d="M39 460L208 -27L405 208L519 -27L857 460H655L540 265L449 498L277 267L231 460H39Z" />
<glyph unicode="x" horiz-adv-x="582" d="M414 460L331 365L280 460H66L211 245L-22 0H205L293 112L359 0H563L409 232L631 460H414Z" />
<glyph unicode="y" horiz-adv-x="553" d="M624 460H427L216 86L321 85L240 460H38L170 26L24 -219H216L624 460Z" />
<glyph unicode="z" horiz-adv-x="543" d="M240 286L-17 0H465L495 175H346L585 460H113L83 286H240Z" />
<glyph unicode="{" horiz-adv-x="438" d="M384 580Q387 601 402 616T439 631H472L494 780H380Q331 779 287 765T212 720T174 641L148 471Q141 422 123 397T65 360L45 220Q83 206 91 182T95 110L69 -60Q62 -109 85 -139T151 -184T240 -200L343 -199L365 -50L328
-49Q314 -49 305 -43T293 -25T291 0L306 90Q312 126 312 161T301 227T260 277T179 301L176 281Q230 284 264 302T319 349T351 415T370 490L384 580Z" />
<glyph unicode="|" horiz-adv-x="388" d="M200 785L45 -215H243L397 785H200Z" />
<glyph unicode="}" horiz-adv-x="438" d="M110 0Q106 -21 92 -35T54 -50H21L-1 -200H113Q163 -199 207 -185T281 -140T319 -60L345 110Q352 159 370 183T428 221L448 360Q411 374 402 398T398 470L424 640Q432 690 408 720T343 765T253 780H151L129 630H165Q180
630 188 623T200 605T202 581L187 491Q181 455 181 419T193 353T234 304T315 280L317 300Q263 297 229 279T174 231T143 166T124 91L110 0Z" />
<glyph unicode="~" horiz-adv-x="558" d="M170 155Q169 163 168 170T168 188Q171 200 181 213T211 228Q224 229 235 224T259 211T283 194Q315 172 342 158T402 142Q445 142 476 157T529 198Q550 222 561 250T575 310Q576 317 576 324T574 338L430 344Q432 336
433 326T432 306Q430 296 421 284T398 272Q384 272 369 284T337 308Q306 330 281 343T221 357Q169 358 135 341T74 295Q53 272 41 245T26 186Q25 179 25 173T26 161L170 155Z" />
<glyph unicode="&#xa0;" horiz-adv-x="301" />
<glyph unicode="&#xa1;" horiz-adv-x="359" d="M232 -220L271 230H112L-4 -220H232ZM337 404Q344 451 314 480T235 510Q186 510 149 481T106 406Q100 360 129 331T208 301Q257 301 294 329T337 404Z" />
<glyph unicode="&#xa2;" horiz-adv-x="563" d="M182 38L140 -112H308L320 38H182ZM237 230Q242 257 261 277T305 310T357 322Q394 322 418 305T462 261L488 441Q460 455 427 462T352 470Q274 470 207 441T96 359T41 231Q31 158 60 104T147 21T282 -10Q323 -10
357 -2T420 19L446 198Q420 176 388 157T316 139Q291 140 272 151T243 182T237 230ZM260 578L248 428H387L428 578H260Z" />
<glyph unicode="&#xa3;" horiz-adv-x="611" d="M100 370L79 255H461L482 370H100ZM467 460L648 523Q648 563 631 597T581 656T506 696T409 710Q361 710 313 698T225 663T158 605T125 524Q121 490 132 464T158 414T185 366T192 309Q184 251 160 199T99 98T16 0H510L541
175H207L110 52Q145 61 186 81T267 129T335 194T369 274Q373 308 364 335T341 386T320 432T317 480Q321 501 333 516T364 539T403 546Q425 546 437 538T456 518T465 491T467 460Z" />
<glyph unicode="&#xa4;" horiz-adv-x="558" d="M72 505L162 401L235 464L151 574L72 505ZM65 27L179 129L120 201L5 103L65 27ZM489 400L604 501L545 574L429 475L489 400ZM370 133L459 28L533 92L448 201L370 133ZM71 301Q62 237 84 182T154 94T269 60Q337 60
394 92T489 179T536 300Q545 364 523 418T454 506T339 540Q271 540 214 508T119 421T71 301ZM239 299Q242 318 253 333T282 357T319 365Q338 365 350 356T367 333T369 301Q366 283 354 268T325 244T289 236Q271 237 259 245T241 267T239 299Z" />
<glyph unicode="&#xa5;" horiz-adv-x="702" d="M57 250H672L693 365H78L57 250ZM32 100H647L667 215H52L32 100ZM546 700L401 478L334 700H89L261 279L212 0H435L480 271L801 700H546Z" />
<glyph unicode="&#xa6;" horiz-adv-x="388" d="M188 695L139 415H336L385 695H188ZM315 285H118L69 5H266L315 285Z" />
<glyph unicode="&#xa7;" horiz-adv-x="659" d="M510 532L603 663Q572 695 522 713T413 732Q364 732 315 714T231 661T189 573Q186 545 192 522T211 480T242 447T282 424Q305 415 332 405T378 378T392 334Q389 315 376 303T346 282T313 268L305 223Q347 224 390
233T470 262T534 310T566 382Q571 419 557 448T514 498T447 528Q434 531 420 532T393 536T373 543T365 555Q366 562 373 566T391 574T412 577Q435 578 462 564T510 532ZM142 180L49 49Q82 24 118 7T198 -20T295 -30Q345 -29 396 -12T485 41T530 130Q535 169 522
199T484 251T427 287Q411 294 389 299T347 313T315 334T307 369Q310 389 323 401T353 421T386 434L393 479Q352 478 307 469T223 441T157 393T124 320Q119 282 138 254T191 209T262 182Q280 178 299 174T331 164T343 147Q342 141 335 136T318 129T297 125Q267 124
226 138T142 180Z" />
<glyph unicode="&#xa8;" horiz-adv-x="520" d="M363 616Q358 573 386 546T458 518Q501 518 535 545T575 614Q580 657 552 685T480 713Q437 713 403 686T363 616ZM101 616Q96 573 124 546T196 518Q239 518 273 545T313 614Q318 657 290 685T218 713Q175 713 141
686T101 616Z" />
<glyph unicode="&#xa9;" horiz-adv-x="776" d="M347 350Q352 380 370 402T415 436T471 448Q509 448 533 433T577 396L595 532Q569 550 540 561T471 572Q402 572 345 544T250 467T204 351Q196 287 220 237T295 158T413 129Q454 129 484 140T541 168L559 304Q534
285 504 269T432 253Q404 254 383 266T353 299T347 350ZM131 350Q141 413 172 469T249 569T354 636T478 660Q543 660 592 635T672 565T716 466T720 350Q710 287 679 231T602 132T497 65T372 41Q308 41 259 66T179 135T135 234T131 350ZM74 350Q65 278 82 213T140
98T240 19T375 -10Q452 -10 520 18T642 95T731 209T776 350Q785 423 768 488T711 603T610 681T475 710Q399 710 331 683T208 606T119 491T74 350Z" />
<glyph unicode="&#xaa;" horiz-adv-x="281" d="M174 528Q176 538 187 544T209 550Q224 551 234 546T254 534L261 576Q248 586 227 592T184 597Q145 597 114 579T77 527Q73 494 96 475T153 456Q188 456 211 475T243 524L240 555Q235 536 222 525T191 513Q184 513
179 517T174 528ZM143 612Q156 617 178 624T222 629Q238 628 243 619T248 596L222 461L315 460L342 628Q346 669 313 687T236 705Q206 705 178 698T124 681L143 612Z" />
<glyph unicode="&#xab;" horiz-adv-x="543" d="M394 255L574 441L465 520L259 261L381 -11L507 61L394 255ZM171 255L351 441L242 520L36 261L158 -11L284 61L171 255Z" />
<glyph unicode="&#xac;" horiz-adv-x="649" d="M81 256H484L466 175H591L633 420H107L81 256Z" />
<glyph unicode="&#xad;" horiz-adv-x="204" d="M13 201H210L222 275H25L13 201Z" />
<glyph unicode="&#xae;" horiz-adv-x="776" d="M414 310L449 150H596L523 310H414ZM304 570L238 150H369L435 570H304ZM370 460H451Q469 459 481 452T491 427Q488 409 471 401T434 391H358L342 292L439 293Q519 295 569 332T628 436Q636 498 592 533T472 570H387L370
460ZM131 350Q141 413 172 469T249 569T354 636T478 660Q543 660 592 635T672 565T716 466T720 350Q710 287 679 231T602 132T497 65T372 41Q308 41 259 66T179 135T135 234T131 350ZM74 350Q65 278 82 213T140 98T240 19T375 -10Q452 -10 520 18T642 95T731 209T776
350Q785 423 768 488T711 603T610 681T475 710Q399 710 331 683T208 606T119 491T74 350Z" />
<glyph unicode="&#xaf;" horiz-adv-x="529" d="M144 555H521L547 720H170L144 555Z" />
<glyph unicode="&#xb0;" horiz-adv-x="299" d="M88 596Q81 542 115 507T207 471Q245 471 278 486T333 530T360 594Q365 631 350 659T306 703T239 720Q202 720 169 704T115 660T88 596ZM181 594Q183 606 191 616T210 634T234 640Q251 639 259 626T266 596Q264 585
256 575T236 558T213 552Q197 553 189 565T181 594Z" />
<glyph unicode="&#xb1;" horiz-adv-x="626" d="M46 10H549L574 170H71L46 10ZM94 325H597L624 495H121L94 325ZM296 620L230 200H423L488 620H296Z" />
<glyph unicode="&#xb2;" horiz-adv-x="433" d="M40 283L427 282L448 402L302 403L386 461Q415 482 436 509T462 571Q468 610 449 642T394 693T309 712Q252 712 210 688T143 626T107 541L236 540Q240 555 248 569T268 592T296 601Q309 601 316 595T325 580T327
562Q323 534 299 512T248 465L40 283Z" />
<glyph unicode="&#xb3;" horiz-adv-x="385" d="M213 482Q261 483 308 491T389 523T429 589Q435 627 416 654T361 695T281 709Q208 708 161 668T100 568L221 567Q227 583 240 594T273 607Q287 607 295 600T302 582Q300 567 287 557T257 542T221 534L213 482ZM211
268Q262 268 304 283T375 327T408 396Q413 432 399 455T356 492T291 512T216 519L206 458Q229 457 247 452T275 437T281 411Q279 392 261 381T224 371Q202 373 192 387T182 427H56Q54 385 70 349T122 291T211 268Z" />
<glyph unicode="&#xb4;" horiz-adv-x="364" d="M405 647L272 710L105 554L210 501L405 647Z" />
<glyph unicode="&#xb5;" horiz-adv-x="605" d="M300 460H100L-35 -320H150L206 20Q222 7 234 4T260 0Q279 0 297 12T329 47L320 0H515L590 460H405L360 220Q356 199 348 184T328 162T298 154Q278 154 268 162T255 186T255 220L300 460Z" />
<glyph unicode="&#xb6;" horiz-adv-x="706" d="M297 271L213 -220H381L520 590H556L417 -220H585L743 700H371Q307 700 252 675T160 602T113 486Q104 422 126 375T192 302T297 271Z" />
<glyph unicode="&#xb7;" horiz-adv-x="326" d="M69 286Q65 256 76 230T112 187T170 171Q203 171 231 186T278 228T301 284Q305 315 294 341T258 383T200 400Q167 400 139 385T92 343T69 286Z" />
<glyph unicode="&#xb8;" horiz-adv-x="408" d="M153 78L35 -131Q64 -123 91 -120T135 -118Q146 -118 159 -120T182 -127T191 -146Q191 -157 180 -165T155 -176T127 -180Q110 -181 86 -174T41 -155L-21 -238Q20 -260 61 -270T150 -279Q185 -278 219 -265T278 -226T308
-163Q314 -114 287 -83T221 -50Q208 -50 196 -52T172 -56L297 72L153 78Z" />
<glyph unicode="&#xb9;" horiz-adv-x="476" d="M183 548L295 572L244 274H370L444 705L203 660L183 548Z" />
<glyph unicode="&#xba;" horiz-adv-x="270" d="M88 581Q81 527 117 494T208 461Q246 461 279 475T334 516T361 579Q366 616 351 643T306 685T239 700Q202 700 169 686T115 644T88 581ZM187 579Q189 591 196 601T213 617T234 623Q248 622 255 610T261 581Q260 570
252 560T234 545T213 539Q199 540 192 552T187 579Z" />
<glyph unicode="&#xbb;" horiz-adv-x="543" d="M182 255L3 70L112 -9L317 250L196 522L69 449L182 255ZM405 255L226 70L335 -9L541 250L419 522L292 449L405 255Z" />
<glyph unicode="&#xbc;" horiz-adv-x="838" d="M707 700L82 0H204L829 700H707ZM84 548L196 572L145 274H271L345 705L104 660L84 548ZM379 70L798 69L818 180H695L681 159H500L379 70ZM525 117L644 244L619 97L600 91L585 0H722L795 420H684L374 65L525 117Z" />
<glyph unicode="&#xbd;" horiz-adv-x="911" d="M707 700L82 0H204L829 700H707ZM84 548L196 572L145 274H271L345 705L104 660L84 548ZM466 3L853 2L874 122L728 123L811 181Q840 202 861 229T888 291Q894 330 875 362T820 413T735 432Q678 432 636 408T568 346T533
261L662 260Q666 275 674 289T694 312T721 321Q734 321 741 315T751 300T753 282Q749 254 725 232T674 185L466 3Z" />
<glyph unicode="&#xbe;" horiz-adv-x="888" d="M767 700L143 0H264L889 700H767ZM223 482Q271 483 318 491T398 523T439 589Q445 627 426 654T371 695T291 709Q218 708 171 668T109 568L231 567Q236 583 249 594T282 607Q296 607 304 600T311 582Q309 567 297
557T267 542T231 534L223 482ZM220 268Q271 268 313 283T384 327T418 396Q423 432 409 455T366 492T301 512T226 519L216 458Q239 457 257 452T285 437T291 411Q288 392 270 381T233 371Q211 373 202 387T192 427H66Q63 385 80 349T132 291T220 268ZM429 70L849
69L869 180H746L732 159H550L429 70ZM575 117L694 244L669 97L651 91L635 0H773L846 420H734L424 65L575 117Z" />
<glyph unicode="&#xbf;" horiz-adv-x="649" d="M246 200Q252 227 278 249T344 286T430 300H463L473 480H312L297 418Q243 404 191 377T101 306T54 201Q47 147 64 106T117 35T198 -9T293 -25Q383 -25 460 12T604 111L496 224Q462 186 415 161T319 136Q295 137 278
144T252 165T246 200ZM535 629Q541 671 510 700T432 730Q401 730 373 717T327 681T304 631Q298 590 329 561T407 531Q439 531 466 544T513 580T535 629Z" />
<glyph unicode="&#xc0;" horiz-adv-x="757" d="M187 90H550L578 248H215L187 90ZM421 382L468 189L443 133L494 0H734L478 753L-36 0H215L311 138L303 189L421 382ZM342 963L494 810L604 857L483 1021L342 963Z" />
<glyph unicode="&#xc1;" horiz-adv-x="757" d="M187 90H550L578 248H215L187 90ZM421 382L468 189L443 133L494 0H734L478 753L-36 0H215L311 138L303 189L421 382ZM687 957L555 1019L385 864L490 811L687 957Z" />
<glyph unicode="&#xc2;" horiz-adv-x="757" d="M187 90H550L578 248H215L187 90ZM421 382L468 189L443 133L494 0H734L478 753L-36 0H215L311 138L303 189L421 382ZM508 889L571 809L719 897L524 1040L292 904L417 810L508 889Z" />
<glyph unicode="&#xc3;" horiz-adv-x="757" d="M187 90H550L578 248H215L187 90ZM421 382L468 189L443 133L494 0H734L478 753L-36 0H215L311 138L303 189L421 382ZM294 895L367 816Q373 830 385 847T421 866Q446 868 467 855T511 827T558 811Q591 810 622 824T677
859T716 901L642 996Q626 976 607 959T563 941Q537 941 518 954T480 981T432 995Q398 996 371 981T324 943T294 895Z" />
<glyph unicode="&#xc4;" horiz-adv-x="757" d="M187 90H550L578 248H215L187 90ZM421 382L468 189L443 133L494 0H734L478 753L-36 0H215L311 138L303 189L421 382ZM545 820Q540 777 568 749T639 721Q682 721 717 748T757 817Q763 860 735 888T664 916Q621 916
586 889T545 820ZM217 830Q212 787 240 759T311 731Q354 731 389 758T429 827Q435 870 407 898T336 926Q293 926 258 899T217 830Z" />
<glyph unicode="&#xc5;" horiz-adv-x="757" d="M187 90H550L578 248H215L187 90ZM421 382L468 189L443 133L494 0H734L478 753L-36 0H215L311 138L303 189L421 382ZM352 803Q347 767 361 739T405 695T471 678Q509 678 542 694T598 737T625 801Q630 838 615 866T571
910T504 927Q466 927 434 911T379 867T352 803ZM446 801Q448 813 456 823T475 841T498 847Q515 846 523 833T530 803Q528 786 511 772T477 759Q461 760 453 772T446 801Z" />
<glyph unicode="&#xc6;" horiz-adv-x="1126" d="M283 115H588L623 315H328L283 115ZM524 700L-12 0H273L728 658L524 700ZM638 0H1032L1063 175H668L638 0ZM742 525H1122L1152 700H524L742 525ZM685 275H1060L1090 445H715L685 275ZM659 700L539 0H775L895 700H659Z" />
<glyph unicode="&#xc7;" horiz-adv-x="689" d="M298 350Q305 388 324 418T371 469T433 501T504 513Q567 513 608 488T681 427L715 653Q673 683 626 701T512 720Q424 720 348 694T211 618T111 500T60 350Q48 270 67 203T132 85T245 8T398 -20Q466 -20 517 -1T615
47L648 272Q607 241 556 214T437 188Q401 188 373 200T325 233T299 284T298 350ZM311 41L193 -168Q222 -160 249 -157T293 -154Q304 -154 317 -156T340 -164T349 -182Q349 -194 338 -201T312 -212T284 -217Q268 -217 244 -211T199 -191L137 -274Q178 -296 219 -306T308
-316Q343 -315 377 -302T436 -263T466 -199Q472 -150 445 -119T379 -87Q366 -87 354 -88T330 -92L455 35L311 41Z" />
<glyph unicode="&#xc8;" horiz-adv-x="616" d="M186 0H532L563 175H217L186 0ZM276 525H622L653 700H307L276 525ZM233 275H560L590 445H263L233 275ZM159 700L39 0H246L366 700H159ZM272 943L425 790L535 837L414 1001L272 943Z" />
<glyph unicode="&#xc9;" horiz-adv-x="616" d="M186 0H532L563 175H217L186 0ZM276 525H622L653 700H307L276 525ZM233 275H560L590 445H263L233 275ZM159 700L39 0H246L366 700H159ZM618 937L486 999L317 844L422 791L618 937Z" />
<glyph unicode="&#xca;" horiz-adv-x="616" d="M186 0H532L563 175H217L186 0ZM276 525H622L653 700H307L276 525ZM233 275H560L590 445H263L233 275ZM159 700L39 0H246L366 700H159ZM430 859L494 779L641 867L447 1010L214 874L339 780L430 859Z" />
<glyph unicode="&#xcb;" horiz-adv-x="616" d="M186 0H532L563 175H217L186 0ZM276 525H622L653 700H307L276 525ZM233 275H560L590 445H263L233 275ZM159 700L39 0H246L366 700H159ZM461 880Q456 837 484 809T555 781Q598 781 633 808T673 877Q679 920 651 948T580
976Q537 976 502 949T461 880ZM199 880Q194 837 222 809T293 781Q336 781 371 808T411 877Q417 920 389 948T318 976Q275 976 240 949T199 880Z" />
<glyph unicode="&#xcc;" horiz-adv-x="354" d="M159 700L39 0H261L381 700H159ZM127 943L279 790L389 837L268 1001L127 943Z" />
<glyph unicode="&#xcd;" horiz-adv-x="354" d="M159 700L39 0H261L381 700H159ZM473 937L341 999L171 844L276 791L473 937Z" />
<glyph unicode="&#xce;" horiz-adv-x="354" d="M159 700L39 0H261L381 700H159ZM285 859L349 779L496 867L302 1010L69 874L194 780L285 859Z" />
<glyph unicode="&#xcf;" horiz-adv-x="354" d="M159 700L39 0H261L381 700H159ZM326 880Q320 837 348 809T419 781Q462 781 497 808T538 877Q543 920 516 948T444 976Q401 976 366 949T326 880ZM64 880Q58 837 86 809T157 781Q200 781 235 808T276 877Q281 920
253 948T182 976Q139 976 104 949T64 880Z" />
<glyph unicode="&#xd0;" horiz-adv-x="742" d="M28 298H400L420 413H48L28 298ZM159 700L39 0H265L385 700H159ZM314 0Q430 2 522 44T673 164T748 350Q764 456 728 534T613 655T421 700H307L273 511L391 510Q435 509 467 493T515 443T522 350Q513 290 484 256T413
206T325 190H220L186 0H314Z" />
<glyph unicode="&#xd1;" horiz-adv-x="781" d="M601 700L545 382L164 733L39 0H246L301 318L683 -33L808 700H601ZM259 860L332 781Q338 795 349 812T386 831Q411 833 432 820T476 792T523 776Q556 775 587 789T642 824T680 866L607 961Q591 941 571 924T527 906Q502
906 483 919T445 946T397 960Q363 961 336 946T289 908T259 860Z" />
<glyph unicode="&#xd2;" horiz-adv-x="815" d="M289 350Q295 386 311 417T351 472T407 509T476 522Q514 522 538 508T576 469T593 414T592 350Q586 315 570 284T530 229T474 192T405 179Q369 179 344 193T305 232T288 286T289 350ZM60 350Q49 272 66 204T126 83T234
0T382 -30Q466 -30 540 -1T674 79T771 200T821 350Q832 428 814 495T752 613T643 692T497 720Q415 720 342 693T209 616T111 499T60 350ZM382 943L535 790L644 837L523 1001L382 943Z" />
<glyph unicode="&#xd3;" horiz-adv-x="815" d="M289 350Q295 386 311 417T351 472T407 509T476 522Q514 522 538 508T576 469T593 414T592 350Q586 315 570 284T530 229T474 192T405 179Q369 179 344 193T305 232T288 286T289 350ZM60 350Q49 272 66 204T126 83T234
0T382 -30Q466 -30 540 -1T674 79T771 200T821 350Q832 428 814 495T752 613T643 692T497 720Q415 720 342 693T209 616T111 499T60 350ZM727 937L595 999L425 844L530 791L727 937Z" />
<glyph unicode="&#xd4;" horiz-adv-x="815" d="M289 350Q295 386 311 417T351 472T407 509T476 522Q514 522 538 508T576 469T593 414T592 350Q586 315 570 284T530 229T474 192T405 179Q369 179 344 193T305 232T288 286T289 350ZM60 350Q49 272 66 204T126 83T234
0T382 -30Q466 -30 540 -1T674 79T771 200T821 350Q832 428 814 495T752 613T643 692T497 720Q415 720 342 693T209 616T111 499T60 350ZM537 859L601 779L748 867L553 1010L321 874L446 780L537 859Z" />
<glyph unicode="&#xd5;" horiz-adv-x="815" d="M289 350Q295 386 311 417T351 472T407 509T476 522Q514 522 538 508T576 469T593 414T592 350Q586 315 570 284T530 229T474 192T405 179Q369 179 344 193T305 232T288 286T289 350ZM60 350Q49 272 66 204T126 83T234
0T382 -30Q466 -30 540 -1T674 79T771 200T821 350Q832 428 814 495T752 613T643 692T497 720Q415 720 342 693T209 616T111 499T60 350ZM314 860L387 781Q393 795 404 812T441 831Q466 833 487 820T531 792T578 776Q611 775 642 789T697 824T735 866L662 961Q646
941 626 924T582 906Q557 906 538 919T500 946T452 960Q418 961 391 946T344 908T314 860Z" />
<glyph unicode="&#xd6;" horiz-adv-x="815" d="M289 350Q295 386 311 417T351 472T407 509T476 522Q514 522 538 508T576 469T593 414T592 350Q586 315 570 284T530 229T474 192T405 179Q369 179 344 193T305 232T288 286T289 350ZM60 350Q49 272 66 204T126 83T234
0T382 -30Q466 -30 540 -1T674 79T771 200T821 350Q832 428 814 495T752 613T643 692T497 720Q415 720 342 693T209 616T111 499T60 350ZM556 880Q550 837 578 809T649 781Q692 781 727 808T768 877Q773 920 746 948T674 976Q631 976 596 949T556 880ZM294 880Q288
837 316 809T387 781Q430 781 465 808T506 877Q511 920 483 948T412 976Q369 976 334 949T294 880Z" />
<glyph unicode="&#xd7;" horiz-adv-x="578" d="M122 -8L291 142L407 -9L536 104L414 251L586 397L490 519L321 369L204 519L76 407L198 259L26 113L122 -8Z" />
<glyph unicode="&#xd8;" horiz-adv-x="767" d="M289 350Q295 387 311 418T351 473T407 509T476 522Q513 522 537 508T576 470T593 415T592 350Q586 314 570 283T530 228T474 191T405 179Q368 179 344 193T305 231T288 285T289 350ZM60 350Q49 272 67 204T128 83T235
0T382 -30Q465 -30 539 -1T673 79T770 200T821 350Q832 428 814 495T752 613T643 692T497 720Q414 720 340 693T208 616T111 499T60 350ZM780 760L25 0L95 -60L852 695L780 760Z" />
<glyph unicode="&#xd9;" horiz-adv-x="724" d="M154 700L75 230Q63 140 94 80T189 -10T334 -40Q419 -40 491 -10T613 80T676 230L755 700H539L461 251Q456 225 443 203T407 168T356 156Q328 157 313 170T294 204T292 250L371 700H154ZM320 933L473 780L582 827L462
991L320 933Z" />
<glyph unicode="&#xda;" horiz-adv-x="724" d="M154 700L75 230Q63 140 94 80T189 -10T334 -40Q419 -40 491 -10T613 80T676 230L755 700H539L461 251Q456 225 443 203T407 168T356 156Q328 157 313 170T294 204T292 250L371 700H154ZM670 927L538 989L368 834L473
781L670 927Z" />
<glyph unicode="&#xdb;" horiz-adv-x="724" d="M154 700L75 230Q63 140 94 80T189 -10T334 -40Q419 -40 491 -10T613 80T676 230L755 700H539L461 251Q456 225 443 203T407 168T356 156Q328 157 313 170T294 204T292 250L371 700H154ZM486 859L550 779L697 867L503
1010L270 874L395 780L486 859Z" />
<glyph unicode="&#xdc;" horiz-adv-x="724" d="M154 700L75 230Q63 140 94 80T189 -10T334 -40Q419 -40 491 -10T613 80T676 230L755 700H539L461 251Q456 225 443 203T407 168T356 156Q328 157 313 170T294 204T292 250L371 700H154ZM539 880Q534 837 562 809T633
781Q676 781 711 808T751 877Q757 920 729 948T658 976Q615 976 580 949T539 880ZM219 880Q213 837 241 809T312 781Q355 781 390 808T431 877Q436 920 409 948T337 976Q294 976 259 949T219 880Z" />
<glyph unicode="&#xdd;" horiz-adv-x="699" d="M657 927L525 989L356 834L461 781L657 927ZM545 700L401 478L334 700H89L261 279L212 0H434L479 270L801 700H545Z" />
<glyph unicode="&#xde;" horiz-adv-x="631" d="M169 700L49 0H232L352 700H169ZM239 425H376Q404 424 424 418T454 398T458 356Q453 329 437 314T397 292T341 285H217L187 120H325Q415 121 482 148T591 227T645 355Q657 432 629 483T541 562T393 590H269L239 425Z" />
<glyph unicode="&#xdf;" horiz-adv-x="626" d="M412 -12Q474 -12 525 16T608 93T639 200Q639 243 628 269T599 311T565 338T536 360T524 390Q524 403 536 418T566 450T601 490T631 539T643 602Q643 660 611 704T525 773T402 799Q302 799 239 766T143 670T95 519L6
-2H201L289 528Q294 560 306 582T337 615T382 626Q411 626 426 610T441 560Q441 533 429 513T400 477T364 445T334 412T322 372Q322 350 333 335T362 308T396 282T425 250T437 205Q437 185 428 170T403 147T363 138Q342 138 316 144T269 160L250 11Q266 5 295 0T356
-9T412 -12Z" />
<glyph unicode="&#xe0;" horiz-adv-x="626" d="M438 460L359 0H552L631 460H438ZM40 231Q32 165 51 111T112 24T213 -9Q259 -9 298 9T368 61T419 137T445 230Q451 277 444 320T417 397T363 450T283 470Q224 470 172 439T84 354T40 231ZM242 230Q246 253 260 274T296
308T341 320Q357 319 368 312T388 292T398 264T399 231Q396 213 387 197T364 167T334 147T301 141Q279 142 265 155T245 188T242 230ZM229 684L382 531L491 578L371 742L229 684Z" />
<glyph unicode="&#xe1;" horiz-adv-x="626" d="M438 460L359 0H552L631 460H438ZM40 231Q32 165 51 111T112 24T213 -9Q259 -9 298 9T368 61T419 137T445 230Q451 277 444 320T417 397T363 450T283 470Q224 470 172 439T84 354T40 231ZM242 230Q246 253 260 274T296
308T341 320Q357 319 368 312T388 292T398 264T399 231Q396 213 387 197T364 167T334 147T301 141Q279 142 265 155T245 188T242 230ZM559 678L428 740L258 585L363 532L559 678Z" />
<glyph unicode="&#xe2;" horiz-adv-x="626" d="M438 460L359 0H552L631 460H438ZM40 231Q32 165 51 111T112 24T213 -9Q259 -9 298 9T368 61T419 137T445 230Q451 277 444 320T417 397T363 450T283 470Q224 470 172 439T84 354T40 231ZM242 230Q246 253 260 274T296
308T341 320Q357 319 368 312T388 292T398 264T399 231Q396 213 387 197T364 167T334 147T301 141Q279 142 265 155T245 188T242 230ZM405 610L469 530L616 618L421 761L189 625L314 531L405 610Z" />
<glyph unicode="&#xe3;" horiz-adv-x="626" d="M438 460L359 0H552L631 460H438ZM40 231Q32 165 51 111T112 24T213 -9Q259 -9 298 9T368 61T419 137T445 230Q451 277 444 320T417 397T363 450T283 470Q224 470 172 439T84 354T40 231ZM242 230Q246 253 260 274T296
308T341 320Q357 319 368 312T388 292T398 264T399 231Q396 213 387 197T364 167T334 147T301 141Q279 142 265 155T245 188T242 230ZM201 616L274 537Q280 551 291 568T328 587Q353 589 374 576T418 548T465 532Q498 531 529 545T584 580T622 622L549 717Q533
697 513 680T469 662Q443 662 425 675T387 702T339 716Q303 716 276 702T230 665T201 616Z" />
<glyph unicode="&#xe4;" horiz-adv-x="626" d="M438 460L359 0H552L631 460H438ZM40 231Q32 165 51 111T112 24T213 -9Q259 -9 298 9T368 61T419 137T445 230Q451 277 444 320T417 397T363 450T283 470Q224 470 172 439T84 354T40 231ZM242 230Q246 253 260 274T296
308T341 320Q357 319 368 312T388 292T398 264T399 231Q396 213 387 197T364 167T334 147T301 141Q279 142 265 155T245 188T242 230ZM419 631Q413 588 441 560T513 532Q556 532 590 559T631 628Q636 671 609 699T537 727Q494 727 459 700T419 631ZM157 631Q151
588 179 560T250 532Q293 532 328 559T369 628Q374 671 347 699T275 727Q232 727 197 700T157 631Z" />
<glyph unicode="&#xe5;" horiz-adv-x="626" d="M438 460L359 0H552L631 460H438ZM40 231Q32 165 51 111T112 24T213 -9Q259 -9 298 9T368 61T419 137T445 230Q451 277 444 320T417 397T363 450T283 470Q224 470 172 439T84 354T40 231ZM242 230Q246 253 260 274T296
308T341 320Q357 319 368 312T388 292T398 264T399 231Q396 213 387 197T364 167T334 147T301 141Q279 142 265 155T245 188T242 230ZM262 657Q257 621 271 593T315 549T381 532Q419 532 452 548T508 591T535 655Q540 692 525 720T481 764T414 781Q376 781 344
765T289 721T262 657ZM356 655Q358 667 366 677T385 695T408 701Q425 700 433 687T440 657Q439 646 431 636T411 619T387 613Q371 614 363 626T356 655Z" />
<glyph unicode="&#xe6;" horiz-adv-x="939" d="M192 -10Q279 -10 340 18T431 98L419 99Q434 44 483 17T617 -10Q715 -10 784 26T905 137L732 165Q718 145 689 133T628 120Q603 120 588 129T567 157T562 208L540 190H905Q907 196 910 210T915 239Q928 314 910 365T843
443T717 470Q666 470 622 458T541 422T475 362H488Q490 421 455 448T343 475Q291 475 233 463T103 424L141 298Q161 307 189 315T247 328T299 333Q335 333 350 318T361 272L352 220H439Q372 251 327 263T237 275Q177 275 129 257T50 207T12 130Q1 63 48 27T192
-10ZM251 106Q227 106 217 114T210 139Q212 153 220 162T241 175T275 180Q301 180 325 173T370 152L344 179L342 144L347 182Q341 146 316 126T251 106ZM565 234Q572 273 584 298T616 337T662 350Q684 350 697 341T714 313T714 266Q713 262 709 250L738 284H556L565
234Z" />
<glyph unicode="&#xe7;" horiz-adv-x="488" d="M237 230Q242 256 260 276T304 309T357 322Q386 323 414 308T461 264L487 441Q459 453 428 461T351 470Q273 470 206 441T95 359T40 231Q30 158 59 104T147 20T281 -10Q327 -10 359 -1T420 21L445 196Q418 170 385
154T315 139Q289 140 270 151T242 183T237 230ZM198 61L80 -148Q109 -140 136 -137T180 -134Q191 -134 204 -136T227 -144T236 -162Q236 -174 225 -181T199 -192T171 -197Q155 -197 131 -191T86 -171L24 -254Q65 -276 106 -286T195 -296Q230 -295 264 -282T323
-243T353 -179Q359 -130 332 -99T266 -67Q253 -67 241 -68T217 -72L342 55L198 61Z" />
<glyph unicode="&#xe8;" horiz-adv-x="591" d="M139 191H565Q568 205 570 217T574 239Q583 311 559 362T481 442T346 470Q271 470 212 447T111 381T51 279Q47 267 45 255T40 230Q30 159 57 105T143 20T286 -10Q350 -10 401 8T492 58T562 135L388 165Q377 152 362
142T328 126T287 121Q264 123 251 137T233 175T232 230L238 250Q244 277 255 300T286 337T331 350Q350 349 359 341T371 318T376 285L153 284L139 191ZM215 684L367 531L477 578L356 742L215 684Z" />
<glyph unicode="&#xe9;" horiz-adv-x="591" d="M139 191H565Q568 205 570 217T574 239Q583 311 559 362T481 442T346 470Q271 470 212 447T111 381T51 279Q47 267 45 255T40 230Q30 159 57 105T143 20T286 -10Q350 -10 401 8T492 58T562 135L388 165Q377 152 362
142T328 126T287 121Q264 123 251 137T233 175T232 230L238 250Q244 277 255 300T286 337T331 350Q350 349 359 341T371 318T376 285L153 284L139 191ZM564 678L432 740L263 585L368 532L564 678Z" />
<glyph unicode="&#xea;" horiz-adv-x="591" d="M139 191H565Q568 205 570 217T574 239Q583 311 559 362T481 442T346 470Q271 470 212 447T111 381T51 279Q47 267 45 255T40 230Q30 159 57 105T143 20T286 -10Q350 -10 401 8T492 58T562 135L388 165Q377 152 362
142T328 126T287 121Q264 123 251 137T233 175T232 230L238 250Q244 277 255 300T286 337T331 350Q350 349 359 341T371 318T376 285L153 284L139 191ZM380 610L444 530L591 618L397 761L165 625L290 531L380 610Z" />
<glyph unicode="&#xeb;" horiz-adv-x="591" d="M139 191H565Q568 205 570 217T574 239Q583 311 559 362T481 442T346 470Q271 470 212 447T111 381T51 279Q47 267 45 255T40 230Q30 159 57 105T143 20T286 -10Q350 -10 401 8T492 58T562 135L388 165Q377 152 362
142T328 126T287 121Q264 123 251 137T233 175T232 230L238 250Q244 277 255 300T286 337T331 350Q350 349 359 341T371 318T376 285L153 284L139 191ZM404 631Q399 588 427 560T498 532Q541 532 576 559T616 628Q622 671 594 699T523 727Q480 727 445 700T404
631ZM142 631Q137 588 165 560T236 532Q279 532 314 559T354 628Q360 671 332 699T261 727Q218 727 183 700T142 631Z" />
<glyph unicode="&#xec;" horiz-adv-x="278" d="M98 460L19 0H204L283 460H98ZM42 684L194 531L304 578L183 742L42 684Z" />
<glyph unicode="&#xed;" horiz-adv-x="278" d="M98 460L19 0H204L283 460H98ZM403 678L271 740L102 585L207 532L403 678Z" />
<glyph unicode="&#xee;" horiz-adv-x="278" d="M98 460L19 0H204L283 460H98ZM219 610L283 530L430 618L236 761L4 625L129 531L219 610Z" />
<glyph unicode="&#xef;" horiz-adv-x="278" d="M98 460L19 0H204L283 460H98ZM244 631Q239 588 267 560T338 532Q381 532 416 559T456 628Q462 671 434 699T363 727Q320 727 285 700T244 631ZM-18 631Q-23 588 5 560T76 532Q119 532 154 559T194 628Q200 671 172
699T101 727Q58 727 23 700T-18 631Z" />
<glyph unicode="&#xf0;" horiz-adv-x="657" d="M314 -20Q384 -20 444 3T548 67T618 162T643 280Q643 332 632 381T599 479T540 575T454 675T339 782L188 695Q244 658 290 619T373 535T439 438T491 320L532 318Q486 401 430 442T303 483Q249 483 204 463T125 407T74
324T55 220Q55 147 89 93T183 10T314 -20ZM333 150Q299 150 280 172T261 225Q261 244 268 261T289 291T319 313T358 321Q381 321 397 311T421 283T430 245Q430 226 423 209T403 179T372 158T333 150ZM210 509L600 624L584 684L194 569L210 509Z" />
<glyph unicode="&#xf1;" horiz-adv-x="587" d="M291 460H99L20 0H212L291 460ZM361 280L311 0H513L564 300Q571 351 560 389T515 450T423 471Q363 471 324 443T263 369T232 271L260 281Q264 298 273 313T297 338T329 345Q347 343 354 334T362 310T361 280ZM162
616L234 537Q240 551 252 568T289 587Q314 589 335 576T378 548T425 532Q458 531 489 545T544 580T583 622L510 717Q494 697 474 680T430 662Q404 662 386 675T348 702T299 716Q265 717 238 702T192 664T162 616Z" />
<glyph unicode="&#xf2;" horiz-adv-x="598" d="M40 231Q30 159 58 105T144 21T276 -10Q353 -10 419 19T529 103T583 230Q593 302 564 356T478 441T346 471Q270 471 204 442T95 358T40 231ZM237 230Q241 254 255 273T289 305T330 316Q351 315 364 303T383 272T386
231Q382 207 368 188T334 157T292 146Q271 147 258 158T239 189T237 230ZM234 684L386 531L496 578L375 742L234 684Z" />
<glyph unicode="&#xf3;" horiz-adv-x="598" d="M40 231Q30 159 58 105T144 21T276 -10Q353 -10 419 19T529 103T583 230Q593 302 564 356T478 441T346 471Q270 471 204 442T95 358T40 231ZM237 230Q241 254 255 273T289 305T330 316Q351 315 364 303T383 272T386
231Q382 207 368 188T334 157T292 146Q271 147 258 158T239 189T237 230ZM545 678L413 740L243 585L348 532L545 678Z" />
<glyph unicode="&#xf4;" horiz-adv-x="598" d="M40 231Q30 159 58 105T144 21T276 -10Q353 -10 419 19T529 103T583 230Q593 302 564 356T478 441T346 471Q270 471 204 442T95 358T40 231ZM237 230Q241 254 255 273T289 305T330 316Q351 315 364 303T383 272T386
231Q382 207 368 188T334 157T292 146Q271 147 258 158T239 189T237 230ZM380 610L444 530L591 618L397 761L165 625L290 531L380 610Z" />
<glyph unicode="&#xf5;" horiz-adv-x="598" d="M40 231Q30 159 58 105T144 21T276 -10Q353 -10 419 19T529 103T583 230Q593 302 564 356T478 441T346 471Q270 471 204 442T95 358T40 231ZM237 230Q241 254 255 273T289 305T330 316Q351 315 364 303T383 272T386
231Q382 207 368 188T334 157T292 146Q271 147 258 158T239 189T237 230ZM167 616L240 537Q246 551 257 568T294 587Q319 589 340 576T384 548T431 532Q464 531 495 545T550 580T588 622L515 717Q499 697 479 680T435 662Q409 662 391 675T353 702T305 716Q277
716 245 702T190 665T167 616Z" />
<glyph unicode="&#xf6;" horiz-adv-x="598" d="M40 231Q30 159 58 105T144 21T276 -10Q353 -10 419 19T529 103T583 230Q593 302 564 356T478 441T346 471Q270 471 204 442T95 358T40 231ZM237 230Q241 254 255 273T289 305T330 316Q351 315 364 303T383 272T386
231Q382 207 368 188T334 157T292 146Q271 147 258 158T239 189T237 230ZM404 631Q399 588 427 560T498 532Q541 532 576 559T616 628Q622 671 594 699T523 727Q480 727 445 700T404 631ZM142 631Q137 588 165 560T236 532Q279 532 314 559T354 628Q360 671 332
699T261 727Q218 727 183 700T142 631Z" />
<glyph unicode="&#xf7;" horiz-adv-x="631" d="M278 616Q274 586 285 560T321 517T379 501Q412 501 440 516T486 558T509 614Q514 645 502 671T466 713T408 730Q375 730 347 715T301 673T278 616ZM192 116Q186 70 214 36T293 1Q327 1 355 16T401 58T424 114Q428
145 417 171T381 213T323 230Q290 230 262 215T216 173T192 116ZM24 280H648L678 450H54L24 280Z" />
<glyph unicode="&#xf8;" horiz-adv-x="530" d="M40 231Q30 156 59 102T145 19T276 -10Q352 -10 418 18T528 100T583 230Q594 305 565 358T478 441T346 470Q271 470 205 442T95 360T40 231ZM218 230Q223 256 240 277T282 312T332 325Q357 324 375 311T401 276T405
231Q401 202 384 181T342 147T290 136Q265 137 247 148T222 181T218 230ZM506 510L43 -12L104 -53L569 466L506 510Z" />
<glyph unicode="&#xf9;" horiz-adv-x="587" d="M320 0H513L592 460H400L320 0ZM251 180L301 460H99L48 160Q42 110 53 71T97 11T188 -11Q249 -10 288 18T349 92T380 189L352 180Q348 163 339 147T315 122T282 115Q264 117 257 126T250 150T251 180ZM228 684L381
531L490 578L370 742L228 684Z" />
<glyph unicode="&#xfa;" horiz-adv-x="587" d="M320 0H513L592 460H400L320 0ZM251 180L301 460H99L48 160Q42 110 53 71T97 11T188 -11Q249 -10 288 18T349 92T380 189L352 180Q348 163 339 147T315 122T282 115Q264 117 257 126T250 150T251 180ZM539 678L407
740L238 585L343 532L539 678Z" />
<glyph unicode="&#xfb;" horiz-adv-x="587" d="M320 0H513L592 460H400L320 0ZM251 180L301 460H99L48 160Q42 110 53 71T97 11T188 -11Q249 -10 288 18T349 92T380 189L352 180Q348 163 339 147T315 122T282 115Q264 117 257 126T250 150T251 180ZM375 610L438
530L586 618L391 761L159 625L284 531L375 610Z" />
<glyph unicode="&#xfc;" horiz-adv-x="587" d="M320 0H513L592 460H400L320 0ZM251 180L301 460H99L48 160Q42 110 53 71T97 11T188 -11Q249 -10 288 18T349 92T380 189L352 180Q348 163 339 147T315 122T282 115Q264 117 257 126T250 150T251 180ZM400 631Q394
588 422 560T493 532Q536 532 571 559T612 628Q617 671 589 699T518 727Q475 727 440 700T400 631ZM138 631Q132 588 160 560T231 532Q274 532 309 559T349 628Q355 671 327 699T256 727Q213 727 178 700T138 631Z" />
<glyph unicode="&#xfd;" horiz-adv-x="553" d="M624 460H427L216 86L321 85L240 460H38L170 26L24 -219H216L624 460ZM542 678L410 740L241 585L345 532L542 678Z" />
<glyph unicode="&#xfe;" horiz-adv-x="626" d="M175 -220L346 780H153L-18 -220H175ZM611 230Q619 297 600 351T539 437T438 470Q392 470 352 452T281 400T230 324T204 231Q198 184 205 141T233 63T288 10T368 -10Q427 -10 479 21T566 107T611 230ZM409 231Q405
208 391 187T355 153T310 141Q294 141 282 148T262 169T251 197T250 230Q253 248 262 264T286 293T316 313T349 320Q372 319 386 306T407 272T409 231Z" />
<glyph unicode="&#xff;" horiz-adv-x="553" d="M624 460H427L216 86L321 85L240 460H38L170 26L24 -219H216L624 460ZM382 631Q377 588 405 560T476 532Q519 532 554 559T594 628Q600 671 572 699T501 727Q458 727 423 700T382 631ZM120 631Q115 588 143 560T214
532Q257 532 292 559T332 628Q338 671 310 699T238 727Q195 727 161 700T120 631Z" />
<glyph unicode="&#x2013;" horiz-adv-x="786" d="M65 155H709L738 320H94L65 155Z" />
<glyph unicode="&#x2014;" horiz-adv-x="941" d="M65 155H869L898 320H94L65 155Z" />
<glyph unicode="&#x2018;" horiz-adv-x="354" d="M306 430L402 700H259L110 431L306 430Z" />
<glyph unicode="&#x2019;" horiz-adv-x="354" d="M187 700L92 431H234L383 700H187Z" />
<glyph unicode="&#x201a;" horiz-adv-x="354" d="M91 80L-4 -189H138L287 80H91Z" />
<glyph unicode="&#x201c;" horiz-adv-x="597" d="M306 430L402 700H259L110 431L306 430ZM548 430L644 700H502L353 431L548 430Z" />
<glyph unicode="&#x201d;" horiz-adv-x="597" d="M187 700L92 431H234L383 700H187ZM430 700L334 431H477L626 700H430Z" />
<glyph unicode="&#x201e;" horiz-adv-x="597" d="M86 80L-9 -189H133L282 80H86ZM329 80L233 -189H376L525 80H329Z" />
<glyph unicode="&#x2022;" horiz-adv-x="308" d="M99 461Q95 431 106 405T142 362T200 346Q233 346 261 361T308 403T331 459Q335 490 324 516T288 558T230 575Q197 575 169 560T122 518T99 461Z" />
<glyph unicode="&#x2039;" horiz-adv-x="340" d="M171 255L351 441L242 520L36 261L158 -11L284 61L171 255Z" />
<glyph unicode="&#x203a;" horiz-adv-x="340" d="M201 255L22 70L131 -9L337 250L215 522L89 449L201 255Z" />
</font>
</defs>
</svg>
