<?xml version="1.0" standalone="no"?>
<!DOCTYPE svg PUBLIC "-//W3C//DTD SVG 1.1//EN" "http://www.w3.org/Graphics/SVG/1.1/DTD/svg11.dtd">
<svg xmlns="http://www.w3.org/2000/svg">
  <defs>
    <font id="Freeman" horiz-adv-x="492">
      <font-face font-family="Freeman" units-per-em="1000" panose-1="0 0 0 0 0 0 0 0 0 0" ascent="1050" descent="-280" alphabetic="0" />
      <glyph unicode=" " glyph-name="space" horiz-adv-x="220" />
      <glyph unicode="!" glyph-name="exclam" horiz-adv-x="269" d="M177,241L82,229L69,449V750H207V466L177,241ZM198,0H62V150H198V0Z" />
      <glyph unicode="&quot;" glyph-name="quotedbl" horiz-adv-x="416" d="M67,432L44,751H185L161,438l-94-6Zm188,0L232,751H372L349,438l-94-6Z" />
      <glyph unicode="#" glyph-name="numbersign" horiz-adv-x="627" d="M316,0l20,173H227L207,0H82l20,173H31V278h87l21,186H55V569h99l19,181H298L279,569H388l19,181H532L513,569h83V464H498L477,278h97V173H461L441,0H316ZM243,278H352l21,186H264L243,278Z" />
      <glyph unicode="$" glyph-name="dollar" horiz-adv-x="500" d="M221-64V22Q141,30 89,80T30,222l122,27q3-54 30.5-83T251,137q39,0 57.5,22T327,206q0,33-19,52.5T259,294l-85,45q-62,33-97.5,79T41,539q0,54 23.5,95.5t64,66.5T221,732v82h66V732q76-10 120-60.5T456,540L341,516q-3,50-27.5,77.5T253,621q-34,0-54.5-19.5T178,549q0-30 18-48t49-35l90-48q69-37 101-83.5T468,222q0-50-21.5-93t-62-71.5T287,22V-56l-66-8Z" />
      <glyph unicode="%" glyph-name="percent" horiz-adv-x="831" d="M299-26L219,5L539,778l79-33L299-26ZM197,339q-76,0-114,57T45,553q0,97 38,154.5T197,765q80,0 118-57.5T353,553q0-100-38-157T197,339Zm2,83q30,0 41,39t11,91q0,54-10.5,91.5T199,681t-42-37.5T146,553t11-92t42-39ZM630-13q-76,0-114,57T478,201q0,97 38,154.5T630,413q80,0 118-57.5T786,201q0-100-38-157T630-13Zm2,84q30,0 41,38.5T684,200q0,54-10.5,91.5T632,329t-42-37.5T579,201t11-91.5T632,71Z" />
      <glyph unicode="&amp;" glyph-name="ampersand" horiz-adv-x="622" d="M223-14q-60,0-105,27T48.5,86.5T24,192q0,71 35,120t93,85q-23,38-36,76.5T103,567q0,49 22,92t65,69.5T295,755q46,0 83.5-19t60-55T461,594q0-67-37.5-117T316,383l98-141q20,36 32.5,74.5T464,394l111-24q-9-58-31.5-113T483,152q46-47 95-47q7,0 16,0.5t16,1.5L595-10q-15-2-26-3t-31-1q-40,0-73,17T401,51Q367,20 326,3T223-14Zm40,476q35,26 56.5,54.5T341,582q0,29-13,47.5T286,648q-27,0-42-22.5T229,569q0-31 7.5-54T263,462ZM251,107q52,0 81,28q-10,14-21,29.5T289,196L206,317q-24-19-36.5-45T157,208q0-41 25-71t69-30Z" />
      <glyph unicode="&apos;" glyph-name="quotesingle" horiz-adv-x="229" d="M67,434L44,751H185L161,440l-94-6Z" />
      <glyph unicode="(" glyph-name="parenleft" horiz-adv-x="341" d="M316-92Q172-92 106,24.5T40,377q0,237 66,349.5T317,839V756q-55-9-85-54T191,575.5T180,377t11-200T231.5,47T316-10V-92Z" />
      <glyph unicode=")" glyph-name="parenright" horiz-adv-x="341" d="M25-92v82Q80,0 109.5,47T150,177t11,200T150,575.5T109.5,702T24,756v83q145,0 211-112.5T301,377q0-236-66-352.5T25-92Z" />
      <glyph unicode="*" glyph-name="asterisk" horiz-adv-x="484" d="M163,308L52,390L182,516L24,534L63,667l140-79L178,759H306L280,586l141,81l39-133L300,516L431,390L320,308L242,470L163,308Z" />
      <glyph unicode="+" glyph-name="plus" horiz-adv-x="538" d="M207,151V303H55V424H207V578H331V424H483V303H331V151H207Z" />
      <glyph unicode="," glyph-name="comma" horiz-adv-x="248" d="M91-158L65-95q23,9 40.5,30.5T123,0H56V151H192V2q0-64-30.5-104T91-158Z" />
      <glyph unicode="-" glyph-name="hyphen" horiz-adv-x="401" d="M56,249V364H345L331,249H56Z" />
      <glyph unicode="." glyph-name="period" horiz-adv-x="248" d="M56,0V150H192V0H56Z" />
      <glyph unicode="/" glyph-name="slash" horiz-adv-x="308" d="M159-37L31-21L149,785l128-16L159-37Z" />
      <glyph unicode="0" glyph-name="zero" horiz-adv-x="540" d="M270-14q-72,0-117,34.5T83.5,112t-34,125.5T40,375q0,70 9.5,139t34,125.5T153,730t117,34t117-34t69.5-90.5t34-125.5T500,375q0-68-9.5-137t-34-126T387,20.5T270-14Zm0,116q34,0 51.5,35.5t24,97T352,375q0,78-6.5,140t-24,97.5T270,648t-51.5-36t-24-97.5T188,375q0-79 6.5-141t24-97T270,102Z" />
      <glyph unicode="1" glyph-name="one" horiz-adv-x="369" d="M147,0V574q-25-8-49.5-12T44,556L20,668q71,11 113.5,30.5T213,758l76-9V0H147Z" />
      <glyph unicode="2" glyph-name="two" horiz-adv-x="496" d="M54,0L40,108Q172,222 234,323.5T296,527q0,59-17,90t-49,31q-35,0-51.5-38T162,491L30,512q0,122 53,187t153,65q98,0 152.5-61T443,534q0-109-60.5-211T197,118H462L447,0H54Z" />
      <glyph unicode="3" glyph-name="three" horiz-adv-x="489" d="M242-14q-64,0-112.5,27t-76,76T24,202l130,14q2-53 24.5-83.5T238,102q35,0 54,27t19,77q0,62-34,91T171,326V434q130,0 130,119q0,46-17,70.5T236,648q-67,0-75-119L31,558q7,95 64.5,150.5T244,764q92,0 146.5-53.5T445,568q0-64-28.5-113.5T338,382q57-22 87-69.5T455,200q0-63-27-111.5T353.5,13T242-14Z" />
      <glyph unicode="4" glyph-name="four" horiz-adv-x="507" d="M272,0V163H24L10,252Q88,381 154,509T269,750H413V275h90L491,163H414V0H272ZM123,275H274V570q-28-70-67-145T123,275Z" />
      <glyph unicode="5" glyph-name="five" horiz-adv-x="497" d="M244-14Q187-14 139.5,8t-77,67.5T30,190l130,26q1-48 22-81t61-33q41,0 60.5,35.5T323,236q0,60-19,100.5T239,377q-28,0-48-15t-34-36L45,350L78,750H438L425,632H183L167,439q15,20 44,35t71,15q55,0 96.5-29.5t65-82T467,257q0-126-58.5-198.5T244-14Z" />
      <glyph unicode="6" glyph-name="six" horiz-adv-x="529" d="M267-14q-86,0-135.5,48.5T61,168.5T40,364q0,119 23.5,209T140,713.5T281,764q90,0 138-53.5T480,560L348,531q-4,48-20.5,82.5T274,648q-36,0-57-34t-29.5-90.5T179,401q22,36 54,54.5T310,474q84,0 133.5-61T493,248q0-73-26-132.5T390.5,21T267-14Zm-2,116q44,0 63.5,38.5T348,236q0,56-18.5,91T269,362q-43,0-63.5-36.5T185,230q0-53 18.5-90.5T265,102Z" />
      <glyph unicode="7" glyph-name="seven" horiz-adv-x="458" d="M109,0q4,135 29.5,247t70,207T311,632H10V750H421l22-102Q346,512 302.5,353.5T258,0H109Z" />
      <glyph unicode="8" glyph-name="eight" horiz-adv-x="529" d="M265-14Q205-14 152.5,9t-85,69.5T35,195q0,65 30,110.5T150,383Q54,445 54,559q0,63 29.5,109T163,739t109,25q58,0 104-23.5T448.5,674T475,571q0-109-100-173q55-33 88.5-81T497,201q0-63-29.5-111.5T386,13.5T265-14Zm12,464q68,45 68,115q0,35-18.5,59T272,648q-35,0-56.5-24T194,562q0-36 20.5-62.5T277,450ZM267,102q42,0 63.5,29T352,196q0,42-27,74.5T249,327q-74-48-74-124q0-48 27-74.5T267,102Z" />
      <glyph unicode="9" glyph-name="nine" horiz-adv-x="532" d="M257-13q-88,0-142.5,50.5T45,185l132,28q15-110 83-110q50,0 73.5,58.5T357,346q-39-69-130-69q-88,0-139.5,63.5T36,513q0,118 59.5,185T259,765q120,0 176.5-94T492,377Q492-13 257-13Zm6,402q39,0 61.5,34.5T347,517q0,61-22.5,96.5T263,649t-60.5-34.5T181,518q0-61 21.5-95T263,389Z" />
      <glyph unicode=":" glyph-name="colon" horiz-adv-x="248" d="M56,270V420H192V270H56ZM56,0V150H192V0H56Z" />
      <glyph unicode=";" glyph-name="semicolon" horiz-adv-x="248" d="M99-158L73-95q23,9 40.5,30.5T131,0H64V151H200V2q0-64-30.5-104T99-158ZM55,270V420H191V270H55Z" />
      <glyph unicode="&lt;" glyph-name="less" horiz-adv-x="538" d="M425,87L72,247L88,382L429,539l37-103L196,311L463,190L425,87Z" />
      <glyph unicode="=" glyph-name="equal" horiz-adv-x="538" d="M56,406V514H482L469,406H56Zm0-222V292H482L469,184H56Z" />
      <glyph unicode="&gt;" glyph-name="greater" horiz-adv-x="538" d="M113,87L75,190L343,311L72,436l37,103L466,375L448,238L113,87Z" />
      <glyph unicode="?" glyph-name="question" horiz-adv-x="451" d="M155,217q-25,35-25,91q0,46 15,78t36.5,56.5t43.5,46t37,45T277,589q0,59-48,59q-31,0-50-30.5T160,547L30,567q0,63 26.5,107t72,67T231,764q53,0 95-23t66.5-63.5T417,582q0-47-15.5-79T363,447t-46.5-45t-39-46T262,296q0-17 4.5-29.5T278,243L155,217ZM142,0V150H278V0H142Z" />
      <glyph unicode="@" glyph-name="at" horiz-adv-x="859" d="M435-118q-117,0-207,51T87,80T36,312q0,110 32.5,192t89,136.5t130,82T444,750q120,0 204.5-49T778,564.5T823,363q0-75-19-135t-57.5-94.5T650,99q-62,0-98.5,30T509,201q-13-42-42-69.5T391,104q-69,0-108,56T244,309q0,98 37.5,157T392,525q37,0 68-18.5T504,447v52l103,13V277q0-42 12.5-67.5T665,184q26,0 39.5,21.5T723,260t5,68q0,98-33.5,174t-97,119.5T442,665q-90,0-158.5-44t-107-120.5T138,326q0-121 42.5-201.5T295,4T456-36q57,0 105,15t96,41l31-62Q631-79 571.5-98.5T435-118Zm-6,319q28,0 44,28t16,71v52q0,36-15.5,60T430,436q-58,0-58-121q0-62 16-88t41-26Z" />
      <glyph unicode="A" glyph-name="A" horiz-adv-x="538" d="M376-14L344,137H183L160,0H15L168,741l181,21L523,0L376-14ZM258,603l-8-49L195,259H325L267,555l-9,48Z" />
      <glyph unicode="B" glyph-name="B" horiz-adv-x="538" d="M60,0V750H244q117,0 183-49t66-147q0-128-95-172q57-21 84.5-64.5T510,203q0-97-67-150T246,0H60ZM207,434h48q45,0 71.5,28.5T353,539q0,95-109,95H207V434Zm0-318h39q119,0 119,106q0,52-28.5,76T246,322H207V116Z" />
      <glyph unicode="C" glyph-name="C" horiz-adv-x="539" d="M284-14q-86,0-141,49T62,172T36,375q0,190 61.5,290T286,765q71,0 119-35.5T479.5,636T509,510L372,481q-2,34-10.5,70T334,612t-53,25q-48,0-69.5-60.5T190,375q0-96 9-153t30-82.5T284,114q33,0 51,21t26.5,53.5T372,255l137-15q-4-65-29.5-123.5T406,22T284-14Z" />
      <glyph unicode="D" glyph-name="D" horiz-adv-x="564" d="M60,0V750H241q134,0 210.5-96.5T528,375q0-181-76.5-278T241,0H60ZM207,122h34q62,0 98.5,59T376,375T339.5,569T241,628H207V122Z" />
      <glyph unicode="E" glyph-name="E" horiz-adv-x="493" d="M60,0V750H458L443,628H207V446H397L382,326H207V122H463L449,0H60Z" />
      <glyph unicode="F" glyph-name="F" horiz-adv-x="474" d="M60,0V750H450L435,628H207V435H394L379,313H207V0H60Z" />
      <glyph unicode="G" glyph-name="G" horiz-adv-x="569" d="M269-14Q161-14 98.5,81T36,363q0,123 26,213t82.5,139T291,764q69,0 115-31.5t70.5-86T505,521L368,492q-2,39-9.5,71.5t-24,52.5T286,636q-42,0-63-38T195,497.5T188,361q0-46 3-90.5t13-80t30.5-57T289,112t53.5,18.5t28,45.5t8.5,52v40H287l14,112H511V0L443-9L424,80q-19-37-59.5-65.5T269-14Z" />
      <glyph unicode="H" glyph-name="H" horiz-adv-x="572" d="M60,0V750H207V426H365V750H512V0H365V304H207V0H60Z" />
      <glyph unicode="I" glyph-name="I" horiz-adv-x="267" d="M60,0V750H207V0H60Z" />
      <glyph unicode="J" glyph-name="J" horiz-adv-x="343" d="M116-14q-30,0-53,4T14,5L29,124q27-14 56-14q35,0 45.5,19.5T141,180V750H288V176q0-87-42-138.5T116-14Z" />
      <glyph unicode="K" glyph-name="K" horiz-adv-x="546" d="M60,0V750H207V392L392,765l122-49L357,410L531,33L396-16L259,297L207,196V0H60Z" />
      <glyph unicode="L" glyph-name="L" horiz-adv-x="469" d="M60,0V750H206V123H449L434,0H60Z" />
      <glyph unicode="M" glyph-name="M" horiz-adv-x="762" d="M566,0V520l2,41L432,8L332-4L187,559l1-43V0H60V739l199,23L388,263L507,750H702V0H566Z" />
      <glyph unicode="N" glyph-name="N" horiz-adv-x="583" d="M400-9L197,462l1-7V0H60V744l133,16L386,301l-1,12V750H523V7L400-9Z" />
      <glyph unicode="O" glyph-name="O" horiz-adv-x="562" d="M281-14q-86,0-140.5,48T61,169.5T36,375q0,119 25,206t79.5,135T281,764q87,0 141-48t79-135t25-206q0-118-25-205.5T422,34T281-14Zm0,128q31,0 49.5,21T358,193t11.5,84t2.5,98t-2.5,98T358,557t-27.5,58T281,636t-49-21t-27-58t-12-84t-3-98t3-98t12-84t27-58t49-21Z" />
      <glyph unicode="P" glyph-name="P" horiz-adv-x="536" d="M60,0V750H238q133,0 201.5-59.5T508,515q0-117-69.5-179.5T238,273H207V0H60ZM207,395h42q54,0 83,30.5T361,512q0,116-112,116H207V395Z" />
      <glyph unicode="Q" glyph-name="Q" horiz-adv-x="562" d="M281-14q-86,0-140.5,48T61,169.5T36,375q0,119 25,206t79.5,135T281,764q87,0 141-48t79-135t25-206q0-129-29.5-221T402,19q27-24 57-45t67-42L441-170q-41,25-75.5,65.5T311-12q-14-2-30-2Zm0,128q31,0 49.5,21T358,193t11.5,84t2.5,98t-2.5,98T358,557t-27.5,58T281,636t-49-21t-27-58t-12-84t-3-98t3-98t12-84t27-58t49-21Z" />
      <glyph unicode="R" glyph-name="R" horiz-adv-x="551" d="M401-16L273,286H207V0H60V750H248q122,0 190-55.5T506,519q0-64-26.5-113T403,327L536,33L401-16ZM207,403h34q48,0 82.5,28T358,518q0,65-32,90t-85,25H207V403Z" />
      <glyph unicode="S" glyph-name="S" horiz-adv-x="515" d="M254-16Q190-16 139,8.5t-80,75T30,212l132,15q0-55 24.5-89T257,104q38,0 57,22.5T333,187q0,41-21,64t-54,42l-91,53q-53,31-89.5,82.5T41,553q0,60 26.5,107.5t77,75.5T265,764q94,0 151.5-54T476,548L344,519q0,125-82,125q-34,0-53.5-21T189,565q0-36 18.5-59T260,463l90-54q62-37 97.5-87.5T483,197q0-67-29-115T373.5,9T254-16Z" />
      <glyph unicode="T" glyph-name="T" horiz-adv-x="473" d="M164,0V628H18V750H459L445,628H310V0H164Z" />
      <glyph unicode="U" glyph-name="U" horiz-adv-x="564" d="M280-14Q170-14 113,51.5T56,243V750H203V222q0-49 21-78.5T287,114t63,29.5T371,222V750H508V243q0-73-22.5-131T413,20T280-14Z" />
      <glyph unicode="V" glyph-name="V" horiz-adv-x="528" d="M189-12L15,750l148,14L275,195l5-27l5,28L386,750H513L360,9L189-12Z" />
      <glyph unicode="W" glyph-name="W" horiz-adv-x="780" d="M159,0L18,742l148,19l83-544l5,37l72,492H471l72-540l96,544H762L615,0H465L393,534L316,0H159Z" />
      <glyph unicode="X" glyph-name="X" horiz-adv-x="513" d="M20,0L164,367L24,725l140,37l93-275l97,263H484L344,386L493,18L355-22L246,266L151,0H20Z" />
      <glyph unicode="Y" glyph-name="Y" horiz-adv-x="495" d="M174,0V248L8,739l146,22l95-322l7-29l6,29l97,311H487L321,266V0H174Z" />
      <glyph unicode="Z" glyph-name="Z" horiz-adv-x="481" d="M38,0L28,103L281,628H43V750H440l10-100L195,122H453L438,0H38Z" />
      <glyph unicode="[" glyph-name="bracketleft" horiz-adv-x="328" d="M60-87V837H300V733H195V16H300V-87H60Z" />
      <glyph unicode="\" glyph-name="backslash" horiz-adv-x="309" d="M149-37L31,769l128,16L277-21L149-37Z" />
      <glyph unicode="]" glyph-name="bracketright" horiz-adv-x="329" d="M28-87V16H134V733H28V837H269V-87H28Z" />
      <glyph unicode="^" glyph-name="asciicircum" horiz-adv-x="417" d="M144,390L32,414L148,723H273L385,416L278,390L209,594L144,390Z" />
      <glyph unicode="_" glyph-name="underscore" horiz-adv-x="405" d="M-5-175V-59H410V-175H-5Z" />
      <glyph unicode="`" glyph-name="grave" horiz-adv-x="223" d="M171,605L0,756l93,87L223,655l-52-50Z" />
      <glyph unicode="a" glyph-name="a" horiz-adv-x="460" d="M156-12Q96-12 60,30.5T24,148q0,66 32.5,107.5t88.5,61T272,336v51q0,31-11.5,53.5T218,463q-26,0-39-22.5T162,387L38,414q13,80 63.5,119.5T222,573q98,0 144-53t46-148V148q0-40 4.5-77T432,0H296q-14,36-15,73q-15-36-45.5-60.5T156-12Zm7,180q0-31 13.5-50T217,99q25,0 40,17t15,44V261q-52,0-80.5-26.5T163,168Z" />
      <glyph unicode="b" glyph-name="b" horiz-adv-x="505" d="M296-13q-49,0-77,25.5T178,75V0H50V743l140,17V510q17,29 45,46t68,17q86,0 126.5-79.5T470,279q0-82-18-148T395.5,26T296-13ZM254,95q40,0 56.5,50T327,278q0,84-16.5,135.5T254,465q-36,0-50-39T190,322V237q0-63 14-102.5T254,95Z" />
      <glyph unicode="c" glyph-name="c" horiz-adv-x="462" d="M237-13Q131-13 80.5,66T30,278q0,90 25.5,156T129,536.5T242,573q83,0 134-52.5T434,379L304,353q-2,25-7.5,51T278,447.5T242,465q-28,0-43-26.5t-20.5-69T173,278q0-85 15.5-134T242,95q24,0 37.5,17T299,152.5t7,43.5l128-14q-6-53-31.5-97.5T335,13.5T237-13Z" />
      <glyph unicode="d" glyph-name="d" horiz-adv-x="505" d="M202-13Q116-13 75.5,65T35,278q0,82 18,149t56.5,106.5T209,573q39,0 65-17.5T315,511V743l140,17V8L327-8V75q-14-40-45-64T202-13ZM248,95q38,0 52.5,38T315,235v85q0,63-14,104t-50,41q-40,0-56.5-51.5T178,279q0-84 16.5-134T248,95Z" />
      <glyph unicode="e" glyph-name="e" horiz-adv-x="464" d="M241-13q-75,0-121.5,38.5t-68,104T30,276q0,86 25,152.5t72,104T240,570q68,0 111-31t63-83.5T434,336q0-46-3-97H172q1-35 7-69t21-55.5T243,93q34,0 46.5,27T306,180l124-26Q416,76 365.5,31.5T241-13ZM172,328H305v14q0,28-5,56.5t-18.5,48T243,466q-26,0-41-20.5T180.5,393T172,328Z" />
      <glyph unicode="f" glyph-name="f" horiz-adv-x="339" d="M80,0V459H15V564H80v21q0,77 38.5,126T240,760q53,0 93-17l-7-99q-24,7-49,7q-30,0-43.5-17T220,586V564H326L313,459H220V0H80Z" />
      <glyph unicode="g" glyph-name="g" horiz-adv-x="503" d="M236-168q-98,0-158,35.5T18-36Q18-1 38.5,25T96,63Q49,91 49,145q0,64 73,100q-40,23-63,60T36,388q0,52 27,93t74,65t106,24q62,0 109-26q10,48 38,86t68,50l37-114q-59-16-98-55q24-24 37.5-55.5T448,388q0-51-26-90t-72.5-61T243,215q-17,0-33,2t-31,5q-15-9-15-25q0-13 12.5-23T215,162l100-9q80-7 124-45.5T483-1q0-76-64.5-121.5T236-168Zm6,467q29,0 46,25.5T305,392q0,43-17,68.5T242,486t-46-25.5T179,393q0-43 17.5-68.5T242,299Zm4-367q49,0 76,12t27,37q0,23-17,35.5T271,33L168,43q-5,0-7,1Q143,24 143-2q0-34 29-50t74-16Z" />
      <glyph unicode="h" glyph-name="h" horiz-adv-x="509" d="M50,0V743l140,17V462q18,58 56.5,84.5T334,573q59,0 94.5-40.5T464,404V0H324V348q0,60-13,82.5T269,453q-35,0-57-47.5T190,287V0H50Z" />
      <glyph unicode="i" glyph-name="i" horiz-adv-x="244" d="M52,0V550l140,17V0H52Zm6,621V754H186V621H58Z" />
      <glyph unicode="j" glyph-name="j" horiz-adv-x="262" d="M59-168q-28,0-47,3.5T-30-154L-17-46q17-6 35-6q26,0 39,14T70,10V550l140,17V5q0-49-18-88t-51.5-62T59-168ZM71,621V754H199V621H71Z" />
      <glyph unicode="k" glyph-name="k" horiz-adv-x="482" d="M50,0V743l140,17V351L322,563H463L328,349L474,25L350-16L238,238l-48-72V0H50Z" />
      <glyph unicode="l" glyph-name="l" horiz-adv-x="240" d="M50,0V742l140,18V0H50Z" />
      <glyph unicode="m" glyph-name="m" horiz-adv-x="739" d="M50,0V547l134,17V440q16,69 55,101t86,32t76.5-28.5T439,451q17,64 54.5,93T577,573q57,0 87-42t30-137V0H554V354q0,53-10.5,74T511,449q-30,0-49.5-41.5T442,287V0H302V354q0,53-10.5,74T259,449q-30,0-49.5-41.5T190,287V0H50Z" />
      <glyph unicode="n" glyph-name="n" horiz-adv-x="509" d="M50,0V547l134,17V440q16,69 56,101t94,32q59,0 94.5-40.5T464,404V0H324V348q0,60-13,82.5T269,453q-35,0-57-47.5T190,287V0H50Z" />
      <glyph unicode="o" glyph-name="o" horiz-adv-x="486" d="M242-13Q141-13 85.5,64T30,279q0,88 24.5,153t72,101.5T242,570t115.5-36t73-101T456,279q0-139-56.5-215.5T242-13Zm0,108q30,0 45.5,27.5t20.5,70t5,86.5q0,28-3,60t-10,60t-21,45.5T242,462q-22,0-36-17.5T185,399t-9.5-59.5T173,279q0-44 5-86.5t20-70T242,95Z" />
      <glyph unicode="p" glyph-name="p" horiz-adv-x="505" d="M50-175V551l133,17V496q16,35 46,56t74,21q86,0 126.5-79.5T470,279q0-82-18-148T395.5,26T296-13q-39,0-65,17T190,48V-157L50-175ZM254,95q40,0 56.5,50T327,278q0,84-16.5,135.5T254,465q-36,0-50-39T190,322V237q0-63 14-102.5T254,95Z" />
      <glyph unicode="q" glyph-name="q" horiz-adv-x="505" d="M315-175V48Q299,20 270.5,3.5T202-13Q116-13 75.5,65T35,278q0,82 18,149t56.5,106.5T209,573q47,0 75-24.5T325,488v75H455V-158L315-175ZM248,95q38,0 52.5,38T315,235v85q0,63-14,104t-50,41q-40,0-56.5-51.5T178,279q0-84 16.5-134T248,95Z" />
      <glyph unicode="r" glyph-name="r" horiz-adv-x="383" d="M50,0V547l134,16V424q12,65 48.5,107T315,573q39,0 58-19L343,418q-21,15-51,15q-43,0-72.5-44T190,271V0H50Z" />
      <glyph unicode="s" glyph-name="s" horiz-adv-x="429" d="M212-15Q127-15 77.5,32.5T26,163l115,13q3-42 23.5-65.5T218,87q26,0 40.5,13.5T273,137q0,20-11,34t-39,29l-95,52q-46,25-71,65T32,406t23.5,86.5t65,59T216,573q79,0 125.5-43T392,412L277,389q-3,82-64,82q-25,0-38-12.5T162,424q0-19 11.5-34T213,360l84-46q55-30 80.5-67.5T403,158T379,68T312,7T212-15Z" />
      <glyph unicode="t" glyph-name="t" horiz-adv-x="348" d="M230-10q-65,0-106,38T83,150V459H15V564H89l14,127l120,15V564H333L320,459H223V178q0-38 16.5-56T285,104q13,0 23,1.5t21,3.5L317,7Q299-1 278-5.5T230-10Z" />
      <glyph unicode="u" glyph-name="u" horiz-adv-x="509" d="M175-9Q116-9 80.5,31.5T45,160V564H185V216q0-60 13-82.5T240,111q35,0 57,47.5T319,277V564H459V10L325-7V124Q309,55 269,23T175-9Z" />
      <glyph unicode="v" glyph-name="v" horiz-adv-x="441" d="M142,0L6,553l138,17l81-407l90,401H437L299,0H142Z" />
      <glyph unicode="w" glyph-name="w" horiz-adv-x="628" d="M122,0L10,555l133,16l56-411l8,61l56,343H386l53-336l7-61l63,397H624L512,0H378L326,330l-6,63l-7-63L259,0H122Z" />
      <glyph unicode="x" glyph-name="x" horiz-adv-x="432" d="M291-15L212,184L143,0H10L135,276L15,540l133,36l72-199l70,187H423L298,286L424,21L291-15Z" />
      <glyph unicode="y" glyph-name="y" horiz-adv-x="429" d="M2-155L26-43q11-5 21.5-7T70-52q32,0 52.5,20T143,27V51L6,553l141,19l77-363l79,355H425L289,7q-21-85-72-130T82-168q-26,0-43,3T2-155Z" />
      <glyph unicode="z" glyph-name="z" horiz-adv-x="426" d="M41,0L30,88L229,459H38V564H383l10-84L192,105H400L387,0H41Z" />
      <glyph unicode="{" glyph-name="braceleft" horiz-adv-x="334" d="M244-95q-88,0-128.5,41.5T75,64q0,49 10,91t10,82q0,38-13.5,63.5T24,326v94q44,0 57.5,25.5T95,509q0,41-10,82.5T75,682q0,76 40.5,117.5T244,841q10,0 21.5-0.5T286,839V750q-84,0-84-77q0-21 5-49t10-57t5-55q0-54-24-90t-69-49q45-13 69-49t24-90q0-25-5-54.5t-10-57T202,73q0-77 84-77V-93q-9-1-20.5-1.5T244-95Z" />
      <glyph unicode="|" glyph-name="bar" horiz-adv-x="256" d="M70-47V797H186V-47H70Z" />
      <glyph unicode="}" glyph-name="braceright" horiz-adv-x="334" d="M90-95q-10,0-21.5,0.5T48-93V-4q84,0 84,77q0,22-5,49.5t-10,57T112,234q0,54 24,90t69,49q-45,13-69,49t-24,90q0,26 5,55t10,57t5,49q0,77-84,77v89q9,1 20.5,1.5T90,841q89,0 129-41.5T259,682q0-49-10-90.5T239,509q0-38 14-63.5T310,420V326q-43,0-57-25.5T239,237q0-40 10-82t10-91q0-76-40-117.5T90-95Z" />
      <glyph unicode="~" glyph-name="asciitilde" horiz-adv-x="538" d="M107,265L36,302q27,56 61.5,89T186,424q26,0 49-5.5T283,402q26-10 44.5-16t41.5-6q21,0 35,10t28,31l70-37q-27-56-58.5-87.5T359,265q-26,0-49,6t-49,16q-25,11-43.5,16.5T176,309q-25,0-40-12t-29-32Z" />
      <glyph unicode="&#xa0;" glyph-name="uni00A0" horiz-adv-x="220" />
      <glyph unicode="&#xa1;" glyph-name="exclamdown" horiz-adv-x="269" d="M71,601V751H207V601H71ZM62,1V285L92,510l95,12l13-220V1H62Z" />
      <glyph unicode="&#xa2;" glyph-name="cent" horiz-adv-x="470" d="M217-102v91Q125,1 77.5,77.5T30,278q0,127 48.5,202.5T217,568v90h65V568q70-9 113-58.5T442,378L327,355q-2,35-12.5,66T278,464V91q26,10 38,39.5T331,197l110-12q-7-88-51-137T282-11V-94l-65-8ZM165,278q0-67 12-116t43-67V463q-31-17-43-68T165,278Z" />
      <glyph unicode="&#xa3;" glyph-name="sterling" horiz-adv-x="592" d="M63,402h77q-16,36-27.5,73.5T101,554q0,63 27,110t75.5,73.5T316,764q95,0 149.5-56T522,552L390,523q0,59-20,92t-56,33q-30,0-47.5-23T249,562q0-39 14.5-78.5T295,402H419l-7-65H320q8-27 14-55.5t6-58.5q0-51-18-95q17-8 33-13.5t32-5.5q29,0 45,20.5T457,197l123-34Q563,78 519.5,32T411-14q-45,0-78,19.5T273,50Q245,22 209.5,5.5T134-11Q82-11 50.5,18.5T19,98t32,82t81,32q22,0 43-6.5T216,189q-2,39-15.5,75.5T170,337H63v65ZM93,100q0-19 13-31t32-12q23,0 40.5,15.5T206,114q-16,14-32,22t-34,8q-21,0-34-12T93,100Z" />
      <glyph unicode="&#xa4;" glyph-name="currency" horiz-adv-x="642" d="M320,161q-45,0-80,13t-57,33L91,122L40,181l97,81q-27,44-27,112q0,33 7,62.5T139,488L40,570l51,59l94-87q23,19 57.5,31.5T320,586q44,0 79-12.5T456,541l94,88l52-59L502,488q29-47 29-115q0-67-28-111l99-81l-52-59l-91,86q-53-47-139-47Zm0,109q44,0 69,29t25,75q0,47-25,77t-69,30q-43,0-68-30t-25-77q0-46 25-75t68-29Z" />
      <glyph unicode="&#xa5;" glyph-name="yen" horiz-adv-x="494" d="M176,0V247H21l7,60H163l-22,66H29v60h91L17,738l140,19L262,386L362,751l116-2L376,433H478l-7-60H357l-21-66H470V247H319V0H176Z" />
      <glyph unicode="&#xa6;" glyph-name="brokenbar" horiz-adv-x="256" d="M70,469V797H186V469H70ZM70-47V281H186V-47H70Z" />
      <glyph unicode="&#xa7;" glyph-name="section" horiz-adv-x="501" d="M248-16q-89,0-141,41.5T50,145l124,28q0-37 19-61t57-24q25,0 41.5,13.5T308,138t-17.5,38.5T248,202L142,248q-43,19-73.5,52T38,388q0,41 16.5,70T94,503q-34,35-34,93q0,50 25,88.5t68.5,60T254,766q82,0 128-41t56-115L327,587q-2,35-20,57.5T254,667q-30,0-45-14t-15-34q0-21 15-35t44-28l96-43q48-22 81-52.5T463,375q0-34-13-64t-42-54q19-19 29-46t10-68q0-50-29.5-85.5T342.5,3T248-16Zm83,320q8,16 8,38q0,26-23.5,41.5T261,413l-96,45q-10-13-10-34q0-27 18.5-43T217,354l114-50Z" />
      <glyph unicode="&#xa8;" glyph-name="dieresis" horiz-adv-x="350" d="M210,617V749H338V617H210ZM12,617V749H140V617H12Z" />
      <glyph unicode="&#xa9;" glyph-name="copyright" horiz-adv-x="710" d="M355,28q-85,0-157,39T83,179T40,353T83,526.5T198,638t157,39q86,0 157.5-39T627,526.5T670,353T627,179T512.5,67T355,28Zm0,60q68,0 124.5,31.5t91,91T605,353T570.5,495t-91,90.5T355,617q-67,0-124-31.5T139.5,495T105,353t34.5-142.5t91.5-91T355,88Zm1,74q-50,0-84.5,25.5T219,255t-18,92q0,54 18,98t52.5,69.5T356,540q63,0 99.5-33.5T499,411l-85-18q-2,26-14.5,47T361,461q-23,0-37-16.5t-20-43T298,346q0-41 12.5-73T361,241q26,0 38.5,18T416,304l82-18q-4-26-20-55t-45.5-49T356,162Z" />
      <glyph unicode="&#xaa;" glyph-name="ordfeminine" horiz-adv-x="375" d="M132,324q-49,0-78.5,33.5T24,448q0,56 26.5,89t71,48T219,600v17q0,25-7,45t-30,20q-20,0-27.5-17T145,625L39,643q5,56 42,90.5T186,768q77,0 111.5-43.5T332,606V436q0-31 3-54.5T347,332H237q-5,13-7.5,26T226,385q-10-28-34.5-44.5T132,324Zm42,83q20,0 32.5,14.5T219,453v87q-41-1-64.5-23T131,463q0-28 12-42t31-14Z" />
      <glyph unicode="&#xab;" glyph-name="guillemotleft" horiz-adv-x="545" d="M212,25L26,217L42,352L213,534l55-55L142,279L268,81L212,25Zm233,8L251,249l6,63L445,526l55-55L377,279L501,89L445,33Z" />
      <glyph unicode="&#xac;" glyph-name="logicalnot" horiz-adv-x="538" d="M350,121V289H68V401H470V121H350Z" />
      <glyph unicode="&#xae;" glyph-name="registered" horiz-adv-x="710" d="M355,28q-85,0-157,39T83,179T40,353T83,526.5T198,638t157,39q86,0 157.5-39T627,526.5T670,353T627,179T512.5,67T355,28Zm0,60q68,0 124.5,31.5t91,91T605,353T570.5,495t-91,90.5T355,617q-67,0-124-31.5T139.5,495T105,353t34.5-142.5t91.5-91T355,88Zm64,82L361,300q-8-1-16.5-1T325,299V177H241V529H347q61,0 100-24.5T486,416q0-59-50-92l60-126l-77-28ZM326,369h27q22,0 35.5,12.5T402,417t-14,33t-37,10H326V369Z" />
      <glyph unicode="&#xaf;" glyph-name="macron" horiz-adv-x="300" d="M10,620v94H290V620H10Z" />
      <glyph unicode="&#xb0;" glyph-name="degree" horiz-adv-x="373" d="M187,461q-74,0-115.5,43.5T30,612q0,65 41.5,108.5T187,764q73,0 114.5-43.5T343,612q0-64-41.5-107.5T187,461Zm0,84q29,0 44,19.5T246,612q0,27-15,47.5T187,680q-28,0-44.5-19.5T126,612q0-28 16-47.5T187,545Z" />
      <glyph unicode="&#xb1;" glyph-name="plusminus" horiz-adv-x="538" d="M207,193V345H55V466H207V620H331V466H483V345H331V193H207ZM88,0V100H468V0H88Z" />
      <glyph unicode="&#xb2;" glyph-name="uni00B2" horiz-adv-x="375" d="M51,483L41,554q79,60 129,125t50,129q0,26-9.5,45T177,872q-25,0-36.5-25T127,787L30,808q4,70 45,114.5T191,967q69,0 108-43.5T338,809q0-47-22-90.5T258.5,639T181,577H341l-11-94H51Z" />
      <glyph unicode="&#xb3;" glyph-name="uni00B3" horiz-adv-x="366" d="M175,469q-61,0-103.5,34T24,603l94,22q5-61 51-61q20,0 34,12.5T217,614q0,40-22.5,52.5T128,679v77q43,0 61,18.5T207,825q0,27-11,39t-24,12q-22,0-32.5-17T127,814L31,835q5,62 45,97t98,35q65,0 107.5-36T324,831q0-36-15-65t-44-46q67-31 67-118q0-58-42-95.5T175,469Z" />
      <glyph unicode="&#xb4;" glyph-name="acute" horiz-adv-x="223" d="M52,605L0,655L130,843l93-87L52,605Z" />
      <glyph unicode="&#xb5;" glyph-name="uni00B5" horiz-adv-x="511" d="M45-181V563H185V211q0-94 69-94q25,0 41,20t23.5,53.5T326,264V563H466V0L332-17V102q-4-41-26-74T246-5q-17,0-32.5,4.5T185,18V-164L45-181Z" />
      <glyph unicode="&#xb6;" glyph-name="paragraph" horiz-adv-x="574" d="M193,0V391q-43,0-80.5,22t-61,61.5T28,567q0,70 31,109.5T143.5,733T262,750H554L539,631H489V0H378V631H304V0H193Z" />
      <glyph unicode="&#xb7;" glyph-name="periodcentered" horiz-adv-x="252" d="M56,234V375H196V234H56Z" />
      <glyph unicode="&#xb8;" glyph-name="cedilla" horiz-adv-x="227" d="M100-261q-31,0-56.5,8.5T0-231l19,77q11-7 28-14t36-7q20,0 32,9.5T127-140q0,14-9.5,21T96-112q-10,0-16.5-2T67-120l-38,8L60,33h77L119-49q6,1 14,1q39,0 66.5-25.5T227-146q0-37-18.5-62.5t-47.5-39T100-261Z" />
      <glyph unicode="&#xb9;" glyph-name="uni00B9" horiz-adv-x="330" d="M135,483V808q-25-9-47.5-13.5T38,790L20,881q56,7 95.5,26T186,958l64-8V483H135Z" />
      <glyph unicode="&#xba;" glyph-name="ordmasculine" horiz-adv-x="414" d="M206,325q-81,0-128.5,59T30,547q0,65 21.5,114.5t61,77T206,766q81,0 129.5-60T384,547q0-105-48.5-163.5T206,325Zm0,82q34,0 47.5,39T267,545q0,35-6,65.5T242,660t-36,19q-21,0-33.5-19T154,610.5T148,545q0-60 13.5-99T206,407Z" />
      <glyph unicode="&#xbb;" glyph-name="guillemotright" horiz-adv-x="545" d="M333,25L277,81L403,279L277,479l55,55L519,335L503,200L333,25ZM100,33L44,89L168,279L45,471l55,55L293,306l-4-63L100,33Z" />
      <glyph unicode="&#xbc;" glyph-name="onequarter" horiz-adv-x="820" d="M150,283V608q-25-9-47.5-13.5T53,590L35,681q56,7 95.5,26T201,758l64-8V283H150ZM290-28L210,3L530,776l79-33L290-28ZM608,0V90H435l-10,80q51,77 92.5,152T595,473H721V184h54L763,90H721V0H608ZM512,184h97V362q-20-45-44-91t-53-87Z" />
      <glyph unicode="&#xbd;" glyph-name="onehalf" horiz-adv-x="866" d="M147,283V608q-25-9-47.5-13.5T50,590L32,681q56,7 95.5,26T198,758l64-8V283H147ZM295-28L215,3L535,776l79-33L295-28ZM551,0L541,71q79,60 129,125t50,129q0,26-9.5,45T677,389q-25,0-36.5-25T627,304l-97,21q4,70 45,114.5T691,484q69,0 108-43.5T838,326q0-47-22-90.5T758.5,156T681,94H841L830,0H551Z" />
      <glyph unicode="&#xbe;" glyph-name="threequarters" horiz-adv-x="851" d="M175,269q-61,0-103.5,34T24,403l94,22q5-61 51-61q20,0 34,12.5T217,414q0,40-22.5,52.5T128,479v77q43,0 61,18.5T207,625q0,27-11,39t-24,12q-22,0-32.5-17T127,614L31,635q5,62 45,97t98,35q65,0 107.5-36T324,631q0-36-15-65t-44-46q67-31 67-118q0-58-42-95.5T175,269ZM333-28L253,3L573,776l79-33L333-28ZM639,0V90H466l-10,80q51,77 92.5,152T626,473H752V184h54L794,90H752V0H639ZM543,184h97V362q-20-45-44-91t-53-87Z" />
      <glyph unicode="&#xbf;" glyph-name="questiondown" horiz-adv-x="451" d="M309,750V600H173V750H309ZM296,533q25-35 25-91q0-46-15-78t-36.5-56.5t-43.5-46t-37-45T174,161q0-59 48-59q32,0 50.5,30.5T291,203l130-20q0-63-26.5-107t-72-67T220-14q-52,0-94.5,23t-67,63.5T34,168q0,47 15.5,79t39,56T135,348t38.5,46T189,454q0,17-4,30t-12,23l123,26Z" />
      <glyph unicode="&#xc0;" glyph-name="Agrave" horiz-adv-x="538" d="M376-14L344,137H183L160,0H15L168,741l181,21L523,0L376-14ZM258,603l-8-49L195,259H325L267,555l-9,48Zm36,190L118,944l97,91L346,843l-52-50Z" />
      <glyph unicode="&#xc1;" glyph-name="Aacute" horiz-adv-x="538" d="M376-14L344,137H183L160,0H15L168,741l181,21L523,0L376-14ZM258,603l-8-49L195,259H325L267,555l-9,48ZM235,793l-52,50l131,192l97-91L235,793Z" />
      <glyph unicode="&#xc2;" glyph-name="Acircumflex" horiz-adv-x="538" d="M376-14L344,137H183L160,0H15L168,741l181,21L523,0L376-14ZM258,603l-8-49L195,259H325L267,555l-9,48ZM217,968h91L431,847l-59-56L263,887L154,791L95,847L217,968Z" />
      <glyph unicode="&#xc3;" glyph-name="Atilde" horiz-adv-x="538" d="M376-14L344,137H183L160,0H15L168,741l181,21L523,0L376-14ZM258,603l-8-49L195,259H325L267,555l-9,48Zm62,226q-31,0-50.5,10T234,859t-37,10q-31,0-55-31L93,880q26,44 52.5,65.5T212,967q28,0 46-10t35-20t39-10q27,0 51,34l50-38q-22-44-49-69t-64-25Z" />
      <glyph unicode="&#xc4;" glyph-name="Adieresis" horiz-adv-x="538" d="M376-14L344,137H183L160,0H15L168,741l181,21L523,0L376-14ZM258,603l-8-49L195,259H325L267,555l-9,48Zm40,238V973H426V841H298Zm-198,0V973H228V841H100Z" />
      <glyph unicode="&#xc5;" glyph-name="Aring" horiz-adv-x="538" d="M376-14L344,137H183L160,0H15L168,741l181,21L523,0L376-14ZM258,603l-8-49L195,259H325L267,555l-9,48Zm5,203q-40,0-72.5,17T139,870t-19,68t18.5,68t51,47.5T263,1071q61,0 101.5-37.5T405,938q0-38-19-68t-51-47t-72-17Zm0,82q20,0 34,14t14,36q0,23-14,37t-34,14q-21,0-35-14t-14-37q0-22 14-36t35-14Z" />
      <glyph unicode="&#xc6;" glyph-name="AE" horiz-adv-x="772" d="M15,0L265,750H735L721,633H499V433H674L659,315H499V122H742L727,0H352V161H213L165,0H15ZM246,277H352V630L246,277Z" />
      <glyph unicode="&#xc7;" glyph-name="Ccedilla" horiz-adv-x="539" d="M284-14q-86,0-141,49T62,172T36,375q0,190 61.5,290T286,765q71,0 119-35.5T479.5,636T509,510L372,481q-2,34-10.5,70T334,612t-53,25q-48,0-69.5-60.5T190,375q0-96 9-153t30-82.5T284,114q33,0 51,21t26.5,53.5T372,255l137-15q-4-65-29.5-123.5T406,22T284-14Zm9-247q-31,0-56.5,8.5T193-231l19,77q11-7 28-14t36-7q20,0 32,9.5T320-140q0,14-9.5,21T289-112q-10,0-16.5-2T260-120l-38,8L253,33h77L312-49q6,1 14,1q39,0 66.5-25.5T420-146q0-37-18.5-62.5t-47.5-39T293-261Z" />
      <glyph unicode="&#xc8;" glyph-name="Egrave" horiz-adv-x="493" d="M60,0V750H458L443,628H207V446H397L382,326H207V122H463L449,0H60ZM290,793L114,944l97,91L342,843l-52-50Z" />
      <glyph unicode="&#xc9;" glyph-name="Eacute" horiz-adv-x="493" d="M60,0V750H458L443,628H207V446H397L382,326H207V122H463L449,0H60ZM231,793l-52,50l131,192l97-91L231,793Z" />
      <glyph unicode="&#xca;" glyph-name="Ecircumflex" horiz-adv-x="493" d="M60,0V750H458L443,628H207V446H397L382,326H207V122H463L449,0H60ZM213,968h91L427,847l-59-56L259,887L150,791L91,847L213,968Z" />
      <glyph unicode="&#xcb;" glyph-name="Edieresis" horiz-adv-x="493" d="M60,0V750H458L443,628H207V446H397L382,326H207V122H463L449,0H60ZM294,841V973H422V841H294ZM96,841V973H224V841H96Z" />
      <glyph unicode="&#xcc;" glyph-name="Igrave" horiz-adv-x="267" d="M60,0V750H207V0H60ZM165,793L-11,944l97,91L217,843l-52-50Z" />
      <glyph unicode="&#xcd;" glyph-name="Iacute" horiz-adv-x="267" d="M60,0V750H207V0H60Zm46,793L54,843l131,192l97-91L106,793Z" />
      <glyph unicode="&#xce;" glyph-name="Icircumflex" horiz-adv-x="276" d="M64,0V750H211V0H64ZM57,789l-67,56L92,965h92L286,845l-67-56l-81,82L57,789Z" />
      <glyph unicode="&#xcf;" glyph-name="Idieresis" horiz-adv-x="290" d="M71,0V750H218V0H71Zm99,804V937H290V804H170ZM0,804V937H120V804H0Z" />
      <glyph unicode="&#xd0;" glyph-name="Eth" horiz-adv-x="564" d="M60,0V750H241q134,0 210.5-96.5T528,375q0-181-76.5-278T241,0H60ZM207,122h34q62,0 98.5,59T376,375T339.5,569T241,628H207V122ZM0,334v72H322l-7-72H0Z" />
      <glyph unicode="&#xd1;" glyph-name="Ntilde" horiz-adv-x="583" d="M400-9L197,462l1-7V0H60V744l133,16L386,301l-1,12V750H523V7L400-9ZM350,829q-31,0-50.5,10T264,859t-37,10q-31,0-55-31l-49,42q26,44 52.5,65.5T242,967q28,0 46-10t35-20t39-10q27,0 51,34l50-38q-22-44-49-69t-64-25Z" />
      <glyph unicode="&#xd2;" glyph-name="Ograve" horiz-adv-x="562" d="M281-14q-86,0-140.5,48T61,169.5T36,375q0,119 25,206t79.5,135T281,764q87,0 141-48t79-135t25-206q0-118-25-205.5T422,34T281-14Zm0,128q31,0 49.5,21T358,193t11.5,84t2.5,98t-2.5,98T358,557t-27.5,58T281,636t-49-21t-27-58t-12-84t-3-98t3-98t12-84t27-58t49-21Zm31,681L136,946l97,91L364,845l-52-50Z" />
      <glyph unicode="&#xd3;" glyph-name="Oacute" horiz-adv-x="562" d="M281-14q-86,0-140.5,48T61,169.5T36,375q0,119 25,206t79.5,135T281,764q87,0 141-48t79-135t25-206q0-118-25-205.5T422,34T281-14Zm0,128q31,0 49.5,21T358,193t11.5,84t2.5,98t-2.5,98T358,557t-27.5,58T281,636t-49-21t-27-58t-12-84t-3-98t3-98t12-84t27-58t49-21ZM253,795l-52,50l131,192l97-91L253,795Z" />
      <glyph unicode="&#xd4;" glyph-name="Ocircumflex" horiz-adv-x="562" d="M281-14q-86,0-140.5,48T61,169.5T36,375q0,119 25,206t79.5,135T281,764q87,0 141-48t79-135t25-206q0-118-25-205.5T422,34T281-14Zm0,128q31,0 49.5,21T358,193t11.5,84t2.5,98t-2.5,98T358,557t-27.5,58T281,636t-49-21t-27-58t-12-84t-3-98t3-98t12-84t27-58t49-21ZM235,970h91L449,849l-59-56L281,889L172,793l-59,56L235,970Z" />
      <glyph unicode="&#xd5;" glyph-name="Otilde" horiz-adv-x="562" d="M281-14q-86,0-140.5,48T61,169.5T36,375q0,119 25,206t79.5,135T281,764q87,0 141-48t79-135t25-206q0-118-25-205.5T422,34T281-14Zm0,128q31,0 49.5,21T358,193t11.5,84t2.5,98t-2.5,98T358,557t-27.5,58T281,636t-49-21t-27-58t-12-84t-3-98t3-98t12-84t27-58t49-21Zm57,717q-31,0-50.5,10T252,861t-37,10q-31,0-55-31l-49,42q26,44 52.5,65.5T230,969q28,0 46-10t35-20t39-10q27,0 51,34l50-38q-22-44-49-69t-64-25Z" />
      <glyph unicode="&#xd6;" glyph-name="Odieresis" horiz-adv-x="562" d="M281-14q-86,0-140.5,48T61,169.5T36,375q0,119 25,206t79.5,135T281,764q87,0 141-48t79-135t25-206q0-118-25-205.5T422,34T281-14Zm0,128q31,0 49.5,21T358,193t11.5,84t2.5,98t-2.5,98T358,557t-27.5,58T281,636t-49-21t-27-58t-12-84t-3-98t3-98t12-84t27-58t49-21Zm35,729V975H444V843H316Zm-198,0V975H246V843H118Z" />
      <glyph unicode="&#xd7;" glyph-name="multiply" horiz-adv-x="538" d="M148,161L66,245L184,361L66,477l82,85L269,444L390,562l82-85L353,361L472,245l-82-84L269,279L148,161Z" />
      <glyph unicode="&#xd8;" glyph-name="Oslash" horiz-adv-x="562" d="M159-95L107-77L143,32Q36,122 36,375q0,192 62,290.5T281,764q54,0 96-19l29,88l51-18L424,714q102-90 102-339q0-193-61.5-291T281-14q-50,0-90,17L159-95Zm21,470q0-113 17-178L335,618q-21,26-54,26q-51,0-76-66T180,375ZM281,106q52,0 76.5,66T382,375q0,105-14,168L232,127q20-21 49-21Z" />
      <glyph unicode="&#xd9;" glyph-name="Ugrave" horiz-adv-x="564" d="M280-14Q170-14 113,51.5T56,243V750H203V222q0-49 21-78.5T287,114t63,29.5T371,222V750H508V243q0-73-22.5-131T413,20T280-14Zm33,807L137,944l97,91L365,843l-52-50Z" />
      <glyph unicode="&#xda;" glyph-name="Uacute" horiz-adv-x="564" d="M280-14Q170-14 113,51.5T56,243V750H203V222q0-49 21-78.5T287,114t63,29.5T371,222V750H508V243q0-73-22.5-131T413,20T280-14ZM254,793l-52,50l131,192l97-91L254,793Z" />
      <glyph unicode="&#xdb;" glyph-name="Ucircumflex" horiz-adv-x="564" d="M280-14Q170-14 113,51.5T56,243V750H203V222q0-49 21-78.5T287,114t63,29.5T371,222V750H508V243q0-73-22.5-131T413,20T280-14ZM236,968h91L450,847l-59-56L282,887L173,791l-59,56L236,968Z" />
      <glyph unicode="&#xdc;" glyph-name="Udieresis" horiz-adv-x="564" d="M280-14Q170-14 113,51.5T56,243V750H203V222q0-49 21-78.5T287,114t63,29.5T371,222V750H508V243q0-73-22.5-131T413,20T280-14Zm37,855V973H445V841H317Zm-198,0V973H247V841H119Z" />
      <glyph unicode="&#xdd;" glyph-name="Yacute" horiz-adv-x="495" d="M174,0V248L8,739l146,22l95-322l7-29l6,29l97,311H487L321,266V0H174Zm48,793l-52,50l131,192l97-91L222,793Z" />
      <glyph unicode="&#xde;" glyph-name="Thorn" horiz-adv-x="537" d="M60-2V752H207V628h32q83,0 143.5-23.5t93.5-76T509,390q0-124-72.5-181.5T239,151H207V-2H60ZM207,269h43q55,0 84,29t29,92q0,65-29,92t-84,27H207V269Z" />
      <glyph unicode="&#xdf;" glyph-name="germandbls" horiz-adv-x="533" d="M50,0V525q0,110 57,172.5T264,760q96,0 153-55t57-148q0-117-90-173q121-53 121-189q0-99-60.5-154.5T277-15q-33,0-58,7l17,111q9-2 18-3t16-1q45,0 70,25.5T365,195q0,53-33.5,89.5T239,331V433q43,0 69,29.5T334,549q0,47-18.5,72T264,646t-53.5-26T190,542V0H50Z" />
      <glyph unicode="&#xe0;" glyph-name="agrave" horiz-adv-x="460" d="M156-12Q96-12 60,30.5T24,148q0,66 32.5,107.5t88.5,61T272,336v51q0,31-11.5,53.5T218,463q-26,0-39-22.5T162,387L38,414q13,80 63.5,119.5T222,573q98,0 144-53t46-148V148q0-40 4.5-77T432,0H296q-14,36-15,73q-15-36-45.5-60.5T156-12Zm7,180q0-31 13.5-50T217,99q25,0 40,17t15,44V261q-52,0-80.5-26.5T163,168Zm95,437L87,756l93,87L310,655l-52-50Z" />
      <glyph unicode="&#xe1;" glyph-name="aacute" horiz-adv-x="460" d="M156-12Q96-12 60,30.5T24,148q0,66 32.5,107.5t88.5,61T272,336v51q0,31-11.5,53.5T218,463q-26,0-39-22.5T162,387L38,414q13,80 63.5,119.5T222,573q98,0 144-53t46-148V148q0-40 4.5-77T432,0H296q-14,36-15,73q-15-36-45.5-60.5T156-12Zm7,180q0-31 13.5-50T217,99q25,0 40,17t15,44V261q-52,0-80.5-26.5T163,168Zm36,437l-52,50L277,843l93-87L199,605Z" />
      <glyph unicode="&#xe2;" glyph-name="acircumflex" horiz-adv-x="460" d="M156-12Q96-12 60,30.5T24,148q0,66 32.5,107.5t88.5,61T272,336v51q0,31-11.5,53.5T218,463q-26,0-39-22.5T162,387L38,414q13,80 63.5,119.5T222,573q98,0 144-53t46-148V148q0-40 4.5-77T432,0H296q-14,36-15,73q-15-36-45.5-60.5T156-12Zm7,180q0-31 13.5-50T217,99q25,0 40,17t15,44V261q-52,0-80.5-26.5T163,168ZM137,607L78,663L186,784h91L386,663l-59-56l-95,93l-95-93Z" />
      <glyph unicode="&#xe3;" glyph-name="atilde" horiz-adv-x="460" d="M156-12Q96-12 60,30.5T24,148q0,66 32.5,107.5t88.5,61T272,336v51q0,31-11.5,53.5T218,463q-26,0-39-22.5T162,387L38,414q13,80 63.5,119.5T222,573q98,0 144-53t46-148V148q0-40 4.5-77T432,0H296q-14,36-15,73q-15-36-45.5-60.5T156-12Zm7,180q0-31 13.5-50T217,99q25,0 40,17t15,44V261q-52,0-80.5-26.5T163,168ZM109,619L66,661q23,44 47,65.5T172,748q19,0 38-7.5T246,724q15-7 28.5-11.5T302,708q31,0 52,34l44-38q-17-39-42-66.5T293,610q-20,0-38,6.5T219,632q-13,7-28,12.5T160,650q-17,0-29.5-9T109,619Z" />
      <glyph unicode="&#xe4;" glyph-name="adieresis" horiz-adv-x="460" d="M156-12Q96-12 60,30.5T24,148q0,66 32.5,107.5t88.5,61T272,336v51q0,31-11.5,53.5T218,463q-26,0-39-22.5T162,387L38,414q13,80 63.5,119.5T222,573q98,0 144-53t46-148V148q0-40 4.5-77T432,0H296q-14,36-15,73q-15-36-45.5-60.5T156-12Zm7,180q0-31 13.5-50T217,99q25,0 40,17t15,44V261q-52,0-80.5-26.5T163,168ZM267,617V749H395V617H267ZM69,617V749H197V617H69Z" />
      <glyph unicode="&#xe5;" glyph-name="aring" horiz-adv-x="460" d="M156-12Q96-12 60,30.5T24,148q0,66 32.5,107.5t88.5,61T272,336v51q0,31-11.5,53.5T218,463q-26,0-39-22.5T162,387L38,414q13,80 63.5,119.5T222,573q98,0 144-53t46-148V148q0-40 4.5-77T432,0H296q-14,36-15,73q-15-36-45.5-60.5T156-12Zm7,180q0-31 13.5-50T217,99q25,0 40,17t15,44V261q-52,0-80.5-26.5T163,168Zm69,434q-58,0-97,35T96,727t39,91t97,36t96.5-35.5T367,727q0-55-39-90t-96-35Zm0,78q20,0 33,13t13,34q0,22-13,35.5T232,776t-33.5-13.5T185,727q0-21 13.5-34T232,680Z" />
      <glyph unicode="&#xe6;" glyph-name="ae" horiz-adv-x="702" d="M191-13Q115-13 69.5,29T24,150q0,68 34,108.5t90.5,59T272,336v51q0,32-12,54t-40,22q-27,0-40-21t-18-55L38,414q10,60 38.5,95T145,558.5T226,573q38,0 74.5-14T354,518q18,23 51,39t77,16q66,0 108-32.5t62-87T672,332q0-40-3-93H410q1-36 6.5-69.5t20.5-55T481,93q34,0 46.5,27T544,180l124-26q-8-46-32.5-84t-63-60.5T480-13q-57,0-93.5,23T325,88q-16-45-52-73T191-13ZM410,328H544q-1,65-15,103t-49,38q-33,0-49.5-36.5T410,328ZM163,168q0-34 15-51.5T218,99t39.5,17T272,160V261q-50,0-79.5-25.5T163,168Z" />
      <glyph unicode="&#xe7;" glyph-name="ccedilla" horiz-adv-x="462" d="M237-13Q131-13 80.5,66T30,278q0,90 25.5,156T129,536.5T242,573q83,0 134-52.5T434,379L304,353q-2,25-7.5,51T278,447.5T242,465q-28,0-43-26.5t-20.5-69T173,278q0-85 15.5-134T242,95q24,0 37.5,17T299,152.5t7,43.5l128-14q-6-53-31.5-97.5T335,13.5T237-13Zm4-248q-31,0-56.5,8.5T141-231l19,77q11-7 28-14t36-7q20,0 32,9.5T268-140q0,14-9.5,21T237-112q-10,0-16.5-2T208-120l-38,8L201,33h77L260-49q6,1 14,1q39,0 66.5-25.5T368-146q0-37-18.5-62.5t-47.5-39T241-261Z" />
      <glyph unicode="&#xe8;" glyph-name="egrave" horiz-adv-x="464" d="M241-13q-75,0-121.5,38.5t-68,104T30,276q0,86 25,152.5t72,104T240,570q68,0 111-31t63-83.5T434,336q0-46-3-97H172q1-35 7-69t21-55.5T243,93q34,0 46.5,27T306,180l124-26Q416,76 365.5,31.5T241-13ZM172,328H305v14q0,28-5,56.5t-18.5,48T243,466q-26,0-41-20.5T180.5,393T172,328Zm99,277L100,756l93,87L323,655l-52-50Z" />
      <glyph unicode="&#xe9;" glyph-name="eacute" horiz-adv-x="464" d="M241-13q-75,0-121.5,38.5t-68,104T30,276q0,86 25,152.5t72,104T240,570q68,0 111-31t63-83.5T434,336q0-46-3-97H172q1-35 7-69t21-55.5T243,93q34,0 46.5,27T306,180l124-26Q416,76 365.5,31.5T241-13ZM172,328H305v14q0,28-5,56.5t-18.5,48T243,466q-26,0-41-20.5T180.5,393T172,328Zm40,277l-52,50L290,843l93-87L212,605Z" />
      <glyph unicode="&#xea;" glyph-name="ecircumflex" horiz-adv-x="464" d="M241-13q-75,0-121.5,38.5t-68,104T30,276q0,86 25,152.5t72,104T240,570q68,0 111-31t63-83.5T434,336q0-46-3-97H172q1-35 7-69t21-55.5T243,93q34,0 46.5,27T306,180l124-26Q416,76 365.5,31.5T241-13ZM172,328H305v14q0,28-5,56.5t-18.5,48T243,466q-26,0-41-20.5T180.5,393T172,328ZM150,607L91,663L199,784h91L399,663l-59-56l-95,93l-95-93Z" />
      <glyph unicode="&#xeb;" glyph-name="edieresis" horiz-adv-x="464" d="M241-13q-75,0-121.5,38.5t-68,104T30,276q0,86 25,152.5t72,104T240,570q68,0 111-31t63-83.5T434,336q0-46-3-97H172q1-35 7-69t21-55.5T243,93q34,0 46.5,27T306,180l124-26Q416,76 365.5,31.5T241-13ZM172,328H305v14q0,28-5,56.5t-18.5,48T243,466q-26,0-41-20.5T180.5,393T172,328ZM280,617V749H408V617H280ZM82,617V749H210V617H82Z" />
      <glyph unicode="&#xec;" glyph-name="igrave" horiz-adv-x="244" d="M52,0V550l140,17V0H52Zm96,606L-23,757l93,87L200,656l-52-50Z" />
      <glyph unicode="&#xed;" glyph-name="iacute" horiz-adv-x="244" d="M52,0V550l140,17V0H52ZM89,606L37,656L167,844l93-87L89,606Z" />
      <glyph unicode="&#xee;" glyph-name="icircumflex" horiz-adv-x="244" d="M52,0V550l140,17V0H52ZM41,603l-67,56L76,779h92L270,659l-67-56l-81,82L41,603Z" />
      <glyph unicode="&#xef;" glyph-name="idieresis" horiz-adv-x="270" d="M65,0V550l140,17V0H65Zm95,618V751H280V618H160Zm-170,0V751H110V618H-10Z" />
      <glyph unicode="&#xf0;" glyph-name="eth" horiz-adv-x="491" d="M249-13q-75,0-122,38.5T57.5,129T35,273q0,55 10.5,108.5t32,96.5t54,69T208,573q62,0 95-56q-11,26-28.5,53T234,624L114,578L89,644l92,35q-15,14-31,26.5T116,730l130,48q16-12 31-24.5T305,727l82,31l25-65l-58-22Q461,528 461,311q0-91-20-164.5T374.5,30T249-13Zm0,108q30,0 45,29t19.5,77T318,306q0,29-1.5,56.5T310,417q-7,18-20.5,33T253,465q-29,0-45.5-26t-23-69T178,275q0-28 2.5-59.5t9.5-59T211,112t38-17Z" />
      <glyph unicode="&#xf1;" glyph-name="ntilde" horiz-adv-x="509" d="M50,0V547l134,17V440q16,69 56,101t94,32q59,0 94.5-40.5T464,404V0H324V348q0,60-13,82.5T269,453q-35,0-57-47.5T190,287V0H50Zm96,619l-43,42q23,44 47,65.5T209,748q19,0 38-7.5T283,724q15-7 28.5-11.5T339,708q31,0 52,34l44-38q-17-39-42-66.5T330,610q-20,0-38,6.5T256,632q-13,7-28,12.5T197,650q-17,0-29.5-9T146,619Z" />
      <glyph unicode="&#xf2;" glyph-name="ograve" horiz-adv-x="486" d="M242-13Q141-13 85.5,64T30,279q0,88 24.5,153t72,101.5T242,570t115.5-36t73-101T456,279q0-139-56.5-215.5T242-13Zm0,108q30,0 45.5,27.5t20.5,70t5,86.5q0,28-3,60t-10,60t-21,45.5T242,462q-22,0-36-17.5T185,399t-9.5-59.5T173,279q0-44 5-86.5t20-70T242,95Zm27,511L98,757l93,87L321,656l-52-50Z" />
      <glyph unicode="&#xf3;" glyph-name="oacute" horiz-adv-x="486" d="M242-13Q141-13 85.5,64T30,279q0,88 24.5,153t72,101.5T242,570t115.5-36t73-101T456,279q0-139-56.5-215.5T242-13Zm0,108q30,0 45.5,27.5t20.5,70t5,86.5q0,28-3,60t-10,60t-21,45.5T242,462q-22,0-36-17.5T185,399t-9.5-59.5T173,279q0-44 5-86.5t20-70T242,95ZM210,606l-52,50L288,844l93-87L210,606Z" />
      <glyph unicode="&#xf4;" glyph-name="ocircumflex" horiz-adv-x="486" d="M242-13Q141-13 85.5,64T30,279q0,88 24.5,153t72,101.5T242,570t115.5-36t73-101T456,279q0-139-56.5-215.5T242-13Zm0,108q30,0 45.5,27.5t20.5,70t5,86.5q0,28-3,60t-10,60t-21,45.5T242,462q-22,0-36-17.5T185,399t-9.5-59.5T173,279q0-44 5-86.5t20-70T242,95ZM148,608L89,664L197,785h91L397,664l-59-56l-95,93l-95-93Z" />
      <glyph unicode="&#xf5;" glyph-name="otilde" horiz-adv-x="486" d="M242-13Q141-13 85.5,64T30,279q0,88 24.5,153t72,101.5T242,570t115.5-36t73-101T456,279q0-139-56.5-215.5T242-13Zm0,108q30,0 45.5,27.5t20.5,70t5,86.5q0,28-3,60t-10,60t-21,45.5T242,462q-22,0-36-17.5T185,399t-9.5-59.5T173,279q0-44 5-86.5t20-70T242,95ZM120,620L77,662q23,44 47,65.5T183,749q19,0 38-7.5T257,725q15-7 28.5-11.5T313,709q31,0 52,34l44-38q-17-39-42-66.5T304,611q-20,0-38,6.5T230,633q-13,7-28,12.5T171,651q-17,0-29.5-9T120,620Z" />
      <glyph unicode="&#xf6;" glyph-name="odieresis" horiz-adv-x="486" d="M242-13Q141-13 85.5,64T30,279q0,88 24.5,153t72,101.5T242,570t115.5-36t73-101T456,279q0-139-56.5-215.5T242-13Zm0,108q30,0 45.5,27.5t20.5,70t5,86.5q0,28-3,60t-10,60t-21,45.5T242,462q-22,0-36-17.5T185,399t-9.5-59.5T173,279q0-44 5-86.5t20-70T242,95Zm36,523V750H406V618H278ZM80,618V750H208V618H80Z" />
      <glyph unicode="&#xf7;" glyph-name="divide" horiz-adv-x="538" d="M200,470V595H340V470H200ZM56,303V411H482L469,303H56ZM200,115V243H340V115H200Z" />
      <glyph unicode="&#xf8;" glyph-name="oslash" horiz-adv-x="486" d="M132-107L80-91L122,25Q30,97 30,279q0,88 24.5,153t72,101.5T242,570q39,0 73-13l41,113l51-18L363,530q45-36 69-100.5T456,279q0-139-56.5-215.5T242-13q-39,0-72,12L132-107Zm35,386q0-29 1.5-57t6.5-52L278,456q-15,14-36,14q-25,0-40-17.5T179.5,406t-10-62T167,279ZM242,87q33,0 49.5,28t22,72t5.5,92q0,26-2,53.5T310,385L207,100q15-13 35-13Z" />
      <glyph unicode="&#xf9;" glyph-name="ugrave" horiz-adv-x="509" d="M175-9Q116-9 80.5,31.5T45,160V564H185V216q0-60 13-82.5T240,111q35,0 57,47.5T319,277V564H459V10L325-7V124Q309,55 269,23T175-9ZM280,606L109,757l93,87L332,656l-52-50Z" />
      <glyph unicode="&#xfa;" glyph-name="uacute" horiz-adv-x="509" d="M175-9Q116-9 80.5,31.5T45,160V564H185V216q0-60 13-82.5T240,111q35,0 57,47.5T319,277V564H459V10L325-7V124Q309,55 269,23T175-9Zm46,615l-52,50L299,844l93-87L221,606Z" />
      <glyph unicode="&#xfb;" glyph-name="ucircumflex" horiz-adv-x="509" d="M175-9Q116-9 80.5,31.5T45,160V564H185V216q0-60 13-82.5T240,111q35,0 57,47.5T319,277V564H459V10L325-7V124Q309,55 269,23T175-9ZM159,608l-59,56L208,785h91L408,664l-59-56l-95,93l-95-93Z" />
      <glyph unicode="&#xfc;" glyph-name="udieresis" horiz-adv-x="509" d="M175-9Q116-9 80.5,31.5T45,160V564H185V216q0-60 13-82.5T240,111q35,0 57,47.5T319,277V564H459V10L325-7V124Q309,55 269,23T175-9ZM289,618V750H417V618H289ZM91,618V750H219V618H91Z" />
      <glyph unicode="&#xfd;" glyph-name="yacute" horiz-adv-x="429" d="M2-155L26-43q11-5 21.5-7T70-52q32,0 52.5,20T143,27V51L6,553l141,19l77-363l79,355H425L289,7q-21-85-72-130T82-168q-26,0-43,3T2-155ZM182,606l-52,50L260,844l93-87L182,606Z" />
      <glyph unicode="&#xfe;" glyph-name="thorn" horiz-adv-x="505" d="M50-175V741l140,18V510q17,29 45,46t68,17q86,0 126.5-79.5T470,279q0-82-18-148T395.5,26T296-13q-39,0-65,17T190,48V-158L50-175ZM254,95q40,0 56.5,50T327,278q0,84-16.5,135.5T256,465t-52-39T190,322V237q0-63 14-102.5T254,95Z" />
      <glyph unicode="&#xff;" glyph-name="ydieresis" horiz-adv-x="429" d="M2-155L26-43q11-5 21.5-7T70-52q32,0 52.5,20T143,27V51L6,553l141,19l77-363l79,355H425L289,7q-21-85-72-130T82-168q-26,0-43,3T2-155ZM250,618V750H378V618H250ZM52,618V750H180V618H52Z" />
      <glyph unicode="&#x2013;" glyph-name="endash" horiz-adv-x="473" d="M56,254l7,104H417l-7-104H56Z" />
      <glyph unicode="&#x2014;" glyph-name="emdash" horiz-adv-x="724" d="M56,254l7,104H669l-7-104H56Z" />
      <glyph unicode="&#x2018;" glyph-name="quoteleft" horiz-adv-x="248" d="M56,461V610q0,63 25.5,103.5T147,770l26-63q-23-9-35.5-30.5T125,612h67V461H56Z" />
      <glyph unicode="&#x2019;" glyph-name="quoteright" horiz-adv-x="248" d="M101,441L75,504q23,9 35.5,30.5T123,599H56V750H192V601q0-63-25.5-103.5T101,441Z" />
      <glyph unicode="&#x201a;" glyph-name="quotesinglbase" horiz-adv-x="248" d="M101-154L75-91q23,9 35.5,30.5T123,4H56V155H192V6q0-63-25.5-103.5T101-154Z" />
      <glyph unicode="&#x201c;" glyph-name="quotedblleft" horiz-adv-x="434" d="M242,460V609q0,63 25.5,103.5T333,769l26-63q-23-9-35.5-30.5T311,611h67V460H242ZM56,460V609q0,63 25.5,103.5T147,769l26-63q-23-9-35.5-30.5T125,611h67V460H56Z" />
      <glyph unicode="&#x201d;" glyph-name="quotedblright" horiz-adv-x="436" d="M289,441l-26,63q23,9 35.5,30.5T311,599H244V750H380V601q0-63-25.5-103.5T289,441Zm-188,0L75,504q23,9 35.5,30.5T123,599H56V750H192V601q0-63-25.5-103.5T101,441Z" />
      <glyph unicode="&#x201e;" glyph-name="quotedblbase" horiz-adv-x="435" d="M288-154L262-91q23,9 35.5,30.5T310,4H243V155H379V6q0-63-25.5-103.5T288-154Zm-187,0L75-91q23,9 35.5,30.5T123,4H56V155H192V6q0-63-25.5-103.5T101-154Z" />
      <glyph unicode="&#x2022;" glyph-name="bullet" horiz-adv-x="437" d="M219,167q-52,0-88.5,22.5T75,249.5T56,332t19,82.5t55.5,60T219,497t88-22.5t55-60T381,332t-19-82.5t-55-60T219,167Z" />
      <glyph unicode="&#x2039;" glyph-name="guilsinglleft" horiz-adv-x="312" d="M212,27L26,215L42,350L213,536l55-55L142,280L268,83L212,27Z" />
      <glyph unicode="&#x203a;" glyph-name="guilsinglright" horiz-adv-x="312" d="M99,24L44,79L170,280L44,477l56,56L286,345L270,210L99,24Z" />
    </font>
</defs>
</svg>
