<?xml version="1.0" standalone="no"?>
<!DOCTYPE svg PUBLIC "-//W3C//DTD SVG 1.1//EN" "http://www.w3.org/Graphics/SVG/1.1/DTD/svg11.dtd">
<svg xmlns="http://www.w3.org/2000/svg">
<defs >
<font id="ExpletusSans" horiz-adv-x="1091" ><font-face
    font-family="Expletus Sans"
    units-per-em="2000"
    panose-1="0 0 0 0 0 0 0 0 0 0"
    ascent="2066"
    descent="-612"
    alphabetic="0" />
<glyph unicode=" " horiz-adv-x="514" />
<glyph unicode="!" horiz-adv-x="702" d="M164 370L140 1454H328L300 370H164ZM230 -30Q179 -30 146 3T112 88Q112 141 145 175T230 210Q283 210 317 176T352 88Q352 37 318 4T230 -30Z" />
<glyph unicode="&quot;" horiz-adv-x="742" d="M108 1062V1454H272V1062H108ZM456 1062V1454H620V1062H456Z" />
<glyph unicode="#" horiz-adv-x="1788" d="M326 0L384 308L388 330H366H164V460H412L498 916L504 948H466H282V1078H530L592 1404H744L682 1078H1144L1206 1404H1358L1296 1078H1514V948H1272L1178 460H1396V330H1154L1092 0H940L998 308L1002 330H978H612Q625
368 646 397T700 443T780 460H1026L1112 916L1118 948H1086H658L478 0H326Z" />
<glyph unicode="$" horiz-adv-x="1028" d="M454 -214V-22Q372 -17 278 4T90 72L142 202Q235 160 316 142T470 124Q556 124 619 156T717 242T752 356Q752 439 706 496T588 597T433 683T279 777T160 904T114 1088Q114 1174 157 1246T276 1365T454 1422V1620H598V1418Q655
1412 714 1399T848 1362L792 1232Q705 1258 641 1267T520 1276Q420 1276 362 1220T304 1088Q304 1012 350 958T470 859T626 771T781 671T901 539T948 352Q948 272 908 196T789 64T598 -12V-214H454Z" />
<glyph unicode="%" horiz-adv-x="1628" d="M316 0L1192 1404H1332L456 0H316ZM380 618Q238 618 148 724T58 1026Q58 1220 148 1327T380 1434Q520 1434 610 1327T700 1026Q700 833 610 726T380 618ZM380 738Q451 738 490 808T530 1026Q530 1172 491 1243T380 1314Q310
1314 269 1243T228 1026Q228 879 269 809T380 738ZM1268 -26Q1127 -26 1038 80T948 382Q948 574 1037 681T1268 788Q1409 788 1499 681T1590 382Q1590 189 1500 82T1268 -26ZM1268 92Q1340 92 1380 163T1420 382Q1420 526 1380 598T1268 670Q1199 670 1159 598T1118
382Q1118 235 1158 164T1268 92Z" />
<glyph unicode="&amp;" horiz-adv-x="1522" d="M670 -22Q535 -22 441 42T296 206T246 418Q246 555 318 657T488 832Q436 909 408 982T380 1124Q380 1223 426 1302T559 1428T768 1474Q834 1474 911 1458T1054 1406L1006 1280Q954 1306 886 1318T764 1330Q671 1330
611 1277T550 1142Q550 1051 599 979T730 808L1060 424L1072 410L1080 424Q1125 507 1152 586T1194 758H1338Q1311 626 1273 510T1172 292L1424 0H1188L590 702L578 716L560 700Q508 651 474 589T440 444Q440 300 508 211T700 122Q721 122 743 126T794 140Q857
161 912 152T1014 102Q944 45 862 12T670 -22Z" />
<glyph unicode="&apos;" horiz-adv-x="382" d="M108 1062V1454H272V1062H108Z" />
<glyph unicode="(" horiz-adv-x="806" d="M728 -352Q613 -274 541 -187T430 10T377 262T362 592Q362 779 376 921T429 1172T540 1368T728 1534L806 1434Q706 1355 649 1275T565 1100T531 882T524 592Q524 426 531 302T564 83T648 -93T806 -252L728 -352Z" />
<glyph unicode=")" horiz-adv-x="802" d="M82 -352L4 -252Q105 -173 162 -93T245 82T279 302T286 592Q286 758 279 881T246 1100T162 1275T4 1434L82 1534Q198 1456 270 1369T380 1172T433 921T448 592Q448 405 434 263T381 11T270 -186T82 -352Z" />
<glyph unicode="*" horiz-adv-x="1060" d="M368 708L236 784L424 1048L102 1016V1168L426 1138L232 1398L364 1474L502 1180L638 1474L770 1398Q686 1288 646 1232T592 1157T578 1136L900 1168V1016Q779 1030 712 1036T615 1045T581 1047T576 1046L766 784L634
708L502 1004L368 708Z" />
<glyph unicode="+" horiz-adv-x="1136" d="M488 124V546H94V674H488V1092H634V674H1030V546H634V124H488Z" />
<glyph unicode="," horiz-adv-x="394" d="M112 -196V196H286V40Q286 0 279 -46T252 -130T199 -189T112 -196Z" />
<glyph unicode="-" horiz-adv-x="750" d="M90 546V674H694V546H90Z" />
<glyph unicode="." horiz-adv-x="612" d="M304 -30Q253 -30 220 3T186 88Q186 141 219 175T304 210Q357 210 391 176T426 88Q426 37 392 4T304 -30Z" />
<glyph unicode="/" horiz-adv-x="664" d="M20 -124L506 1454H664L178 -124H20Z" />
<glyph unicode="0" horiz-adv-x="1322" d="M658 -32Q495 -32 374 56T184 308T116 698Q116 920 182 1085T370 1341T656 1432Q780 1432 880 1381T1051 1233T1160 1001T1198 698Q1198 517 1156 380T1039 152T866 14T658 -32ZM658 112Q819 112 910 267T1002 698Q1002
974 911 1131T658 1288Q496 1288 404 1131T312 698Q312 422 404 267T658 112Z" />
<glyph unicode="1" horiz-adv-x="638" d="M288 0V1174L60 1052L-10 1178L406 1402H480V0H288Z" />
<glyph unicode="2" horiz-adv-x="1028" d="M114 0V76Q193 206 280 317T450 525T600 710T706 878T746 1038Q746 1151 669 1213T486 1276Q431 1276 366 1262T220 1204L170 1338Q262 1388 344 1404T508 1420Q628 1420 726 1378T882 1256T940 1060Q940 964 897 871T785
689T638 514T487 346T366 186L336 152L380 160H964V0H114Z" />
<glyph unicode="3" horiz-adv-x="1056" d="M402 -22Q288 -22 199 9T60 72L106 202Q147 177 226 151T400 124Q501 124 567 171T667 287T700 418Q700 518 650 574T513 653T312 676L294 784L398 826Q458 852 517 882T615 958T654 1076Q654 1168 594 1223T442 1278Q385
1278 315 1264T164 1206L114 1340Q206 1390 293 1407T462 1424Q577 1424 664 1383T801 1271T850 1108Q850 1012 797 929T648 794L598 778L642 768Q706 745 764 697T859 577T896 414Q896 299 833 200T658 39T402 -22Z" />
<glyph unicode="4" horiz-adv-x="1190" d="M744 0V1092L748 1146L718 1096L288 474L266 452L298 456H482Q535 456 574 429T638 368T674 312H92V434L744 1402H918V454H1078V312H918V0H744Z" />
<glyph unicode="5" horiz-adv-x="1070" d="M434 -22Q383 -22 319 -10T194 24T90 76L136 206Q216 160 295 142T432 124Q548 124 614 171T707 287T734 418Q734 562 643 629T408 696Q357 696 284 685T152 656L204 1402H870V1244H340L310 858L308 826L340 830Q370
835 397 836T450 838Q615 838 721 777T879 618T930 414Q930 299 873 200T705 39T434 -22Z" />
<glyph unicode="6" horiz-adv-x="1308" d="M678 -28Q527 -28 426 31T266 189T180 408T154 652Q154 789 198 924T327 1169T538 1346T826 1412Q876 1412 929 1401T1036 1366L992 1234Q949 1254 907 1261T826 1268Q685 1268 578 1190T410 973T350 656Q350 574 363
481T412 304T510 169T674 116Q752 116 811 156T903 268T936 432Q936 569 872 639T718 710Q703 710 688 708T648 700Q598 688 554 697T477 724T426 760Q528 814 588 834T718 854Q838 854 931 806T1078 663T1132 432Q1132 346 1100 264T1008 116T865 11T678 -28Z"
/>
<glyph unicode="7" horiz-adv-x="1002" d="M260 0Q290 229 349 437T499 839T716 1216L730 1236H706H76V1402H930V1250Q848 1145 772 1026T632 761T522 428T454 0H260Z" />
<glyph unicode="8" horiz-adv-x="1228" d="M624 -28Q496 -28 391 17T224 147T162 356Q162 424 193 503T330 694Q363 646 377 589T362 478Q349 451 342 427T334 380Q334 256 417 186T624 116Q753 116 833 183T914 356Q914 431 876 481T775 566T637 631T487 695T349
776T248 892T210 1062Q210 1176 270 1257T427 1381T630 1424Q743 1424 838 1381T990 1257T1048 1062Q1048 971 1002 892T888 734L870 714L890 702Q976 650 1035 570T1094 356Q1094 233 1029 148T857 17T624 -28ZM732 780Q795 842 833 902T872 1038Q872 1119 836
1172T745 1252T630 1278Q570 1278 515 1253T425 1179T390 1062Q390 984 439 936T567 852T732 780Z" />
<glyph unicode="9" horiz-adv-x="1308" d="M458 -20Q409 -20 356 -8T248 30L294 162Q338 143 380 135T458 126Q601 126 708 204T876 421T936 740Q936 821 923 914T874 1089T776 1223T614 1276Q534 1276 475 1236T383 1124T350 962Q350 827 413 756T568 684Q582
684 598 686T638 692Q689 706 732 698T808 670T858 632Q756 578 696 560T568 542Q448 542 354 590T206 731T152 962Q152 1049 184 1131T277 1278T421 1381T608 1420Q758 1420 859 1361T1020 1204T1106 986T1132 744Q1132 606 1088 471T958 224T747 47T458 -20Z"
/>
<glyph unicode=":" horiz-adv-x="598" d="M304 -30Q253 -30 220 3T186 88Q186 141 219 175T304 210Q357 210 391 176T426 88Q426 37 392 4T304 -30ZM304 732Q253 732 220 765T186 850Q186 903 219 937T304 972Q357 972 391 938T426 850Q426 799 392 766T304 732Z" />
<glyph unicode=";" horiz-adv-x="598" d="M220 -196V196H394V40Q394 0 387 -46T360 -130T307 -189T220 -196ZM304 732Q253 732 220 765T186 850Q186 903 219 937T304 972Q357 972 391 938T426 850Q426 799 392 766T304 732Z" />
<glyph unicode="&lt;" horiz-adv-x="1226" d="M1108 0L74 502V602L1108 1104V944L294 566L242 552L294 540L1108 162V0Z" />
<glyph unicode="=" horiz-adv-x="1212" d="M134 794V930H1078V794H134ZM134 352V488H1078V352H134Z" />
<glyph unicode="&gt;" horiz-adv-x="1226" d="M74 0V162L888 540L940 552L888 566L74 944V1104L1108 602V502L74 0Z" />
<glyph unicode="?" horiz-adv-x="1166" d="M410 370Q410 500 444 592T528 753T628 880T712 1001T746 1144Q746 1224 687 1277T534 1330Q477 1330 412 1316T266 1258L216 1392Q308 1442 390 1458T554 1474Q669 1474 756 1434T893 1326T942 1174Q942 1074 903 997T806
852T690 715T593 563T554 370H410ZM480 -30Q429 -30 395 3T360 88Q360 141 394 175T480 210Q533 210 567 176T602 88Q602 37 568 4T480 -30Z" />
<glyph unicode="@" horiz-adv-x="1838" d="M894 -244Q741 -244 610 -201T379 -66T225 169T170 514Q170 701 230 843T395 1081T637 1227T924 1276Q1079 1276 1208 1233T1433 1106T1581 902T1634 626Q1634 483 1574 377T1407 205T1156 112Q1134 124 1123 142T1102
186L1098 224L1078 184Q1020 126 967 110T860 94Q733 94 661 155T588 316Q588 438 687 496T1010 578Q1008 560 997 532T962 479T898 450Q810 438 773 405T736 324Q736 275 776 244T880 212Q931 212 988 235T1092 320V612Q1092 704 1048 760T896 816Q854 816 805
807T702 776L662 878Q737 910 799 921T924 932Q1073 932 1155 845T1238 602V280V232L1268 256Q1387 333 1436 422T1486 626Q1486 795 1417 914T1221 1095T922 1158Q751 1158 615 1087T399 873T320 514Q320 299 398 157T606 -55T894 -126Q952 -126 1006 -122T1123
-104T1268 -64L1310 -174Q1215 -203 1147 -218T1019 -238T894 -244Z" />
<glyph unicode="A" horiz-adv-x="1374" d="M70 0L594 1454H780L1304 0H1100L694 1172L680 1230L666 1172L442 530L420 488L444 492H714Q762 492 794 472T848 419T884 348H380L260 0H70Z" />
<glyph unicode="B" horiz-adv-x="1286" d="M724 -24Q667 -24 600 -17T444 12Q464 47 491 76T553 121T634 128Q658 125 677 124T724 122Q794 122 853 159T948 260T984 402Q984 502 932 566T791 661T594 692H364V0H174V1436Q249 1451 318 1460T454 1475T594 1480Q764
1480 876 1429T1044 1290T1100 1094Q1100 1022 1062 937T950 804L892 776L948 762Q1023 726 1076 675T1158 557T1186 410Q1186 333 1155 256T1064 116T919 14T724 -24ZM364 830H594Q694 830 762 865T866 960T902 1094Q902 1162 867 1216T764 1301T594 1332Q540
1332 479 1329T364 1320V830Z" />
<glyph unicode="C" horiz-adv-x="1304" d="M868 -24Q663 -24 499 66T240 325T144 724Q144 892 199 1030T352 1270T582 1425T868 1480Q952 1480 1041 1464T1222 1412L1170 1282Q1083 1311 1010 1322T868 1334Q765 1334 671 1296T505 1182T390 992T348 724Q348 588
390 477T504 286T671 163T868 120Q937 120 1012 138T1170 198L1222 68Q1129 19 1041 -2T868 -24Z" />
<glyph unicode="D" horiz-adv-x="1426" d="M728 -24Q683 -24 641 -22T553 -12T448 10Q467 45 493 72T555 114T636 124Q668 121 685 121T726 120Q822 120 905 168T1050 300T1147 494T1182 730Q1182 923 1117 1058T920 1263T592 1334Q532 1334 474 1330T368 1320V0H178V1432Q273
1455 389 1467T592 1480Q846 1480 1023 1390T1293 1132T1386 730Q1386 567 1334 429T1191 190T981 32T728 -24Z" />
<glyph unicode="E" horiz-adv-x="1154" d="M178 0V1454H1006V1310H368V144H1036V0H178ZM444 692Q458 730 480 762T535 813T616 832H938V692H444Z" />
<glyph unicode="F" horiz-adv-x="1146" d="M178 0V1454H1006V1310H368V0H178ZM444 692Q458 730 480 762T535 813T616 832H938V692H444Z" />
<glyph unicode="G" horiz-adv-x="1290" d="M820 -24Q666 -24 531 27T292 175T129 411T70 726Q70 895 129 1033T291 1272T530 1426T820 1480Q906 1480 1008 1461T1216 1392L1164 1262Q1058 1309 974 1321T820 1334Q717 1334 619 1297T444 1184T320 994T274 726Q274
573 320 459T443 270T619 158T820 120Q864 120 921 126T1044 154V674H1228V74Q1156 36 1084 15T944 -15T820 -24Z" />
<glyph unicode="H" horiz-adv-x="1460" d="M1096 0V692H444Q458 730 480 762T534 813T614 832H1096V1454H1286V0H1096ZM178 0V1454H368V0H178Z" />
<glyph unicode="I" horiz-adv-x="540" d="M178 0V1454H362V0H178Z" />
<glyph unicode="J" horiz-adv-x="688" d="M70 -416L-10 -314Q65 -252 127 -199T235 -85T305 57T330 256V1454H522V256Q522 125 491 29T400 -141T258 -280T70 -416Z" />
<glyph unicode="K" horiz-adv-x="1322" d="M1052 0L664 694L650 730L632 694L474 486Q456 526 456 584T475 706T534 824L1000 1454H1216L764 866L1282 0H1052ZM178 0V1454H368V0H178Z" />
<glyph unicode="L" horiz-adv-x="1040" d="M178 0V1454H370V146H978L976 0H178Z" />
<glyph unicode="M" horiz-adv-x="1898" d="M138 0L300 1454H546L936 286L950 224L964 286L1354 1454H1600L1760 0H1578L1464 1164L1458 1250L1434 1164L1038 20H860L462 1166L436 1250L430 1166L318 0H138Z" />
<glyph unicode="N" horiz-adv-x="1498" d="M208 0V1454H398L1104 326L1128 260L1124 330V1454H1292V0H1122L394 1162L366 1230L370 1162V0H208Z" />
<glyph unicode="O" horiz-adv-x="1582" d="M764 -28Q577 -28 424 62T181 322T90 728Q90 919 150 1061T310 1297T528 1437T764 1484Q927 1484 1052 1425T1264 1261T1394 1020T1438 728Q1438 555 1385 416T1237 177T1022 25T764 -28ZM764 116Q905 116 1011 197T1175
418T1234 728Q1234 916 1171 1053T1000 1264T764 1338Q635 1338 528 1264T358 1053T294 728Q294 592 329 480T427 287T577 161T764 116Z" />
<glyph unicode="P" horiz-adv-x="1218" d="M178 0V1440Q253 1455 319 1464T450 1476T588 1480Q749 1480 867 1421T1051 1261T1116 1040Q1116 912 1049 820T875 674T648 610Q605 606 555 608T448 626Q463 660 488 687T548 731T624 748Q693 748 759 785T870 889T914
1040Q914 1124 870 1190T752 1295T588 1334Q533 1334 478 1331T368 1322V0H178Z" />
<glyph unicode="Q" horiz-adv-x="1576" d="M774 -28Q584 -28 433 65T194 328T106 728Q106 901 160 1040T308 1279T523 1431T780 1484Q969 1484 1121 1393T1363 1133T1452 728Q1452 592 1410 478T1274 232L1426 78L1318 -26L824 476L932 582L1132 374L1158 336L1172
384Q1216 465 1232 553T1248 728Q1248 916 1185 1053T1016 1264T780 1338Q652 1338 545 1264T373 1053T308 728Q308 589 343 477T442 284T591 161T774 118Q810 118 836 122T892 134Q945 148 1004 135T1096 86Q1014 26 935 -1T774 -28Z" />
<glyph unicode="R" horiz-adv-x="1296" d="M178 0V1436Q253 1451 319 1461T450 1476T588 1482Q749 1482 867 1424T1051 1267T1116 1052Q1116 931 1049 840T878 696L830 680L870 664Q944 615 984 543T1049 384T1100 199T1172 0H972Q932 86 908 183T858 372T789
532T666 632Q609 626 557 629T448 646Q463 680 488 707T548 751T624 768Q693 770 759 807T870 908T914 1054Q914 1133 870 1197T752 1298T588 1336Q533 1336 487 1334T368 1318V0H178Z" />
<glyph unicode="S" horiz-adv-x="1108" d="M534 -24Q449 -24 335 -4T118 66L170 196Q260 156 351 138T512 120Q653 120 731 191T810 366Q810 452 762 510T637 613T474 701T312 798T187 928T138 1118Q138 1218 189 1300T331 1431T542 1480Q628 1480 715 1466T904
1420L850 1290Q765 1316 692 1325T562 1334Q450 1334 390 1270T330 1118Q330 1040 379 984T505 883T669 793T833 691T959 555T1008 362Q1008 263 953 175T792 32T534 -24Z" />
<glyph unicode="T" horiz-adv-x="1088" d="M444 0V1310H20V1454H1062V1310H636V0H444Z" />
<glyph unicode="U" horiz-adv-x="1388" d="M694 -28Q524 -28 404 42T220 240T156 536V1454H344V504Q344 327 439 222T694 116Q853 116 948 221T1044 504V1454H1232V536Q1232 367 1164 240T975 43T694 -28Z" />
<glyph unicode="V" horiz-adv-x="1260" d="M536 0L26 1454H232L624 260L638 194L654 258L1044 1454H1242L736 0H536Z" />
<glyph unicode="W" horiz-adv-x="1944" d="M432 0L42 1454H234L530 274L546 176L568 274L878 1434H1082L1384 272L1404 174L1422 268L1716 1454H1904L1514 0H1290L992 1132L976 1216L960 1136L664 0H432Z" />
<glyph unicode="X" horiz-adv-x="1252" d="M964 0L94 1454H316L610 924L628 874L644 924L942 1454H1154L730 754L1180 0H964ZM68 0L468 660Q491 629 508 589T528 504T506 420L274 0H68Z" />
<glyph unicode="Y" horiz-adv-x="1320" d="M554 0V618L56 1454H272L740 674V0H554ZM796 752Q772 783 755 824T736 911T762 1004L1014 1454H1224L796 752Z" />
<glyph unicode="Z" horiz-adv-x="1196" d="M170 0V76L942 1282L974 1316L926 1310H258V1454H1196V1378L422 168L392 138L436 144H1216V0H170Z" />
<glyph unicode="[" horiz-adv-x="894" d="M290 -398V1542H804V1398H462V-254H806L804 -398H290Z" />
<glyph unicode="\" horiz-adv-x="756" d="M536 -124L50 1454H228L714 -124H536Z" />
<glyph unicode="]" horiz-adv-x="914" d="M108 -398L106 -254H450V1398H108V1542H620V-398H108Z" />
<glyph unicode="^" horiz-adv-x="1256" d="M168 420L580 1454H682L1094 420H940L644 1160L632 1212L620 1160L326 420H168Z" />
<glyph unicode="_" horiz-adv-x="994" d="M54 -126V0H940V-126H54Z" />
<glyph unicode="`" horiz-adv-x="392" d="M668 1204Q634 1195 599 1197T532 1214T472 1262L296 1480H490L668 1204Z" />
<glyph unicode="a" horiz-adv-x="1054" d="M428 -20Q324 -20 249 17T133 119T92 264Q92 365 145 431T319 539T646 604Q642 580 629 547T585 486T502 450Q414 436 369 409T307 348T290 276Q290 215 334 170T454 124Q522 124 591 158T718 268V642Q718 761 661 835T466
910Q412 910 359 899T234 862L188 986Q286 1028 361 1041T502 1054Q694 1054 800 943T906 628V342Q906 222 915 138T938 0H802Q774 17 758 44T730 102L728 138L706 102Q630 26 565 3T428 -20Z" />
<glyph unicode="b" horiz-adv-x="1164" d="M554 -20Q446 -20 349 5T166 80V1516H352V156Q400 138 454 131T554 124Q697 124 779 234T862 522Q862 654 826 740T725 866T574 902Q529 899 491 922T420 992Q473 1018 532 1032T636 1046Q718 1046 793 1013T928 915T1023
751T1058 522Q1058 363 995 241T818 50T554 -20Z" />
<glyph unicode="c" horiz-adv-x="854" d="M566 -20Q432 -20 323 42T149 224T84 518Q84 691 150 810T327 992T566 1054Q620 1054 685 1045T810 1012L764 882Q707 897 659 903T566 910Q490 910 426 868T322 739T282 518Q282 383 321 296T424 167T566 124Q610 124
663 137T786 182L836 50Q755 10 684 -5T566 -20Z" />
<glyph unicode="d" horiz-adv-x="1196" d="M542 -20Q402 -20 304 51T154 246T102 522Q102 642 140 738T245 904T394 1009T566 1046Q611 1046 661 1039T766 1012Q739 963 694 932T578 902Q509 904 446 866T341 743T300 522Q300 406 331 316T423 175T572 124Q641
124 707 159T834 270V1516H1020V342Q1020 222 1029 138T1050 0H916Q892 21 877 44T846 108L842 140L826 106Q765 36 685 8T542 -20Z" />
<glyph unicode="e" horiz-adv-x="1088" d="M596 -20Q486 -20 397 21T244 135T146 308T112 526Q112 688 171 806T341 989T602 1054Q705 1054 784 1009T911 885T971 707T950 500H370Q391 557 429 595T540 634H794Q803 711 777 773T699 873T582 910Q498 910 434 865T334
734T298 524Q298 405 339 315T453 175T616 124Q685 124 747 138T894 196L944 64Q848 15 758 -2T596 -20Z" />
<glyph unicode="f" horiz-adv-x="780" d="M182 0V896H10V992L182 1034V1090Q182 1222 227 1320T358 1472T566 1526Q616 1526 677 1515T808 1474L766 1352Q703 1376 662 1383T588 1390Q532 1390 479 1362T391 1272T356 1110V0H182ZM428 896Q442 934 463 965T517
1015T598 1034H718V896H428Z" />
<glyph unicode="g" horiz-adv-x="1142" d="M518 -500Q440 -500 348 -484T156 -416L208 -280Q294 -322 366 -339T502 -356Q586 -356 656 -320T768 -210T810 -22V888Q764 900 724 905T638 910Q488 910 396 807T304 512Q304 399 334 311T426 174T580 136Q624 141
665 124T742 62Q693 29 640 11T542 -12Q453 -19 375 15T236 120T142 290T108 512Q108 675 176 797T363 986T638 1054Q694 1054 749 1048T863 1027T992 990V0Q992 -149 935 -261T771 -437T518 -500Z" />
<glyph unicode="h" horiz-adv-x="1164" d="M166 0V1516H352V0H166ZM812 0V752Q812 821 786 865T700 910Q676 910 661 905T618 894Q560 881 512 893T422 948Q529 1011 599 1032T724 1054Q801 1054 864 1025T966 926T1004 732V0H812Z" />
<glyph unicode="i" horiz-adv-x="512" d="M160 0V1034H352V0H160ZM256 1214Q205 1214 171 1248T136 1334Q136 1387 170 1421T256 1456Q309 1456 342 1422T376 1334Q376 1283 343 1249T256 1214Z" />
<glyph unicode="j" horiz-adv-x="558" d="M36 -496L-50 -390Q59 -296 113 -226T184 -86T202 78V1034H392V78Q392 -28 365 -119T262 -300T36 -496ZM296 1214Q244 1214 211 1248T178 1334Q178 1388 211 1423T296 1458Q350 1458 385 1423T420 1334Q420 1282 385 1248T296
1214Z" />
<glyph unicode="k" horiz-adv-x="1162" d="M902 0L626 502L606 540L582 514L452 366Q430 425 441 508T508 656L834 1034H1054L724 670L1114 0H902ZM166 0V1516H352V0H166Z" />
<glyph unicode="l" horiz-adv-x="508" d="M170 0V1516H352V0H170Z" />
<glyph unicode="m" horiz-adv-x="1804" d="M1456 0V752Q1456 821 1426 865T1332 910Q1308 910 1288 905T1240 894Q1182 881 1132 893T1040 948Q1147 1011 1222 1032T1352 1054Q1431 1054 1498 1025T1607 926T1648 732V0H1456ZM170 0V782Q170 838 164 901T140 1034H284Q332
980 347 927T362 814V0H170ZM814 0V752Q814 821 786 865T698 910Q674 910 656 906T612 896Q554 883 506 895T416 950Q523 1013 594 1033T720 1054Q798 1054 863 1025T967 926T1006 732V0H814Z" />
<glyph unicode="n" horiz-adv-x="1192" d="M826 0V752Q826 821 795 865T702 910Q678 910 660 905T616 894Q558 881 508 893T416 948Q523 1011 594 1032T720 1054Q800 1054 868 1025T977 926T1018 732V0H826ZM170 0V782Q170 838 164 901T140 1034H284Q332 980 347
927T362 814V0H170Z" />
<glyph unicode="o" horiz-adv-x="1132" d="M562 -20Q428 -20 319 42T145 224T80 518Q80 655 121 756T232 923T388 1021T562 1054Q715 1054 823 983T987 790T1044 518Q1044 388 1006 288T900 119T746 15T562 -20ZM562 124Q659 124 722 178T815 321T846 518Q846
652 807 739T703 868T562 910Q486 910 422 868T318 739T278 518Q278 344 352 234T562 124Z" />
<glyph unicode="p" horiz-adv-x="1196" d="M178 -482V692Q178 812 168 897T146 1034H280Q306 1013 321 990T350 926L354 894L370 930Q433 999 513 1026T656 1054Q796 1054 894 983T1043 788T1094 512Q1094 392 1056 296T952 130T803 25T630 -12Q585 -12 535 -5T430
22Q459 72 504 103T618 132Q687 130 751 169T855 292T896 512Q896 628 865 718T774 859T624 910Q557 910 491 875T362 764V-482H178Z" />
<glyph unicode="q" horiz-adv-x="1164" d="M812 -482V888Q766 900 726 905T640 910Q490 910 398 807T306 512Q306 399 336 311T428 174T582 136Q626 141 667 124T744 62Q695 29 642 11T544 -12Q455 -19 377 15T238 120T144 290T110 512Q110 675 178 797T365 986T640
1054Q696 1054 751 1048T865 1027T994 990V-482H812Z" />
<glyph unicode="r" horiz-adv-x="782" d="M174 0V684Q174 776 167 870T142 1034H280Q312 1001 325 962T348 874V838L364 874Q403 951 476 999T630 1048Q653 1048 677 1044T728 1032L704 876Q673 884 650 886T608 888Q546 888 487 854T390 746T352 552V0H174Z" />
<glyph unicode="s" horiz-adv-x="832" d="M438 -20Q362 -20 276 -7T72 64L120 196Q197 159 274 142T414 124Q504 124 548 166T592 274Q592 329 557 365T467 429T350 485T233 551T143 645T108 784Q108 848 144 909T252 1011T428 1052Q485 1052 553 1041T706 1000L660
870Q597 891 544 900T448 910Q379 910 334 878T288 784Q288 731 323 695T413 631T530 574T647 505T737 409T772 264Q772 188 725 124T602 20T438 -20Z" />
<glyph unicode="t" horiz-adv-x="852" d="M542 -22Q379 -22 292 85T204 382V896H20V986L204 1034V1298L380 1354V360Q380 257 424 188T542 118Q581 118 617 125T706 148L750 22Q674 -3 632 -12T542 -22ZM620 896Q573 896 541 914T487 964T452 1034H734V896H620Z" />
<glyph unicode="u" horiz-adv-x="1174" d="M432 -20Q353 -20 287 9T182 108T142 302V1034H330V282Q330 213 359 169T452 124Q476 124 493 129T538 140Q597 154 646 142T738 86Q632 23 559 2T432 -20ZM870 0Q822 54 807 107T792 220V1034H978V252Q978 197 985 134T1010
0H870Z" />
<glyph unicode="v" horiz-adv-x="1032" d="M420 0L32 1034H232L508 228L524 178L538 228L812 1034H1004L616 0H420Z" />
<glyph unicode="w" horiz-adv-x="1720" d="M1114 0L750 1034H950L1206 228L1220 178L1234 228L1488 1034H1678L1314 0H1114ZM452 0L86 1034H286L542 228L556 178L570 228L752 716Q782 683 800 628T820 508T800 380L642 0H452Z" />
<glyph unicode="x" horiz-adv-x="998" d="M738 0Q656 131 573 259T404 518L62 1034H272L486 676L498 634L512 676L730 1034H926L586 526L946 0H738ZM44 0L352 450Q379 418 394 378T406 294T374 208L238 0H44Z" />
<glyph unicode="y" horiz-adv-x="1058" d="M242 -492Q202 -490 157 -483T70 -462L118 -330Q151 -339 182 -343T242 -348Q319 -348 365 -292T447 -141T524 74L834 1034H1028L662 22Q622 -84 586 -176T506 -340T399 -451T242 -492ZM406 20L32 1034H228L448 358Q470
294 470 229T453 108T406 20Z" />
<glyph unicode="z" horiz-adv-x="896" d="M70 0V76L592 874L622 908L580 902H136V1034H836V958L320 164L288 130L334 136H848V0H70Z" />
<glyph unicode="{" horiz-adv-x="806" d="M720 -352Q592 -265 517 -162T406 74T358 384Q354 455 298 496T164 550V664Q241 678 299 719T362 830Q375 993 412 1121T523 1350T720 1534L800 1434Q702 1357 645 1274T559 1094T522 878Q516 796 476 733T372 628L322
606L374 582Q437 540 477 479T522 336Q530 207 556 105T640 -84T800 -252L720 -352Z" />
<glyph unicode="|" horiz-adv-x="634" d="M230 -586V1622H390V-586H230Z" />
<glyph unicode="}" horiz-adv-x="806" d="M244 -352L164 -252Q266 -171 323 -85T407 104T442 336Q448 419 489 481T594 586L642 606L592 628Q529 670 489 733T442 878Q433 997 405 1094T320 1274T164 1434L244 1534Q367 1451 441 1350T552 1121T602 830Q607 760
665 719T800 664V550Q724 537 668 496T606 384Q596 207 560 74T448 -162T244 -352Z" />
<glyph unicode="~" horiz-adv-x="1228" d="M286 456L126 472Q130 572 169 636T274 732T426 764Q491 764 549 739T654 680Q701 647 751 622T868 596Q916 596 943 644T976 768L1138 752Q1131 639 1092 576T990 487T846 460Q779 459 719 485T612 544Q563 577 517
602T408 628Q360 627 326 584T286 456Z" />
<glyph unicode="&#xa0;" horiz-adv-x="514" />
<glyph unicode="&#xa1;" horiz-adv-x="702" d="M140 -420L164 664H300L328 -420H140ZM230 824Q179 824 146 859T112 946Q112 997 145 1030T230 1064Q283 1064 317 1031T352 946Q352 894 318 859T230 824Z" />
<glyph unicode="&#xa2;" horiz-adv-x="854" d="M484 -28V176Q369 193 279 259T136 439T84 708Q84 862 138 973T282 1151T484 1236V1432H628V1242Q672 1238 719 1229T810 1202L760 1070Q706 1087 659 1093T566 1100Q490 1100 426 1058T322 929T282 708Q282 573
321 486T424 357T566 314Q610 314 663 327T786 372L836 240Q778 210 725 195T628 174V-28H484Z" />
<glyph unicode="&#xa3;" horiz-adv-x="1026" d="M112 0V122Q220 176 289 270T358 484Q358 523 356 561T346 642H154V772H326Q317 820 310 890T302 1024Q302 1151 356 1240T501 1377T702 1424Q773 1424 846 1408T1004 1350L954 1216Q881 1252 813 1266T702 1280Q591
1280 535 1208T478 1022Q478 901 495 796T522 592T512 394Q497 336 468 286T396 192L354 156L408 160H966V0H112ZM742 642Q694 642 662 658T608 704T572 772H890V642H742Z" />
<glyph unicode="&#xa4;" horiz-adv-x="1026" d="M140 216L60 296L204 438Q174 477 152 541T130 678Q130 756 153 819T208 924L58 1066L136 1148L284 1006Q326 1044 386 1066T512 1088Q583 1088 642 1066T744 1008L896 1148L974 1066L818 924Q847 884 867 823T888
690Q888 608 867 545T818 444L968 296L888 216L742 362Q697 319 633 298T508 276Q447 276 384 297T280 356L140 216ZM508 394Q564 394 619 424T710 520T746 688Q746 757 719 822T640 928T510 970Q436 970 383 930T301 824T272 680Q272 583 309 520T402 425T508
394Z" />
<glyph unicode="&#xa5;" horiz-adv-x="1320" d="M554 0V276H222V370H554V520H222V614H554V618L56 1454H272L740 674V618L1072 614V520H740V370H1072V276H740V0H554ZM796 752Q772 783 755 824T736 911T762 1004L1014 1454H1224L796 752Z" />
<glyph unicode="&#xa6;" horiz-adv-x="508" d="M182 -586V282H342V-586H182ZM182 774V1622H342V774H182Z" />
<glyph unicode="&#xa7;" horiz-adv-x="1000" d="M512 -102Q450 -102 385 -97T243 -74T72 -18L130 114Q222 77 314 60T482 42Q604 42 659 84T714 194Q714 249 671 285T559 349T414 405T269 471T158 565T114 704Q114 760 150 816T260 914L312 934L270 952Q210 990
172 1042T134 1170Q134 1235 177 1297T303 1399T500 1440Q568 1440 650 1429T832 1388L778 1258Q702 1279 638 1288T524 1298Q427 1298 371 1266T314 1172Q314 1118 357 1082T469 1018T614 960T759 892T870 795T914 650Q914 583 875 529T774 438L728 420L770 402Q826
365 860 312T894 184Q894 99 843 35T704 -66T512 -102ZM612 484Q681 523 712 568T744 660Q744 714 699 750T584 814T438 872Q366 844 325 801T284 706Q284 649 332 612T456 546T612 484Z" />
<glyph unicode="&#xa8;" horiz-adv-x="814" d="M436 1236Q394 1236 363 1266T332 1340Q332 1384 363 1414T436 1444Q480 1444 511 1414T542 1340Q542 1297 511 1267T436 1236ZM826 1236Q783 1236 752 1266T720 1340Q720 1384 751 1414T826 1444Q868 1444 899 1414T930
1340Q930 1297 899 1267T826 1236Z" />
<glyph unicode="&#xa9;" horiz-adv-x="1440" d="M714 62Q569 62 450 112T244 252T111 460T64 714Q64 848 110 965T243 1170T449 1309T714 1360Q858 1360 976 1310T1180 1171T1311 965T1358 714Q1358 578 1312 460T1180 253T977 113T714 62ZM754 352Q665 352 592
394T474 516T430 714Q430 830 475 910T593 1032T754 1074Q833 1074 920 1046L886 950Q850 962 817 966T754 970Q679 970 622 907T564 714Q564 582 621 518T754 454Q783 454 820 462T904 492L938 398Q883 371 835 362T754 352ZM714 178Q862 176 974 243T1150 432T1214
714Q1214 870 1151 990T975 1178T714 1246Q563 1245 449 1177T272 988T208 708Q208 551 271 432T449 246T714 178Z" />
<glyph unicode="&#xaa;" horiz-adv-x="1054" d="M328 590Q219 590 155 647T90 788Q90 895 177 950T480 1030Q477 1014 468 990T438 944T380 918Q287 903 261 870T234 798Q234 755 263 726T346 696Q393 696 441 720T530 798V1054Q530 1137 490 1186T354 1236Q317
1236 280 1228T192 1202L160 1294Q228 1324 281 1333T380 1342Q514 1342 591 1264T668 1044V844Q668 760 674 701T690 604H590Q569 616 558 635T538 676V700L522 676Q468 622 423 606T328 590Z" />
<glyph unicode="&#xab;" horiz-adv-x="1226" d="M576 100L144 516L576 932L664 846L376 516L664 186L576 100ZM1076 100L644 516L1076 932L1164 846L876 516L1164 186L1076 100Z" />
<glyph unicode="&#xac;" horiz-adv-x="1138" d="M912 312V748H86V876H1058V312H912Z" />
<glyph unicode="&#xad;" horiz-adv-x="750" d="M90 546V674H694V546H90Z" />
<glyph unicode="&#xae;" horiz-adv-x="1440" d="M714 62Q569 62 450 112T244 252T111 460T64 714Q64 848 110 965T243 1170T449 1309T714 1360Q858 1360 976 1310T1180 1171T1311 965T1358 714Q1358 578 1312 460T1180 253T977 113T714 62ZM714 178Q862 176 974
243T1150 432T1214 714Q1214 870 1151 990T975 1178T714 1246Q563 1245 449 1177T272 988T208 708Q208 551 271 432T449 246T714 178ZM502 378V1046Q559 1060 607 1066T708 1072Q822 1072 899 1016T976 862Q976 808 949 768T874 702L850 690L868 678Q907 648 924
601T956 497T998 378H866Q841 432 828 492T794 600T724 668Q700 667 699 667T672 666Q684 690 702 719T764 754Q799 760 822 791T846 862Q846 907 807 940T708 974Q690 974 672 973T626 968V378H502Z" />
<glyph unicode="&#xaf;" horiz-adv-x="1000" d="M230 1226V1354H814V1226H230Z" />
<glyph unicode="&#xb0;" horiz-adv-x="674" d="M350 966Q272 966 206 1002T99 1102T58 1246Q58 1321 96 1385T201 1487T350 1526Q418 1526 485 1494T597 1400T642 1246Q642 1156 598 1094T486 999T350 966ZM350 1066Q409 1066 446 1096T500 1168T518 1246Q518
1329 467 1377T350 1426Q294 1426 257 1399T202 1330T184 1246Q184 1179 225 1123T350 1066Z" />
<glyph unicode="&#xb1;" horiz-adv-x="1136" d="M488 244V606H94V734H488V1092H634V734H1030V606H634V244H488ZM94 0V126H1030V0H94Z" />
<glyph unicode="&#xb2;" horiz-adv-x="804" d="M146 620V692Q205 789 269 865T390 1004T481 1125T516 1242Q516 1310 475 1337T370 1364Q336 1364 301 1356T224 1330L180 1422Q234 1452 284 1462T382 1472Q454 1472 516 1447T616 1374T654 1256Q654 1184 618 1119T527
992T419 872T328 754L310 734L336 738H668V620H146Z" />
<glyph unicode="&#xb3;" horiz-adv-x="762" d="M316 602Q247 602 194 621T110 658L146 752Q182 737 219 725T314 712Q397 712 439 760T482 866Q482 941 423 974T262 1008L250 1096L314 1122Q368 1145 411 1177T454 1262Q454 1306 424 1333T340 1360Q306 1360 268
1352T188 1326L142 1420Q198 1450 250 1460T352 1470Q462 1470 528 1417T594 1280Q594 1217 552 1163T440 1076Q509 1060 565 1007T622 864Q622 795 584 736T477 639T316 602Z" />
<glyph unicode="&#xb4;" horiz-adv-x="644" d="M140 1204L318 1480H512L336 1262Q309 1230 277 1215T209 1197T140 1204Z" />
<glyph unicode="&#xb5;" horiz-adv-x="1106" d="M148 -422V1034H332V420Q332 302 384 216T548 130Q610 130 666 167T758 265T794 398V1034H980V282Q980 198 1004 165T1090 134L1108 6Q1075 -6 1049 -11T1000 -16Q939 -16 892 15T824 122L816 170L792 122Q755 70
692 25T530 -20Q473 -20 426 -2T346 50L316 94L320 30V-422H148Z" />
<glyph unicode="&#xb6;" horiz-adv-x="1218" d="M650 -60V608Q649 608 648 609T646 610Q526 620 427 675T268 824T208 1040Q208 1156 265 1256T434 1418T706 1480Q816 1480 903 1472T1102 1440V-60H956V1316Q911 1324 872 1327T796 1332V-60H650Z" />
<glyph unicode="&#xb7;" horiz-adv-x="612" d="M304 490Q253 490 220 523T186 608Q186 661 219 695T304 730Q357 730 391 696T426 608Q426 557 392 524T304 490Z" />
<glyph unicode="&#xb8;" horiz-adv-x="1000" d="M468 -412Q434 -412 396 -404T310 -374L338 -288Q376 -303 407 -308T468 -314Q503 -314 538 -301T574 -252Q574 -214 535 -195T424 -168L468 -4L562 4L536 -100Q593 -106 644 -145T696 -246Q696 -306 662 -342T575
-395T468 -412Z" />
<glyph unicode="&#xb9;" horiz-adv-x="638" d="M364 618V1290L240 1226L186 1320L436 1454H502V618H364Z" />
<glyph unicode="&#xba;" horiz-adv-x="860" d="M428 588Q277 588 184 691T90 966Q90 1070 131 1155T247 1291T428 1342Q518 1342 595 1301T719 1176T766 966Q766 850 723 765T603 634T428 588ZM428 698Q492 698 535 735T600 834T622 966Q622 1030 604 1091T544
1193T428 1234Q363 1234 321 1196T257 1097T236 966Q236 833 291 766T428 698Z" />
<glyph unicode="&#xbb;" horiz-adv-x="1226" d="M228 100L140 186L428 516L140 846L228 932L660 516L228 100ZM728 100L640 186L928 516L640 846L728 932L1160 516L728 100Z" />
<glyph unicode="&#xbc;" horiz-adv-x="1396" d="M178 0L1050 1454H1174L302 0H178ZM244 618V1290L120 1226L66 1320L316 1454H382V618H244ZM1088 0V660L830 288H886Q946 288 980 249T1030 178H696V290L1070 846H1216V286H1312V178H1216V0H1088Z" />
<glyph unicode="&#xbd;" horiz-adv-x="1526" d="M178 0L1050 1454H1174L302 0H178ZM244 618V1290L120 1226L66 1320L316 1454H382V618H244ZM852 0V72Q911 169 975 245T1096 384T1187 505T1222 622Q1222 690 1181 717T1076 744Q1042 744 1007 736T930 710L886 802Q940
832 990 842T1088 852Q1160 852 1222 827T1322 754T1360 636Q1360 564 1324 499T1233 372T1125 252T1034 134L1016 114L1042 118H1374V0H852Z" />
<glyph unicode="&#xbe;" horiz-adv-x="1432" d="M254 0L1126 1454H1250L378 0H254ZM254 602Q185 602 132 621T48 658L84 752Q120 737 157 725T252 712Q335 712 377 760T420 866Q420 941 361 974T200 1008L188 1096L252 1122Q306 1145 349 1177T392 1262Q392 1306
362 1333T278 1360Q244 1360 206 1352T126 1326L80 1420Q136 1450 188 1460T290 1470Q400 1470 466 1417T532 1280Q532 1217 490 1163T378 1076Q447 1060 503 1007T560 864Q560 795 522 736T415 639T254 602ZM1164 0V660L906 288H962Q1022 288 1056 249T1106 178H772V290L1146
846H1292V286H1388V178H1292V0H1164Z" />
<glyph unicode="&#xbf;" horiz-adv-x="1166" d="M604 -440Q489 -440 402 -400T265 -292T216 -140Q216 -40 255 37T352 182T468 319T565 471T604 664H748Q748 534 714 442T630 281T530 154T446 33T412 -110Q412 -189 471 -242T624 -296Q681 -296 747 -282T892 -224L942
-358Q851 -407 769 -423T604 -440ZM678 824Q626 824 591 859T556 946Q556 997 591 1030T678 1064Q729 1064 763 1031T798 946Q798 894 764 859T678 824Z" />
<glyph unicode="&#xc0;" horiz-adv-x="1374" d="M70 0L594 1454H780L1304 0H1100L694 1172L680 1230L666 1172L442 530L420 488L444 492H714Q762 492 794 472T848 419T884 348H380L260 0H70ZM794 1532Q760 1524 725 1525T658 1541T604 1584L458 1780H646L794 1532Z" />
<glyph unicode="&#xc1;" horiz-adv-x="1374" d="M70 0L594 1454H780L1304 0H1100L694 1172L680 1230L666 1172L442 530L420 488L444 492H714Q762 492 794 472T848 419T884 348H380L260 0H70ZM588 1532L766 1780H960L784 1584Q757 1555 725 1541T657 1526T588 1532Z" />
<glyph unicode="&#xc2;" horiz-adv-x="1374" d="M70 0L594 1454H780L1304 0H1100L694 1172L680 1230L666 1172L442 530L420 488L444 492H714Q762 492 794 472T848 419T884 348H380L260 0H70ZM512 1522L414 1540L632 1780H746L968 1540L864 1524L688 1642L512 1522Z" />
<glyph unicode="&#xc3;" horiz-adv-x="1374" d="M70 0L594 1454H780L1304 0H1100L694 1172L680 1230L666 1172L442 530L420 488L444 492H714Q762 492 794 472T848 419T884 348H380L260 0H70ZM512 1554L402 1566Q405 1679 456 1730T580 1782Q616 1782 648 1770T708
1734Q735 1710 756 1690T816 1670Q843 1670 858 1700T878 1786L984 1774Q980 1690 954 1643T891 1577T816 1558Q777 1558 745 1569T686 1604Q658 1628 638 1649T582 1670Q557 1670 537 1644T512 1554Z" />
<glyph unicode="&#xc4;" horiz-adv-x="1374" d="M70 0L594 1454H780L1304 0H1100L694 1172L680 1230L666 1172L442 530L420 488L444 492H714Q762 492 794 472T848 419T884 348H380L260 0H70ZM492 1576Q450 1576 419 1606T388 1680Q388 1724 419 1754T492 1784Q536
1784 567 1754T598 1680Q598 1637 567 1607T492 1576ZM882 1576Q839 1576 808 1606T776 1680Q776 1724 807 1754T882 1784Q924 1784 955 1754T986 1680Q986 1637 955 1607T882 1576Z" />
<glyph unicode="&#xc5;" horiz-adv-x="1374" d="M70 0L594 1454H780L1304 0H1100L694 1172L680 1230L666 1172L442 530L420 488L444 492H714Q762 492 794 472T848 419T884 348H380L260 0H70ZM688 1430Q601 1430 547 1479T492 1602Q492 1680 547 1731T690 1782Q779
1782 831 1732T884 1604Q884 1528 828 1479T688 1430ZM688 1504Q735 1504 761 1533T788 1606Q788 1650 762 1679T688 1708Q646 1708 619 1679T592 1602Q592 1565 618 1535T688 1504Z" />
<glyph unicode="&#xc6;" horiz-adv-x="1950" d="M42 0L780 1454H1688V1310H1040L1220 144H1828V0H1066L876 1210L872 1290L842 1210L502 530L474 488L510 492H766Q814 492 846 472T900 419T936 348H414L240 0H42ZM1204 692Q1216 730 1236 762T1288 813T1368 832H1708V692H1204Z"
/>
<glyph unicode="&#xc7;" horiz-adv-x="1304" d="M868 -24Q663 -24 499 66T240 325T144 724Q144 892 199 1030T352 1270T582 1425T868 1480Q952 1480 1041 1464T1222 1412L1170 1282Q1083 1311 1010 1322T868 1334Q765 1334 671 1296T505 1182T390 992T348 724Q348
588 390 477T504 286T671 163T868 120Q937 120 1012 138T1170 198L1222 68Q1129 19 1041 -2T868 -24ZM704 -412Q670 -412 632 -404T546 -374L574 -288Q612 -303 643 -308T704 -314Q739 -314 774 -301T810 -252Q810 -214 771 -195T660 -168L704 -4L798 4L772 -100Q829
-106 880 -145T932 -246Q932 -306 898 -342T811 -395T704 -412Z" />
<glyph unicode="&#xc8;" horiz-adv-x="1154" d="M178 0V1454H1006V1310H368V144H1036V0H178ZM444 692Q458 730 480 762T535 813T616 832H938V692H444ZM714 1532Q680 1524 645 1525T578 1541T524 1584L378 1780H566L714 1532Z" />
<glyph unicode="&#xc9;" horiz-adv-x="1154" d="M178 0V1454H1006V1310H368V144H1036V0H178ZM444 692Q458 730 480 762T535 813T616 832H938V692H444ZM508 1532L686 1780H880L704 1584Q677 1555 645 1541T577 1526T508 1532Z" />
<glyph unicode="&#xca;" horiz-adv-x="1154" d="M178 0V1454H1006V1310H368V144H1036V0H178ZM444 692Q458 730 480 762T535 813T616 832H938V692H444ZM432 1522L334 1540L552 1780H666L888 1540L784 1524L608 1642L432 1522Z" />
<glyph unicode="&#xcb;" horiz-adv-x="1154" d="M178 0V1454H1006V1310H368V144H1036V0H178ZM444 692Q458 730 480 762T535 813T616 832H938V692H444ZM412 1576Q370 1576 339 1606T308 1680Q308 1724 339 1754T412 1784Q456 1784 487 1754T518 1680Q518 1637 487
1607T412 1576ZM802 1576Q759 1576 728 1606T696 1680Q696 1724 727 1754T802 1784Q844 1784 875 1754T906 1680Q906 1637 875 1607T802 1576Z" />
<glyph unicode="&#xcc;" horiz-adv-x="540" d="M178 0V1454H362V0H178ZM632 1532Q598 1524 563 1525T496 1541T442 1584L296 1780H484L632 1532Z" />
<glyph unicode="&#xcd;" horiz-adv-x="540" d="M178 0V1454H362V0H178ZM170 1532L348 1780H542L366 1584Q339 1555 307 1541T239 1526T170 1532Z" />
<glyph unicode="&#xce;" horiz-adv-x="540" d="M178 0V1454H362V0H178ZM350 1522L252 1540L470 1780H584L806 1540L702 1524L526 1642L350 1522Z" />
<glyph unicode="&#xcf;" horiz-adv-x="540" d="M178 0V1454H362V0H178ZM74 1576Q32 1576 1 1606T-30 1680Q-30 1724 1 1754T74 1784Q118 1784 149 1754T180 1680Q180 1637 149 1607T74 1576ZM464 1576Q421 1576 390 1606T358 1680Q358 1724 389 1754T464 1784Q506
1784 537 1754T568 1680Q568 1637 537 1607T464 1576Z" />
<glyph unicode="&#xd0;" horiz-adv-x="1426" d="M728 -24Q683 -24 641 -22T553 -12T448 10Q467 45 493 72T555 114T636 124Q668 121 685 121T726 120Q822 120 905 168T1050 300T1147 494T1182 730Q1182 923 1117 1058T920 1263T592 1334Q532 1334 474 1330T368
1320V0H178V1432Q273 1455 389 1467T592 1480Q846 1480 1023 1390T1293 1132T1386 730Q1386 567 1334 429T1191 190T981 32T728 -24ZM1078 776V646H270V776H1078Z" />
<glyph unicode="&#xd1;" horiz-adv-x="1498" d="M208 0V1454H398L1104 326L1128 260L1124 330V1454H1292V0H1122L394 1162L366 1230L370 1162V0H208ZM586 1554L476 1566Q479 1679 530 1730T654 1782Q690 1782 722 1770T782 1734Q809 1710 830 1690T890 1670Q917
1670 932 1700T952 1786L1058 1774Q1054 1690 1028 1643T965 1577T890 1558Q851 1558 819 1569T760 1604Q732 1628 712 1649T656 1670Q631 1670 611 1644T586 1554Z" />
<glyph unicode="&#xd2;" horiz-adv-x="1582" d="M764 -28Q577 -28 424 62T181 322T90 728Q90 919 150 1061T310 1297T528 1437T764 1484Q927 1484 1052 1425T1264 1261T1394 1020T1438 728Q1438 555 1385 416T1237 177T1022 25T764 -28ZM764 116Q905 116 1011
197T1175 418T1234 728Q1234 916 1171 1053T1000 1264T764 1338Q635 1338 528 1264T358 1053T294 728Q294 592 329 480T427 287T577 161T764 116ZM870 1532Q836 1524 801 1525T734 1541T680 1584L534 1780H722L870 1532Z" />
<glyph unicode="&#xd3;" horiz-adv-x="1582" d="M764 -28Q577 -28 424 62T181 322T90 728Q90 919 150 1061T310 1297T528 1437T764 1484Q927 1484 1052 1425T1264 1261T1394 1020T1438 728Q1438 555 1385 416T1237 177T1022 25T764 -28ZM764 116Q905 116 1011
197T1175 418T1234 728Q1234 916 1171 1053T1000 1264T764 1338Q635 1338 528 1264T358 1053T294 728Q294 592 329 480T427 287T577 161T764 116ZM664 1532L842 1780H1036L860 1584Q833 1555 801 1541T733 1526T664 1532Z" />
<glyph unicode="&#xd4;" horiz-adv-x="1582" d="M764 -28Q577 -28 424 62T181 322T90 728Q90 919 150 1061T310 1297T528 1437T764 1484Q927 1484 1052 1425T1264 1261T1394 1020T1438 728Q1438 555 1385 416T1237 177T1022 25T764 -28ZM764 116Q905 116 1011
197T1175 418T1234 728Q1234 916 1171 1053T1000 1264T764 1338Q635 1338 528 1264T358 1053T294 728Q294 592 329 480T427 287T577 161T764 116ZM588 1522L490 1540L708 1780H822L1044 1540L940 1524L764 1642L588 1522Z" />
<glyph unicode="&#xd5;" horiz-adv-x="1582" d="M764 -28Q577 -28 424 62T181 322T90 728Q90 919 150 1061T310 1297T528 1437T764 1484Q927 1484 1052 1425T1264 1261T1394 1020T1438 728Q1438 555 1385 416T1237 177T1022 25T764 -28ZM764 116Q905 116 1011
197T1175 418T1234 728Q1234 916 1171 1053T1000 1264T764 1338Q635 1338 528 1264T358 1053T294 728Q294 592 329 480T427 287T577 161T764 116ZM588 1554L478 1566Q481 1679 532 1730T656 1782Q692 1782 724 1770T784 1734Q811 1710 832 1690T892 1670Q919 1670
934 1700T954 1786L1060 1774Q1056 1690 1030 1643T967 1577T892 1558Q853 1558 821 1569T762 1604Q734 1628 714 1649T658 1670Q633 1670 613 1644T588 1554Z" />
<glyph unicode="&#xd6;" horiz-adv-x="1582" d="M764 -28Q577 -28 424 62T181 322T90 728Q90 919 150 1061T310 1297T528 1437T764 1484Q927 1484 1052 1425T1264 1261T1394 1020T1438 728Q1438 555 1385 416T1237 177T1022 25T764 -28ZM764 116Q905 116 1011
197T1175 418T1234 728Q1234 916 1171 1053T1000 1264T764 1338Q635 1338 528 1264T358 1053T294 728Q294 592 329 480T427 287T577 161T764 116ZM568 1576Q526 1576 495 1606T464 1680Q464 1724 495 1754T568 1784Q612 1784 643 1754T674 1680Q674 1637 643 1607T568
1576ZM958 1576Q915 1576 884 1606T852 1680Q852 1724 883 1754T958 1784Q1000 1784 1031 1754T1062 1680Q1062 1637 1031 1607T958 1576Z" />
<glyph unicode="&#xd7;" horiz-adv-x="1136" d="M198 158L108 248L470 612L108 972L200 1062L562 702L920 1062L1010 972L652 612L1014 248L924 158L562 520L198 158Z" />
<glyph unicode="&#xd8;" horiz-adv-x="1582" d="M764 -28Q577 -28 424 62T181 322T90 728Q90 919 150 1061T310 1297T528 1437T764 1484Q927 1484 1052 1425T1264 1261T1394 1020T1438 728Q1438 555 1385 416T1237 177T1022 25T764 -28ZM764 116Q905 116 1011
197T1175 418T1234 728Q1234 916 1171 1053T1000 1264T764 1338Q635 1338 528 1264T358 1053T294 728Q294 592 329 480T427 287T577 161T764 116ZM560 520Q537 546 521 581T504 656T524 734L1178 1832H1336L560 520ZM192 134L352 406L464 330L350 134H192Z" />
<glyph unicode="&#xd9;" horiz-adv-x="1388" d="M694 -28Q524 -28 404 42T220 240T156 536V1454H344V504Q344 327 439 222T694 116Q853 116 948 221T1044 504V1454H1232V536Q1232 367 1164 240T975 43T694 -28ZM800 1532Q766 1524 731 1525T664 1541T610 1584L464
1780H652L800 1532Z" />
<glyph unicode="&#xda;" horiz-adv-x="1388" d="M694 -28Q524 -28 404 42T220 240T156 536V1454H344V504Q344 327 439 222T694 116Q853 116 948 221T1044 504V1454H1232V536Q1232 367 1164 240T975 43T694 -28ZM594 1532L772 1780H966L790 1584Q763 1555 731 1541T663
1526T594 1532Z" />
<glyph unicode="&#xdb;" horiz-adv-x="1388" d="M694 -28Q524 -28 404 42T220 240T156 536V1454H344V504Q344 327 439 222T694 116Q853 116 948 221T1044 504V1454H1232V536Q1232 367 1164 240T975 43T694 -28ZM518 1522L420 1540L638 1780H752L974 1540L870 1524L694
1642L518 1522Z" />
<glyph unicode="&#xdc;" horiz-adv-x="1388" d="M694 -28Q524 -28 404 42T220 240T156 536V1454H344V504Q344 327 439 222T694 116Q853 116 948 221T1044 504V1454H1232V536Q1232 367 1164 240T975 43T694 -28ZM498 1576Q456 1576 425 1606T394 1680Q394 1724
425 1754T498 1784Q542 1784 573 1754T604 1680Q604 1637 573 1607T498 1576ZM888 1576Q845 1576 814 1606T782 1680Q782 1724 813 1754T888 1784Q930 1784 961 1754T992 1680Q992 1637 961 1607T888 1576Z" />
<glyph unicode="&#xdd;" horiz-adv-x="1320" d="M554 0V618L56 1454H272L740 674V0H554ZM796 752Q772 783 755 824T736 911T762 1004L1014 1454H1224L796 752ZM544 1532L722 1780H916L740 1584Q713 1555 681 1541T613 1526T544 1532Z" />
<glyph unicode="&#xde;" horiz-adv-x="1218" d="M184 0V1454H368V1154Q473 1166 588 1166Q749 1166 867 1107T1051 947T1116 726Q1116 598 1049 506T875 360T648 296Q605 292 555 294T448 312Q463 346 488 373T548 417T624 434Q693 434 759 471T870 575T914 726Q914
810 870 876T752 981T588 1020Q533 1020 478 1017T368 1008V0H184Z" />
<glyph unicode="&#xdf;" horiz-adv-x="1134" d="M788 -24Q728 -24 661 -11T498 50L546 174Q612 144 669 132T770 120Q830 120 872 162T914 272Q914 337 879 382T792 465T688 546T601 650T566 802Q566 889 623 963T790 1082Q796 1105 799 1128T802 1176Q802 1239
773 1287T697 1363T598 1390Q542 1390 486 1362T393 1272T356 1110V0H182V1090Q182 1222 229 1320T365 1472T576 1526Q700 1526 785 1478T915 1349T960 1176Q960 1080 890 968Q821 935 784 898T746 802Q746 738 781 694T868 611T972 528T1059 420T1094 262Q1094
185 1053 120T943 16T788 -24Z" />
<glyph unicode="&#xe0;" horiz-adv-x="1054" d="M428 -20Q324 -20 249 17T133 119T92 264Q92 365 145 431T319 539T646 604Q642 580 629 547T585 486T502 450Q414 436 369 409T307 348T290 276Q290 215 334 170T454 124Q522 124 591 158T718 268V642Q718 761 661
835T466 910Q412 910 359 899T234 862L188 986Q286 1028 361 1041T502 1054Q694 1054 800 943T906 628V342Q906 222 915 138T938 0H802Q774 17 758 44T730 102L728 138L706 102Q630 26 565 3T428 -20ZM628 1204Q594 1195 559 1197T492 1214T432 1262L256 1480H450L628
1204Z" />
<glyph unicode="&#xe1;" horiz-adv-x="1054" d="M428 -20Q324 -20 249 17T133 119T92 264Q92 365 145 431T319 539T646 604Q642 580 629 547T585 486T502 450Q414 436 369 409T307 348T290 276Q290 215 334 170T454 124Q522 124 591 158T718 268V642Q718 761 661
835T466 910Q412 910 359 899T234 862L188 986Q286 1028 361 1041T502 1054Q694 1054 800 943T906 628V342Q906 222 915 138T938 0H802Q774 17 758 44T730 102L728 138L706 102Q630 26 565 3T428 -20ZM444 1204L622 1480H816L640 1262Q613 1230 581 1215T513 1197T444
1204Z" />
<glyph unicode="&#xe2;" horiz-adv-x="1054" d="M428 -20Q324 -20 249 17T133 119T92 264Q92 365 145 431T319 539T646 604Q642 580 629 547T585 486T502 450Q414 436 369 409T307 348T290 276Q290 215 334 170T454 124Q522 124 591 158T718 268V642Q718 761 661
835T466 910Q412 910 359 899T234 862L188 986Q286 1028 361 1041T502 1054Q694 1054 800 943T906 628V342Q906 222 915 138T938 0H802Q774 17 758 44T730 102L728 138L706 102Q630 26 565 3T428 -20ZM356 1178L258 1196L476 1486H590L812 1196L708 1180L532 1348L356
1178Z" />
<glyph unicode="&#xe3;" horiz-adv-x="1054" d="M428 -20Q324 -20 249 17T133 119T92 264Q92 365 145 431T319 539T646 604Q642 580 629 547T585 486T502 450Q414 436 369 409T307 348T290 276Q290 215 334 170T454 124Q522 124 591 158T718 268V642Q718 761 661
835T466 910Q412 910 359 899T234 862L188 986Q286 1028 361 1041T502 1054Q694 1054 800 943T906 628V342Q906 222 915 138T938 0H802Q774 17 758 44T730 102L728 138L706 102Q630 26 565 3T428 -20ZM350 1236L240 1248Q243 1361 294 1412T418 1464Q454 1464 486
1452T546 1416Q573 1392 594 1372T654 1352Q681 1352 696 1382T716 1468L822 1456Q818 1372 792 1325T729 1259T654 1240Q615 1240 583 1251T524 1286Q496 1310 476 1331T420 1352Q395 1352 375 1326T350 1236Z" />
<glyph unicode="&#xe4;" horiz-adv-x="1054" d="M428 -20Q324 -20 249 17T133 119T92 264Q92 365 145 431T319 539T646 604Q642 580 629 547T585 486T502 450Q414 436 369 409T307 348T290 276Q290 215 334 170T454 124Q522 124 591 158T718 268V642Q718 761 661
835T466 910Q412 910 359 899T234 862L188 986Q286 1028 361 1041T502 1054Q694 1054 800 943T906 628V342Q906 222 915 138T938 0H802Q774 17 758 44T730 102L728 138L706 102Q630 26 565 3T428 -20ZM340 1236Q298 1236 267 1266T236 1340Q236 1384 267 1414T340
1444Q384 1444 415 1414T446 1340Q446 1297 415 1267T340 1236ZM730 1236Q687 1236 656 1266T624 1340Q624 1384 655 1414T730 1444Q772 1444 803 1414T834 1340Q834 1297 803 1267T730 1236Z" />
<glyph unicode="&#xe5;" horiz-adv-x="1054" d="M428 -20Q324 -20 249 17T133 119T92 264Q92 365 145 431T319 539T646 604Q642 580 629 547T585 486T502 450Q414 436 369 409T307 348T290 276Q290 215 334 170T454 124Q522 124 591 158T718 268V642Q718 761 661
835T466 910Q412 910 359 899T234 862L188 986Q286 1028 361 1041T502 1054Q694 1054 800 943T906 628V342Q906 222 915 138T938 0H802Q774 17 758 44T730 102L728 138L706 102Q630 26 565 3T428 -20ZM536 1142Q449 1142 395 1191T340 1314Q340 1392 395 1443T538
1494Q627 1494 679 1444T732 1316Q732 1240 676 1191T536 1142ZM536 1216Q583 1216 609 1245T636 1318Q636 1362 610 1391T536 1420Q494 1420 467 1391T440 1314Q440 1277 466 1247T536 1216Z" />
<glyph unicode="&#xe6;" horiz-adv-x="1700" d="M428 -20Q272 -20 182 61T92 264Q92 365 145 431T319 539T646 604Q642 580 629 547T585 486T502 450Q414 436 369 409T307 348T290 276Q290 215 334 170T454 124Q580 124 649 228T718 524V642Q718 761 661 835T466
910Q412 910 359 899T234 862L188 986Q286 1028 361 1041T502 1054Q618 1054 705 994T832 838Q882 931 985 992T1208 1054Q1311 1054 1390 1009T1517 885T1577 707T1556 500H976Q997 557 1035 595T1146 634H1400Q1409 711 1383 773T1305 873T1188 910Q1104 910
1040 865T940 734T904 524Q904 405 945 315T1059 175T1222 124Q1291 124 1353 138T1500 196L1550 64Q1454 15 1364 -2T1202 -20Q1119 -20 1041 17T904 119T818 262Q791 176 735 113T600 15T428 -20Z" />
<glyph unicode="&#xe7;" horiz-adv-x="854" d="M566 -20Q432 -20 323 42T149 224T84 518Q84 691 150 810T327 992T566 1054Q620 1054 685 1045T810 1012L764 882Q707 897 659 903T566 910Q490 910 426 868T322 739T282 518Q282 383 321 296T424 167T566 124Q610
124 663 137T786 182L836 50Q755 10 684 -5T566 -20ZM478 -412Q444 -412 406 -404T320 -374L348 -288Q386 -303 417 -308T478 -314Q513 -314 548 -301T584 -252Q584 -214 545 -195T434 -168L478 -4L572 4L546 -100Q603 -106 654 -145T706 -246Q706 -306 672 -342T585
-395T478 -412Z" />
<glyph unicode="&#xe8;" horiz-adv-x="1088" d="M596 -20Q486 -20 397 21T244 135T146 308T112 526Q112 688 171 806T341 989T602 1054Q705 1054 784 1009T911 885T971 707T950 500H370Q391 557 429 595T540 634H794Q803 711 777 773T699 873T582 910Q498 910
434 865T334 734T298 524Q298 405 339 315T453 175T616 124Q685 124 747 138T894 196L944 64Q848 15 758 -2T596 -20ZM666 1204Q632 1195 597 1197T530 1214T470 1262L294 1480H488L666 1204Z" />
<glyph unicode="&#xe9;" horiz-adv-x="1088" d="M596 -20Q486 -20 397 21T244 135T146 308T112 526Q112 688 171 806T341 989T602 1054Q705 1054 784 1009T911 885T971 707T950 500H370Q391 557 429 595T540 634H794Q803 711 777 773T699 873T582 910Q498 910
434 865T334 734T298 524Q298 405 339 315T453 175T616 124Q685 124 747 138T894 196L944 64Q848 15 758 -2T596 -20ZM482 1204L660 1480H854L678 1262Q651 1230 619 1215T551 1197T482 1204Z" />
<glyph unicode="&#xea;" horiz-adv-x="1088" d="M596 -20Q486 -20 397 21T244 135T146 308T112 526Q112 688 171 806T341 989T602 1054Q705 1054 784 1009T911 885T971 707T950 500H370Q391 557 429 595T540 634H794Q803 711 777 773T699 873T582 910Q498 910
434 865T334 734T298 524Q298 405 339 315T453 175T616 124Q685 124 747 138T894 196L944 64Q848 15 758 -2T596 -20ZM394 1178L296 1196L514 1486H628L850 1196L746 1180L570 1348L394 1178Z" />
<glyph unicode="&#xeb;" horiz-adv-x="1088" d="M596 -20Q486 -20 397 21T244 135T146 308T112 526Q112 688 171 806T341 989T602 1054Q705 1054 784 1009T911 885T971 707T950 500H370Q391 557 429 595T540 634H794Q803 711 777 773T699 873T582 910Q498 910
434 865T334 734T298 524Q298 405 339 315T453 175T616 124Q685 124 747 138T894 196L944 64Q848 15 758 -2T596 -20ZM378 1236Q336 1236 305 1266T274 1340Q274 1384 305 1414T378 1444Q422 1444 453 1414T484 1340Q484 1297 453 1267T378 1236ZM768 1236Q725
1236 694 1266T662 1340Q662 1384 693 1414T768 1444Q810 1444 841 1414T872 1340Q872 1297 841 1267T768 1236Z" />
<glyph unicode="&#xec;" horiz-adv-x="512" d="M160 0V1034H352V0H160ZM604 1204Q570 1195 535 1197T468 1214T408 1262L232 1480H426L604 1204Z" />
<glyph unicode="&#xed;" horiz-adv-x="512" d="M160 0V1034H352V0H160ZM164 1204L342 1480H536L360 1262Q333 1230 301 1215T233 1197T164 1204Z" />
<glyph unicode="&#xee;" horiz-adv-x="512" d="M160 0V1034H352V0H160ZM332 1178L234 1196L452 1486H566L788 1196L684 1180L508 1348L332 1178Z" />
<glyph unicode="&#xef;" horiz-adv-x="512" d="M160 0V1034H352V0H160ZM316 1236Q274 1236 243 1266T212 1340Q212 1384 243 1414T316 1444Q360 1444 391 1414T422 1340Q422 1297 391 1267T316 1236ZM706 1236Q663 1236 632 1266T600 1340Q600 1384 631 1414T706
1444Q748 1444 779 1414T810 1340Q810 1297 779 1267T706 1236Z" />
<glyph unicode="&#xf0;" horiz-adv-x="1114" d="M562 -20Q428 -20 319 42T145 224T80 518Q80 691 146 810T323 992T562 1054Q621 1054 676 1034T782 974Q718 1064 659 1125T546 1226L296 1106L258 1192L456 1290Q411 1323 364 1350T260 1404L324 1520Q396 1487
469 1446T606 1358L830 1466L872 1378L692 1292Q728 1262 786 1192T904 1019T1003 790T1044 518Q1044 344 977 224T801 42T562 -20ZM562 124Q638 124 702 166T806 296T846 518Q846 652 807 739T703 868T562 910Q486 910 422 868T318 739T278 518Q278 383 317 296T420
167T562 124Z" />
<glyph unicode="&#xf1;" horiz-adv-x="1192" d="M826 0V752Q826 821 795 865T702 910Q678 910 660 905T616 894Q558 881 508 893T416 948Q523 1011 594 1032T720 1054Q800 1054 868 1025T977 926T1018 732V0H826ZM170 0V782Q170 838 164 901T140 1034H284Q332
980 347 927T362 814V0H170ZM414 1236L304 1248Q307 1361 358 1412T482 1464Q518 1464 550 1452T610 1416Q637 1392 658 1372T718 1352Q745 1352 760 1382T780 1468L886 1456Q882 1372 856 1325T793 1259T718 1240Q679 1240 647 1251T588 1286Q560 1310 540 1331T484
1352Q459 1352 439 1326T414 1236Z" />
<glyph unicode="&#xf2;" horiz-adv-x="1132" d="M562 -20Q428 -20 319 42T145 224T80 518Q80 655 121 756T232 923T388 1021T562 1054Q715 1054 823 983T987 790T1044 518Q1044 388 1006 288T900 119T746 15T562 -20ZM562 124Q659 124 722 178T815 321T846 518Q846
652 807 739T703 868T562 910Q486 910 422 868T318 739T278 518Q278 344 352 234T562 124ZM654 1204Q620 1195 585 1197T518 1214T458 1262L282 1480H476L654 1204Z" />
<glyph unicode="&#xf3;" horiz-adv-x="1132" d="M562 -20Q428 -20 319 42T145 224T80 518Q80 655 121 756T232 923T388 1021T562 1054Q715 1054 823 983T987 790T1044 518Q1044 388 1006 288T900 119T746 15T562 -20ZM562 124Q659 124 722 178T815 321T846 518Q846
652 807 739T703 868T562 910Q486 910 422 868T318 739T278 518Q278 344 352 234T562 124ZM470 1204L648 1480H842L666 1262Q639 1230 607 1215T539 1197T470 1204Z" />
<glyph unicode="&#xf4;" horiz-adv-x="1132" d="M562 -20Q428 -20 319 42T145 224T80 518Q80 655 121 756T232 923T388 1021T562 1054Q715 1054 823 983T987 790T1044 518Q1044 388 1006 288T900 119T746 15T562 -20ZM562 124Q659 124 722 178T815 321T846 518Q846
652 807 739T703 868T562 910Q486 910 422 868T318 739T278 518Q278 344 352 234T562 124ZM382 1178L284 1196L502 1486H616L838 1196L734 1180L558 1348L382 1178Z" />
<glyph unicode="&#xf5;" horiz-adv-x="1132" d="M562 -20Q428 -20 319 42T145 224T80 518Q80 655 121 756T232 923T388 1021T562 1054Q715 1054 823 983T987 790T1044 518Q1044 388 1006 288T900 119T746 15T562 -20ZM562 124Q659 124 722 178T815 321T846 518Q846
652 807 739T703 868T562 910Q486 910 422 868T318 739T278 518Q278 344 352 234T562 124ZM376 1236L266 1248Q269 1361 320 1412T444 1464Q480 1464 512 1452T572 1416Q599 1392 620 1372T680 1352Q707 1352 722 1382T742 1468L848 1456Q844 1372 818 1325T755
1259T680 1240Q641 1240 609 1251T550 1286Q522 1310 502 1331T446 1352Q421 1352 401 1326T376 1236Z" />
<glyph unicode="&#xf6;" horiz-adv-x="1132" d="M562 -20Q428 -20 319 42T145 224T80 518Q80 655 121 756T232 923T388 1021T562 1054Q715 1054 823 983T987 790T1044 518Q1044 388 1006 288T900 119T746 15T562 -20ZM562 124Q659 124 722 178T815 321T846 518Q846
652 807 739T703 868T562 910Q486 910 422 868T318 739T278 518Q278 344 352 234T562 124ZM366 1236Q324 1236 293 1266T262 1340Q262 1384 293 1414T366 1444Q410 1444 441 1414T472 1340Q472 1297 441 1267T366 1236ZM756 1236Q713 1236 682 1266T650 1340Q650
1384 681 1414T756 1444Q798 1444 829 1414T860 1340Q860 1297 829 1267T756 1236Z" />
<glyph unicode="&#xf7;" horiz-adv-x="1136" d="M94 546V674H1030V546H94ZM560 124Q517 124 489 152T460 224Q460 269 488 298T560 328Q605 328 634 299T664 224Q664 181 635 153T560 124ZM560 888Q517 888 489 916T460 988Q460 1033 488 1062T560 1092Q605 1092
634 1063T664 988Q664 945 635 917T560 888Z" />
<glyph unicode="&#xf8;" horiz-adv-x="1132" d="M562 -20Q428 -20 319 42T145 224T80 518Q80 655 121 756T232 923T388 1021T562 1054Q715 1054 823 983T987 790T1044 518Q1044 388 1006 288T900 119T746 15T562 -20ZM562 124Q659 124 722 178T815 321T846 518Q846
652 807 739T703 868T562 910Q486 910 422 868T318 739T278 518Q278 344 352 234T562 124ZM466 228Q443 254 431 290T418 364T436 434L868 1156H1016L466 228ZM108 -122L256 132L368 60L262 -122H108Z" />
<glyph unicode="&#xf9;" horiz-adv-x="1174" d="M432 -20Q353 -20 287 9T182 108T142 302V1034H330V282Q330 213 359 169T452 124Q476 124 493 129T538 140Q597 154 646 142T738 86Q632 23 559 2T432 -20ZM870 0Q822 54 807 107T792 220V1034H978V252Q978 197
985 134T1010 0H870ZM662 1204Q628 1195 593 1197T526 1214T466 1262L290 1480H484L662 1204Z" />
<glyph unicode="&#xfa;" horiz-adv-x="1174" d="M432 -20Q353 -20 287 9T182 108T142 302V1034H330V282Q330 213 359 169T452 124Q476 124 493 129T538 140Q597 154 646 142T738 86Q632 23 559 2T432 -20ZM870 0Q822 54 807 107T792 220V1034H978V252Q978 197
985 134T1010 0H870ZM478 1204L656 1480H850L674 1262Q647 1230 615 1215T547 1197T478 1204Z" />
<glyph unicode="&#xfb;" horiz-adv-x="1174" d="M432 -20Q353 -20 287 9T182 108T142 302V1034H330V282Q330 213 359 169T452 124Q476 124 493 129T538 140Q597 154 646 142T738 86Q632 23 559 2T432 -20ZM870 0Q822 54 807 107T792 220V1034H978V252Q978 197
985 134T1010 0H870ZM390 1178L292 1196L510 1486H624L846 1196L742 1180L566 1348L390 1178Z" />
<glyph unicode="&#xfc;" horiz-adv-x="1174" d="M432 -20Q353 -20 287 9T182 108T142 302V1034H330V282Q330 213 359 169T452 124Q476 124 493 129T538 140Q597 154 646 142T738 86Q632 23 559 2T432 -20ZM870 0Q822 54 807 107T792 220V1034H978V252Q978 197
985 134T1010 0H870ZM374 1236Q332 1236 301 1266T270 1340Q270 1384 301 1414T374 1444Q418 1444 449 1414T480 1340Q480 1297 449 1267T374 1236ZM764 1236Q721 1236 690 1266T658 1340Q658 1384 689 1414T764 1444Q806 1444 837 1414T868 1340Q868 1297 837
1267T764 1236Z" />
<glyph unicode="&#xfd;" horiz-adv-x="1058" d="M242 -492Q202 -490 157 -483T70 -462L118 -330Q151 -339 182 -343T242 -348Q319 -348 365 -292T447 -141T524 74L834 1034H1028L662 22Q622 -84 586 -176T506 -340T399 -451T242 -492ZM406 20L32 1034H228L448
358Q470 294 470 229T453 108T406 20ZM444 1204L622 1480H816L640 1262Q613 1230 581 1215T513 1197T444 1204Z" />
<glyph unicode="&#xfe;" horiz-adv-x="1196" d="M182 -482V1516H362V156Q410 138 464 131T564 124Q707 124 789 234T872 522Q872 654 836 740T735 866T584 902Q539 899 501 922T430 992Q483 1018 542 1032T646 1046Q728 1046 803 1013T938 915T1033 751T1068 522Q1068
363 1005 241T828 50T564 -20Q510 -20 465 -13T362 16V-482H182Z" />
<glyph unicode="&#xff;" horiz-adv-x="1058" d="M242 -492Q202 -490 157 -483T70 -462L118 -330Q151 -339 182 -343T242 -348Q319 -348 365 -292T447 -141T524 74L834 1034H1028L662 22Q622 -84 586 -176T506 -340T399 -451T242 -492ZM406 20L32 1034H228L448
358Q470 294 470 229T453 108T406 20ZM340 1236Q298 1236 267 1266T236 1340Q236 1384 267 1414T340 1444Q384 1444 415 1414T446 1340Q446 1297 415 1267T340 1236ZM730 1236Q687 1236 656 1266T624 1340Q624 1384 655 1414T730 1444Q772 1444 803 1414T834 1340Q834
1297 803 1267T730 1236Z" />
<glyph unicode="&#x2013;" horiz-adv-x="1080" d="M90 486V614H938V486H90Z" />
<glyph unicode="&#x2014;" horiz-adv-x="1698" d="M90 486V614H1568V486H90Z" />
<glyph unicode="&#x2018;" horiz-adv-x="410" d="M298 1454V1062H124V1218Q124 1258 131 1304T158 1388T211 1447T298 1454Z" />
<glyph unicode="&#x2019;" horiz-adv-x="448" d="M162 1062V1454H336V1298Q336 1258 329 1212T302 1128T249 1069T162 1062Z" />
<glyph unicode="&#x201a;" horiz-adv-x="394" d="M112 -196V196H286V40Q286 0 279 -46T252 -130T199 -189T112 -196Z" />
<glyph unicode="&#x201c;" horiz-adv-x="742" d="M282 1454V1062H108V1218Q108 1258 115 1304T142 1388T195 1447T282 1454ZM630 1454V1062H456V1218Q456 1258 463 1304T490 1388T543 1447T630 1454Z" />
<glyph unicode="&#x201d;" horiz-adv-x="742" d="M108 1062V1454H282V1298Q282 1258 275 1212T248 1128T195 1069T108 1062ZM456 1062V1454H630V1298Q630 1258 623 1212T596 1128T543 1069T456 1062Z" />
<glyph unicode="&#x201e;" horiz-adv-x="724" d="M112 -196V196H286V40Q286 0 279 -46T252 -130T199 -189T112 -196ZM458 -196V196H632V40Q632 0 625 -46T598 -130T545 -189T458 -196Z" />
<glyph unicode="&#x2022;" horiz-adv-x="1000" d="M514 482Q450 482 408 524T366 630Q366 695 408 738T514 782Q579 782 622 739T666 630Q666 566 623 524T514 482Z" />
<glyph unicode="&#x2039;" horiz-adv-x="1226" d="M826 100L394 516L826 932L914 846L626 516L914 186L826 100Z" />
<glyph unicode="&#x203a;" horiz-adv-x="1226" d="M482 100L394 186L682 516L394 846L482 932L914 516L482 100Z" />
</font>
</defs>
</svg>
