<?xml version="1.0" standalone="no"?>
<!DOCTYPE svg PUBLIC "-//W3C//DTD SVG 1.1//EN" "http://www.w3.org/Graphics/SVG/1.1/DTD/svg11.dtd">
<svg xmlns="http://www.w3.org/2000/svg">
<defs >
<font id="ExpletusSans" horiz-adv-x="1091" ><font-face
    font-family="Expletus Sans"
    units-per-em="2000"
    panose-1="0 0 0 0 0 0 0 0 0 0"
    ascent="2066"
    descent="-612"
    alphabetic="0" />
<glyph unicode=" " horiz-adv-x="514" />
<glyph unicode="!" horiz-adv-x="702" d="M132 460L94 1454H374L332 460H132ZM230 -28Q160 -28 112 19T64 136Q64 205 112 254T230 304Q299 304 346 255T394 136Q394 67 347 20T230 -28Z" />
<glyph unicode="&quot;" horiz-adv-x="832" d="M66 1002V1454H310V1002H66ZM474 1002V1454H718V1002H474Z" />
<glyph unicode="#" horiz-adv-x="1788" d="M290 0L348 290L362 312L334 308H130V480H380L462 906L476 928L444 924H248V1100H500L556 1404H780L722 1100H1112L1170 1404H1394L1334 1100H1562V926H1302L1216 482H1442V308H1188L1128 0H904L960 282L974 312L944
308H636Q649 346 674 386T743 454T860 482H992L1072 896L1088 928L1052 924H690L514 0H290Z" />
<glyph unicode="$" horiz-adv-x="1028" d="M420 -214V-22Q344 -14 252 10T52 80L128 268Q236 220 331 201T502 182Q573 182 628 207T716 274T748 366Q748 436 699 485T573 576T409 659T245 753T119 879T70 1058Q70 1167 116 1242T242 1361T420 1418V1620H632V1418Q691
1412 754 1399T902 1360L828 1178Q740 1202 667 1213T528 1224Q438 1224 384 1182T330 1074Q330 1008 379 961T506 872T671 787T835 687T962 553T1012 362Q1012 255 965 177T833 50T632 -16V-214H420Z" />
<glyph unicode="%" horiz-adv-x="1628" d="M276 0L1152 1404H1374L498 0H276ZM356 620Q197 620 105 726T12 1028Q12 1220 104 1327T356 1434Q515 1434 609 1327T704 1028Q704 835 610 728T356 620ZM356 778Q413 778 447 841T482 1028Q482 1150 448 1213T356 1276Q302
1276 267 1213T232 1028Q232 904 267 841T356 778ZM1294 -26Q1135 -26 1043 80T950 382Q950 574 1042 681T1294 788Q1453 788 1547 681T1642 382Q1642 189 1548 82T1294 -26ZM1294 132Q1351 132 1385 195T1420 382Q1420 504 1386 567T1294 630Q1240 630 1205 567T1170
382Q1170 258 1205 195T1294 132Z" />
<glyph unicode="&amp;" horiz-adv-x="1522" d="M670 -22Q535 -22 433 32T274 185T216 418Q216 553 284 655T450 830Q380 928 360 986T340 1100Q340 1222 399 1305T561 1431T792 1474Q858 1474 942 1457T1100 1406L1040 1222Q976 1243 909 1254T788 1266Q703 1266
650 1225T596 1118Q596 1042 645 975T776 808L1044 492L1064 456L1078 498Q1107 561 1124 623T1152 758H1382Q1355 626 1317 511T1216 294L1470 0H1152L594 648L576 682L558 646Q525 604 506 556T486 444Q486 335 540 261T700 186Q721 186 734 188T766 192Q841
198 890 162T982 78Q912 27 836 3T670 -22Z" />
<glyph unicode="&apos;" horiz-adv-x="382" d="M54 1002V1454H298V1002H54Z" />
<glyph unicode="(" horiz-adv-x="806" d="M678 -352Q563 -274 491 -187T382 10T330 262T316 592Q316 779 330 921T381 1172T491 1368T678 1534L810 1404Q724 1327 674 1252T600 1087T569 878T562 592Q562 426 569 306T600 95T675 -69T810 -220L678 -352Z" />
<glyph unicode=")" horiz-adv-x="802" d="M128 -352L-4 -220Q82 -144 131 -70T205 95T237 305T244 592Q244 758 237 877T206 1086T132 1251T-4 1404L128 1534Q244 1456 315 1369T424 1172T476 921T490 592Q490 405 476 263T425 11T316 -186T128 -352Z" />
<glyph unicode="*" horiz-adv-x="1060" d="M394 692L206 800L424 1048L102 984V1200L420 1138L204 1382L392 1492L498 1180L606 1492L794 1382Q712 1291 671 1245T611 1176T578 1136L900 1198V982Q809 1001 753 1012T665 1029T613 1039T574 1046L792 800L604 692L500
1004L394 692Z" />
<glyph unicode="+" horiz-adv-x="1136" d="M454 124V514H94V706H454V1092H666V706H1030V514H666V124H454Z" />
<glyph unicode="," horiz-adv-x="508" d="M112 -256V196H356V40Q356 -29 343 -89T300 -191T224 -252T112 -256Z" />
<glyph unicode="-" horiz-adv-x="750" d="M90 510V706H694V510H90Z" />
<glyph unicode="." horiz-adv-x="546" d="M250 -30Q180 -30 132 17T84 134Q84 203 132 252T250 302Q319 302 366 253T414 134Q414 65 367 18T250 -30Z" />
<glyph unicode="/" horiz-adv-x="664" d="M-26 -124L460 1454H702L216 -124H-26Z" />
<glyph unicode="0" horiz-adv-x="1420" d="M658 -38Q482 -38 349 50T141 304T66 698Q66 919 138 1085T343 1345T658 1438Q815 1438 927 1374T1110 1202T1216 963T1250 698Q1250 554 1214 422T1104 186T920 22T658 -38ZM658 166Q804 166 875 310T946 698Q946 943
875 1088T658 1234Q511 1234 441 1089T370 698Q370 455 441 311T658 166Z" />
<glyph unicode="1" horiz-adv-x="638" d="M258 0V1112L46 1002L-40 1162L406 1402H514V0H258Z" />
<glyph unicode="2" horiz-adv-x="1134" d="M88 0V118Q122 197 192 288T348 477T512 671T641 858T692 1024Q692 1119 627 1170T464 1222Q418 1222 354 1208T214 1160L142 1344Q241 1391 328 1408T484 1426Q639 1426 752 1380T926 1249T988 1044Q988 966 953 883T860
715T734 548T598 389T476 248L444 212L490 218H1010V0H88Z" />
<glyph unicode="3" horiz-adv-x="1056" d="M416 -22Q307 -22 207 3T10 70L76 252Q168 212 240 197T372 182Q442 182 506 206T612 277T654 392Q654 482 603 532T464 602T264 622L246 792L312 820Q404 860 470 897T571 978T606 1078Q606 1147 549 1183T412 1220Q355
1220 291 1207T134 1156L66 1342Q182 1390 277 1407T454 1424Q579 1424 680 1385T840 1272T900 1092Q900 1004 848 926T694 784L644 764L690 754Q764 725 822 672T914 547T948 388Q948 263 876 171T682 29T416 -22Z" />
<glyph unicode="4" horiz-adv-x="1190" d="M700 0V1036L704 1102L674 1046L346 522L314 482L356 484H428Q486 484 525 453T590 374T628 282H46V476L630 1402H966V484H1128V282H966V0H700Z" />
<glyph unicode="5" horiz-adv-x="1074" d="M414 -24Q363 -24 306 -16T183 12T40 72L106 254Q210 214 283 197T412 180Q497 180 558 216T653 310T686 430Q686 543 602 603T386 664Q335 664 268 659T108 636L158 1402H920V1184H382L360 884L354 856L390 864Q410
866 426 866T454 866Q618 866 736 808T917 649T980 426Q980 291 906 190T703 33T414 -24Z" />
<glyph unicode="6" horiz-adv-x="1250" d="M680 -32Q529 -32 420 22T242 172T139 391T106 654Q106 807 157 945T304 1190T532 1358T828 1420Q878 1420 946 1408T1088 1372L1024 1186Q963 1204 915 1210T828 1216Q686 1216 591 1140T448 938T400 658Q400 576 413
490T457 332T541 215T674 170Q733 170 781 207T859 308T888 448Q888 568 841 624T734 680Q724 680 707 679T672 674Q626 667 591 687T531 741T488 806Q575 851 645 867T764 884Q877 884 972 834T1126 687T1184 448Q1184 361 1150 276T1050 121T891 10T680 -32Z"
/>
<glyph unicode="7" horiz-adv-x="1006" d="M210 0Q241 228 292 421T424 792T622 1148L652 1178L602 1174H76V1402H952V1208Q870 1103 798 988T667 733T566 413T500 0H210Z" />
<glyph unicode="8" horiz-adv-x="1324" d="M676 -26Q526 -26 410 18T228 148T162 356Q162 425 199 504T332 682Q385 634 426 572T450 444Q441 416 437 398T432 356Q432 272 500 224T676 176Q789 176 851 229T914 356Q914 422 876 468T775 549T637 615T487 683T349
770T248 890T210 1062Q210 1177 274 1259T445 1384T682 1428Q815 1428 920 1385T1087 1259T1148 1062Q1148 992 1108 916T998 756L958 726L992 710Q1078 653 1136 569T1194 356Q1194 234 1126 149T940 19T676 -26ZM776 820Q826 879 850 935T876 1040Q876 1106 849
1146T778 1205T682 1224Q628 1224 585 1206T516 1152T490 1062Q490 1003 530 962T635 887T776 820Z" />
<glyph unicode="9" horiz-adv-x="1248" d="M462 -20Q413 -20 344 -9T202 28L266 212Q328 196 375 190T462 184Q604 184 699 259T842 462T890 742Q890 824 877 909T833 1066T749 1183T616 1228Q557 1228 509 1191T431 1091T402 952Q402 832 449 776T556 720Q565
720 582 721T618 726Q663 733 698 713T759 659T802 594Q715 549 646 533T526 516Q412 516 317 566T164 713T106 952Q106 1039 140 1124T239 1279T398 1390T610 1432Q762 1432 870 1378T1048 1228T1151 1009T1184 746Q1184 592 1133 454T986 209T758 41T462 -20Z"
/>
<glyph unicode=":" horiz-adv-x="598" d="M304 -30Q234 -30 186 17T138 134Q138 203 186 252T304 302Q373 302 420 253T468 134Q468 65 421 18T304 -30ZM304 688Q234 688 186 735T138 852Q138 921 186 970T304 1020Q373 1020 420 971T468 852Q468 783 421 736T304 688Z" />
<glyph unicode=";" horiz-adv-x="598" d="M180 -256V196H424V40Q424 -29 411 -89T368 -191T292 -252T180 -256ZM304 688Q234 688 186 735T138 852Q138 921 186 970T304 1020Q373 1020 420 971T468 852Q468 783 421 736T304 688Z" />
<glyph unicode="&lt;" horiz-adv-x="1226" d="M1108 0L74 462V642L1108 1104V844L414 566L362 552L414 540L1108 262V0Z" />
<glyph unicode="=" horiz-adv-x="1212" d="M134 764V960H1078V764H134ZM134 322V518H1078V322H134Z" />
<glyph unicode="&gt;" horiz-adv-x="1226" d="M110 0V262L804 540L856 552L804 566L110 844V1104L1144 642V462L110 0Z" />
<glyph unicode="?" horiz-adv-x="1166" d="M364 460Q364 569 398 649T482 792T582 905T666 1008T700 1118Q700 1186 648 1226T510 1266Q453 1266 396 1256T242 1204L170 1392Q281 1442 364 1458T530 1474Q663 1474 766 1436T927 1325T986 1148Q986 1063 947 993T851
860T736 735T639 606T600 460H364ZM482 -28Q412 -28 364 19T316 136Q316 205 364 254T482 304Q551 304 598 255T646 136Q646 67 599 20T482 -28Z" />
<glyph unicode="@" horiz-adv-x="1838" d="M894 -264Q741 -264 607 -218T369 -76T208 166T150 514Q150 701 213 846T386 1091T634 1244T924 1296Q1067 1296 1198 1254T1432 1131T1594 930T1654 656Q1654 524 1586 410T1400 216T1136 110Q1114 122 1103 144T1082
192L1078 230L1058 190Q1000 132 945 113T836 94Q715 94 642 155T568 316Q568 435 665 501T1000 590Q998 572 987 538T952 474T888 438Q806 426 782 394T758 324Q758 285 789 261T876 236Q927 236 976 262T1072 350V608Q1072 700 1024 739T888 778Q846 778 805
772T698 744L646 878Q727 910 790 921T916 932Q1080 932 1169 849T1258 598V340L1254 298L1282 322Q1374 384 1415 479T1456 656Q1456 800 1388 906T1200 1070T922 1128Q751 1128 621 1054T419 843T346 514Q346 324 417 188T613 -22T894 -96Q952 -96 1004 -92T1117
-76T1260 -38L1318 -192Q1223 -224 1153 -239T1021 -259T894 -264Z" />
<glyph unicode="A" horiz-adv-x="1444" d="M60 0L582 1454H862L1384 0H1088L728 1082L712 1156L694 1078L524 560L500 520L530 524H682Q740 524 779 491T843 410T882 318H448L342 0H60Z" />
<glyph unicode="B" horiz-adv-x="1354" d="M752 -22Q697 -22 652 -16T520 12Q536 47 562 86T627 152T720 180Q722 180 724 180T728 180Q797 182 850 209T935 288T966 412Q966 491 922 548T799 637T622 668H442V0H162V1432Q269 1450 345 1460T485 1475T622 1480Q802
1480 925 1429T1111 1285T1174 1070Q1174 997 1128 924T1008 804L950 776L1006 762Q1079 736 1136 680T1227 553T1260 410Q1260 333 1225 257T1124 117T964 16T752 -22ZM442 856H622Q691 856 751 883T848 957T886 1068Q886 1115 860 1163T775 1245T622 1278Q568
1278 532 1275T442 1264V856Z" />
<glyph unicode="C" horiz-adv-x="1204" d="M870 -24Q623 -24 450 76T187 346T96 728Q96 884 149 1020T302 1260T546 1421T870 1480Q954 1480 1041 1464T1222 1412L1150 1228Q1062 1254 1001 1264T870 1274Q751 1274 663 1228T516 1105T429 930T400 728Q400 625
429 527T516 352T662 228T870 182Q939 182 1007 199T1148 250L1222 68Q1134 22 1044 -1T870 -24Z" />
<glyph unicode="D" horiz-adv-x="1494" d="M756 -24Q719 -24 689 -22T620 -12T524 10Q540 45 566 85T632 153T726 182Q728 182 730 182T734 182Q847 184 928 232T1061 358T1139 533T1164 730Q1164 887 1109 1010T933 1203T620 1274Q581 1274 538 1270T448 1258V0H166V1428Q300
1457 416 1468T620 1480Q886 1480 1075 1392T1365 1135T1466 730Q1466 572 1413 435T1264 195T1039 34T756 -24Z" />
<glyph unicode="E" horiz-adv-x="1176" d="M166 0V1454H1038V1248H452V206H1070V0H166ZM528 662Q541 706 565 753T630 832T728 864H970V662H528Z" />
<glyph unicode="F" horiz-adv-x="1168" d="M166 0V1454H1038V1248H452V0H166ZM528 662Q541 706 565 753T630 832T728 864H970V662H528Z" />
<glyph unicode="G" horiz-adv-x="1448" d="M876 -24Q691 -24 544 34T295 194T138 433T84 726Q84 884 139 1020T300 1260T552 1422T882 1480Q966 1480 1078 1460T1304 1392L1230 1200Q1118 1244 1035 1259T882 1274Q763 1274 671 1230T516 1109T421 934T388 726Q388
623 419 526T513 351T666 228T876 182Q920 182 962 185T1068 204V674H1324V74Q1251 41 1169 20T1009 -13T876 -24Z" />
<glyph unicode="H" horiz-adv-x="1528" d="M1082 0V660H528Q541 704 565 752T630 833T728 866H1082V1454H1364V0H1082ZM166 0V1454H452V0H166Z" />
<glyph unicode="I" horiz-adv-x="612" d="M166 0V1454H444V0H166Z" />
<glyph unicode="J" horiz-adv-x="738" d="M108 -444L-20 -280Q55 -218 113 -165T213 -54T275 78T296 256V1454H580V256Q580 117 550 18T460 -156T312 -299T108 -444Z" />
<glyph unicode="K" horiz-adv-x="1418" d="M1058 0L730 644L716 692L692 648L566 486Q543 575 552 668T593 845T672 994L1002 1454H1316L868 872L1386 0H1058ZM166 0V1454H452V0H166Z" />
<glyph unicode="L" horiz-adv-x="1062" d="M164 0V1454H452V208H976V0H164Z" />
<glyph unicode="M" horiz-adv-x="1964" d="M148 0L288 1454H650L968 332L982 260L998 332L1314 1454H1678L1814 0H1552L1474 1096L1468 1192L1444 1096L1128 20H834L514 1098L490 1192L484 1098L410 0H148Z" />
<glyph unicode="N" horiz-adv-x="1556" d="M188 0V1454H464L1078 476L1106 396L1102 476V1454H1354V0H1102L460 1018L428 1090L432 1022V0H188Z" />
<glyph unicode="O" horiz-adv-x="1578" d="M810 -28Q579 -28 418 71T171 342T86 728Q86 885 134 1022T276 1263T503 1425T810 1484Q1006 1484 1143 1417T1367 1239T1492 995T1532 728Q1532 581 1485 446T1345 203T1119 34T810 -28ZM810 178Q920 178 1016 242T1171
430T1230 728Q1230 885 1180 1009T1036 1206T810 1278Q672 1278 579 1202T438 1001T390 728Q390 625 417 527T496 350T628 225T810 178Z" />
<glyph unicode="P" horiz-adv-x="1286" d="M166 0V1436Q274 1454 349 1464T487 1478T622 1482Q784 1482 913 1427T1118 1270T1194 1026Q1194 893 1128 797T955 645T730 578Q685 574 635 577T528 596Q543 634 566 674T622 744T700 778Q755 783 800 817T873 906T900
1026Q900 1095 865 1151T768 1242T622 1276Q568 1276 538 1273T454 1264V0H166Z" />
<glyph unicode="Q" horiz-adv-x="1562" d="M788 -28Q573 -28 416 69T172 336T86 728Q86 892 136 1030T282 1269T510 1427T810 1484Q1035 1484 1197 1387T1445 1119T1532 728Q1532 592 1482 462T1350 228L1474 100L1322 -52L828 452L980 606L1140 442L1166 400L1178
452Q1205 515 1217 588T1230 728Q1230 876 1183 1001T1042 1202T810 1278Q672 1278 579 1202T438 1001T390 728Q390 625 416 527T494 350T619 225T788 178Q802 178 827 180T870 182Q936 182 992 143T1080 68Q1008 20 933 -4T788 -28Z" />
<glyph unicode="R" horiz-adv-x="1368" d="M166 0V1436Q274 1454 349 1464T487 1478T622 1482Q779 1482 909 1430T1116 1277T1194 1036Q1194 918 1140 829T996 686L940 664L984 642Q1045 590 1079 520T1136 365T1186 189T1256 0H962Q927 77 905 163T860 332T805
485T716 598Q674 595 627 598T528 616Q543 654 566 695T622 766T700 800Q755 805 800 836T873 919T900 1036Q900 1105 863 1159T763 1245T622 1276Q568 1276 538 1273T454 1264V0H166Z" />
<glyph unicode="S" horiz-adv-x="1154" d="M552 -26Q467 -26 353 -3T102 84L178 270Q286 219 381 200T552 180Q659 180 728 236T798 370Q798 443 749 495T623 591T459 680T295 781T169 914T120 1100Q120 1231 180 1315T341 1439T560 1480Q652 1480 739 1468T952
1414L878 1232Q790 1258 717 1269T578 1280Q488 1280 434 1236T380 1124Q380 1056 429 1006T556 912T721 822T885 716T1012 575T1062 376Q1062 247 998 158T819 21T552 -26Z" />
<glyph unicode="T" horiz-adv-x="1068" d="M390 0V1248H10V1454H1054V1248H674V0H390Z" />
<glyph unicode="U" horiz-adv-x="1454" d="M748 -28Q569 -28 439 39T237 237T166 556V1454H448V526Q448 363 533 271T748 178Q876 178 962 270T1048 526V1454H1328V556Q1328 379 1258 248T1057 44T748 -28Z" />
<glyph unicode="V" horiz-adv-x="1334" d="M526 0L16 1454H320L662 350L676 274L690 348L1032 1454H1326L820 0H526Z" />
<glyph unicode="W" horiz-adv-x="2118" d="M474 0L62 1454H340L610 386L626 276L648 386L908 1434H1222L1478 388L1498 276L1514 384L1784 1454H2056L1646 0H1364L1080 1070L1062 1152L1046 1072L762 0H474Z" />
<glyph unicode="X" horiz-adv-x="1322" d="M950 0L80 1454H396L642 976L662 914L678 976L924 1454H1238L804 736L1260 0H950ZM58 0L454 650Q479 616 509 555T549 423T526 290L364 0H58Z" />
<glyph unicode="Y" horiz-adv-x="1398" d="M552 0V644L50 1454H362L828 678V0H552ZM888 754Q862 788 832 848T792 979T816 1114L1004 1454H1312L888 754Z" />
<glyph unicode="Z" horiz-adv-x="1224" d="M94 0V118L804 1224L836 1258L788 1252H156V1454H1168V1336L456 230L424 200L470 206H1186V0H94Z" />
<glyph unicode="[" horiz-adv-x="894" d="M244 -398V1542H850V1334H508V-190H850V-398H244Z" />
<glyph unicode="\" horiz-adv-x="664" d="M460 -124L-26 1454H216L702 -124H460Z" />
<glyph unicode="]" horiz-adv-x="894" d="M80 -398V-190H422V1334H80V1542H686V-398H80Z" />
<glyph unicode="^" horiz-adv-x="1256" d="M108 420L530 1454H732L1154 420H900L646 1086L632 1148L618 1086L366 420H108Z" />
<glyph unicode="_" horiz-adv-x="994" d="M54 -190V0H940V-190H54Z" />
<glyph unicode="`" horiz-adv-x="392" d="M746 1204Q712 1195 658 1197T549 1221T454 1290L296 1480H574L746 1204Z" />
<glyph unicode="a" horiz-adv-x="1084" d="M390 -26Q294 -26 225 16T118 128T80 276Q80 359 129 433T297 558T628 626Q621 579 605 540T562 474T492 440Q442 432 410 412T363 364T348 302Q348 250 385 215T474 180Q531 180 589 219T700 320V622Q700 726 643 788T480
850Q431 850 374 840T246 804L178 980Q267 1021 361 1038T526 1056Q739 1056 854 944T970 622V252Q970 197 977 134T1002 0H796Q769 15 752 42T722 100L716 140L692 106Q602 24 535 -1T390 -26Z" />
<glyph unicode="b" horiz-adv-x="1220" d="M586 -30Q477 -30 373 -5T146 84V1516H424V196Q471 184 508 180T586 176Q703 176 770 282T838 554Q838 618 822 688T766 805T660 850Q594 847 560 895T496 1004Q553 1028 613 1040T724 1052Q819 1052 895 1009T1025 893T1107
733T1136 554Q1136 391 1069 259T879 48T586 -30Z" />
<glyph unicode="c" horiz-adv-x="860" d="M592 -26Q453 -26 331 30T132 206T56 518Q56 699 132 819T330 1000T592 1060Q646 1060 710 1050T834 1016L766 830Q718 842 672 848T592 854Q520 854 466 814T382 698T352 518Q352 413 382 338T466 221T592 180Q634 180
682 191T794 228L862 44Q784 8 715 -9T592 -26Z" />
<glyph unicode="d" horiz-adv-x="1238" d="M522 -26Q377 -26 275 45T118 241T64 524Q64 630 100 725T198 893T339 1009T504 1052Q555 1052 604 1046T732 1016Q705 947 669 904T582 856Q500 851 452 808T382 691T360 524Q360 431 385 353T457 228T572 180Q629 180
685 214T804 320V1516H1082V252Q1082 197 1089 134T1112 0H898Q873 14 856 40T828 94L818 140L784 96Q706 26 644 0T522 -26Z" />
<glyph unicode="e" horiz-adv-x="1128" d="M618 -26Q481 -26 381 22T217 152T121 333T90 534Q90 699 160 817T350 997T614 1060Q725 1060 815 1017T963 894T1033 707T1002 470H442Q463 539 505 586T598 634H776Q784 695 765 748T704 833T600 866Q545 866 491 833T402
729T366 544Q366 429 401 348T500 223T648 180Q717 180 785 197T940 254L1010 68Q902 17 807 -4T618 -26Z" />
<glyph unicode="f" horiz-adv-x="874" d="M210 0V836H44V994L210 1034V1090Q210 1221 263 1319T415 1471T648 1526Q698 1526 767 1514T914 1466L852 1288Q794 1305 754 1312T678 1320Q613 1320 568 1292T498 1211T474 1090V0H210ZM542 836Q555 880 579 926T644
1003T742 1034H830V836H542Z" />
<glyph unicode="g" horiz-adv-x="1182" d="M528 -500Q450 -500 350 -484T132 -416L202 -230Q303 -270 376 -285T512 -300Q586 -300 648 -269T748 -176T786 -22V836Q747 845 713 848T658 852Q522 852 451 749T380 480Q380 416 394 348T446 234T552 190Q612 192
646 151T714 52Q659 22 599 2T488 -18Q392 -18 317 25T189 141T110 302T82 480Q82 639 149 770T342 980T646 1058Q703 1058 760 1054T888 1036T1058 998V0Q1058 -183 987 -292T795 -451T528 -500Z" />
<glyph unicode="h" horiz-adv-x="1216" d="M146 0V1516H424V0H146ZM792 0V734Q792 784 771 816T704 848Q686 848 674 844T636 838Q591 835 558 876T496 972Q594 1028 665 1044T792 1060Q861 1060 925 1025T1029 919T1070 738V0H792Z" />
<glyph unicode="i" horiz-adv-x="560" d="M140 0V1034H420V0H140ZM280 1170Q211 1170 164 1217T116 1334Q116 1405 163 1453T280 1502Q349 1502 396 1454T444 1334Q444 1265 397 1218T280 1170Z" />
<glyph unicode="j" horiz-adv-x="590" d="M48 -498L-70 -352Q29 -267 80 -203T148 -71T166 96V1034H444V96Q444 -30 409 -125T288 -308T48 -498ZM306 1170Q237 1170 190 1217T142 1334Q142 1405 189 1453T306 1502Q377 1502 424 1454T472 1334Q472 1265 425 1218T306
1170Z" />
<glyph unicode="k" horiz-adv-x="1248" d="M904 0L668 466L654 514L626 474L518 360Q496 498 536 613T648 816L828 1034H1150L814 676L1212 0H904ZM146 0V1516H424V0H146Z" />
<glyph unicode="l" horiz-adv-x="564" d="M150 0V1516H428V0H150Z" />
<glyph unicode="m" horiz-adv-x="1860" d="M1426 0V734Q1426 784 1404 816T1326 848Q1308 848 1287 843T1240 836Q1192 833 1154 876T1088 974Q1198 1019 1274 1039T1420 1060Q1489 1060 1554 1025T1662 919T1704 738V0H1426ZM150 0V782Q150 838 144 901T120 1034H352Q400
980 415 927T430 814V0H150ZM788 0V734Q788 784 770 816T700 848Q682 848 664 844T622 838Q574 835 538 878T474 976Q582 1020 655 1040T798 1060Q867 1060 928 1025T1029 919T1068 738V0H788Z" />
<glyph unicode="n" horiz-adv-x="1156" d="M752 0V734Q752 784 732 816T660 848Q641 848 623 843T576 836Q528 833 496 876T434 968Q533 1021 608 1040T752 1060Q821 1060 885 1025T989 919T1030 738V0H752ZM106 0V782Q106 838 99 901T74 1034H306Q354 980 370
927T386 814V0H106Z" />
<glyph unicode="o" horiz-adv-x="1220" d="M604 -26Q463 -26 341 37T144 222T68 518Q68 659 118 761T250 930T424 1028T604 1060Q763 1060 883 991T1072 800T1140 518Q1140 391 1094 290T971 119T799 11T604 -26ZM604 178Q682 178 735 224T815 347T842 518Q842
611 815 688T735 810T604 856Q526 856 473 811T392 688T364 518Q364 368 429 273T604 178Z" />
<glyph unicode="p" horiz-adv-x="1242" d="M146 -482V782Q146 838 140 901T116 1034H330Q356 1019 374 991T404 932L410 892L440 932Q520 1006 583 1033T706 1060Q850 1060 952 989T1109 793T1164 510Q1164 404 1128 309T1030 141T889 25T724 -18Q673 -18 624
-11T496 18Q523 87 559 131T644 178Q727 183 776 226T846 343T868 510Q868 603 843 681T770 807T656 854Q598 854 542 820T424 714V-482H146Z" />
<glyph unicode="q" horiz-adv-x="1210" d="M798 -482V836Q758 845 724 848T668 852Q532 852 461 749T390 480Q390 416 404 348T456 234T562 190Q622 192 657 151T726 52Q669 22 609 2T498 -18Q403 -18 328 25T200 141T120 302T92 480Q92 639 159 770T352 980T658
1058Q714 1058 770 1054T898 1036T1070 998V-482H798Z" />
<glyph unicode="r" horiz-adv-x="782" d="M132 0V782Q132 838 125 901T100 1034H312Q329 1021 348 979T374 886L378 838L398 886Q439 966 503 1010T632 1054Q664 1054 695 1048T762 1030L730 804Q690 816 663 820T612 824Q544 824 495 780T420 658T394 482V0H132Z" />
<glyph unicode="s" horiz-adv-x="872" d="M472 -20Q394 -20 294 -6T60 64L124 250Q217 214 290 200T426 186Q500 186 534 217T568 286Q568 331 533 361T443 416T326 468T209 531T119 621T84 754Q84 818 119 887T236 1004T454 1052Q522 1052 593 1042T760 1000L696
820Q618 841 571 847T472 854Q415 854 382 831T348 766Q348 724 383 694T473 638T590 584T707 518T797 428T832 296Q832 199 781 128T648 19T472 -20Z" />
<glyph unicode="t" horiz-adv-x="910" d="M600 -26Q410 -26 309 83T208 396V836H42V994L208 1034V1280L472 1366V396Q472 294 515 237T628 180Q657 180 694 186T782 210L840 28Q765 3 708 -11T600 -26ZM740 836Q682 836 642 867T578 944T540 1034H830V836H740Z" />
<glyph unicode="u" horiz-adv-x="1226" d="M410 -26Q341 -26 277 9T173 115T132 296V1034H410V300Q410 251 430 219T502 186Q522 186 540 191T586 198Q633 201 666 158T728 66Q629 14 554 -6T410 -26ZM854 0Q808 54 792 107T776 220V1034H1056V252Q1056 197 1064
134T1088 0H854Z" />
<glyph unicode="v" horiz-adv-x="1094" d="M400 0L12 1034H306L538 302L552 242L566 302L796 1034H1086L698 0H400Z" />
<glyph unicode="w" horiz-adv-x="1744" d="M1068 0L702 1034H998L1206 302L1220 242L1234 302L1440 1034H1730L1366 0H1068ZM404 0L40 1034H334L542 302L556 242L570 302L718 694Q750 636 775 547T803 359T770 174L696 0H404Z" />
<glyph unicode="x" horiz-adv-x="1028" d="M694 0Q618 125 537 250T372 500L22 1034H340L496 744L508 702L524 744L682 1034H986L644 512L1006 0H694ZM4 0L312 440Q338 408 364 359T399 251T380 136L306 0H4Z" />
<glyph unicode="y" horiz-adv-x="1200" d="M254 -496Q214 -494 167 -487T72 -458L136 -278Q171 -287 198 -289T254 -292Q324 -292 369 -250T448 -127T522 74L818 1034H1104L738 22Q688 -107 644 -204T549 -366T427 -463T254 -496ZM402 26L30 1034H330L470 562Q497
475 492 372T462 176T402 26Z" />
<glyph unicode="z" horiz-adv-x="948" d="M60 0V118L518 814L548 848L506 842H114V1034H866V916L412 224L382 190L426 196H870V0H60Z" />
<glyph unicode="{" horiz-adv-x="806" d="M678 -352Q552 -267 478 -168T367 63T320 374Q314 445 259 486T126 540V684Q203 698 260 739T324 850Q336 1018 372 1141T482 1358T678 1534L810 1404Q726 1329 677 1256T602 1092T568 878Q562 796 522 733T418 628L370
606L416 586Q481 544 521 482T568 336Q576 203 600 107T675 -67T810 -220L678 -352Z" />
<glyph unicode="|" horiz-adv-x="634" d="M230 -586V1622H482V-586H230Z" />
<glyph unicode="}" horiz-adv-x="856" d="M284 -352L152 -220Q237 -145 287 -68T361 106T394 336Q400 419 440 480T544 584L594 606L542 628Q479 670 440 733T394 878Q385 1002 361 1092T286 1255T152 1404L284 1534Q406 1452 479 1358T589 1141T638 850Q644 780
702 739T836 684V540Q760 527 704 486T642 374Q631 194 595 63T485 -167T284 -352Z" />
<glyph unicode="~" horiz-adv-x="1228" d="M362 456L126 472Q129 574 175 645T291 753T438 792Q519 792 578 763T686 702Q721 680 750 664T810 648Q851 648 876 682T908 770L1138 754Q1132 640 1084 570T969 467T842 434Q748 434 690 464T588 526Q558 547 531
562T472 578Q439 578 405 552T362 456Z" />
<glyph unicode="&#xa0;" horiz-adv-x="514" />
<glyph unicode="&#xa1;" horiz-adv-x="702" d="M94 -420L132 574H332L374 -420H94ZM230 730Q160 730 112 779T64 898Q64 967 112 1014T230 1062Q299 1062 346 1015T394 898Q394 829 347 780T230 730Z" />
<glyph unicode="&#xa2;" horiz-adv-x="854" d="M458 -28V178Q347 201 256 265T111 439T56 710Q56 861 110 970T256 1145T458 1236V1432H654V1248Q698 1244 744 1235T834 1208L766 1022Q718 1034 672 1040T592 1046Q520 1046 466 1006T382 890T352 710Q352 605
382 530T466 413T592 372Q634 372 682 383T794 420L862 236Q805 209 752 194T654 170V-28H458Z" />
<glyph unicode="&#xa3;" horiz-adv-x="1026" d="M68 0V152Q176 206 245 290T314 484Q314 514 313 543T308 610H110V804H276Q269 851 264 906T258 1024Q258 1159 318 1248T485 1380T730 1424Q801 1424 879 1408T1050 1350L980 1160Q905 1192 839 1204T730 1216Q633
1216 579 1167T524 1022Q524 901 541 796T568 592T558 394Q549 351 535 322T498 260L462 220L506 224H966V0H68ZM804 610Q744 610 708 640T650 716T614 804H936V610H804Z" />
<glyph unicode="&#xa4;" horiz-adv-x="1026" d="M150 198L42 310L198 452Q173 487 152 545T130 682Q130 757 151 815T198 908L42 1050L150 1162L298 1020Q337 1049 391 1068T512 1088Q583 1088 640 1068T732 1018L886 1160L986 1054L828 908Q852 874 870 814T888
682Q888 610 870 549T828 452L986 306L886 200L732 342Q698 314 641 293T512 272Q446 272 392 292T298 340L150 198ZM510 420Q567 420 613 456T688 552T716 680Q716 749 688 808T614 903T510 940Q456 940 409 908T333 817T304 680Q304 602 333 544T409 453T510
420Z" />
<glyph unicode="&#xa5;" horiz-adv-x="1320" d="M510 0V256H222V390H510V504H222V638H510V644L8 1454H320L786 678V638H1072V504H786V390H1072V256H786V0H510ZM846 754Q820 788 790 848T750 979T774 1114L962 1454H1270L846 754Z" />
<glyph unicode="&#xa6;" horiz-adv-x="508" d="M136 -586V282H388V-586H136ZM136 774V1622H388V774H136Z" />
<glyph unicode="&#xa7;" horiz-adv-x="1000" d="M504 -102Q459 -102 386 -95T230 -70T74 -18L144 150Q233 116 320 98T480 80Q566 80 626 104T686 186Q686 240 643 276T531 340T386 396T241 463T130 560T86 704Q86 761 125 815T222 908L264 926L224 946Q170 987
137 1041T104 1170Q104 1246 155 1307T295 1404T500 1440Q568 1440 650 1429T832 1388L762 1220Q686 1241 630 1249T524 1258Q439 1258 392 1236T344 1172Q344 1118 387 1082T499 1018T644 960T789 892T900 795T944 650Q944 587 911 536T822 448L776 428L816 406Q864
366 895 313T926 188Q926 101 869 36T715 -65T504 -102ZM626 512Q671 547 691 584T712 660Q712 702 669 732T558 788T416 844Q365 813 342 784T318 714Q318 666 363 633T478 572T626 512Z" />
<glyph unicode="&#xa8;" horiz-adv-x="1056" d="M340 1214Q289 1214 252 1251T214 1340Q214 1393 251 1429T340 1466Q393 1466 430 1430T468 1340Q468 1288 431 1251T340 1214ZM730 1214Q679 1214 642 1251T604 1340Q604 1393 641 1429T730 1466Q783 1466 820
1430T858 1340Q858 1288 821 1251T730 1214Z" />
<glyph unicode="&#xa9;" horiz-adv-x="1440" d="M714 42Q565 42 442 91T230 231T93 444T44 714Q44 848 93 968T233 1180T446 1326T714 1380Q862 1380 983 1331T1193 1192T1330 981T1378 714Q1378 578 1329 457T1190 243T980 96T714 42ZM754 352Q657 352 579 394T454
516T408 714Q408 830 455 910T580 1032T754 1074Q833 1074 920 1046L876 918Q840 930 812 935T754 940Q679 940 632 875T584 714Q584 617 631 551T754 484Q783 484 816 490T896 518L938 398Q883 371 835 362T754 352ZM714 198Q847 198 956 260T1129 438T1194 714Q1194
870 1130 985T956 1163T714 1226Q578 1226 468 1163T293 983T228 708Q228 551 293 437T468 260T714 198Z" />
<glyph unicode="&#xaa;" horiz-adv-x="1054" d="M302 590Q205 590 138 642T70 788Q70 887 157 945T460 1028Q457 1012 448 984T418 929T360 896Q302 886 278 860T254 798Q254 764 277 740T340 716Q387 716 430 736T510 802V1054Q510 1137 463 1171T344 1206Q307
1206 266 1200T180 1176L140 1294Q208 1324 266 1333T370 1342Q528 1342 608 1264T688 1044V844Q688 760 694 701T710 604H570Q554 619 544 636T524 676L522 700L506 676Q469 636 417 613T302 590Z" />
<glyph unicode="&#xab;" horiz-adv-x="1226" d="M562 90L96 516L562 944L672 836L420 516L672 196L562 90ZM1110 90L644 516L1110 944L1220 836L968 516L1220 196L1110 90Z" />
<glyph unicode="&#xac;" horiz-adv-x="1182" d="M878 312V714H86V910H1092V312H878Z" />
<glyph unicode="&#xad;" horiz-adv-x="750" d="M90 510V706H694V510H90Z" />
<glyph unicode="&#xae;" horiz-adv-x="1440" d="M714 42Q565 42 442 91T230 231T93 444T44 714Q44 848 93 968T233 1180T446 1326T714 1380Q862 1380 983 1331T1193 1192T1330 981T1378 714Q1378 578 1329 457T1190 243T980 96T714 42ZM714 198Q847 198 956 260T1129
438T1194 714Q1194 870 1130 985T956 1163T714 1226Q578 1226 468 1163T293 983T228 708Q228 551 293 437T468 260T714 198ZM482 378V1042Q539 1056 597 1064T708 1072Q836 1072 916 1016T996 862Q996 808 972 764T900 694L856 686L894 666Q931 636 947 591T977
492T1018 378H846Q821 432 812 487T786 587T720 650Q708 650 696 650T672 650Q680 689 700 724T764 770Q799 779 812 803T826 862Q826 901 797 922T708 944Q690 944 682 943T646 938V378H482Z" />
<glyph unicode="&#xaf;" horiz-adv-x="1000" d="M220 1206V1374H824V1206H220Z" />
<glyph unicode="&#xb0;" horiz-adv-x="674" d="M350 946Q269 946 198 982T83 1086T38 1246Q38 1333 82 1401T198 1507T350 1546Q431 1546 502 1510T618 1406T662 1246Q662 1159 618 1092T503 985T350 946ZM350 1092Q389 1092 422 1109T474 1161T494 1246Q494 1321
452 1361T350 1402Q311 1402 279 1384T228 1331T208 1246Q208 1171 250 1132T350 1092Z" />
<glyph unicode="&#xb1;" horiz-adv-x="1136" d="M454 284V574H94V766H454V1052H666V766H1030V574H666V284H454ZM94 0V196H1030V0H94Z" />
<glyph unicode="&#xb2;" horiz-adv-x="804" d="M138 620V710Q191 802 252 876T369 1013T460 1131T496 1242Q496 1286 463 1310T370 1334Q336 1334 302 1326T236 1304L180 1422Q234 1451 294 1461T402 1472Q480 1472 541 1447T638 1374T674 1256Q674 1184 643 1123T564
1007T465 897T374 784L356 764L382 768H668V620H138Z" />
<glyph unicode="&#xb3;" horiz-adv-x="762" d="M316 602Q255 602 198 621T110 658L154 780Q190 765 232 754T314 742Q382 742 422 778T462 866Q462 929 414 963T264 998L250 1110L314 1136Q368 1159 401 1187T434 1262Q434 1286 409 1308T340 1330Q306 1330 270
1323T192 1302L142 1420Q199 1449 251 1459T352 1470Q462 1470 538 1424T614 1276Q614 1213 572 1163T460 1080Q529 1064 585 1007T642 860Q642 780 599 722T482 633T316 602Z" />
<glyph unicode="&#xb4;" horiz-adv-x="644" d="M106 1204L278 1480H556L398 1290Q359 1242 304 1221T194 1198T106 1204Z" />
<glyph unicode="&#xb5;" horiz-adv-x="1106" d="M112 -422V1034H368V420Q368 302 418 239T548 176Q610 176 657 205T731 284T758 398V1034H1016V328Q1016 244 1040 211T1126 180L1150 10Q1117 -3 1073 -9T1006 -16Q955 -16 897 13T808 106L798 142L780 104Q737
43 678 12T530 -20Q497 -20 456 -8T382 28L354 62L356 14V-422H112Z" />
<glyph unicode="&#xb6;" horiz-adv-x="1218" d="M650 -60V608Q649 608 648 609T646 610Q526 620 427 675T268 824T208 1040Q208 1156 265 1256T434 1418T706 1480Q816 1480 903 1472T1102 1440V-60H956V1316Q911 1324 872 1327T796 1332V-60H650Z" />
<glyph unicode="&#xb7;" horiz-adv-x="612" d="M304 444Q234 444 186 491T138 608Q138 677 186 726T304 776Q373 776 420 727T468 608Q468 539 421 492T304 444Z" />
<glyph unicode="&#xb8;" horiz-adv-x="1000" d="M468 -426Q434 -426 394 -417T306 -386L342 -276Q380 -289 409 -294T468 -300Q503 -300 525 -287T548 -252Q548 -222 510 -206T400 -182L446 -6L582 6L560 -86Q620 -99 671 -139T722 -246Q722 -306 684 -346T588
-406T468 -426Z" />
<glyph unicode="&#xb9;" horiz-adv-x="638" d="M334 618V1228L222 1174L152 1302L436 1454H532V618H334Z" />
<glyph unicode="&#xba;" horiz-adv-x="860" d="M428 588Q265 588 168 686T70 966Q70 1070 111 1155T232 1291T428 1342Q546 1342 625 1294T745 1160T786 966Q786 866 748 780T630 641T428 588ZM428 728Q486 728 524 759T582 843T602 966Q602 1036 583 1089T524
1173T428 1204Q374 1204 336 1174T277 1089T256 966Q256 870 296 799T428 728Z" />
<glyph unicode="&#xbb;" horiz-adv-x="1226" d="M194 90L84 196L336 516L84 836L194 944L660 516L194 90ZM740 90L630 196L882 516L630 836L740 944L1206 516L740 90Z" />
<glyph unicode="&#xbc;" horiz-adv-x="1396" d="M132 0L1004 1454H1220L348 0H132ZM214 618V1228L102 1174L32 1302L316 1454H412V618H214ZM1067 0V608L859 302H899Q947 302 974 256T1017 164H675V286L1049 846H1235V302H1331V164H1235V0H1067Z" />
<glyph unicode="&#xbd;" horiz-adv-x="1526" d="M132 0L1004 1454H1220L348 0H132ZM214 618V1228L102 1174L32 1302L316 1454H412V618H214ZM844 0V90Q897 182 958 256T1075 393T1166 511T1202 622Q1202 666 1169 690T1076 714Q1042 714 1008 706T942 684L886 802Q940
831 1000 841T1108 852Q1186 852 1247 827T1344 754T1380 636Q1380 564 1349 504T1271 389T1173 281T1082 168L1062 144L1096 148H1374V0H844Z" />
<glyph unicode="&#xbe;" horiz-adv-x="1432" d="M204 0L1076 1454H1292L420 0H204ZM256 602Q195 602 138 621T50 658L94 780Q130 765 172 754T254 742Q322 742 362 778T402 866Q402 929 354 963T204 998L190 1110L254 1136Q308 1159 341 1187T374 1262Q374 1286
349 1308T280 1330Q246 1330 210 1323T132 1302L82 1420Q139 1449 191 1459T292 1470Q402 1470 478 1424T554 1276Q554 1213 512 1163T400 1080Q469 1064 525 1007T582 860Q582 780 539 722T422 633T256 602ZM1140 0V608L932 302H972Q1020 302 1047 256T1090 164H748V286L1122
846H1308V302H1404V164H1308V0H1140Z" />
<glyph unicode="&#xbf;" horiz-adv-x="1166" d="M630 -442Q497 -442 394 -404T233 -293T174 -116Q174 -31 213 39T309 172T424 297T521 426T560 572H796Q796 463 762 383T678 240T578 127T494 24T460 -86Q460 -153 512 -193T650 -234Q707 -234 764 -223T918 -172L990
-360Q879 -409 796 -425T630 -442ZM678 728Q609 728 562 777T514 896Q514 965 561 1012T678 1060Q749 1060 796 1013T844 896Q844 827 797 778T678 728Z" />
<glyph unicode="&#xc0;" horiz-adv-x="1444" d="M60 0L582 1454H862L1384 0H1088L728 1082L712 1156L694 1078L524 560L500 520L530 524H682Q740 524 779 491T843 410T882 318H448L342 0H60ZM866 1530Q832 1521 776 1524T664 1548T574 1616L452 1780H718L866 1530Z" />
<glyph unicode="&#xc1;" horiz-adv-x="1444" d="M60 0L582 1454H862L1384 0H1088L728 1082L712 1156L694 1078L524 560L500 520L530 524H682Q740 524 779 491T843 410T882 318H448L342 0H60ZM594 1530L766 1780H1032L888 1616Q848 1571 792 1550T682 1525T594 1530Z" />
<glyph unicode="&#xc2;" horiz-adv-x="1444" d="M60 0L582 1454H862L1384 0H1088L728 1082L712 1156L694 1078L524 560L500 520L530 524H682Q740 524 779 491T843 410T882 318H448L342 0H60ZM566 1512L406 1548L616 1780H822L1036 1548L874 1512L718 1624L566 1512Z" />
<glyph unicode="&#xc3;" horiz-adv-x="1444" d="M60 0L582 1454H862L1384 0H1088L728 1082L712 1156L694 1078L524 560L500 520L530 524H682Q740 524 779 491T843 410T882 318H448L342 0H60ZM552 1554L402 1566Q405 1679 466 1740T600 1802Q651 1802 688 1781T756
1736Q779 1720 798 1708T836 1696Q862 1696 878 1721T898 1786L1044 1774Q1040 1690 1009 1638T936 1562T856 1538Q796 1538 760 1561T696 1606Q675 1623 659 1633T622 1644Q601 1644 579 1625T552 1554Z" />
<glyph unicode="&#xc4;" horiz-adv-x="1444" d="M60 0L582 1454H862L1384 0H1088L728 1082L712 1156L694 1078L524 560L500 520L530 524H682Q740 524 779 491T843 410T882 318H448L342 0H60ZM526 1554Q475 1554 438 1591T400 1680Q400 1733 437 1769T526 1806Q579
1806 616 1770T654 1680Q654 1628 617 1591T526 1554ZM916 1554Q865 1554 828 1591T790 1680Q790 1733 827 1769T916 1806Q969 1806 1006 1770T1044 1680Q1044 1628 1007 1591T916 1554Z" />
<glyph unicode="&#xc5;" horiz-adv-x="1444" d="M60 0L582 1454H862L1384 0H1088L728 1082L712 1156L694 1078L524 560L500 520L530 524H682Q740 524 779 491T843 410T882 318H448L342 0H60ZM722 1408Q628 1408 565 1461T502 1594Q502 1678 566 1734T724 1790Q820
1790 880 1737T940 1596Q940 1514 876 1461T722 1408ZM722 1520Q758 1520 777 1542T796 1598Q796 1633 777 1655T722 1678Q689 1678 671 1655T652 1596Q652 1568 670 1544T722 1520Z" />
<glyph unicode="&#xc6;" horiz-adv-x="1950" d="M0 0L744 1454H1688V1248H1092L1248 206H1830V0H1012L846 1104L840 1178L812 1108L548 560L518 520L558 524H692Q750 524 789 491T853 410T892 318H436L282 0H0ZM1252 662Q1267 711 1294 757T1366 834T1480 864H1708V662H1252Z"
/>
<glyph unicode="&#xc7;" horiz-adv-x="1204" d="M870 -24Q623 -24 450 76T187 346T96 728Q96 884 149 1020T302 1260T546 1421T870 1480Q954 1480 1041 1464T1222 1412L1150 1228Q1062 1254 1001 1264T870 1274Q751 1274 663 1228T516 1105T429 930T400 728Q400
625 429 527T516 352T662 228T870 182Q939 182 1007 199T1148 250L1222 68Q1134 22 1044 -1T870 -24ZM704 -426Q670 -426 630 -417T542 -386L578 -276Q616 -289 645 -294T704 -300Q739 -300 761 -287T784 -252Q784 -222 746 -206T636 -182L682 -6L818 6L796 -86Q856
-99 907 -139T958 -246Q958 -306 920 -346T824 -406T704 -426Z" />
<glyph unicode="&#xc8;" horiz-adv-x="1176" d="M166 0V1454H1038V1248H452V206H1070V0H166ZM528 662Q541 706 565 753T630 832T728 864H970V662H528ZM754 1530Q720 1521 664 1524T552 1548T462 1616L340 1780H606L754 1530Z" />
<glyph unicode="&#xc9;" horiz-adv-x="1176" d="M166 0V1454H1038V1248H452V206H1070V0H166ZM528 662Q541 706 565 753T630 832T728 864H970V662H528ZM482 1530L654 1780H920L776 1616Q736 1571 680 1550T570 1525T482 1530Z" />
<glyph unicode="&#xca;" horiz-adv-x="1176" d="M166 0V1454H1038V1248H452V206H1070V0H166ZM528 662Q541 706 565 753T630 832T728 864H970V662H528ZM454 1512L294 1548L504 1780H710L924 1548L762 1512L606 1624L454 1512Z" />
<glyph unicode="&#xcb;" horiz-adv-x="1176" d="M166 0V1454H1038V1248H452V206H1070V0H166ZM528 662Q541 706 565 753T630 832T728 864H970V662H528ZM414 1554Q363 1554 326 1591T288 1680Q288 1733 325 1769T414 1806Q467 1806 504 1770T542 1680Q542 1628 505
1591T414 1554ZM804 1554Q753 1554 716 1591T678 1680Q678 1733 715 1769T804 1806Q857 1806 894 1770T932 1680Q932 1628 895 1591T804 1554Z" />
<glyph unicode="&#xcc;" horiz-adv-x="612" d="M166 0V1454H444V0H166ZM706 1530Q672 1521 616 1524T504 1548T414 1616L292 1780H558L706 1530Z" />
<glyph unicode="&#xcd;" horiz-adv-x="612" d="M166 0V1454H444V0H166ZM178 1530L350 1780H616L472 1616Q432 1571 376 1550T266 1525T178 1530Z" />
<glyph unicode="&#xce;" horiz-adv-x="612" d="M166 0V1454H444V0H166ZM406 1512L246 1548L456 1780H662L876 1548L714 1512L558 1624L406 1512Z" />
<glyph unicode="&#xcf;" horiz-adv-x="612" d="M166 0V1454H444V0H166ZM110 1554Q59 1554 22 1591T-16 1680Q-16 1733 21 1769T110 1806Q163 1806 200 1770T238 1680Q238 1628 201 1591T110 1554ZM500 1554Q449 1554 412 1591T374 1680Q374 1733 411 1769T500
1806Q553 1806 590 1770T628 1680Q628 1628 591 1591T500 1554Z" />
<glyph unicode="&#xd0;" horiz-adv-x="1494" d="M756 -24Q719 -24 689 -22T620 -12T524 10Q540 45 566 85T632 153T726 182Q728 182 730 182T734 182Q847 184 928 232T1061 358T1139 533T1164 730Q1164 887 1109 1010T933 1203T620 1274Q581 1274 538 1270T448
1258V0H166V1428Q300 1457 416 1468T620 1480Q886 1480 1075 1392T1365 1135T1466 730Q1466 572 1413 435T1264 195T1039 34T756 -24ZM1110 802V620H264V802H1110Z" />
<glyph unicode="&#xd1;" horiz-adv-x="1556" d="M188 0V1454H464L1078 476L1106 396L1102 476V1454H1354V0H1102L460 1018L428 1090L432 1022V0H188ZM614 1554L464 1566Q467 1679 528 1740T662 1802Q713 1802 750 1781T818 1736Q841 1720 860 1708T898 1696Q924
1696 940 1721T960 1786L1106 1774Q1102 1690 1071 1638T998 1562T918 1538Q858 1538 822 1561T758 1606Q737 1623 721 1633T684 1644Q663 1644 641 1625T614 1554Z" />
<glyph unicode="&#xd2;" horiz-adv-x="1578" d="M810 -28Q579 -28 418 71T171 342T86 728Q86 885 134 1022T276 1263T503 1425T810 1484Q1006 1484 1143 1417T1367 1239T1492 995T1532 728Q1532 581 1485 446T1345 203T1119 34T810 -28ZM810 178Q920 178 1016
242T1171 430T1230 728Q1230 885 1180 1009T1036 1206T810 1278Q672 1278 579 1202T438 1001T390 728Q390 625 417 527T496 350T628 225T810 178ZM954 1530Q920 1521 864 1524T752 1548T662 1616L540 1780H806L954 1530Z" />
<glyph unicode="&#xd3;" horiz-adv-x="1578" d="M810 -28Q579 -28 418 71T171 342T86 728Q86 885 134 1022T276 1263T503 1425T810 1484Q1006 1484 1143 1417T1367 1239T1492 995T1532 728Q1532 581 1485 446T1345 203T1119 34T810 -28ZM810 178Q920 178 1016
242T1171 430T1230 728Q1230 885 1180 1009T1036 1206T810 1278Q672 1278 579 1202T438 1001T390 728Q390 625 417 527T496 350T628 225T810 178ZM682 1530L854 1780H1120L976 1616Q936 1571 880 1550T770 1525T682 1530Z" />
<glyph unicode="&#xd4;" horiz-adv-x="1578" d="M810 -28Q579 -28 418 71T171 342T86 728Q86 885 134 1022T276 1263T503 1425T810 1484Q1006 1484 1143 1417T1367 1239T1492 995T1532 728Q1532 581 1485 446T1345 203T1119 34T810 -28ZM810 178Q920 178 1016
242T1171 430T1230 728Q1230 885 1180 1009T1036 1206T810 1278Q672 1278 579 1202T438 1001T390 728Q390 625 417 527T496 350T628 225T810 178ZM654 1512L494 1548L704 1780H910L1124 1548L962 1512L806 1624L654 1512Z" />
<glyph unicode="&#xd5;" horiz-adv-x="1578" d="M810 -28Q579 -28 418 71T171 342T86 728Q86 885 134 1022T276 1263T503 1425T810 1484Q1006 1484 1143 1417T1367 1239T1492 995T1532 728Q1532 581 1485 446T1345 203T1119 34T810 -28ZM810 178Q920 178 1016
242T1171 430T1230 728Q1230 885 1180 1009T1036 1206T810 1278Q672 1278 579 1202T438 1001T390 728Q390 625 417 527T496 350T628 225T810 178ZM640 1554L490 1566Q493 1679 554 1740T688 1802Q739 1802 776 1781T844 1736Q867 1720 886 1708T924 1696Q950 1696
966 1721T986 1786L1132 1774Q1128 1690 1097 1638T1024 1562T944 1538Q884 1538 848 1561T784 1606Q763 1623 747 1633T710 1644Q689 1644 667 1625T640 1554Z" />
<glyph unicode="&#xd6;" horiz-adv-x="1578" d="M810 -28Q579 -28 418 71T171 342T86 728Q86 885 134 1022T276 1263T503 1425T810 1484Q1006 1484 1143 1417T1367 1239T1492 995T1532 728Q1532 581 1485 446T1345 203T1119 34T810 -28ZM810 178Q920 178 1016
242T1171 430T1230 728Q1230 885 1180 1009T1036 1206T810 1278Q672 1278 579 1202T438 1001T390 728Q390 625 417 527T496 350T628 225T810 178ZM614 1554Q563 1554 526 1591T488 1680Q488 1733 525 1769T614 1806Q667 1806 704 1770T742 1680Q742 1628 705 1591T614
1554ZM1004 1554Q953 1554 916 1591T878 1680Q878 1733 915 1769T1004 1806Q1057 1806 1094 1770T1132 1680Q1132 1628 1095 1591T1004 1554Z" />
<glyph unicode="&#xd7;" horiz-adv-x="1136" d="M228 128L78 278L410 612L78 942L230 1092L562 762L890 1092L1040 942L712 612L1044 278L894 128L562 460L228 128Z" />
<glyph unicode="&#xd8;" horiz-adv-x="1578" d="M810 -28Q579 -28 418 71T171 342T86 728Q86 885 134 1022T276 1263T503 1425T810 1484Q1006 1484 1143 1417T1367 1239T1492 995T1532 728Q1532 581 1485 446T1345 203T1119 34T810 -28ZM810 178Q920 178 1016
242T1171 430T1230 728Q1230 885 1180 1009T1036 1206T810 1278Q672 1278 579 1202T438 1001T390 728Q390 625 417 527T496 350T628 225T810 178ZM660 542Q630 582 604 629T572 729T594 842L1184 1832H1422L660 542ZM198 134L358 406L534 304L436 134H198Z" />
<glyph unicode="&#xd9;" horiz-adv-x="1454" d="M748 -28Q569 -28 439 39T237 237T166 556V1454H448V526Q448 363 533 271T748 178Q876 178 962 270T1048 526V1454H1328V556Q1328 379 1258 248T1057 44T748 -28ZM892 1530Q858 1521 802 1524T690 1548T600 1616L478
1780H744L892 1530Z" />
<glyph unicode="&#xda;" horiz-adv-x="1454" d="M748 -28Q569 -28 439 39T237 237T166 556V1454H448V526Q448 363 533 271T748 178Q876 178 962 270T1048 526V1454H1328V556Q1328 379 1258 248T1057 44T748 -28ZM620 1530L792 1780H1058L914 1616Q874 1571 818
1550T708 1525T620 1530Z" />
<glyph unicode="&#xdb;" horiz-adv-x="1454" d="M748 -28Q569 -28 439 39T237 237T166 556V1454H448V526Q448 363 533 271T748 178Q876 178 962 270T1048 526V1454H1328V556Q1328 379 1258 248T1057 44T748 -28ZM592 1512L432 1548L642 1780H848L1062 1548L900
1512L744 1624L592 1512Z" />
<glyph unicode="&#xdc;" horiz-adv-x="1454" d="M748 -28Q569 -28 439 39T237 237T166 556V1454H448V526Q448 363 533 271T748 178Q876 178 962 270T1048 526V1454H1328V556Q1328 379 1258 248T1057 44T748 -28ZM552 1554Q501 1554 464 1591T426 1680Q426 1733
463 1769T552 1806Q605 1806 642 1770T680 1680Q680 1628 643 1591T552 1554ZM942 1554Q891 1554 854 1591T816 1680Q816 1733 853 1769T942 1806Q995 1806 1032 1770T1070 1680Q1070 1628 1033 1591T942 1554Z" />
<glyph unicode="&#xdd;" horiz-adv-x="1398" d="M552 0V644L50 1454H362L828 678V0H552ZM888 754Q862 788 832 848T792 979T816 1114L1004 1454H1312L888 754ZM556 1530L728 1780H994L850 1616Q810 1571 754 1550T644 1525T556 1530Z" />
<glyph unicode="&#xde;" horiz-adv-x="1218" d="M142 0V1454H414V1188Q498 1194 582 1194Q744 1194 873 1139T1078 980T1154 728Q1154 590 1088 492T915 337T690 270Q645 266 595 269T488 288Q503 326 526 366T582 436T660 470Q715 475 760 510T833 601T860 728Q860
802 825 861T728 954T582 988Q528 988 498 985T414 976V0H142Z" />
<glyph unicode="&#xdf;" horiz-adv-x="1134" d="M788 -24Q728 -24 661 -11T498 50L568 230Q631 203 678 194T756 184Q810 184 846 213T882 288Q882 339 847 377T760 451T656 533T569 643T534 802Q534 889 597 970T764 1092Q770 1115 771 1134T772 1176Q772 1219
751 1253T692 1306T602 1326Q544 1326 499 1301T428 1227T402 1110V0L136 -2V1088Q136 1237 198 1334T363 1478T588 1526Q712 1526 802 1483T941 1360T990 1176Q990 1074 914 952Q847 925 813 889T778 802Q778 750 813 712T900 639T1004 558T1091 447T1126 282Q1126
184 1077 116T951 12T788 -24Z" />
<glyph unicode="&#xe0;" horiz-adv-x="1084" d="M390 -26Q294 -26 225 16T118 128T80 276Q80 359 129 433T297 558T628 626Q621 579 605 540T562 474T492 440Q442 432 410 412T363 364T348 302Q348 250 385 215T474 180Q531 180 589 219T700 320V622Q700 726 643
788T480 850Q431 850 374 840T246 804L178 980Q267 1021 361 1038T526 1056Q739 1056 854 944T970 622V252Q970 197 977 134T1002 0H796Q769 15 752 42T722 100L716 140L692 106Q602 24 535 -1T390 -26ZM688 1204Q654 1195 600 1197T491 1221T396 1290L238 1480H516L688
1204Z" />
<glyph unicode="&#xe1;" horiz-adv-x="1084" d="M390 -26Q294 -26 225 16T118 128T80 276Q80 359 129 433T297 558T628 626Q621 579 605 540T562 474T492 440Q442 432 410 412T363 364T348 302Q348 250 385 215T474 180Q531 180 589 219T700 320V622Q700 726 643
788T480 850Q431 850 374 840T246 804L178 980Q267 1021 361 1038T526 1056Q739 1056 854 944T970 622V252Q970 197 977 134T1002 0H796Q769 15 752 42T722 100L716 140L692 106Q602 24 535 -1T390 -26ZM436 1204L608 1480H886L728 1290Q689 1242 634 1221T524
1198T436 1204Z" />
<glyph unicode="&#xe2;" horiz-adv-x="1084" d="M390 -26Q294 -26 225 16T118 128T80 276Q80 359 129 433T297 558T628 626Q621 579 605 540T562 474T492 440Q442 432 410 412T363 364T348 302Q348 250 385 215T474 180Q531 180 589 219T700 320V622Q700 726 643
788T480 850Q431 850 374 840T246 804L178 980Q267 1021 361 1038T526 1056Q739 1056 854 944T970 622V252Q970 197 977 134T1002 0H796Q769 15 752 42T722 100L716 140L692 106Q602 24 535 -1T390 -26ZM406 1170L246 1206L456 1486H662L876 1206L714 1170L558
1316L406 1170Z" />
<glyph unicode="&#xe3;" horiz-adv-x="1084" d="M390 -26Q294 -26 225 16T118 128T80 276Q80 359 129 433T297 558T628 626Q621 579 605 540T562 474T492 440Q442 432 410 412T363 364T348 302Q348 250 385 215T474 180Q531 180 589 219T700 320V622Q700 726 643
788T480 850Q431 850 374 840T246 804L178 980Q267 1021 361 1038T526 1056Q739 1056 854 944T970 622V252Q970 197 977 134T1002 0H796Q769 15 752 42T722 100L716 140L692 106Q602 24 535 -1T390 -26ZM388 1236L238 1248Q241 1361 302 1422T436 1484Q487 1484
524 1463T592 1418Q615 1402 634 1390T672 1378Q698 1378 714 1403T734 1468L880 1456Q876 1372 845 1320T772 1244T692 1220Q632 1220 596 1243T532 1288Q511 1305 495 1315T458 1326Q437 1326 415 1307T388 1236Z" />
<glyph unicode="&#xe4;" horiz-adv-x="1084" d="M390 -26Q294 -26 225 16T118 128T80 276Q80 359 129 433T297 558T628 626Q621 579 605 540T562 474T492 440Q442 432 410 412T363 364T348 302Q348 250 385 215T474 180Q531 180 589 219T700 320V622Q700 726 643
788T480 850Q431 850 374 840T246 804L178 980Q267 1021 361 1038T526 1056Q739 1056 854 944T970 622V252Q970 197 977 134T1002 0H796Q769 15 752 42T722 100L716 140L692 106Q602 24 535 -1T390 -26ZM366 1214Q315 1214 278 1251T240 1340Q240 1393 277 1429T366
1466Q419 1466 456 1430T494 1340Q494 1288 457 1251T366 1214ZM756 1214Q705 1214 668 1251T630 1340Q630 1393 667 1429T756 1466Q809 1466 846 1430T884 1340Q884 1288 847 1251T756 1214Z" />
<glyph unicode="&#xe5;" horiz-adv-x="1084" d="M390 -26Q294 -26 225 16T118 128T80 276Q80 359 129 433T297 558T628 626Q621 579 605 540T562 474T492 440Q442 432 410 412T363 364T348 302Q348 250 385 215T474 180Q531 180 589 219T700 320V622Q700 726 643
788T480 850Q431 850 374 840T246 804L178 980Q267 1021 361 1038T526 1056Q739 1056 854 944T970 622V252Q970 197 977 134T1002 0H796Q769 15 752 42T722 100L716 140L692 106Q602 24 535 -1T390 -26ZM562 1120Q468 1120 405 1173T342 1306Q342 1390 406 1446T564
1502Q660 1502 720 1449T780 1308Q780 1226 716 1173T562 1120ZM562 1232Q598 1232 617 1254T636 1310Q636 1345 617 1367T562 1390Q529 1390 511 1367T492 1308Q492 1280 510 1256T562 1232Z" />
<glyph unicode="&#xe6;" horiz-adv-x="1700" d="M414 -26Q254 -26 154 54T54 276Q54 359 103 433T271 558T602 626Q595 579 579 540T536 474T466 440Q416 432 384 412T337 364T322 302Q322 250 359 215T448 180Q553 180 613 278T674 530V622Q674 726 617 788T454
850Q405 850 348 840T220 804L152 980Q241 1021 335 1038T500 1056Q595 1056 686 1002T834 840Q891 941 993 1000T1198 1060Q1309 1060 1399 1017T1547 894T1617 707T1586 470H1026Q1047 539 1089 586T1182 634H1360Q1368 695 1349 748T1288 833T1184 866Q1129
866 1075 833T986 729T950 544Q950 429 985 348T1084 223T1232 180Q1301 180 1369 197T1524 254L1594 68Q1486 17 1391 -4T1202 -26Q1108 -26 1028 14T892 116T814 242Q772 147 704 88T558 2T414 -26Z" />
<glyph unicode="&#xe7;" horiz-adv-x="860" d="M592 -26Q453 -26 331 30T132 206T56 518Q56 699 132 819T330 1000T592 1060Q646 1060 710 1050T834 1016L766 830Q718 842 672 848T592 854Q520 854 466 814T382 698T352 518Q352 413 382 338T466 221T592 180Q634
180 682 191T794 228L862 44Q784 8 715 -9T592 -26ZM472 -426Q438 -426 398 -417T310 -386L346 -276Q384 -289 413 -294T472 -300Q507 -300 529 -287T552 -252Q552 -222 514 -206T404 -182L450 -6L586 6L564 -86Q624 -99 675 -139T726 -246Q726 -306 688 -346T592
-406T472 -426Z" />
<glyph unicode="&#xe8;" horiz-adv-x="1128" d="M618 -26Q481 -26 381 22T217 152T121 333T90 534Q90 699 160 817T350 997T614 1060Q725 1060 815 1017T963 894T1033 707T1002 470H442Q463 539 505 586T598 634H776Q784 695 765 748T704 833T600 866Q545 866
491 833T402 729T366 544Q366 429 401 348T500 223T648 180Q717 180 785 197T940 254L1010 68Q902 17 807 -4T618 -26ZM718 1204Q684 1195 630 1197T521 1221T426 1290L268 1480H546L718 1204Z" />
<glyph unicode="&#xe9;" horiz-adv-x="1128" d="M618 -26Q481 -26 381 22T217 152T121 333T90 534Q90 699 160 817T350 997T614 1060Q725 1060 815 1017T963 894T1033 707T1002 470H442Q463 539 505 586T598 634H776Q784 695 765 748T704 833T600 866Q545 866
491 833T402 729T366 544Q366 429 401 348T500 223T648 180Q717 180 785 197T940 254L1010 68Q902 17 807 -4T618 -26ZM466 1204L638 1480H916L758 1290Q719 1242 664 1221T554 1198T466 1204Z" />
<glyph unicode="&#xea;" horiz-adv-x="1128" d="M618 -26Q481 -26 381 22T217 152T121 333T90 534Q90 699 160 817T350 997T614 1060Q725 1060 815 1017T963 894T1033 707T1002 470H442Q463 539 505 586T598 634H776Q784 695 765 748T704 833T600 866Q545 866
491 833T402 729T366 544Q366 429 401 348T500 223T648 180Q717 180 785 197T940 254L1010 68Q902 17 807 -4T618 -26ZM436 1170L276 1206L486 1486H692L906 1206L744 1170L588 1316L436 1170Z" />
<glyph unicode="&#xeb;" horiz-adv-x="1128" d="M618 -26Q481 -26 381 22T217 152T121 333T90 534Q90 699 160 817T350 997T614 1060Q725 1060 815 1017T963 894T1033 707T1002 470H442Q463 539 505 586T598 634H776Q784 695 765 748T704 833T600 866Q545 866
491 833T402 729T366 544Q366 429 401 348T500 223T648 180Q717 180 785 197T940 254L1010 68Q902 17 807 -4T618 -26ZM396 1214Q345 1214 308 1251T270 1340Q270 1393 307 1429T396 1466Q449 1466 486 1430T524 1340Q524 1288 487 1251T396 1214ZM786 1214Q735
1214 698 1251T660 1340Q660 1393 697 1429T786 1466Q839 1466 876 1430T914 1340Q914 1288 877 1251T786 1214Z" />
<glyph unicode="&#xec;" horiz-adv-x="560" d="M140 0V1034H420V0H140ZM662 1204Q628 1195 574 1197T465 1221T370 1290L212 1480H490L662 1204Z" />
<glyph unicode="&#xed;" horiz-adv-x="560" d="M140 0V1034H420V0H140ZM154 1204L326 1480H604L446 1290Q407 1242 352 1221T242 1198T154 1204Z" />
<glyph unicode="&#xee;" horiz-adv-x="560" d="M140 0V1034H420V0H140ZM380 1170L220 1206L430 1486H636L850 1206L688 1170L532 1316L380 1170Z" />
<glyph unicode="&#xef;" horiz-adv-x="560" d="M140 0V1034H420V0H140ZM340 1214Q289 1214 252 1251T214 1340Q214 1393 251 1429T340 1466Q393 1466 430 1430T468 1340Q468 1288 431 1251T340 1214ZM730 1214Q679 1214 642 1251T604 1340Q604 1393 641 1429T730
1466Q783 1466 820 1430T858 1340Q858 1288 821 1251T730 1214Z" />
<glyph unicode="&#xf0;" horiz-adv-x="1114" d="M564 -26Q414 -26 293 40T100 229T28 518Q28 671 99 794T292 988T564 1060Q599 1060 638 1053T712 1030Q675 1077 630 1120T534 1200L304 1092L250 1208L408 1284Q366 1308 324 1330T240 1372L326 1524Q398 1494
468 1458T602 1376L822 1482L880 1364L720 1288Q804 1217 873 1133T994 951T1072 746T1100 518Q1100 364 1028 241T835 46T564 -26ZM564 178Q642 178 695 224T775 347T802 518Q802 611 775 688T695 810T564 856Q486 856 433 811T352 688T324 518Q324 424 351 347T432
224T564 178Z" />
<glyph unicode="&#xf1;" horiz-adv-x="1156" d="M752 0V734Q752 784 732 816T660 848Q641 848 623 843T576 836Q528 833 496 876T434 968Q533 1021 608 1040T752 1060Q821 1060 885 1025T989 919T1030 738V0H752ZM106 0V782Q106 838 99 901T74 1034H306Q354 980
370 927T386 814V0H106ZM394 1236L244 1248Q247 1361 308 1422T442 1484Q493 1484 530 1463T598 1418Q621 1402 640 1390T678 1378Q704 1378 720 1403T740 1468L886 1456Q882 1372 851 1320T778 1244T698 1220Q638 1220 602 1243T538 1288Q517 1305 501 1315T464
1326Q443 1326 421 1307T394 1236Z" />
<glyph unicode="&#xf2;" horiz-adv-x="1220" d="M604 -26Q463 -26 341 37T144 222T68 518Q68 659 118 761T250 930T424 1028T604 1060Q763 1060 883 991T1072 800T1140 518Q1140 391 1094 290T971 119T799 11T604 -26ZM604 178Q682 178 735 224T815 347T842 518Q842
611 815 688T735 810T604 856Q526 856 473 811T392 688T364 518Q364 368 429 273T604 178ZM730 1204Q696 1195 642 1197T533 1221T438 1290L280 1480H558L730 1204Z" />
<glyph unicode="&#xf3;" horiz-adv-x="1220" d="M604 -26Q463 -26 341 37T144 222T68 518Q68 659 118 761T250 930T424 1028T604 1060Q763 1060 883 991T1072 800T1140 518Q1140 391 1094 290T971 119T799 11T604 -26ZM604 178Q682 178 735 224T815 347T842 518Q842
611 815 688T735 810T604 856Q526 856 473 811T392 688T364 518Q364 368 429 273T604 178ZM478 1204L650 1480H928L770 1290Q731 1242 676 1221T566 1198T478 1204Z" />
<glyph unicode="&#xf4;" horiz-adv-x="1220" d="M604 -26Q463 -26 341 37T144 222T68 518Q68 659 118 761T250 930T424 1028T604 1060Q763 1060 883 991T1072 800T1140 518Q1140 391 1094 290T971 119T799 11T604 -26ZM604 178Q682 178 735 224T815 347T842 518Q842
611 815 688T735 810T604 856Q526 856 473 811T392 688T364 518Q364 368 429 273T604 178ZM448 1170L288 1206L498 1486H704L918 1206L756 1170L600 1316L448 1170Z" />
<glyph unicode="&#xf5;" horiz-adv-x="1220" d="M604 -26Q463 -26 341 37T144 222T68 518Q68 659 118 761T250 930T424 1028T604 1060Q763 1060 883 991T1072 800T1140 518Q1140 391 1094 290T971 119T799 11T604 -26ZM604 178Q682 178 735 224T815 347T842 518Q842
611 815 688T735 810T604 856Q526 856 473 811T392 688T364 518Q364 368 429 273T604 178ZM430 1236L280 1248Q283 1361 344 1422T478 1484Q529 1484 566 1463T634 1418Q657 1402 676 1390T714 1378Q740 1378 756 1403T776 1468L922 1456Q918 1372 887 1320T814
1244T734 1220Q674 1220 638 1243T574 1288Q553 1305 537 1315T500 1326Q479 1326 457 1307T430 1236Z" />
<glyph unicode="&#xf6;" horiz-adv-x="1220" d="M604 -26Q463 -26 341 37T144 222T68 518Q68 659 118 761T250 930T424 1028T604 1060Q763 1060 883 991T1072 800T1140 518Q1140 391 1094 290T971 119T799 11T604 -26ZM604 178Q682 178 735 224T815 347T842 518Q842
611 815 688T735 810T604 856Q526 856 473 811T392 688T364 518Q364 368 429 273T604 178ZM408 1214Q357 1214 320 1251T282 1340Q282 1393 319 1429T408 1466Q461 1466 498 1430T536 1340Q536 1288 499 1251T408 1214ZM798 1214Q747 1214 710 1251T672 1340Q672
1393 709 1429T798 1466Q851 1466 888 1430T926 1340Q926 1288 889 1251T798 1214Z" />
<glyph unicode="&#xf7;" horiz-adv-x="1136" d="M94 514V706H1030V514H94ZM560 102Q506 102 472 136T438 224Q438 280 472 315T560 350Q616 350 651 315T686 224Q686 170 651 136T560 102ZM560 868Q508 868 474 902T440 988Q440 1042 474 1077T560 1112Q614 1112
649 1077T684 988Q684 936 649 902T560 868Z" />
<glyph unicode="&#xf8;" horiz-adv-x="1220" d="M604 -26Q463 -26 341 37T144 222T68 518Q68 659 118 761T250 930T424 1028T604 1060Q763 1060 883 991T1072 800T1140 518Q1140 391 1094 290T971 119T799 11T604 -26ZM604 178Q682 178 735 224T815 347T842 518Q842
611 815 688T735 810T604 856Q526 856 473 811T392 688T364 518Q364 368 429 273T604 178ZM550 266Q527 292 506 328T479 409T496 500L890 1156H1078L550 266ZM130 -122L274 124L420 44L324 -122H130Z" />
<glyph unicode="&#xf9;" horiz-adv-x="1226" d="M410 -26Q341 -26 277 9T173 115T132 296V1034H410V300Q410 251 430 219T502 186Q522 186 540 191T586 198Q633 201 666 158T728 66Q629 14 554 -6T410 -26ZM854 0Q808 54 792 107T776 220V1034H1056V252Q1056 197
1064 134T1088 0H854ZM730 1204Q696 1195 642 1197T533 1221T438 1290L280 1480H558L730 1204Z" />
<glyph unicode="&#xfa;" horiz-adv-x="1226" d="M410 -26Q341 -26 277 9T173 115T132 296V1034H410V300Q410 251 430 219T502 186Q522 186 540 191T586 198Q633 201 666 158T728 66Q629 14 554 -6T410 -26ZM854 0Q808 54 792 107T776 220V1034H1056V252Q1056 197
1064 134T1088 0H854ZM478 1204L650 1480H928L770 1290Q731 1242 676 1221T566 1198T478 1204Z" />
<glyph unicode="&#xfb;" horiz-adv-x="1226" d="M410 -26Q341 -26 277 9T173 115T132 296V1034H410V300Q410 251 430 219T502 186Q522 186 540 191T586 198Q633 201 666 158T728 66Q629 14 554 -6T410 -26ZM854 0Q808 54 792 107T776 220V1034H1056V252Q1056 197
1064 134T1088 0H854ZM448 1170L288 1206L498 1486H704L918 1206L756 1170L600 1316L448 1170Z" />
<glyph unicode="&#xfc;" horiz-adv-x="1226" d="M410 -26Q341 -26 277 9T173 115T132 296V1034H410V300Q410 251 430 219T502 186Q522 186 540 191T586 198Q633 201 666 158T728 66Q629 14 554 -6T410 -26ZM854 0Q808 54 792 107T776 220V1034H1056V252Q1056 197
1064 134T1088 0H854ZM408 1214Q357 1214 320 1251T282 1340Q282 1393 319 1429T408 1466Q461 1466 498 1430T536 1340Q536 1288 499 1251T408 1214ZM798 1214Q747 1214 710 1251T672 1340Q672 1393 709 1429T798 1466Q851 1466 888 1430T926 1340Q926 1288 889
1251T798 1214Z" />
<glyph unicode="&#xfd;" horiz-adv-x="1200" d="M254 -496Q214 -494 167 -487T72 -458L136 -278Q171 -287 198 -289T254 -292Q324 -292 369 -250T448 -127T522 74L818 1034H1104L738 22Q688 -107 644 -204T549 -366T427 -463T254 -496ZM402 26L30 1034H330L470
562Q497 475 492 372T462 176T402 26ZM448 1204L620 1480H898L740 1290Q701 1242 646 1221T536 1198T448 1204Z" />
<glyph unicode="&#xfe;" horiz-adv-x="1196" d="M146 -482V1516H410V196Q457 184 494 180T572 176Q689 176 756 282T824 554Q824 618 808 688T752 805T646 850Q580 847 546 895T482 1004Q539 1028 599 1040T710 1052Q805 1052 881 1009T1011 893T1093 733T1122
554Q1122 391 1055 259T865 48T572 -30Q530 -30 490 -27T410 -16V-482H146Z" />
<glyph unicode="&#xff;" horiz-adv-x="1200" d="M254 -496Q214 -494 167 -487T72 -458L136 -278Q171 -287 198 -289T254 -292Q324 -292 369 -250T448 -127T522 74L818 1034H1104L738 22Q688 -107 644 -204T549 -366T427 -463T254 -496ZM402 26L30 1034H330L470
562Q497 475 492 372T462 176T402 26ZM378 1214Q327 1214 290 1251T252 1340Q252 1393 289 1429T378 1466Q431 1466 468 1430T506 1340Q506 1288 469 1251T378 1214ZM768 1214Q717 1214 680 1251T642 1340Q642 1393 679 1429T768 1466Q821 1466 858 1430T896 1340Q896
1288 859 1251T768 1214Z" />
<glyph unicode="&#x2013;" horiz-adv-x="1080" d="M90 452V648H938V452H90Z" />
<glyph unicode="&#x2014;" horiz-adv-x="1698" d="M90 452V648H1568V452H90Z" />
<glyph unicode="&#x2018;" horiz-adv-x="410" d="M298 1454V1002H54V1158Q54 1227 67 1287T110 1389T186 1450T298 1454Z" />
<glyph unicode="&#x2019;" horiz-adv-x="382" d="M54 1002V1454H298V1298Q298 1229 285 1169T242 1067T166 1006T54 1002Z" />
<glyph unicode="&#x201a;" horiz-adv-x="394" d="M112 -256V196H356V40Q356 -29 343 -89T300 -191T224 -252T112 -256Z" />
<glyph unicode="&#x201c;" horiz-adv-x="792" d="M310 1454V1002H66V1158Q66 1227 79 1287T122 1389T198 1450T310 1454ZM718 1454V1002H474V1158Q474 1227 487 1287T530 1389T606 1450T718 1454Z" />
<glyph unicode="&#x201d;" horiz-adv-x="832" d="M66 1002V1454H310V1298Q310 1229 297 1169T254 1067T178 1006T66 1002ZM474 1002V1454H718V1298Q718 1229 705 1169T662 1067T586 1006T474 1002Z" />
<glyph unicode="&#x201e;" horiz-adv-x="788" d="M322 -256V196H566V40Q566 -29 553 -89T510 -191T434 -252T322 -256ZM474 -256V196H718V40Q718 -29 705 -89T662 -191T586 -252T474 -256Z" />
<glyph unicode="&#x2022;" horiz-adv-x="1000" d="M514 444Q433 444 381 496T328 630Q328 711 380 765T514 820Q595 820 649 766T704 630Q704 549 650 497T514 444Z" />
<glyph unicode="&#x2039;" horiz-adv-x="1226" d="M814 90L348 516L814 944L924 836L672 516L924 196L814 90Z" />
<glyph unicode="&#x203a;" horiz-adv-x="1226" d="M488 90L378 196L630 516L378 836L488 944L954 516L488 90Z" />
</font>
</defs>
</svg>
