<?xml version="1.0" standalone="no"?>
<!DOCTYPE svg PUBLIC "-//W3C//DTD SVG 1.1//EN" "http://www.w3.org/Graphics/SVG/1.1/DTD/svg11.dtd">
<svg xmlns="http://www.w3.org/2000/svg">
<defs >
<font id="ExpletusSans" horiz-adv-x="1094" ><font-face
    font-family="Expletus Sans Medium"
    units-per-em="2000"
    panose-1="0 0 0 0 0 0 0 0 0 0"
    ascent="2066"
    descent="-612"
    alphabetic="0" />
<glyph unicode=" " horiz-adv-x="514" />
<glyph unicode="!" horiz-adv-x="702" d="M203 395L305 1454H519L356 395H203ZM226 -29Q170 -29 137 8T111 101Q117 158 159 197T257 236Q315 236 348 197T375 101Q368 45 326 8T226 -29Z" />
<glyph unicode="&quot;" horiz-adv-x="767" d="M224 1046L274 1454H460L410 1046H224ZM589 1046L639 1454H825L775 1046H589Z" />
<glyph unicode="#" horiz-adv-x="1788" d="M316 0L410 300L420 325L392 324H194L211 465H460L600 913L611 943L572 941H388L405 1084H654L754 1404H926L825 1084H1268L1368 1404H1540L1439 1084H1660L1642 942H1395L1245 466H1465L1447 324H1202L1102 0H930L1023
298L1034 325L1006 324H657Q675 362 701 394T766 446T858 466H1073L1213 911L1225 943L1190 941H782L488 0H316Z" />
<glyph unicode="$" horiz-adv-x="1028" d="M417 -214L441 -22Q361 -16 270 6T88 74L164 220Q255 176 338 158T495 140Q577 140 642 170T747 251T793 359Q804 438 764 493T656 591T509 676T364 770T258 897T233 1080Q245 1172 298 1245T434 1364T619 1421L643 1620H805L781
1418Q838 1412 896 1399T1029 1361L950 1217Q866 1243 801 1252T677 1262Q579 1262 516 1209T443 1084Q434 1011 475 959T585 863T732 775T878 675T984 542T1008 355Q997 267 946 191T808 60T605 -13L579 -214H417Z" />
<glyph unicode="%" horiz-adv-x="1628" d="M305 0L1353 1404H1515L467 0H305ZM448 619Q301 619 224 725T170 1027Q194 1220 298 1327T549 1434Q695 1434 772 1327T826 1027Q803 834 698 727T448 619ZM465 749Q532 749 578 817T641 1027Q659 1166 630 1235T532
1304Q467 1304 419 1235T354 1027Q336 886 367 818T465 749ZM1271 -26Q1125 -26 1048 80T995 382Q1019 574 1122 681T1371 788Q1517 788 1595 681T1650 382Q1626 189 1522 82T1271 -26ZM1287 103Q1355 103 1402 172T1466 382Q1483 520 1453 589T1355 659Q1291 659
1243 590T1178 382Q1161 241 1191 172T1287 103Z" />
<glyph unicode="&amp;" horiz-adv-x="1522" d="M666 -22Q531 -22 442 39T314 201T288 418Q305 554 389 656T579 831Q532 914 515 983T506 1117Q519 1223 578 1303T734 1429T955 1474Q1021 1474 1098 1457T1239 1406L1170 1264Q1117 1289 1051 1301T930 1313Q840
1313 775 1263T701 1135Q690 1049 730 978T841 808L1104 450L1121 423L1138 451Q1186 527 1218 599T1275 758H1442Q1399 626 1346 510T1219 293L1437 0H1178L675 686L662 707L642 685Q590 638 553 580T507 444Q490 310 543 225T716 139Q737 139 757 143T804 154Q873
171 924 155T1016 95Q939 40 855 9T666 -22Z" />
<glyph unicode="&apos;" horiz-adv-x="382" d="M221 1046L271 1454H457L407 1046H221Z" />
<glyph unicode="(" horiz-adv-x="806" d="M670 -352Q564 -274 503 -187T417 10T395 262T421 592Q444 779 475 921T559 1172T694 1368T902 1534L982 1426Q876 1347 811 1269T708 1097T649 881T606 592Q586 426 578 303T584 86T644 -86T776 -243L670 -352Z" />
<glyph unicode=")" horiz-adv-x="802" d="M51 -352L-27 -243Q79 -165 143 -87T244 86T304 303T347 592Q367 758 375 880T369 1096T309 1268T177 1426L283 1534Q389 1456 449 1369T535 1172T557 921T531 592Q508 405 477 263T393 11T259 -186T51 -352Z" />
<glyph unicode="*" horiz-adv-x="1060" d="M461 704L324 788L552 1048L225 1007L245 1177L562 1138L394 1394L552 1479L645 1180L810 1479L946 1394Q872 1313 828 1263T760 1187T728 1150T716 1136L1043 1176L1023 1007Q882 1025 817 1033T731 1043T703 1046L870
788L711 704L623 1004L461 704Z" />
<glyph unicode="+" horiz-adv-x="1136" d="M493 124L544 537H159L177 683H562L613 1092H777L726 683H1113L1095 537H708L657 124H493Z" />
<glyph unicode="," horiz-adv-x="425" d="M84 -212L136 196H329L309 40Q303 -8 288 -58T246 -147T179 -206T84 -212Z" />
<glyph unicode="-" horiz-adv-x="750" d="M155 536L173 683H777L759 536H155Z" />
<glyph unicode="." horiz-adv-x="594" d="M285 -30Q229 -30 196 7T170 101Q176 158 218 196T317 235Q374 235 407 197T434 101Q428 45 386 8T285 -30Z" />
<glyph unicode="/" horiz-adv-x="664" d="M-8 -124L671 1454H852L172 -124H-8Z" />
<glyph unicode="0" horiz-adv-x="1349" d="M653 -34Q487 -34 373 54T210 307T186 698Q214 920 302 1085T526 1342T831 1434Q964 1434 1060 1379T1216 1225T1295 991T1296 698Q1276 527 1219 392T1076 161T882 16T653 -34ZM672 127Q829 127 934 279T1071 698Q1104
966 1038 1119T814 1273Q656 1273 551 1120T412 698Q380 431 447 279T672 127Z" />
<glyph unicode="1" horiz-adv-x="638" d="M280 0L422 1157L183 1038L125 1174L578 1402H661L489 0H280Z" />
<glyph unicode="2" horiz-adv-x="1057" d="M107 0L117 87Q197 204 293 309T484 512T660 699T794 872T857 1034Q870 1142 804 1201T634 1261Q582 1261 515 1247T363 1192L326 1340Q426 1389 512 1405T675 1422Q805 1422 902 1379T1048 1254T1083 1056Q1071 965
1019 875T891 696T728 523T560 358T420 203L386 168L430 176H997L977 0H107Z" />
<glyph unicode="3" horiz-adv-x="1056" d="M402 -22Q289 -22 201 7T54 71L123 216Q175 187 249 164T409 140Q501 140 572 181T686 284T737 411Q749 508 706 562T577 639T379 661L377 786L476 825Q548 854 612 886T720 964T773 1077Q783 1162 730 1212T588 1262Q531
1262 461 1249T302 1192L265 1341Q369 1390 461 1407T634 1424Q752 1424 838 1384T967 1271T999 1104Q987 1010 924 928T757 791L704 774L749 764Q812 740 864 690T943 569T959 407Q945 289 867 192T667 36T402 -22Z" />
<glyph unicode="4" horiz-adv-x="1190" d="M732 0L864 1077L874 1134L838 1082L363 487L334 460L369 464H522Q577 464 613 436T669 370T698 304H116L133 445L885 1402H1103L986 462H1147L1129 304H968L931 0H732Z" />
<glyph unicode="5" horiz-adv-x="1071" d="M425 -23Q374 -23 313 -12T192 20T84 75L153 219Q234 175 310 157T443 139Q550 139 620 183T726 293T771 421Q788 557 707 622T485 687Q434 687 362 678T219 651L363 1402H1056L1033 1228H501L430 871L422 834L463 841Q485
843 508 844T554 846Q719 846 820 785T965 627T994 417Q979 297 905 197T708 37T425 -23Z" />
<glyph unicode="6" horiz-adv-x="1292" d="M675 -29Q524 -29 428 28T281 184T218 404T221 653Q238 794 300 930T464 1175T701 1349T999 1414Q1049 1414 1105 1403T1217 1368L1149 1221Q1104 1240 1061 1247T979 1254Q838 1254 725 1176T538 963T444 657Q434 575
436 484T462 312T540 181T690 131Q762 131 823 170T925 279T975 436Q992 569 941 635T807 702Q794 702 778 700T738 693Q688 682 649 694T581 729T537 773Q607 807 658 826T751 854T836 862Q954 862 1042 813T1173 670T1199 436Q1189 350 1146 267T1033 117T873
11T675 -29Z" />
<glyph unicode="7" horiz-adv-x="1003" d="M246 0Q304 228 386 432T579 825T835 1196L857 1220L825 1219H224L248 1402H1108L1087 1239Q993 1134 903 1016T733 753T586 424T467 0H246Z" />
<glyph unicode="8" horiz-adv-x="1254" d="M634 -27Q500 -27 398 17T242 147T204 356Q213 424 256 503T414 691Q446 643 460 584T443 469Q428 441 419 419T406 373Q392 260 463 196T654 132Q778 132 861 196T956 356Q965 429 933 477T843 561T713 627T571 692T444
774T358 891T340 1062Q354 1176 425 1257T601 1382T818 1425Q937 1425 1029 1382T1170 1258T1205 1062Q1196 977 1141 899T1009 741L981 717L1010 700Q1087 647 1133 566T1163 356Q1148 233 1072 148T881 18T634 -27ZM840 791Q907 852 949 911T999 1039Q1009 1115
982 1165T905 1239T799 1263Q740 1263 686 1240T593 1171T547 1062Q538 989 578 943T689 862T840 791Z" />
<glyph unicode="9" horiz-adv-x="1292" d="M455 -20Q406 -20 350 -8T237 29L307 176Q353 157 395 150T475 142Q618 142 732 219T919 432T1013 741Q1023 822 1021 912T995 1082T917 1212T769 1263Q695 1263 634 1224T532 1115T482 959Q466 828 516 761T648 694Q661
694 678 696T718 701Q769 713 809 702T876 667T918 622Q848 587 797 569T705 543T621 535Q503 535 415 583T284 726T257 959Q268 1046 310 1129T423 1278T584 1384T783 1423Q933 1423 1029 1366T1175 1210T1239 992T1236 745Q1219 602 1157 466T992 220T754 45T455
-20Z" />
<glyph unicode=":" horiz-adv-x="598" d="M300 -30Q244 -30 211 7T185 101Q191 158 233 196T332 235Q389 235 422 197T449 101Q443 45 401 8T300 -30ZM392 720Q336 720 303 757T277 851Q283 908 325 946T424 985Q481 985 514 947T541 851Q535 795 493 758T392 720Z" />
<glyph unicode=";" horiz-adv-x="598" d="M181 -212L233 196H426L406 40Q400 -8 385 -58T343 -147T276 -206T181 -212ZM392 720Q336 720 303 757T277 851Q283 908 325 946T424 985Q481 985 514 947T541 851Q535 795 493 758T392 720Z" />
<glyph unicode="&lt;" horiz-adv-x="1226" d="M1108 0L133 491L148 613L1242 1104L1219 917L395 566L341 552L393 540L1130 189L1108 0Z" />
<glyph unicode="=" horiz-adv-x="1212" d="M229 786L249 938H1193L1173 786H229ZM175 344L193 496H1137L1119 344H175Z" />
<glyph unicode="&gt;" horiz-adv-x="1226" d="M84 0L106 189L931 540L983 552L933 566L195 917L218 1104L1191 613L1177 491L84 0Z" />
<glyph unicode="?" horiz-adv-x="1166" d="M445 395Q460 519 505 608T608 764T723 887T821 1003T872 1137Q881 1214 830 1263T687 1313Q630 1313 565 1300T411 1243L373 1392Q477 1442 561 1458T727 1474Q847 1474 934 1435T1064 1326T1097 1167Q1085 1071 1037
996T923 854T791 721T676 575T614 395H445ZM477 -29Q420 -29 387 8T360 101Q366 158 409 197T508 236Q565 236 598 197T626 101Q619 45 577 8T477 -29Z" />
<glyph unicode="@" horiz-adv-x="1838" d="M863 -249Q710 -249 583 -205T368 -69T241 168T227 514Q250 701 328 844T525 1084T787 1231T1081 1281Q1232 1281 1356 1238T1568 1112T1696 909T1717 634Q1699 494 1624 386T1430 208T1163 111Q1142 123 1134 143T1119
188V226L1095 186Q1029 128 973 111T863 94Q738 94 674 155T621 316Q636 437 742 497T1078 581Q1074 563 1059 533T1017 478T949 447Q860 435 823 402T780 324Q775 278 809 249T905 219Q956 219 1014 243T1126 328L1161 611Q1172 703 1133 754T992 806Q950 806
902 797T794 767L764 878Q845 910 909 921T1036 932Q1189 932 1262 846T1315 601L1279 296L1273 250L1304 274Q1424 347 1482 437T1555 634Q1575 796 1521 911T1349 1088T1063 1150Q892 1150 749 1078T510 865T389 514Q364 306 423 166T602 -46T879 -118Q937 -118
991 -114T1109 -96T1258 -57L1290 -179Q1191 -209 1120 -224T989 -244T863 -249Z" />
<glyph unicode="A" horiz-adv-x="1393" d="M67 0L769 1454H980L1326 0H1097L843 1147L836 1210L813 1146L529 538L501 497L529 501H766Q817 501 848 478T897 417T924 340H439L282 0H67Z" />
<glyph unicode="B" horiz-adv-x="1305" d="M728 -23Q690 -23 652 -21T568 -10T465 12Q489 47 519 79T588 129T674 142Q692 140 706 139T741 138Q811 138 873 173T977 268T1028 405Q1039 499 997 561T873 654T685 685H469L385 0H171L346 1435Q432 1451 504 1460T643
1475T782 1480Q954 1480 1063 1429T1219 1289T1253 1087Q1244 1015 1194 933T1064 804L1002 776L1056 762Q1127 729 1175 676T1244 556T1256 410Q1246 333 1205 256T1094 116T932 15T728 -23ZM486 837H703Q794 837 865 870T979 959T1031 1087Q1038 1149 1012 1201T923
1285T762 1317Q708 1317 654 1314T545 1305L486 837Z" />
<glyph unicode="C" horiz-adv-x="1277" d="M865 -24Q648 -24 494 69T265 331T219 725Q239 890 310 1028T493 1267T745 1424T1049 1480Q1133 1480 1219 1464T1394 1412L1319 1267Q1236 1295 1167 1306T1029 1318Q922 1318 825 1278T649 1161T520 975T450 725Q435
598 460 491T544 304T690 181T885 137Q954 137 1029 154T1190 212L1230 68Q1132 20 1041 -2T865 -24Z" />
<glyph unicode="D" horiz-adv-x="1445" d="M732 -24Q668 -24 611 -18T469 10Q491 45 521 76T591 125T677 140Q701 138 714 138T745 137Q846 137 933 185T1091 315T1206 505T1265 730Q1288 913 1242 1045T1076 1247T760 1318Q706 1318 652 1314T550 1303L390 0H175L349
1431Q458 1456 575 1468T780 1480Q1037 1480 1206 1391T1450 1133T1496 730Q1477 568 1408 431T1233 191T1000 33T732 -24Z" />
<glyph unicode="E" horiz-adv-x="1160" d="M175 0L353 1454H1193L1173 1293H549L409 161H1063L1045 0H175ZM550 684Q569 723 596 759T661 818T750 841H1050L1030 684H550Z" />
<glyph unicode="F" horiz-adv-x="1152" d="M175 0L353 1454H1193L1173 1293H549L391 0H175ZM550 684Q569 723 596 759T661 818T750 841H1050L1030 684H550Z" />
<glyph unicode="G" horiz-adv-x="1333" d="M831 -24Q669 -24 537 29T313 180T182 417T162 726Q183 892 257 1030T448 1269T709 1425T1017 1480Q1102 1480 1205 1461T1410 1392L1334 1245Q1232 1291 1149 1304T997 1318Q890 1318 789 1279T605 1163T467 978T393
726Q376 587 404 478T497 292T652 177T851 137Q895 137 949 142T1070 168L1133 674H1336L1262 74Q1185 37 1108 16T959 -15T831 -24Z" />
<glyph unicode="H" horiz-adv-x="1479" d="M1092 0L1175 683H550Q569 723 596 759T660 818T748 841H1195L1270 1454H1485L1307 0H1092ZM175 0L353 1454H569L391 0H175Z" />
<glyph unicode="I" horiz-adv-x="560" d="M175 0L353 1454H562L384 0H175Z" />
<glyph unicode="J" horiz-adv-x="702" d="M27 -424L-50 -305Q32 -243 99 -190T218 -76T303 63T351 256L499 1454H716L568 256Q552 123 510 26T398 -145T237 -285T27 -424Z" />
<glyph unicode="K" horiz-adv-x="1348" d="M1054 0L764 680L755 720L731 681L557 486Q544 539 555 607T597 744T678 870L1179 1454H1421L898 868L1310 0H1054ZM175 0L353 1454H569L391 0H175Z" />
<glyph unicode="L" horiz-adv-x="1046" d="M174 0L352 1454H570L411 163H996L976 0H174Z" />
<glyph unicode="M" horiz-adv-x="1916" d="M141 0L475 1454H752L980 299L986 234L1009 299L1521 1454H1799L1775 0H1571L1607 1145L1611 1234L1577 1145L1065 20H855L616 1147L601 1234L585 1147L343 0H141Z" />
<glyph unicode="N" horiz-adv-x="1514" d="M203 0L381 1454H594L1142 367L1157 297L1163 370L1296 1454H1487L1309 0H1117L549 1123L528 1192L524 1124L387 0H203Z" />
<glyph unicode="O" horiz-adv-x="1581" d="M773 -28Q574 -28 430 65T217 328T177 728Q200 910 274 1050T458 1287T697 1434T959 1484Q1131 1484 1252 1423T1445 1255T1543 1013T1552 728Q1531 562 1463 424T1289 184T1051 28T773 -28ZM792 133Q925 133 1037 210T1224
421T1321 728Q1343 908 1300 1041T1162 1248T938 1322Q807 1322 695 1248T506 1039T408 728Q393 601 412 493T483 304T612 178T792 133Z" />
<glyph unicode="P" horiz-adv-x="1237" d="M175 0L351 1439Q437 1455 506 1464T640 1477T777 1481Q939 1481 1053 1423T1223 1264T1263 1036Q1247 907 1169 814T978 666T743 601Q700 597 650 600T545 618Q564 653 592 684T657 735T736 756Q801 758 867 794T979
894T1036 1036Q1046 1116 1013 1180T913 1281T758 1318Q703 1318 655 1315T551 1306L391 0H175Z" />
<glyph unicode="Q" horiz-adv-x="1572" d="M774 -28Q577 -28 436 66T228 330T189 728Q210 899 280 1038T457 1276T695 1430T970 1484Q1169 1484 1312 1391T1523 1129T1562 728Q1546 592 1487 474T1322 231L1448 84L1314 -33L882 469L1016 589L1181 393L1202 353L1222
403Q1271 479 1296 562T1331 728Q1353 905 1311 1039T1175 1247T950 1322Q819 1322 707 1248T517 1039T418 728Q402 599 422 490T492 302T619 178T793 134Q823 134 849 138T904 147Q961 157 1017 137T1101 81Q1014 24 933 -2T774 -28Z" />
<glyph unicode="R" horiz-adv-x="1316" d="M175 0L351 1436Q437 1452 506 1462T640 1477T777 1482Q937 1482 1052 1425T1223 1270T1265 1048Q1250 927 1176 837T994 693L941 676L981 658Q1045 608 1074 537T1118 379T1146 196T1195 0H969Q941 84 929 178T902 361T856
519T755 623Q738 620 700 621T618 626T547 638Q566 673 594 704T660 755T740 777Q805 780 870 815T981 911T1038 1049Q1047 1125 1013 1186T913 1284T759 1320Q704 1320 662 1318T550 1303L391 0H175Z" />
<glyph unicode="S" horiz-adv-x="1121" d="M535 -25Q450 -25 339 -4T122 71L198 216Q287 173 377 155T539 136Q671 136 755 203T851 367Q859 437 829 488T744 580T622 657T487 734T367 826T285 947T269 1113Q282 1222 345 1304T508 1433T727 1480Q815 1480 900
1467T1091 1418L1013 1274Q931 1300 858 1309T727 1319Q621 1319 556 1260T480 1120Q471 1044 513 990T628 891T781 801T932 698T1041 560T1067 366Q1054 259 986 171T802 29T535 -25Z" />
<glyph unicode="T" horiz-adv-x="1083" d="M429 0L587 1293H175L195 1454H1238L1218 1293H804L646 0H429Z" />
<glyph unicode="U" horiz-adv-x="1406" d="M705 -28Q532 -28 418 41T253 239T224 541L337 1454H550L433 510Q412 337 493 235T724 133Q875 133 980 235T1106 510L1223 1454H1436L1323 541Q1303 370 1219 242T1002 43T705 -28Z" />
<glyph unicode="V" horiz-adv-x="1280" d="M533 0L201 1454H434L668 285L673 216L697 283L1219 1454H1443L759 0H533Z" />
<glyph unicode="W" horiz-adv-x="1991" d="M443 0L225 1454H441L588 305L591 203L626 305L1062 1434H1296L1445 304L1453 202L1483 300L1913 1454H2123L1550 0H1310L1152 1115L1145 1199L1119 1119L691 0H443Z" />
<glyph unicode="X" horiz-adv-x="1271" d="M960 0L268 1454H516L732 938L745 885L767 938L1115 1454H1355L842 749L1202 0H960ZM65 0L544 657Q563 625 578 579T592 482T557 385L299 0H65Z" />
<glyph unicode="Y" horiz-adv-x="1341" d="M553 0L629 625L232 1454H475L846 675L764 0H553ZM913 753Q892 784 877 830T864 929T903 1034L1189 1454H1426L913 753Z" />
<glyph unicode="Z" horiz-adv-x="1204" d="M149 0L159 87L1059 1266L1095 1300L1046 1294H388L408 1454H1366L1355 1367L453 185L419 155L463 161H1226L1208 0H149Z" />
<glyph unicode="[" horiz-adv-x="894" d="M227 -398L465 1542H1005L984 1381H642L445 -237H788L767 -398H227Z" />
<glyph unicode="\" horiz-adv-x="731" d="M499 -124L207 1454H403L695 -124H499Z" />
<glyph unicode="]" horiz-adv-x="909" d="M50 -398L69 -237H413L610 1381H268L288 1542H826L588 -398H50Z" />
<glyph unicode="^" horiz-adv-x="1256" d="M202 420L744 1454H874L1160 420H979L784 1140L778 1195L759 1140L387 420H202Z" />
<glyph unicode="_" horiz-adv-x="994" d="M36 -143L54 0H940L922 -143H36Z" />
<glyph unicode="`" horiz-adv-x="392" d="M579 1204Q544 1195 504 1197T427 1216T364 1270L220 1480H437L579 1204Z" />
<glyph unicode="a" horiz-adv-x="1156" d="M523 -12Q432 -22 359 14T235 122T164 292T157 503Q177 665 260 789T473 984T764 1055Q820 1055 875 1049T991 1030T1127 992L1045 325Q1032 222 1032 144T1037 7L880 0Q853 17 834 69T823 198L906 874Q862 885 824 889T747
894Q601 894 503 791T381 503Q369 404 384 320T446 190T579 156Q628 162 665 141T735 73Q681 38 625 16T523 -12Z" />
<glyph unicode="b" horiz-adv-x="1179" d="M559 -23Q450 -23 354 2T169 81L347 1516L556 1502L391 167Q438 151 486 145T578 138Q714 138 806 247T921 531Q934 644 914 726T842 849T710 882Q659 878 624 906T560 983Q615 1012 675 1028T783 1046Q869 1051 941
1016T1063 913T1136 748T1144 531Q1124 371 1044 246T839 49T559 -23Z" />
<glyph unicode="c" horiz-adv-x="856" d="M569 -22Q434 -22 329 38T170 219T138 518Q161 693 245 813T449 994T702 1056Q756 1056 819 1046T941 1013L870 868Q818 882 771 888T681 895Q569 895 478 801T363 518Q348 391 374 307T457 181T589 139Q633 139 686 152T811
195L849 48Q763 9 691 -6T569 -22Z" />
<glyph unicode="d" horiz-adv-x="1207" d="M533 -22Q391 -22 301 49T173 244T156 523Q169 639 219 735T342 901T502 1009T677 1048Q724 1048 773 1041T881 1013Q847 959 800 925T687 889Q615 890 551 850T441 729T380 523Q366 413 385 326T455 189T588 139Q654
139 721 174T859 284L1012 1516L1221 1502L1076 327Q1063 225 1063 147T1069 10L911 0Q889 19 876 43T853 104L851 140L826 103Q752 33 673 6T533 -22Z" />
<glyph unicode="e" horiz-adv-x="1099" d="M598 -22Q481 -22 394 21T253 140T178 315T170 528Q190 691 267 809T464 992T734 1056Q839 1056 915 1011T1033 887T1075 707T1023 492H449Q478 552 522 593T632 634H865Q883 707 866 766T805 862T696 898Q620 898 554
857T442 733T381 529Q366 412 395 324T488 188T641 139Q710 139 775 154T932 212L969 65Q863 16 770 -3T598 -22Z" />
<glyph unicode="f" horiz-adv-x="806" d="M190 0L297 880H127L140 993L316 1034L322 1090Q339 1222 398 1320T553 1472T774 1526Q824 1526 886 1515T1017 1472L953 1335Q893 1357 853 1364T780 1371Q722 1371 667 1343T573 1255T523 1105L388 0H190ZM567 880Q585
919 611 954T675 1012T763 1034H875L856 880H567Z" />
<glyph unicode="g" horiz-adv-x="1153" d="M459 -500Q381 -500 288 -484T97 -416L172 -266Q257 -308 328 -324T462 -341Q544 -341 616 -306T737 -201T799 -22L910 874Q867 885 829 889T752 894Q606 894 508 791T386 503Q373 404 388 320T452 189T585 155Q633 160
670 140T740 71Q687 36 631 15T529 -12Q438 -23 364 13T240 122T169 292T162 503Q182 665 265 789T477 984T768 1055Q824 1055 879 1049T995 1030T1131 992L1010 0Q990 -158 915 -270T723 -441T459 -500Z" />
<glyph unicode="h" horiz-adv-x="1178" d="M161 0L347 1516L556 1502L372 0H161ZM807 0L898 747Q905 811 885 852T809 893Q787 893 772 889T729 879Q673 868 632 888T559 955Q670 1016 743 1036T871 1056Q946 1056 1006 1025T1096 924T1111 734L1022 0H807Z" />
<glyph unicode="i" horiz-adv-x="525" d="M155 0L281 1034H497L371 0H155ZM409 1202Q353 1202 320 1240T293 1334Q301 1392 344 1430T443 1469Q500 1469 532 1431T557 1334Q551 1278 509 1240T409 1202Z" />
<glyph unicode="j" horiz-adv-x="567" d="M-21 -497L-100 -380Q16 -288 76 -220T163 -82T201 83L318 1034H532L415 83Q401 -29 361 -121T231 -302T-21 -497ZM445 1202Q388 1202 356 1239T330 1334Q338 1393 380 1431T478 1470Q537 1470 570 1432T596 1334Q590
1277 547 1240T445 1202Z" />
<glyph unicode="k" horiz-adv-x="1185" d="M903 0L699 489L684 533L649 496L514 364Q501 445 531 537T632 700L958 1034L1192 1020L831 672L1141 0H903ZM161 0L347 1516L556 1502L372 0H161Z" />
<glyph unicode="l" horiz-adv-x="523" d="M165 0L351 1516L557 1502L373 0H165Z" />
<glyph unicode="m" horiz-adv-x="1819" d="M1448 0L1539 747Q1547 811 1524 852T1439 893Q1416 893 1396 888T1346 878Q1290 868 1246 888T1170 955Q1284 1013 1362 1034T1499 1056Q1575 1056 1638 1025T1734 924T1752 734L1663 0H1448ZM165 0L259 772Q265 828
266 891T259 1024L429 1034Q471 980 479 927T479 814L381 0H165ZM807 0L898 747Q906 811 885 852T807 893Q785 893 767 889T723 880Q665 870 623 890T548 957Q662 1015 736 1035T870 1056Q945 1056 1005 1025T1096 924T1111 734L1023 0H807Z" />
<glyph unicode="n" horiz-adv-x="1182" d="M806 0L897 747Q905 811 882 852T799 893Q776 893 758 888T711 878Q655 868 613 888T537 953Q649 1014 724 1035T857 1056Q934 1056 997 1025T1092 924T1110 734L1021 0H806ZM153 0L247 772Q253 828 253 891T246 1024L416
1034Q458 980 466 927T467 814L369 0H153Z" />
<glyph unicode="o" horiz-adv-x="1156" d="M569 -22Q434 -22 329 40T171 223T139 518Q156 656 212 757T349 925T522 1023T702 1056Q857 1056 959 985T1106 792T1132 518Q1116 389 1064 289T933 119T761 14T569 -22ZM589 139Q681 139 747 190T854 328T907 518Q923
641 898 725T815 852T682 895Q605 895 539 852T426 725T363 518Q343 351 401 245T589 139Z" />
<glyph unicode="p" horiz-adv-x="1209" d="M111 -468L255 707Q267 809 267 888T262 1024L420 1034Q443 1015 456 991T477 928V893L503 931Q579 1001 657 1028T798 1056Q939 1056 1029 985T1157 790T1175 511Q1161 395 1112 299T989 133T829 25T653 -14Q606 -14
557 -7T450 21Q485 76 532 110T642 145Q715 144 779 184T889 306T950 511Q964 621 945 708T875 845T741 895Q677 895 609 860T469 750L319 -482L111 -468Z" />
<glyph unicode="q" horiz-adv-x="1177" d="M750 -468L915 874Q871 885 833 889T756 894Q610 894 512 791T390 503Q377 404 393 320T457 189T591 155Q639 162 676 141T747 71Q693 36 637 15T534 -12Q444 -23 370 13T246 122T174 292T166 503Q186 665 269 789T481
984T773 1055Q829 1055 884 1049T1000 1030T1135 992L955 -482L750 -468Z" />
<glyph unicode="r" horiz-adv-x="782" d="M163 0L246 701Q257 783 260 868T255 1024L415 1034Q438 1006 448 966T462 877L458 838L480 877Q528 955 605 1002T759 1050Q784 1050 809 1046T863 1031L815 856Q782 865 759 868T715 871Q651 871 591 834T486 722T427
533L363 0H163Z" />
<glyph unicode="s" horiz-adv-x="843" d="M443 -20Q367 -20 279 -6T75 64L147 211Q223 174 296 158T433 141Q519 141 565 180T618 277Q625 330 594 364T512 426T402 481T293 546T214 638T196 776Q204 840 248 903T371 1009T563 1052Q623 1052 690 1042T843 1000L774
856Q710 877 659 886T563 895Q497 895 452 866T400 779Q393 729 424 695T506 633T616 576T725 509T804 414T821 273Q811 191 755 125T616 19T443 -20Z" />
<glyph unicode="t" horiz-adv-x="868" d="M554 -23Q383 -23 305 84T252 386L313 880H134L147 988L331 1034L363 1293L571 1357L450 370Q437 267 473 201T582 135Q618 135 655 141T746 165L777 24Q698 -1 650 -12T554 -23ZM761 880Q711 880 679 901T628 958T602
1034H886L868 880H761Z" />
<glyph unicode="u" horiz-adv-x="1188" d="M422 -22Q346 -22 285 9T192 110T175 300L265 1034H478L386 287Q378 223 400 182T482 141Q505 141 523 146T569 156Q626 167 668 147T745 81Q633 21 557 0T422 -22ZM866 0Q824 54 816 107T814 220L914 1034H1125L1031
262Q1024 207 1024 144T1033 10L866 0Z" />
<glyph unicode="v" horiz-adv-x="1049" d="M415 0L153 1034H378L545 248L554 195L574 248L934 1034L1146 1020L638 0H415Z" />
<glyph unicode="w" horiz-adv-x="1727" d="M1101 0L863 1034H1089L1235 248L1242 195L1263 248L1601 1034L1812 1020L1328 0H1101ZM439 0L199 1034H425L571 248L578 195L599 248L828 710Q854 670 867 606T873 467T831 324L657 0H439Z" />
<glyph unicode="x" horiz-adv-x="1006" d="M726 0Q661 129 594 257T457 513L177 1034H417L573 695L579 653L599 695L843 1034L1056 1020L665 522L962 0H726ZM33 0L395 447Q418 415 431 372T438 282T397 188L257 0H33Z" />
<glyph unicode="y" horiz-adv-x="1097" d="M183 -493Q143 -491 99 -484T13 -461L83 -316Q116 -325 145 -329T203 -333Q279 -333 331 -281T429 -137T531 74L956 1034L1168 1020L685 22Q629 -90 579 -184T474 -347T350 -454T183 -493ZM407 22L157 1034H382L503 414Q518
343 508 268T471 127T407 22Z" />
<glyph unicode="z" horiz-adv-x="910" d="M67 0L77 87L676 858L710 892L668 886H238L256 1034H970L959 947L367 180L330 146L377 152H872L854 0H67Z" />
<glyph unicode="{" horiz-adv-x="806" d="M665 -352Q548 -266 485 -164T402 71T393 381Q398 452 347 493T220 547L234 669Q313 683 376 724T453 835Q485 1000 538 1126T677 1352T897 1534L978 1426Q873 1349 808 1269T704 1094T641 878Q626 796 578 733T461 628L409
606L455 583Q515 541 547 480T575 336Q567 206 580 105T639 -80T772 -243L665 -352Z" />
<glyph unicode="|" horiz-adv-x="634" d="M158 -586L428 1622H613L343 -586H158Z" />
<glyph unicode="}" horiz-adv-x="820" d="M211 -352L130 -243Q237 -164 302 -80T406 105T469 336Q486 419 534 481T650 585L703 606L654 628Q596 670 564 733T535 878Q541 998 526 1093T466 1269T336 1426L443 1534Q555 1451 616 1352T698 1127T713 835Q710 765
763 724T890 669L876 547Q798 534 737 493T661 381Q629 203 577 71T437 -163T211 -352Z" />
<glyph unicode="~" horiz-adv-x="1228" d="M361 456L182 472Q199 573 248 639T368 738T522 772Q592 772 647 746T745 687Q786 657 827 634T926 610Q972 610 1004 654T1051 769L1230 753Q1209 639 1160 574T1042 482T900 453Q825 452 769 479T671 539Q631 569 593
591T500 614Q456 614 417 575T361 456Z" />
<glyph unicode="&#xa0;" horiz-adv-x="514" />
<glyph unicode="&#xa1;" horiz-adv-x="702" d="M75 -420L233 639H386L289 -420H75ZM327 798Q271 798 239 837T213 933Q220 989 262 1026T360 1063Q417 1063 450 1026T478 933Q470 876 427 837T327 798Z" />
<glyph unicode="&#xa2;" horiz-adv-x="854" d="M473 -28L497 177Q385 195 303 261T182 439T162 709Q181 862 248 972T415 1149T627 1236L651 1432H809L787 1244Q830 1240 876 1231T963 1204L890 1057Q840 1073 794 1079T705 1085Q631 1085 564 1044T450 918T387
709Q371 582 397 498T480 372T613 330Q656 330 709 343T834 385L871 239Q810 210 756 195T655 173L631 -28H473Z" />
<glyph unicode="&#xa3;" horiz-adv-x="1026" d="M100 0L115 130Q229 184 309 275T404 484Q409 521 411 557T413 633H219L237 781H407Q405 828 406 894T414 1024Q430 1153 497 1242T665 1378T884 1424Q955 1424 1027 1408T1181 1350L1107 1201Q1038 1236 972 1249T863
1263Q756 1263 693 1197T615 1022Q600 901 604 796T607 592T573 394Q552 340 521 296T448 211L404 173L455 177H986L966 0H100ZM836 633Q785 633 754 653T705 707T679 781H998L979 633H836Z" />
<glyph unicode="&#xa4;" horiz-adv-x="1026" d="M168 211L92 300L255 442Q232 480 218 542T212 679Q223 756 252 818T317 920L183 1062L280 1152L410 1010Q456 1045 517 1066T644 1088Q715 1088 771 1067T863 1011L1034 1151L1107 1063L932 920Q955 881 967 821T971
688Q962 609 934 546T875 446L1009 299L913 212L782 357Q735 318 670 297T541 275Q479 275 421 296T326 352L168 211ZM557 401Q613 401 670 433T768 528T821 686Q830 755 811 818T745 922T627 962Q558 962 502 924T410 822T363 680Q352 588 380 526T456 433T557
401Z" />
<glyph unicode="&#xa5;" horiz-adv-x="1320" d="M542 0L573 271H253L267 375H587L605 516H285L297 621H617V625L221 1454H463L835 675L828 621H1147L1135 516H815L797 375H1117L1103 271H784L753 0H542ZM902 753Q880 784 865 830T852 929T891 1034L1178 1454H1415L902
753Z" />
<glyph unicode="&#xa6;" horiz-adv-x="508" d="M97 -586L203 282H389L283 -586H97ZM263 774L367 1622H553L449 774H263Z" />
<glyph unicode="&#xa7;" horiz-adv-x="1000" d="M496 -102Q438 -102 371 -97T229 -73T69 -18L147 124Q234 88 323 70T487 52Q599 52 660 90T728 192Q735 247 697 283T593 347T455 403T318 469T218 563T192 704Q198 760 242 815T361 912L412 932L373 950Q320 989
290 1041T268 1170Q276 1238 329 1299T472 1400T676 1440Q744 1440 824 1429T1002 1388L926 1248Q852 1269 792 1278T681 1287Q587 1287 530 1258T464 1172Q458 1118 497 1082T601 1018T739 960T875 892T975 795T1000 650Q993 584 949 531T840 441L792 422L831
403Q880 365 907 312T925 185Q914 100 853 35T698 -66T496 -102ZM675 492Q742 530 776 573T815 660Q822 711 782 745T675 806T537 864Q468 836 427 796T379 708Q373 654 416 618T529 553T675 492Z" />
<glyph unicode="&#xa8;" horiz-adv-x="880" d="M373 1230Q329 1230 301 1262T278 1340Q283 1386 320 1418T401 1450Q448 1450 476 1418T500 1340Q494 1294 457 1262T373 1230ZM763 1230Q718 1230 689 1262T667 1340Q672 1387 709 1418T791 1450Q836 1450 865 1418T889
1340Q882 1294 845 1262T763 1230Z" />
<glyph unicode="&#xa9;" horiz-adv-x="1440" d="M719 57Q524 57 387 144T186 380T145 714Q162 848 223 966T383 1173T609 1314T881 1365Q1074 1365 1209 1278T1408 1044T1449 714Q1433 578 1372 459T1212 250T989 108T719 57ZM796 352Q705 352 635 394T531 516T510
714Q525 830 580 910T715 1032T884 1074Q964 1074 1048 1046L998 941Q964 953 933 957T871 962Q796 962 734 898T655 714Q641 592 687 527T809 462Q838 462 876 470T962 499L986 398Q928 371 878 362T796 352ZM735 183Q879 182 999 248T1197 434T1295 714Q1314
870 1265 988T1113 1174T865 1241Q719 1240 598 1173T397 987T299 708Q280 551 330 433T484 250T735 183Z" />
<glyph unicode="&#xaa;" horiz-adv-x="1054" d="M393 590Q287 590 229 645T181 788Q194 893 288 949T601 1029Q596 1013 583 988T547 940T486 912Q401 898 371 867T335 798Q332 757 355 729T429 701Q476 701 526 724T621 799L653 1054Q664 1137 627 1182T501 1228Q464
1228 425 1221T334 1195L313 1294Q384 1324 439 1333T541 1342Q682 1342 750 1264T801 1044L775 844Q765 760 765 701T769 604H659Q641 617 632 635T616 676L618 700L600 676Q545 626 496 608T393 590Z" />
<glyph unicode="&#xab;" horiz-adv-x="1226" d="M583 97L192 516L686 935L768 843L450 516L688 189L583 97ZM1097 97L706 516L1200 935L1282 843L964 516L1202 189L1097 97Z" />
<glyph unicode="&#xac;" horiz-adv-x="1150" d="M941 312L992 739H175L193 885H1174L1105 312H941Z" />
<glyph unicode="&#xad;" horiz-adv-x="750" d="M155 536L173 683H777L759 536H155Z" />
<glyph unicode="&#xae;" horiz-adv-x="1440" d="M719 57Q524 57 387 144T186 380T145 714Q162 848 223 966T383 1173T609 1314T881 1365Q1074 1365 1209 1278T1408 1044T1449 714Q1433 578 1372 459T1212 250T989 108T719 57ZM735 183Q879 182 999 248T1197 434T1295
714Q1314 870 1265 988T1113 1174T865 1241Q719 1240 598 1173T397 987T299 708Q280 551 330 433T484 250T735 183ZM543 378L624 1045Q683 1059 734 1065T838 1072Q956 1072 1026 1016T1085 862Q1079 806 1045 764T958 695L936 689L955 676Q991 646 1003 600T1022
496T1049 378H907Q888 432 883 491T864 597T804 663Q782 662 778 662T751 662Q766 690 789 720T857 758Q892 765 916 794T945 862Q951 905 918 935T825 966Q807 966 791 965T748 960L677 378H543Z" />
<glyph unicode="&#xaf;" horiz-adv-x="1000" d="M376 1221L394 1359H983L966 1221H376Z" />
<glyph unicode="&#xb0;" horiz-adv-x="674" d="M467 961Q389 961 326 997T228 1098T205 1246Q214 1324 262 1389T382 1492T537 1531Q608 1531 672 1498T773 1401T799 1246Q788 1157 736 1093T611 995T467 961ZM481 1073Q535 1073 574 1099T636 1166T663 1246Q674
1327 631 1373T523 1419Q472 1419 433 1395T371 1330T343 1246Q334 1177 369 1125T481 1073Z" />
<glyph unicode="&#xb1;" horiz-adv-x="1136" d="M508 255L552 597H167L185 743H570L611 1081H775L734 743H1121L1103 597H716L672 255H508ZM94 0L111 145H1047L1030 0H94Z" />
<glyph unicode="&#xb2;" horiz-adv-x="804" d="M220 620L228 697Q297 793 370 868T507 1007T613 1127T663 1242Q670 1303 634 1329T535 1356Q501 1356 466 1348T389 1323L354 1422Q411 1452 465 1462T567 1472Q641 1472 700 1447T790 1374T813 1256Q804 1184 761
1120T659 996T539 879T434 762L413 742L440 746H759L744 620H220Z" />
<glyph unicode="&#xb3;" horiz-adv-x="762" d="M388 602Q321 602 269 621T190 658L241 760Q274 745 311 733T401 720Q480 720 528 765T583 866Q591 938 539 971T385 1005V1100L451 1126Q508 1149 552 1180T603 1262Q608 1301 582 1326T505 1352Q471 1352 432 1344T350
1319L316 1420Q375 1450 429 1460T532 1470Q642 1470 704 1419T755 1279Q748 1216 699 1163T577 1077Q643 1061 693 1007T733 863Q724 791 677 732T555 638T388 602Z" />
<glyph unicode="&#xb4;" horiz-adv-x="644" d="M277 1204L487 1480H704L508 1270Q473 1233 432 1216T351 1197T277 1204Z" />
<glyph unicode="&#xb5;" horiz-adv-x="1106" d="M86 -422L264 1034H468L392 420Q383 341 398 278T454 179T564 143Q626 143 684 177T782 270T832 398L910 1034H1116L1025 295Q1015 211 1034 178T1117 147L1119 7Q1085 -5 1054 -10T1000 -16Q941 -16 894 14T833
118L830 162L802 117Q757 63 690 22T526 -20Q476 -20 432 -4T361 44L335 85L331 26L278 -422H86Z" />
<glyph unicode="&#xb6;" horiz-adv-x="1218" d="M642 -60L724 608Q723 608 722 609T720 610Q601 620 508 675T367 824T334 1040Q349 1156 418 1256T606 1418T886 1480Q996 1480 1082 1472T1278 1440L1094 -60H948L1116 1316Q1073 1324 1034 1327T958 1332L788 -60H642Z" />
<glyph unicode="&#xb7;" horiz-adv-x="612" d="M362 477Q306 477 273 514T247 608Q253 665 295 703T394 742Q451 742 484 704T511 608Q505 552 463 515T362 477Z" />
<glyph unicode="&#xb8;" horiz-adv-x="1000" d="M415 -416Q381 -416 344 -407T262 -377L303 -285Q339 -299 368 -304T428 -310Q463 -310 497 -297T535 -252Q539 -216 503 -198T395 -172L460 -5L567 5L529 -96Q586 -104 632 -143T671 -246Q664 -306 624 -343T528
-398T415 -416Z" />
<glyph unicode="&#xb9;" horiz-adv-x="638" d="M430 618L512 1273L383 1212L338 1315L614 1454H688L584 618H430Z" />
<glyph unicode="&#xba;" horiz-adv-x="860" d="M500 588Q346 588 264 690T203 966Q216 1070 267 1155T401 1291T592 1342Q690 1342 762 1299T869 1171T889 966Q876 854 824 769T688 636T500 588ZM513 706Q575 706 621 742T697 837T735 966Q743 1032 732 1091T683
1188T577 1226Q515 1226 470 1190T396 1095T359 966Q345 843 387 775T513 706Z" />
<glyph unicode="&#xbb;" horiz-adv-x="1226" d="M230 97L147 189L465 516L227 843L333 935L722 516L230 97ZM743 97L660 189L978 516L740 843L846 935L1235 516L743 97Z" />
<glyph unicode="&#xbc;" horiz-adv-x="1396" d="M165 0L1215 1454H1365L315 0H165ZM310 618L392 1273L263 1212L218 1315L494 1454H568L464 618H310ZM1083 0L1161 646L873 292H924Q981 292 1009 251T1047 174H711L725 289L1167 846H1323L1256 290H1352L1337 174H1241L1221
0H1083Z" />
<glyph unicode="&#xbd;" horiz-adv-x="1526" d="M165 0L1215 1454H1365L315 0H165ZM310 618L392 1273L263 1212L218 1315L494 1454H568L464 618H310ZM850 0L858 77Q927 173 1000 248T1137 387T1243 507T1293 622Q1300 683 1264 709T1165 736Q1131 736 1095 728T1018
703L984 802Q1041 832 1095 842T1197 852Q1271 852 1330 827T1420 754T1443 636Q1434 564 1391 500T1289 377T1169 260T1064 143L1042 122L1072 126H1389L1374 0H850Z" />
<glyph unicode="&#xbe;" horiz-adv-x="1432" d="M240 0L1290 1454H1439L389 0H240ZM327 602Q260 602 208 621T129 658L179 760Q213 745 250 733T340 720Q419 720 466 765T521 866Q530 938 478 971T323 1005V1100L389 1126Q446 1149 490 1180T541 1262Q546 1301
521 1326T443 1352Q409 1352 370 1344T289 1319L255 1420Q314 1450 368 1460T471 1470Q581 1470 643 1419T694 1279Q687 1216 638 1163T516 1077Q582 1061 632 1007T671 863Q662 791 615 732T494 638T327 602ZM1157 0L1236 646L948 292H999Q1056 292 1084 251T1122
174H785L799 289L1241 846H1398L1331 290H1427L1412 174H1316L1296 0H1157Z" />
<glyph unicode="&#xbf;" horiz-adv-x="1166" d="M555 -441Q435 -441 349 -402T220 -293T187 -133Q199 -38 247 37T361 179T493 313T608 458T669 639H838Q823 515 778 426T675 270T560 147T462 31T412 -103Q402 -179 453 -229T595 -279Q652 -279 718 -266T873 -210L911
-359Q807 -408 723 -424T555 -441ZM775 798Q718 798 685 837T659 932Q665 988 708 1025T808 1063Q864 1063 897 1026T925 932Q917 876 874 837T775 798Z" />
<glyph unicode="&#xc0;" horiz-adv-x="1393" d="M67 0L769 1454H980L1326 0H1097L843 1147L836 1210L813 1146L529 538L501 497L529 501H766Q817 501 848 478T897 417T924 340H439L282 0H67ZM1001 1531Q966 1523 925 1525T848 1543T791 1593L674 1780H883L1001 1531Z" />
<glyph unicode="&#xc1;" horiz-adv-x="1393" d="M67 0L769 1454H980L1326 0H1097L843 1147L836 1210L813 1146L529 538L501 497L529 501H766Q817 501 848 478T897 417T924 340H439L282 0H67ZM777 1531L984 1780H1198L1007 1593Q972 1559 932 1543T851 1525T777 1531Z" />
<glyph unicode="&#xc2;" horiz-adv-x="1393" d="M67 0L769 1454H980L1326 0H1097L843 1147L836 1210L813 1146L529 538L501 497L529 501H766Q817 501 848 478T897 417T924 340H439L282 0H67ZM720 1519L608 1542L853 1780H992L1183 1542L1060 1521L903 1637L720 1519Z" />
<glyph unicode="&#xc3;" horiz-adv-x="1393" d="M67 0L769 1454H980L1326 0H1097L843 1147L836 1210L813 1146L529 538L501 497L529 501H766Q817 501 848 478T897 417T924 340H439L282 0H67ZM712 1554L593 1566Q610 1679 670 1732T804 1787Q844 1787 876 1773T933
1735Q956 1713 974 1695T1027 1677Q1054 1677 1072 1706T1102 1786L1217 1774Q1203 1690 1170 1642T1096 1573T1017 1553Q973 1553 941 1566T884 1604Q861 1627 845 1645T797 1663Q773 1663 749 1639T712 1554Z" />
<glyph unicode="&#xc4;" horiz-adv-x="1393" d="M67 0L769 1454H980L1326 0H1097L843 1147L836 1210L813 1146L529 538L501 497L529 501H766Q817 501 848 478T897 417T924 340H439L282 0H67ZM692 1570Q648 1570 620 1602T597 1680Q602 1726 639 1758T720 1790Q767
1790 795 1758T819 1680Q813 1634 776 1602T692 1570ZM1082 1570Q1037 1570 1008 1602T986 1680Q991 1727 1028 1758T1110 1790Q1155 1790 1184 1758T1208 1680Q1201 1634 1164 1602T1082 1570Z" />
<glyph unicode="&#xc5;" horiz-adv-x="1393" d="M67 0L769 1454H980L1326 0H1097L843 1147L836 1210L813 1146L529 538L501 497L529 501H766Q817 501 848 478T897 417T924 340H439L282 0H67ZM872 1424Q783 1424 732 1474T690 1600Q701 1679 765 1731T918 1784Q1008
1784 1057 1733T1095 1602Q1086 1524 1022 1474T872 1424ZM882 1508Q926 1508 954 1536T986 1604Q992 1645 971 1672T906 1700Q866 1700 838 1672T804 1600Q800 1566 820 1537T882 1508Z" />
<glyph unicode="&#xc6;" horiz-adv-x="1950" d="M31 0L948 1454H1866L1846 1293H1212L1246 161H1847L1829 0H1051L1012 1181L1017 1259L979 1182L580 538L545 497L584 501H807Q858 501 889 478T938 417T965 340H461L251 0H31ZM1300 684Q1318 725 1344 761T1409
819T1502 841H1811L1791 684H1300Z" />
<glyph unicode="&#xc7;" horiz-adv-x="1277" d="M865 -24Q648 -24 494 69T265 331T219 725Q239 890 310 1028T493 1267T745 1424T1049 1480Q1133 1480 1219 1464T1394 1412L1319 1267Q1236 1295 1167 1306T1029 1318Q922 1318 825 1278T649 1161T520 975T450 725Q435
598 460 491T544 304T690 181T885 137Q954 137 1029 154T1190 212L1230 68Q1132 20 1041 -2T865 -24ZM651 -416Q617 -416 580 -407T498 -377L539 -285Q575 -299 604 -304T664 -310Q699 -310 733 -297T771 -252Q775 -216 739 -198T631 -172L696 -5L803 5L765 -96Q822
-104 868 -143T907 -246Q900 -306 860 -343T764 -398T651 -416Z" />
<glyph unicode="&#xc8;" horiz-adv-x="1160" d="M175 0L353 1454H1193L1173 1293H549L409 161H1063L1045 0H175ZM550 684Q569 723 596 759T661 818T750 841H1050L1030 684H550ZM905 1531Q870 1523 829 1525T752 1543T695 1593L578 1780H787L905 1531Z" />
<glyph unicode="&#xc9;" horiz-adv-x="1160" d="M175 0L353 1454H1193L1173 1293H549L409 161H1063L1045 0H175ZM550 684Q569 723 596 759T661 818T750 841H1050L1030 684H550ZM680 1531L887 1780H1101L910 1593Q875 1559 835 1543T754 1525T680 1531Z" />
<glyph unicode="&#xca;" horiz-adv-x="1160" d="M175 0L353 1454H1193L1173 1293H549L409 161H1063L1045 0H175ZM550 684Q569 723 596 759T661 818T750 841H1050L1030 684H550ZM623 1519L511 1542L756 1780H895L1086 1542L963 1521L806 1637L623 1519Z" />
<glyph unicode="&#xcb;" horiz-adv-x="1160" d="M175 0L353 1454H1193L1173 1293H549L409 161H1063L1045 0H175ZM550 684Q569 723 596 759T661 818T750 841H1050L1030 684H550ZM596 1570Q552 1570 524 1602T501 1680Q506 1726 543 1758T624 1790Q671 1790 699
1758T723 1680Q717 1634 680 1602T596 1570ZM986 1570Q941 1570 912 1602T890 1680Q895 1727 932 1758T1014 1790Q1059 1790 1088 1758T1112 1680Q1105 1634 1068 1602T986 1570Z" />
<glyph unicode="&#xcc;" horiz-adv-x="560" d="M175 0L353 1454H562L384 0H175ZM584 1531Q549 1523 508 1525T431 1543T374 1593L257 1780H466L584 1531Z" />
<glyph unicode="&#xcd;" horiz-adv-x="560" d="M175 0L353 1454H562L384 0H175ZM360 1531L567 1780H781L590 1593Q555 1559 515 1543T434 1525T360 1531Z" />
<glyph unicode="&#xce;" horiz-adv-x="560" d="M175 0L353 1454H562L384 0H175ZM559 1519L447 1542L692 1780H831L1022 1542L899 1521L742 1637L559 1519Z" />
<glyph unicode="&#xcf;" horiz-adv-x="560" d="M175 0L353 1454H562L384 0H175ZM275 1570Q231 1570 203 1602T180 1680Q185 1726 222 1758T303 1790Q350 1790 378 1758T402 1680Q396 1634 359 1602T275 1570ZM665 1570Q620 1570 591 1602T569 1680Q574 1727 611
1758T693 1790Q738 1790 767 1758T791 1680Q784 1634 747 1602T665 1570Z" />
<glyph unicode="&#xd0;" horiz-adv-x="1445" d="M732 -24Q668 -24 611 -18T469 10Q491 45 521 76T591 125T677 140Q701 138 714 138T745 137Q846 137 933 185T1091 315T1206 505T1265 730Q1288 913 1242 1045T1076 1247T760 1318Q706 1318 652 1314T550 1303L390
0H175L349 1431Q458 1456 575 1468T780 1480Q1037 1480 1206 1391T1450 1133T1496 730Q1477 568 1408 431T1233 191T1000 33T732 -24ZM1182 783L1164 639H346L364 783H1182Z" />
<glyph unicode="&#xd1;" horiz-adv-x="1514" d="M203 0L381 1454H594L1142 367L1157 297L1163 370L1296 1454H1487L1309 0H1117L549 1123L528 1192L524 1124L387 0H203ZM782 1554L663 1566Q680 1679 740 1732T874 1787Q914 1787 946 1773T1003 1735Q1026 1713
1044 1695T1097 1677Q1124 1677 1142 1706T1172 1786L1287 1774Q1273 1690 1240 1642T1166 1573T1087 1553Q1043 1553 1011 1566T954 1604Q931 1627 915 1645T867 1663Q843 1663 819 1639T782 1554Z" />
<glyph unicode="&#xd2;" horiz-adv-x="1581" d="M773 -28Q574 -28 430 65T217 328T177 728Q200 910 274 1050T458 1287T697 1434T959 1484Q1131 1484 1252 1423T1445 1255T1543 1013T1552 728Q1531 562 1463 424T1289 184T1051 28T773 -28ZM792 133Q925 133 1037
210T1224 421T1321 728Q1343 908 1300 1041T1162 1248T938 1322Q807 1322 695 1248T506 1039T408 728Q393 601 412 493T483 304T612 178T792 133ZM1081 1531Q1046 1523 1005 1525T928 1543T871 1593L754 1780H963L1081 1531Z" />
<glyph unicode="&#xd3;" horiz-adv-x="1581" d="M773 -28Q574 -28 430 65T217 328T177 728Q200 910 274 1050T458 1287T697 1434T959 1484Q1131 1484 1252 1423T1445 1255T1543 1013T1552 728Q1531 562 1463 424T1289 184T1051 28T773 -28ZM792 133Q925 133 1037
210T1224 421T1321 728Q1343 908 1300 1041T1162 1248T938 1322Q807 1322 695 1248T506 1039T408 728Q393 601 412 493T483 304T612 178T792 133ZM856 1531L1063 1780H1277L1086 1593Q1051 1559 1011 1543T930 1525T856 1531Z" />
<glyph unicode="&#xd4;" horiz-adv-x="1581" d="M773 -28Q574 -28 430 65T217 328T177 728Q200 910 274 1050T458 1287T697 1434T959 1484Q1131 1484 1252 1423T1445 1255T1543 1013T1552 728Q1531 562 1463 424T1289 184T1051 28T773 -28ZM792 133Q925 133 1037
210T1224 421T1321 728Q1343 908 1300 1041T1162 1248T938 1322Q807 1322 695 1248T506 1039T408 728Q393 601 412 493T483 304T612 178T792 133ZM799 1519L687 1542L932 1780H1071L1262 1542L1139 1521L982 1637L799 1519Z" />
<glyph unicode="&#xd5;" horiz-adv-x="1581" d="M773 -28Q574 -28 430 65T217 328T177 728Q200 910 274 1050T458 1287T697 1434T959 1484Q1131 1484 1252 1423T1445 1255T1543 1013T1552 728Q1531 562 1463 424T1289 184T1051 28T773 -28ZM792 133Q925 133 1037
210T1224 421T1321 728Q1343 908 1300 1041T1162 1248T938 1322Q807 1322 695 1248T506 1039T408 728Q393 601 412 493T483 304T612 178T792 133ZM791 1554L672 1566Q689 1679 749 1732T883 1787Q923 1787 955 1773T1012 1735Q1035 1713 1053 1695T1106 1677Q1133
1677 1151 1706T1181 1786L1296 1774Q1282 1690 1249 1642T1175 1573T1096 1553Q1052 1553 1020 1566T963 1604Q940 1627 924 1645T876 1663Q852 1663 828 1639T791 1554Z" />
<glyph unicode="&#xd6;" horiz-adv-x="1581" d="M773 -28Q574 -28 430 65T217 328T177 728Q200 910 274 1050T458 1287T697 1434T959 1484Q1131 1484 1252 1423T1445 1255T1543 1013T1552 728Q1531 562 1463 424T1289 184T1051 28T773 -28ZM792 133Q925 133 1037
210T1224 421T1321 728Q1343 908 1300 1041T1162 1248T938 1322Q807 1322 695 1248T506 1039T408 728Q393 601 412 493T483 304T612 178T792 133ZM772 1570Q728 1570 700 1602T677 1680Q682 1726 719 1758T800 1790Q847 1790 875 1758T899 1680Q893 1634 856 1602T772
1570ZM1162 1570Q1117 1570 1088 1602T1066 1680Q1071 1727 1108 1758T1190 1790Q1235 1790 1264 1758T1288 1680Q1281 1634 1244 1602T1162 1570Z" />
<glyph unicode="&#xd7;" horiz-adv-x="1136" d="M223 150L131 256L528 612L217 964L339 1070L650 718L1043 1070L1135 964L742 612L1053 256L933 150L622 504L223 150Z" />
<glyph unicode="&#xd8;" horiz-adv-x="1581" d="M773 -28Q574 -28 430 65T217 328T177 728Q200 910 274 1050T458 1287T697 1434T959 1484Q1131 1484 1252 1423T1445 1255T1543 1013T1552 728Q1531 562 1463 424T1289 184T1051 28T773 -28ZM792 133Q925 133 1037
210T1224 421T1321 728Q1343 908 1300 1041T1162 1248T938 1322Q807 1322 695 1248T506 1039T408 728Q393 601 412 493T483 304T612 178T792 133ZM620 270Q599 300 585 338T573 420T605 507L1372 1576H1552L620 270ZM178 -122L370 148L489 65L358 -122H178Z" />
<glyph unicode="&#xd9;" horiz-adv-x="1406" d="M705 -28Q532 -28 418 41T253 239T224 541L337 1454H550L433 510Q412 337 493 235T724 133Q875 133 980 235T1106 510L1223 1454H1436L1323 541Q1303 370 1219 242T1002 43T705 -28ZM1013 1531Q978 1523 937 1525T860
1543T803 1593L686 1780H895L1013 1531Z" />
<glyph unicode="&#xda;" horiz-adv-x="1406" d="M705 -28Q532 -28 418 41T253 239T224 541L337 1454H550L433 510Q412 337 493 235T724 133Q875 133 980 235T1106 510L1223 1454H1436L1323 541Q1303 370 1219 242T1002 43T705 -28ZM789 1531L996 1780H1210L1019
1593Q984 1559 944 1543T863 1525T789 1531Z" />
<glyph unicode="&#xdb;" horiz-adv-x="1406" d="M705 -28Q532 -28 418 41T253 239T224 541L337 1454H550L433 510Q412 337 493 235T724 133Q875 133 980 235T1106 510L1223 1454H1436L1323 541Q1303 370 1219 242T1002 43T705 -28ZM731 1519L619 1542L864 1780H1003L1194
1542L1071 1521L914 1637L731 1519Z" />
<glyph unicode="&#xdc;" horiz-adv-x="1406" d="M705 -28Q532 -28 418 41T253 239T224 541L337 1454H550L433 510Q412 337 493 235T724 133Q875 133 980 235T1106 510L1223 1454H1436L1323 541Q1303 370 1219 242T1002 43T705 -28ZM704 1570Q660 1570 632 1602T609
1680Q614 1726 651 1758T732 1790Q779 1790 807 1758T831 1680Q825 1634 788 1602T704 1570ZM1094 1570Q1049 1570 1020 1602T998 1680Q1003 1727 1040 1758T1122 1790Q1167 1790 1196 1758T1220 1680Q1213 1634 1176 1602T1094 1570Z" />
<glyph unicode="&#xdd;" horiz-adv-x="1341" d="M553 0L629 625L232 1454H475L846 675L764 0H553ZM913 753Q892 784 877 830T864 929T903 1034L1189 1454H1426L913 753ZM729 1531L936 1780H1150L959 1593Q924 1559 884 1543T803 1525T729 1531Z" />
<glyph unicode="&#xde;" horiz-adv-x="1218" d="M173 0L351 1454H559L522 1163Q573 1168 623 1171T729 1174Q891 1174 1005 1116T1175 956T1214 727Q1198 596 1120 502T929 354T694 289Q649 285 599 287T496 305Q515 341 543 372T608 423T687 444Q752 445 818
482T931 582T987 727Q997 808 964 872T864 974T709 1011Q655 1011 606 1008T501 999L381 0H173Z" />
<glyph unicode="&#xdf;" horiz-adv-x="1134" d="M784 -24Q724 -24 659 -11T504 50L574 189Q636 160 689 149T782 137Q841 137 886 176T938 276Q946 338 916 381T839 461T746 543T672 648T655 802Q666 889 734 965T915 1085Q924 1108 929 1130T938 1176Q948 1263
897 1318T767 1373Q710 1373 654 1345T556 1259T505 1110L369 0L169 -1L301 1089Q319 1226 382 1324T544 1474T765 1526Q889 1526 970 1479T1088 1352T1112 1176Q1105 1124 1082 1074T1014 964Q942 932 901 896T853 802Q845 741 875 699T952 618T1046 536T1119
428T1135 267Q1125 185 1073 119T945 15T784 -24Z" />
<glyph unicode="&#xe0;" horiz-adv-x="1156" d="M523 -12Q432 -22 359 14T235 122T164 292T157 503Q177 665 260 789T473 984T764 1055Q820 1055 875 1049T991 1030T1127 992L1045 325Q1032 222 1032 144T1037 7L880 0Q853 17 834 69T823 198L906 874Q862 885
824 889T747 894Q601 894 503 791T381 503Q369 404 384 320T446 190T579 156Q628 162 665 141T735 73Q681 38 625 16T523 -12ZM861 1204Q826 1195 786 1197T709 1216T646 1270L502 1480H719L861 1204Z" />
<glyph unicode="&#xe1;" horiz-adv-x="1156" d="M523 -12Q432 -22 359 14T235 122T164 292T157 503Q177 665 260 789T473 984T764 1055Q820 1055 875 1049T991 1030T1127 992L1045 325Q1032 222 1032 144T1037 7L880 0Q853 17 834 69T823 198L906 874Q862 885
824 889T747 894Q601 894 503 791T381 503Q369 404 384 320T446 190T579 156Q628 162 665 141T735 73Q681 38 625 16T523 -12ZM657 1204L867 1480H1084L888 1270Q853 1233 812 1216T731 1197T657 1204Z" />
<glyph unicode="&#xe2;" horiz-adv-x="1156" d="M523 -12Q432 -22 359 14T235 122T164 292T157 503Q177 665 260 789T473 984T764 1055Q820 1055 875 1049T991 1030T1127 992L1045 325Q1032 222 1032 144T1037 7L880 0Q853 17 834 69T823 198L906 874Q862 885
824 889T747 894Q601 894 503 791T381 503Q369 404 384 320T446 190T579 156Q628 162 665 141T735 73Q681 38 625 16T523 -12ZM600 1176L488 1199L739 1486H878L1063 1199L940 1177L789 1339L600 1176Z" />
<glyph unicode="&#xe3;" horiz-adv-x="1156" d="M523 -12Q432 -22 359 14T235 122T164 292T157 503Q177 665 260 789T473 984T764 1055Q820 1055 875 1049T991 1030T1127 992L1045 325Q1032 222 1032 144T1037 7L880 0Q853 17 834 69T823 198L906 874Q862 885
824 889T747 894Q601 894 503 791T381 503Q369 404 384 320T446 190T579 156Q628 162 665 141T735 73Q681 38 625 16T523 -12ZM580 1236L461 1248Q478 1361 538 1414T672 1469Q712 1469 744 1455T801 1417Q824 1395 842 1377T895 1359Q922 1359 940 1388T970 1468L1085
1456Q1071 1372 1038 1324T964 1255T885 1235Q841 1235 809 1248T752 1286Q729 1309 713 1327T665 1345Q641 1345 617 1321T580 1236Z" />
<glyph unicode="&#xe4;" horiz-adv-x="1156" d="M523 -12Q432 -22 359 14T235 122T164 292T157 503Q177 665 260 789T473 984T764 1055Q820 1055 875 1049T991 1030T1127 992L1045 325Q1032 222 1032 144T1037 7L880 0Q853 17 834 69T823 198L906 874Q862 885
824 889T747 894Q601 894 503 791T381 503Q369 404 384 320T446 190T579 156Q628 162 665 141T735 73Q681 38 625 16T523 -12ZM565 1230Q521 1230 493 1262T470 1340Q475 1386 512 1418T593 1450Q640 1450 668 1418T692 1340Q686 1294 649 1262T565 1230ZM955 1230Q910
1230 881 1262T859 1340Q864 1387 901 1418T983 1450Q1028 1450 1057 1418T1081 1340Q1074 1294 1037 1262T955 1230Z" />
<glyph unicode="&#xe5;" horiz-adv-x="1156" d="M523 -12Q432 -22 359 14T235 122T164 292T157 503Q177 665 260 789T473 984T764 1055Q820 1055 875 1049T991 1030T1127 992L1045 325Q1032 222 1032 144T1037 7L880 0Q853 17 834 69T823 198L906 874Q862 885
824 889T747 894Q601 894 503 791T381 503Q369 404 384 320T446 190T579 156Q628 162 665 141T735 73Q681 38 625 16T523 -12ZM751 1136Q662 1136 611 1186T569 1312Q580 1391 644 1443T797 1496Q887 1496 936 1445T974 1314Q965 1236 901 1186T751 1136ZM761 1220Q805
1220 833 1248T865 1316Q871 1357 850 1384T785 1412Q745 1412 717 1384T683 1312Q679 1278 699 1249T761 1220Z" />
<glyph unicode="&#xe6;" horiz-adv-x="1700" d="M420 -22Q263 -22 181 59T114 267Q125 363 186 431T373 544T709 610Q700 580 681 545T630 483T546 447Q467 435 422 410T357 352T332 283Q325 225 362 182T469 139Q589 139 668 241T770 526L783 637Q798 751 749
822T571 894Q518 894 464 883T333 846L298 984Q398 1026 480 1040T629 1055Q740 1055 821 996T935 839Q998 934 1108 995T1334 1056Q1439 1056 1515 1011T1633 887T1675 707T1623 492H1049Q1078 552 1122 593T1232 634H1465Q1483 707 1466 766T1405 862T1296 898Q1220
898 1154 857T1042 733T981 529Q966 412 995 324T1088 188T1241 139Q1310 139 1375 154T1532 212L1569 65Q1463 16 1370 -3T1198 -22Q1112 -22 1039 16T915 118T848 257Q806 168 739 106T589 11T420 -22Z" />
<glyph unicode="&#xe7;" horiz-adv-x="856" d="M569 -22Q434 -22 329 38T170 219T138 518Q161 693 245 813T449 994T702 1056Q756 1056 819 1046T941 1013L870 868Q818 882 771 888T681 895Q569 895 478 801T363 518Q348 391 374 307T457 181T589 139Q633 139
686 152T811 195L849 48Q763 9 691 -6T569 -22ZM416 -416Q382 -416 345 -407T263 -377L304 -285Q340 -299 369 -304T429 -310Q464 -310 498 -297T536 -252Q540 -216 504 -198T396 -172L461 -5L568 5L530 -96Q587 -104 633 -143T672 -246Q665 -306 625 -343T529
-398T416 -416Z" />
<glyph unicode="&#xe8;" horiz-adv-x="1099" d="M598 -22Q481 -22 394 21T253 140T178 315T170 528Q190 691 267 809T464 992T734 1056Q839 1056 915 1011T1033 887T1075 707T1023 492H449Q478 552 522 593T632 634H865Q883 707 866 766T805 862T696 898Q620 898
554 857T442 733T381 529Q366 412 395 324T488 188T641 139Q710 139 775 154T932 212L969 65Q863 16 770 -3T598 -22ZM826 1204Q791 1195 751 1197T674 1216T611 1270L467 1480H684L826 1204Z" />
<glyph unicode="&#xe9;" horiz-adv-x="1099" d="M598 -22Q481 -22 394 21T253 140T178 315T170 528Q190 691 267 809T464 992T734 1056Q839 1056 915 1011T1033 887T1075 707T1023 492H449Q478 552 522 593T632 634H865Q883 707 866 766T805 862T696 898Q620 898
554 857T442 733T381 529Q366 412 395 324T488 188T641 139Q710 139 775 154T932 212L969 65Q863 16 770 -3T598 -22ZM622 1204L832 1480H1049L853 1270Q818 1233 777 1216T696 1197T622 1204Z" />
<glyph unicode="&#xea;" horiz-adv-x="1099" d="M598 -22Q481 -22 394 21T253 140T178 315T170 528Q190 691 267 809T464 992T734 1056Q839 1056 915 1011T1033 887T1075 707T1023 492H449Q478 552 522 593T632 634H865Q883 707 866 766T805 862T696 898Q620 898
554 857T442 733T381 529Q366 412 395 324T488 188T641 139Q710 139 775 154T932 212L969 65Q863 16 770 -3T598 -22ZM565 1176L453 1199L704 1486H843L1028 1199L905 1177L754 1339L565 1176Z" />
<glyph unicode="&#xeb;" horiz-adv-x="1099" d="M598 -22Q481 -22 394 21T253 140T178 315T170 528Q190 691 267 809T464 992T734 1056Q839 1056 915 1011T1033 887T1075 707T1023 492H449Q478 552 522 593T632 634H865Q883 707 866 766T805 862T696 898Q620 898
554 857T442 733T381 529Q366 412 395 324T488 188T641 139Q710 139 775 154T932 212L969 65Q863 16 770 -3T598 -22ZM530 1230Q486 1230 458 1262T435 1340Q440 1386 477 1418T558 1450Q605 1450 633 1418T657 1340Q651 1294 614 1262T530 1230ZM920 1230Q875
1230 846 1262T824 1340Q829 1387 866 1418T948 1450Q993 1450 1022 1418T1046 1340Q1039 1294 1002 1262T920 1230Z" />
<glyph unicode="&#xec;" horiz-adv-x="525" d="M155 0L281 1034H497L371 0H155ZM768 1204Q733 1195 693 1197T616 1216T553 1270L409 1480H626L768 1204Z" />
<glyph unicode="&#xed;" horiz-adv-x="525" d="M155 0L281 1034H497L371 0H155ZM307 1204L517 1480H734L538 1270Q503 1233 462 1216T381 1197T307 1204Z" />
<glyph unicode="&#xee;" horiz-adv-x="525" d="M155 0L281 1034H497L371 0H155ZM506 1176L394 1199L645 1486H784L969 1199L846 1177L695 1339L506 1176Z" />
<glyph unicode="&#xef;" horiz-adv-x="525" d="M155 0L281 1034H497L371 0H155ZM472 1230Q428 1230 400 1262T377 1340Q382 1386 419 1418T500 1450Q547 1450 575 1418T599 1340Q593 1294 556 1262T472 1230ZM862 1230Q817 1230 788 1262T766 1340Q771 1387 808
1418T890 1450Q935 1450 964 1418T988 1340Q981 1294 944 1262T862 1230Z" />
<glyph unicode="&#xf0;" horiz-adv-x="1114" d="M559 -22Q420 -22 316 41T159 225T128 518Q149 686 232 806T435 991T688 1056Q746 1056 791 1039T882 981Q843 1052 802 1107T692 1219L432 1102L402 1196L600 1288Q559 1319 516 1344T425 1395L511 1521Q579 1489
646 1449T771 1363L1008 1470L1042 1374L858 1291Q901 1250 953 1176T1050 1001T1116 778T1121 518Q1101 349 1018 229T814 43T559 -22ZM578 139Q655 139 722 182T835 310T896 518Q912 641 887 725T804 852T671 895Q594 895 528 852T415 725T353 518Q338 394 363
310T444 183T578 139Z" />
<glyph unicode="&#xf1;" horiz-adv-x="1182" d="M806 0L897 747Q905 811 882 852T799 893Q776 893 758 888T711 878Q655 868 613 888T537 953Q649 1014 724 1035T857 1056Q934 1056 997 1025T1092 924T1110 734L1021 0H806ZM153 0L247 772Q253 828 253 891T246
1024L416 1034Q458 980 466 927T467 814L369 0H153ZM559 1236L440 1248Q457 1361 517 1414T651 1469Q691 1469 723 1455T780 1417Q803 1395 821 1377T874 1359Q901 1359 919 1388T949 1468L1064 1456Q1050 1372 1017 1324T943 1255T864 1235Q820 1235 788 1248T731
1286Q708 1309 692 1327T644 1345Q620 1345 596 1321T559 1236Z" />
<glyph unicode="&#xf2;" horiz-adv-x="1156" d="M569 -22Q434 -22 329 40T171 223T139 518Q156 656 212 757T349 925T522 1023T702 1056Q857 1056 959 985T1106 792T1132 518Q1116 389 1064 289T933 119T761 14T569 -22ZM589 139Q681 139 747 190T854 328T907
518Q923 641 898 725T815 852T682 895Q605 895 539 852T426 725T363 518Q343 351 401 245T589 139ZM822 1204Q787 1195 747 1197T670 1216T607 1270L463 1480H680L822 1204Z" />
<glyph unicode="&#xf3;" horiz-adv-x="1156" d="M569 -22Q434 -22 329 40T171 223T139 518Q156 656 212 757T349 925T522 1023T702 1056Q857 1056 959 985T1106 792T1132 518Q1116 389 1064 289T933 119T761 14T569 -22ZM589 139Q681 139 747 190T854 328T907
518Q923 641 898 725T815 852T682 895Q605 895 539 852T426 725T363 518Q343 351 401 245T589 139ZM618 1204L828 1480H1045L849 1270Q814 1233 773 1216T692 1197T618 1204Z" />
<glyph unicode="&#xf4;" horiz-adv-x="1156" d="M569 -22Q434 -22 329 40T171 223T139 518Q156 656 212 757T349 925T522 1023T702 1056Q857 1056 959 985T1106 792T1132 518Q1116 389 1064 289T933 119T761 14T569 -22ZM589 139Q681 139 747 190T854 328T907
518Q923 641 898 725T815 852T682 895Q605 895 539 852T426 725T363 518Q343 351 401 245T589 139ZM561 1176L449 1199L700 1486H839L1024 1199L901 1177L750 1339L561 1176Z" />
<glyph unicode="&#xf5;" horiz-adv-x="1156" d="M569 -22Q434 -22 329 40T171 223T139 518Q156 656 212 757T349 925T522 1023T702 1056Q857 1056 959 985T1106 792T1132 518Q1116 389 1064 289T933 119T761 14T569 -22ZM589 139Q681 139 747 190T854 328T907
518Q923 641 898 725T815 852T682 895Q605 895 539 852T426 725T363 518Q343 351 401 245T589 139ZM541 1236L422 1248Q439 1361 499 1414T633 1469Q673 1469 705 1455T762 1417Q785 1395 803 1377T856 1359Q883 1359 901 1388T931 1468L1046 1456Q1032 1372 999
1324T925 1255T846 1235Q802 1235 770 1248T713 1286Q690 1309 674 1327T626 1345Q602 1345 578 1321T541 1236Z" />
<glyph unicode="&#xf6;" horiz-adv-x="1156" d="M569 -22Q434 -22 329 40T171 223T139 518Q156 656 212 757T349 925T522 1023T702 1056Q857 1056 959 985T1106 792T1132 518Q1116 389 1064 289T933 119T761 14T569 -22ZM589 139Q681 139 747 190T854 328T907
518Q923 641 898 725T815 852T682 895Q605 895 539 852T426 725T363 518Q343 351 401 245T589 139ZM526 1230Q482 1230 454 1262T431 1340Q436 1386 473 1418T554 1450Q601 1450 629 1418T653 1340Q647 1294 610 1262T526 1230ZM916 1230Q871 1230 842 1262T820
1340Q825 1387 862 1418T944 1450Q989 1450 1018 1418T1042 1340Q1035 1294 998 1262T916 1230Z" />
<glyph unicode="&#xf7;" horiz-adv-x="1136" d="M159 537L177 683H1113L1095 537H159ZM573 118Q527 118 501 148T480 224Q487 272 521 303T601 334Q649 334 676 303T696 224Q691 178 656 148T573 118ZM667 883Q622 883 596 913T575 988Q581 1035 615 1066T695
1097Q742 1097 769 1066T789 988Q785 943 750 913T667 883Z" />
<glyph unicode="&#xf8;" horiz-adv-x="1156" d="M569 -22Q434 -22 329 40T171 223T139 518Q156 656 212 757T349 925T522 1023T702 1056Q857 1056 959 985T1106 792T1132 518Q1116 389 1064 289T933 119T761 14T569 -22ZM589 139Q681 139 747 190T854 328T907
518Q923 641 898 725T815 852T682 895Q605 895 539 852T426 725T363 518Q343 351 401 245T589 139ZM517 238Q487 277 480 337T508 452L1015 1156H1174L517 238ZM95 -122L272 128L385 54L260 -122H95Z" />
<glyph unicode="&#xf9;" horiz-adv-x="1188" d="M422 -22Q346 -22 285 9T192 110T175 300L265 1034H478L386 287Q378 223 400 182T482 141Q505 141 523 146T569 156Q626 167 668 147T745 81Q633 21 557 0T422 -22ZM866 0Q824 54 816 107T814 220L914 1034H1125L1031
262Q1024 207 1024 144T1033 10L866 0ZM828 1204Q793 1195 753 1197T676 1216T613 1270L469 1480H686L828 1204Z" />
<glyph unicode="&#xfa;" horiz-adv-x="1188" d="M422 -22Q346 -22 285 9T192 110T175 300L265 1034H478L386 287Q378 223 400 182T482 141Q505 141 523 146T569 156Q626 167 668 147T745 81Q633 21 557 0T422 -22ZM866 0Q824 54 816 107T814 220L914 1034H1125L1031
262Q1024 207 1024 144T1033 10L866 0ZM624 1204L834 1480H1051L855 1270Q820 1233 779 1216T698 1197T624 1204Z" />
<glyph unicode="&#xfb;" horiz-adv-x="1188" d="M422 -22Q346 -22 285 9T192 110T175 300L265 1034H478L386 287Q378 223 400 182T482 141Q505 141 523 146T569 156Q626 167 668 147T745 81Q633 21 557 0T422 -22ZM866 0Q824 54 816 107T814 220L914 1034H1125L1031
262Q1024 207 1024 144T1033 10L866 0ZM567 1176L455 1199L706 1486H845L1030 1199L907 1177L756 1339L567 1176Z" />
<glyph unicode="&#xfc;" horiz-adv-x="1188" d="M422 -22Q346 -22 285 9T192 110T175 300L265 1034H478L386 287Q378 223 400 182T482 141Q505 141 523 146T569 156Q626 167 668 147T745 81Q633 21 557 0T422 -22ZM866 0Q824 54 816 107T814 220L914 1034H1125L1031
262Q1024 207 1024 144T1033 10L866 0ZM532 1230Q488 1230 460 1262T437 1340Q442 1386 479 1418T560 1450Q607 1450 635 1418T659 1340Q653 1294 616 1262T532 1230ZM922 1230Q877 1230 848 1262T826 1340Q831 1387 868 1418T950 1450Q995 1450 1024 1418T1048
1340Q1041 1294 1004 1262T922 1230Z" />
<glyph unicode="&#xfd;" horiz-adv-x="1097" d="M183 -493Q143 -491 99 -484T13 -461L83 -316Q116 -325 145 -329T203 -333Q279 -333 331 -281T429 -137T531 74L956 1034L1168 1020L685 22Q629 -90 579 -184T474 -347T350 -454T183 -493ZM407 22L157 1034H382L503
414Q518 343 508 268T471 127T407 22ZM591 1204L801 1480H1018L822 1270Q787 1233 746 1216T665 1197T591 1204Z" />
<glyph unicode="&#xfe;" horiz-adv-x="1196" d="M112 -482L358 1516H561L395 167Q441 151 489 145T582 138Q718 138 810 247T924 531Q938 644 917 725T843 849T709 888Q658 885 625 915T565 995Q622 1021 683 1034T791 1048Q877 1048 948 1012T1069 909T1140 746T1148
531Q1128 371 1048 246T842 49T562 -23Q511 -23 469 -17T375 7L315 -482H112Z" />
<glyph unicode="&#xff;" horiz-adv-x="1097" d="M183 -493Q143 -491 99 -484T13 -461L83 -316Q116 -325 145 -329T203 -333Q279 -333 331 -281T429 -137T531 74L956 1034L1168 1020L685 22Q629 -90 579 -184T474 -347T350 -454T183 -493ZM407 22L157 1034H382L503
414Q518 343 508 268T471 127T407 22ZM499 1230Q455 1230 427 1262T404 1340Q409 1386 446 1418T527 1450Q574 1450 602 1418T626 1340Q620 1294 583 1262T499 1230ZM889 1230Q844 1230 815 1262T793 1340Q798 1387 835 1418T917 1450Q962 1450 991 1418T1015 1340Q1008
1294 971 1262T889 1230Z" />
<glyph unicode="&#x2013;" horiz-adv-x="1080" d="M147 477L165 623H1013L995 477H147Z" />
<glyph unicode="&#x2014;" horiz-adv-x="1698" d="M147 477L165 623H1643L1625 477H147Z" />
<glyph unicode="&#x2018;" horiz-adv-x="410" d="M477 1454L426 1046H233L253 1202Q259 1250 274 1299T316 1388T382 1447T477 1454Z" />
<glyph unicode="&#x2019;" horiz-adv-x="430" d="M259 1046L311 1454H504L484 1298Q478 1250 463 1200T421 1111T354 1052T259 1046Z" />
<glyph unicode="&#x201a;" horiz-adv-x="394" d="M84 -212L136 196H329L309 40Q303 -8 288 -58T246 -147T179 -206T84 -212Z" />
<glyph unicode="&#x201c;" horiz-adv-x="756" d="M469 1454L417 1046H224L244 1202Q250 1250 266 1299T308 1388T374 1447T469 1454ZM833 1454L782 1046H589L609 1202Q615 1250 630 1299T672 1388T738 1447T833 1454Z" />
<glyph unicode="&#x201d;" horiz-adv-x="767" d="M223 1046L275 1454H468L448 1298Q442 1250 427 1200T385 1111T318 1052T223 1046ZM587 1046L639 1454H832L812 1298Q806 1250 791 1200T749 1111T682 1052T587 1046Z" />
<glyph unicode="&#x201e;" horiz-adv-x="741" d="M327 -212L379 196H572L552 40Q546 -8 531 -58T489 -147T422 -206T327 -212ZM434 -212L486 196H679L659 40Q653 -8 638 -58T596 -147T529 -206T434 -212Z" />
<glyph unicode="&#x2022;" horiz-adv-x="1000" d="M571 472Q502 472 463 516T432 630Q440 699 491 745T611 792Q680 792 720 746T752 630Q745 561 693 517T571 472Z" />
<glyph unicode="&#x2039;" horiz-adv-x="1226" d="M834 97L443 516L937 935L1019 843L701 516L939 189L834 97Z" />
<glyph unicode="&#x203a;" horiz-adv-x="1226" d="M495 97L412 189L730 516L492 843L598 935L987 516L495 97Z" />
</font>
</defs>
</svg>
