<?xml version="1.0" standalone="no"?>
<!DOCTYPE svg PUBLIC "-//W3C//DTD SVG 1.1//EN" "http://www.w3.org/Graphics/SVG/1.1/DTD/svg11.dtd">
<svg xmlns="http://www.w3.org/2000/svg">
<defs >
<font id="Exo" horiz-adv-x="531" ><font-face
    font-family="Exo"
    units-per-em="1000"
    panose-1="0 0 0 0 0 0 0 0 0 0"
    ascent="1002"
    descent="-327"
    alphabetic="0" />
<glyph unicode=" " horiz-adv-x="239" />
<glyph unicode="!" horiz-adv-x="266" d="M133 199L208 735H288L191 199H133ZM108 -1Q95 -1 95 12Q95 13 95 13T95 15L108 95Q110 111 126 111H170Q184 111 184 99Q184 98 184 97T184 95L171 15Q170 7 165 3T152 -1H108Z" />
<glyph unicode="&quot;" horiz-adv-x="285" d="M129 507L148 679L158 746H235L225 679L190 507H129ZM255 507L274 679L284 746H361L351 679L316 507H255Z" />
<glyph unicode="#" horiz-adv-x="685" d="M150 0L224 230H59L75 281H242L296 448H127L144 499H314L391 732H442L365 499H519L595 732H646L570 499H745L729 448H554L500 281H675L659 230H481L406 0H355L430 230H275L201 0H150ZM294 281H449L503 448H347L294 281Z" />
<glyph unicode="$" horiz-adv-x="609" d="M401 727L395 763L439 824L446 790L401 727ZM260 -89L275 6L322 5L307 -89H260ZM301 -6Q260 -6 217 -4T137 3T72 12L81 72Q123 69 184 67T303 65Q351 65 387 74T446 107T476 177L484 225Q486 233 486 240T486 254Q486
294 462 312T382 331H293Q219 331 180 363T140 460Q140 478 143 499L153 562Q164 634 195 672T276 726T389 742Q408 742 436 741T495 736T555 730T605 721L596 660Q563 663 523 665T446 668T382 669Q338 669 306 660T255 626T228 555L221 507Q220 499 219 492T218
477Q218 437 241 422T310 406H401Q484 406 524 371T564 272Q564 254 561 232L551 165Q541 99 509 62T424 10T301 -6Z" />
<glyph unicode="%" horiz-adv-x="959" d="M226 0L785 732H839L283 0H226ZM232 349Q170 349 145 371T119 439Q119 457 122 477L142 604Q153 668 186 700T295 732H396Q457 732 483 710T509 642Q509 633 508 624T505 604L485 477Q475 413 442 381T333 349H232ZM248
400H333Q381 400 404 418T435 487L452 594Q454 603 454 610T455 624Q455 654 438 667T379 681H294Q249 681 225 665T192 594L175 487Q174 479 173 472T172 458Q172 426 190 413T248 400ZM680 3Q618 3 593 25T567 93Q567 111 570 131L590 258Q600 322 633 354T743
386H844Q906 386 932 364T958 296Q958 287 957 278T954 258L934 131Q924 67 891 35T781 3H680ZM697 54H781Q829 54 852 72T884 141L901 248Q903 257 903 264T904 278Q904 308 887 321T828 335H743Q698 335 674 319T640 248L623 141Q622 133 622 126T621 112Q621
80 639 67T697 54Z" />
<glyph unicode="&amp;" horiz-adv-x="673" d="M224 -6Q150 -6 105 38T60 157Q60 211 74 253T119 328T202 393L273 434L258 461Q239 495 232 525T225 581Q225 629 248 663T315 715T422 734Q457 734 483 732T531 727T570 721L561 664H424Q369 664 337 644T304 575Q304
553 311 528T337 472L493 200L666 341L689 307L608 210L528 143L613 0H529L467 103L429 73Q372 28 324 11T224 -6ZM247 68Q281 68 317 79T396 127L433 157L302 379L252 350Q207 325 183 299T150 243T141 174Q141 125 169 97T247 68Z" />
<glyph unicode="&apos;" horiz-adv-x="159" d="M129 507L148 679L158 746H235L225 679L190 507H129Z" />
<glyph unicode="(" horiz-adv-x="347" d="M218 -210Q187 -156 165 -96T132 33T121 176Q121 248 133 322T168 469T223 612T297 745T387 860H460Q401 791 354 710T272 540T220 361T201 185Q201 79 223 -19T292 -210H218Z" />
<glyph unicode=")" horiz-adv-x="346" d="M-11 -210Q50 -134 98 -51T180 120T231 297T249 473Q249 576 228 668T158 860H232Q265 802 286 742T318 618T329 479Q329 407 317 334T283 189T228 47T155 -87T63 -210H-11Z" />
<glyph unicode="*" horiz-adv-x="462" d="M364 522L339 558L466 641L481 614L364 522ZM391 414L280 483L311 525L414 440L391 414ZM204 402L175 412L226 547L272 537L204 402ZM132 584L137 616L279 625L274 578L132 584ZM319 590L289 723L321 733L366 609L319 590Z" />
<glyph unicode="+" horiz-adv-x="609" d="M293 132L363 580H429L359 132H293ZM131 323L142 389H590L579 323H131Z" />
<glyph unicode="," horiz-adv-x="200" d="M78 -78Q68 -78 61 -77T53 -75L57 -50Q68 -50 74 -47T81 -33L87 5H79Q65 5 65 18Q65 19 65 21T66 28L77 93Q79 111 96 111H139Q152 111 152 98Q152 97 152 94T151 87L132 -29Q129 -49 120 -60T100 -74T78 -78Z" />
<glyph unicode="-" horiz-adv-x="338" d="M63 257L74 323H368L357 257H63Z" />
<glyph unicode="." horiz-adv-x="200" d="M78 -1Q64 -1 64 12Q64 13 64 13T64 15L77 95Q80 111 96 111H140Q154 111 154 99Q154 98 154 97T154 95L141 15Q139 7 134 3T122 -1H78Z" />
<glyph unicode="/" horiz-adv-x="402" d="M11 -72L425 770H502L88 -72H11Z" />
<glyph unicode="0" horiz-adv-x="655" d="M258 -2Q212 -2 177 12T121 56T101 133Q101 142 102 152T104 173L165 563Q175 622 205 661T279 721T376 742H520Q599 742 635 705T671 606Q671 596 671 586T668 563L606 173Q592 82 537 40T401 -2H258ZM285 69H395Q456
69 488 99T529 183L588 557Q589 565 589 572T590 585Q590 628 566 649T493 670H378Q324 670 289 641T244 557L185 183Q184 176 183 170T182 157Q182 113 209 91T285 69Z" />
<glyph unicode="1" horiz-adv-x="362" d="M195 0L300 661L141 616L150 667L319 736H391L275 0H195Z" />
<glyph unicode="2" horiz-adv-x="593" d="M54 0L64 65L365 326Q449 400 486 461T524 572Q524 600 512 621T470 655T388 667H186L196 728Q240 732 295 737T408 742Q481 742 523 723T584 669T603 591Q603 525 561 449T423 289L177 73H557L545 0H54Z" />
<glyph unicode="3" horiz-adv-x="585" d="M309 -6Q230 -6 162 -3T44 7L54 65H295Q338 65 373 74T431 109T463 179Q468 206 470 223T473 245Q473 278 455 297T410 326T351 336L171 343L181 398L368 406Q422 408 459 431T504 504Q509 534 510 548T512 567T513 577Q513
623 479 646T384 670H174L184 728Q229 734 288 738T419 742Q479 742 517 726T575 680T595 604Q595 598 595 590T592 563T583 506Q577 472 563 448T529 407T490 383T455 371Q469 368 485 360T517 337T542 301T552 250Q552 241 549 221T541 168Q527 83 467 39T309
-6Z" />
<glyph unicode="4" horiz-adv-x="595" d="M391 1L421 188H74L63 231L420 736H501L159 256H432L463 452L490 520H552L511 256H611L603 201L500 188L470 1H391Z" />
<glyph unicode="5" horiz-adv-x="630" d="M337 -5Q275 -5 214 -2T104 6L115 67H350Q395 67 430 81T489 123T517 188L530 268Q532 276 532 283T533 297Q533 339 507 361T426 384H347Q301 384 272 364T228 301H152L242 736H659L647 664H306L252 401Q266 421 297
436T373 452H460Q537 452 575 415T614 318Q614 309 614 300T612 282L594 173Q585 113 550 74T461 15T337 -5Z" />
<glyph unicode="6" horiz-adv-x="623" d="M274 -3Q226 -3 190 15T135 78T115 206Q115 291 126 370T163 516T227 634T322 713T449 742Q492 742 542 739T631 731L621 670H439Q386 670 340 641T262 553T215 405Q245 409 282 411T356 414T420 415Q479 415 519 404T582
367T604 297Q604 289 603 280T600 261L584 158Q575 99 547 64T477 13T388 -3H274ZM298 69H384Q414 69 439 77T483 107T507 170L519 248Q521 256 521 262T522 274Q522 304 506 320T461 341T391 347H205Q200 307 197 274T193 213Q193 157 205 126T241 82T298 69Z"
/>
<glyph unicode="7" horiz-adv-x="543" d="M149 0L514 656H143L156 736H601L620 695L242 0H149Z" />
<glyph unicode="8" horiz-adv-x="643" d="M257 -2Q201 -2 167 12T117 52T101 110Q101 118 102 126T104 142L121 250Q127 286 145 311T188 352T235 373Q201 389 187 414T172 468Q172 477 173 485T176 503L189 588Q198 645 225 678T291 726T375 741H518Q580 741
612 716T644 631Q644 621 643 611T640 587L627 503Q624 486 617 467T598 431T570 401T533 383Q571 375 588 348T605 285Q605 278 604 271T602 256L584 144Q576 91 551 59T487 13T399 -2H257ZM282 66H390Q444 66 472 88T507 155L522 248Q523 255 523 261T524 273Q524
309 502 325T430 341H325Q310 341 290 336T252 321T219 292T200 248L186 155Q185 150 185 146T184 136Q184 98 211 82T282 66ZM336 409H440Q476 409 498 423T533 458T549 501L560 570Q562 580 562 588T563 604Q563 642 544 657T487 673H379Q326 673 300 649T264
570L253 501Q252 496 252 491T251 480Q251 449 271 429T336 409Z" />
<glyph unicode="9" horiz-adv-x="623" d="M465 740Q514 740 549 722T605 659T625 531Q625 446 613 367T577 221T513 103T418 24T290 -5Q248 -5 198 -2T109 6L119 67H300Q354 67 399 96T477 184T525 332Q494 328 457 326T384 323T320 322Q262 322 221 333T158 370T136
440Q136 448 137 457T139 476L156 579Q165 638 193 673T263 724T351 740H465ZM441 668H355Q326 668 300 660T256 630T232 567L220 489Q219 482 218 476T217 463Q217 433 233 417T278 396T349 390H534Q540 431 543 464T546 524Q546 580 534 611T498 655T441 668Z"
/>
<glyph unicode=":" horiz-adv-x="200" d="M78 -1Q64 -1 64 12Q64 13 64 13T64 15L77 95Q80 111 96 111H140Q154 111 154 99Q154 98 154 97T154 95L141 15Q139 7 134 3T122 -1H78ZM145 422Q131 422 131 435Q131 436 131 436T131 438L144 518Q147 534 163 534H207Q221
534 221 522Q221 521 221 520T221 518L208 438Q206 430 201 426T189 422H145Z" />
<glyph unicode=";" horiz-adv-x="200" d="M145 422Q131 422 131 435Q131 436 131 436T131 438L144 518Q147 534 163 534H207Q221 534 221 522Q221 521 221 520T221 518L208 438Q206 430 201 426T189 422H145ZM78 -78Q68 -78 61 -77T53 -75L57 -50Q68 -50 74 -47T81
-33L87 5H79Q65 5 65 18Q65 19 65 21T66 28L77 93Q79 111 96 111H139Q152 111 152 98Q152 97 152 94T151 87L132 -29Q129 -49 120 -60T100 -74T78 -78Z" />
<glyph unicode="&lt;" horiz-adv-x="609" d="M527 177L134 313L145 385L581 519L570 450L215 349L538 246L527 177Z" />
<glyph unicode="=" horiz-adv-x="609" d="M368 459L379 525H827L816 459H368ZM150 443L161 509H609L598 443H150Z" />
<glyph unicode="&gt;" horiz-adv-x="609" d="M135 177L146 246L502 350L178 450L189 519L583 385L572 313L135 177Z" />
<glyph unicode="?" d="M201 199L226 356H277Q331 356 366 366T421 402T448 471L457 530Q459 543 460 553T461 573Q461 624 432 646T343 668Q292 668 246 659T145 629L154 686Q210 713 265 726T378 739Q466 739 504 701T543 596Q543 570 538 541L527 470Q513 381
454 337T278 293L263 199H201ZM182 -1Q168 -1 168 12Q168 13 168 13T168 15L181 95Q183 111 200 111H244Q257 111 257 99Q257 98 257 97T257 95L244 15Q243 7 238 3T226 -1H182Z" />
<glyph unicode="@" horiz-adv-x="914" d="M230 -186Q171 -186 132 -164T74 -103T55 -19Q55 -8 56 3T59 25L139 521Q146 567 163 602T209 662T278 699T372 712H754Q809 712 845 693T899 639T917 556Q917 530 913 501L865 177Q861 151 849 121T812 63T752 18T663
0H606L596 60Q585 47 564 35T516 14T461 0T408 -6Q366 -6 330 11T273 70T252 180Q252 296 289 376T387 499T521 542Q582 542 634 526T721 477L658 56Q676 56 697 59T740 76T778 114T801 183L850 508Q852 520 853 530T854 551Q854 608 822 630T739 652H362Q306 652
273 632T223 579T201 508L123 19Q120 2 120 -14Q120 -67 151 -96T238 -126H622L616 -170Q591 -174 547 -177T445 -183T325 -186H230ZM424 58Q466 58 513 68T602 112L652 449Q614 468 583 474T518 481Q462 481 416 446T343 346T316 189Q316 138 331 110T370 70T424
58Z" />
<glyph unicode="A" horiz-adv-x="676" d="M35 0L408 736H510L642 0H559L521 210H224L117 0H35ZM256 281H513L447 664L256 281Z" />
<glyph unicode="B" horiz-adv-x="614" d="M73 0L189 736H445Q510 736 549 719T605 669T622 593Q622 581 621 569T618 543Q608 478 571 437T482 385Q507 378 532 361T573 313T589 235Q589 225 589 212T583 178Q567 89 508 45T342 0H73ZM163 71H353Q404 71 435 87T484
132T510 203Q513 214 513 224T514 242Q514 293 482 321T397 350H207L163 71ZM216 413H405Q462 413 494 444T539 529Q541 542 542 553T544 575Q544 623 515 643T429 664H256L216 413Z" />
<glyph unicode="C" horiz-adv-x="590" d="M317 -6Q206 -6 156 54T105 226Q105 263 109 305T120 383Q138 499 174 579T269 700T419 742Q496 742 551 732T644 711L633 650Q585 659 535 664T429 670Q380 670 343 654T279 602T232 508T198 366Q193 331 189 293T184
226Q184 141 218 103T337 65Q411 65 455 68T542 78L532 18Q483 5 427 0T317 -6Z" />
<glyph unicode="D" horiz-adv-x="674" d="M72 0L189 736H453Q541 736 591 706T661 619T682 480Q682 448 679 416T670 351Q658 271 633 207T567 96T471 25T339 0H72ZM162 71H345Q402 71 444 93T515 156T563 250T592 368Q597 401 600 429T603 479Q603 541 588 582T537
643T434 664H256L162 71Z" />
<glyph unicode="E" horiz-adv-x="578" d="M227 -6Q201 -6 175 -1T128 21T97 66T94 143L165 590Q174 647 199 678T259 723T334 736Q409 735 483 733T634 727L623 663H342Q301 663 276 642T241 571L215 403L537 395L527 334L203 330L176 157Q171 121 180 102T208
75T256 68H530L520 4Q449 1 376 -2T227 -6Z" />
<glyph unicode="F" horiz-adv-x="553" d="M72 0L165 587Q175 648 200 680T261 724T333 736Q412 735 486 733T633 726L623 662H340Q297 662 273 641T241 571L213 393L536 386L526 325L202 320L151 0H72Z" />
<glyph unicode="G" horiz-adv-x="646" d="M295 -6Q191 -6 148 49T104 222Q104 260 108 302T120 388Q138 498 174 577T273 700T429 743Q511 743 566 734T666 711L657 651Q617 659 561 665T434 672Q360 672 313 638T240 536T198 368Q184 281 184 222Q184 143 216
105T320 67Q344 67 372 71T429 81T481 94T517 106L552 325H374L383 386Q410 390 452 391T553 393Q566 393 581 393T612 392T639 390L577 0H519L514 52Q501 45 476 35T420 16T356 1T295 -6Z" />
<glyph unicode="H" horiz-adv-x="666" d="M72 0L189 736H268L214 395H581L635 736H714L598 0H518L569 323H202L151 0H72Z" />
<glyph unicode="I" horiz-adv-x="223" d="M72 0L189 736H268L151 0H72Z" />
<glyph unicode="J" horiz-adv-x="351" d="M139 -6Q106 -6 78 1T32 18L42 79Q63 72 85 70T128 67Q178 67 208 96T250 187L337 736H416L327 173Q312 79 267 37T139 -6Z" />
<glyph unicode="K" horiz-adv-x="597" d="M72 0L189 736H268L215 405H345L593 736H676L404 368L573 0H492L338 333H204L151 0H72Z" />
<glyph unicode="L" horiz-adv-x="524" d="M221 0Q163 0 128 24T92 110Q92 121 93 130T96 150L189 736H268L176 159Q175 151 175 145T174 131Q174 95 195 83T249 71H511L500 0H221Z" />
<glyph unicode="M" horiz-adv-x="814" d="M58 0L259 736H333L435 106L738 736H811L780 0H703L730 590L456 0H382L294 588L137 0H58Z" />
<glyph unicode="N" horiz-adv-x="669" d="M72 0L189 736H253L542 135L637 736H717L600 0H535L247 602L151 0H72Z" />
<glyph unicode="O" horiz-adv-x="686" d="M341 -6Q285 -6 241 3T166 35T119 101T103 212Q103 247 107 288T118 378Q136 488 163 559T232 669T329 725T461 742Q515 742 558 732T633 697T682 628T699 514Q699 481 695 439T683 348Q666 237 638 168T568 60T471 8T341
-6ZM354 66Q410 66 450 78T520 123T569 212T604 361Q611 407 615 446T619 514Q619 580 599 613T542 658T449 670Q395 670 354 658T284 613T233 520T197 365Q191 320 187 282T182 215Q182 154 200 122T257 78T354 66Z" />
<glyph unicode="P" horiz-adv-x="600" d="M72 0L189 736H468Q515 736 553 721T613 669T636 567Q636 554 634 534T629 496Q619 429 596 385T541 316T473 281T402 271Q352 271 296 274T196 282L151 0H72ZM205 342H394Q431 342 462 357T517 407T550 503Q552 518 554
534T556 560Q556 617 529 640T452 664H256L205 342Z" />
<glyph unicode="Q" horiz-adv-x="686" d="M488 -171Q445 -171 411 -157T357 -113T335 -36H389Q398 -78 422 -95T488 -112Q507 -112 525 -109T560 -102L551 -162Q522 -171 488 -171ZM341 -6Q285 -6 241 3T166 35T119 101T103 212Q103 247 107 288T118 378Q136 488
163 559T232 669T329 725T461 742Q515 742 558 732T633 697T682 628T699 514Q699 481 695 439T683 348Q666 237 638 168T568 60T471 8T341 -6ZM354 66Q410 66 450 78T520 123T569 212T604 361Q611 407 615 446T619 514Q619 580 599 613T542 658T449 670Q395 670
354 658T284 613T233 520T197 365Q191 320 187 282T182 215Q182 154 200 122T257 78T354 66Z" />
<glyph unicode="R" horiz-adv-x="617" d="M72 0L189 736H456Q490 736 522 728T579 701T619 650T634 567Q634 553 633 538T628 507Q619 449 600 413T557 356T508 327T463 314L563 0H483L389 303Q373 303 349 303T297 304T244 305T200 307L151 0H72ZM209 367H399Q435
367 465 378T517 421T548 513Q550 525 551 536T552 556Q552 601 536 624T494 655T441 664H256L209 367Z" />
<glyph unicode="S" horiz-adv-x="569" d="M301 -6Q260 -6 217 -4T137 3T72 12L81 72Q123 69 184 67T303 65Q351 65 387 74T446 107T476 177L484 225Q486 233 486 240T486 254Q486 294 462 312T382 331H293Q219 331 180 363T140 460Q140 478 143 499L153 562Q164
634 195 672T276 726T389 742Q408 742 436 741T495 736T555 730T605 721L596 660Q563 663 523 665T446 668T382 669Q338 669 306 660T255 626T228 555L221 507Q220 499 219 492T218 477Q218 437 241 422T310 406H401Q484 406 524 371T564 272Q564 254 561 232L551
165Q541 99 509 62T424 10T301 -6Z" />
<glyph unicode="T" horiz-adv-x="605" d="M258 0L363 664H132L143 736H685L673 664H442L337 0H258Z" />
<glyph unicode="U" horiz-adv-x="676" d="M339 -6Q228 -6 170 40T112 200Q112 226 115 260T124 330L189 736H268L202 320Q197 288 194 258T190 205Q190 127 229 96T346 65Q393 65 429 74T494 110T542 186T576 320L642 736H721L654 310Q638 208 610 145T543 50T452
6T339 -6Z" />
<glyph unicode="V" horiz-adv-x="676" d="M283 0L152 736H234L348 86L676 736H758L385 0H283Z" />
<glyph unicode="W" horiz-adv-x="1003" d="M247 0L152 736H234L316 111L571 736H651L701 112L989 736H1071L735 0H649L594 621L333 0H247Z" />
<glyph unicode="X" horiz-adv-x="617" d="M496 0L337 338L148 736H236L396 392L583 0H496ZM35 0L334 389L366 316L125 0H35ZM397 342L365 411L614 736H704L397 342Z" />
<glyph unicode="Y" horiz-adv-x="613" d="M258 0L296 240L140 736H227L348 330L615 736H706L375 240L337 0H258Z" />
<glyph unicode="Z" horiz-adv-x="560" d="M40 0L51 68L523 664H145L157 736H626L615 667L143 71H531L519 0H40Z" />
<glyph unicode="[" horiz-adv-x="333" d="M216 -210Q163 -210 135 -190T96 -138T85 -75Q85 -61 86 -47T90 -22L198 660Q203 692 214 724T247 782T301 825T382 842H445L435 777H391Q349 777 318 748T276 650L169 -18Q168 -28 167 -37T166 -57Q166 -97 185 -121T245
-145H289L279 -210H216Z" />
<glyph unicode="\" horiz-adv-x="402" d="M292 -72L144 770H221L369 -72H292Z" />
<glyph unicode="]" horiz-adv-x="333" d="M-11 -210L-1 -145H42Q77 -145 100 -129T138 -84T158 -18L264 650Q266 662 266 671T267 690Q267 737 246 757T188 777H145L155 842H218Q269 842 297 824T337 776T349 711Q349 698 348 686T345 660L237 -22Q232 -49 222
-81T191 -143T137 -191T52 -210H-11Z" />
<glyph unicode="^" horiz-adv-x="398" d="M139 531L282 664H338L427 531H379L302 625L188 531H139Z" />
<glyph unicode="_" horiz-adv-x="609" d="M-26 -164L-16 -97H593L583 -164H-26Z" />
<glyph unicode="`" horiz-adv-x="215" d="M247 631L143 767H211L293 631H247Z" />
<glyph unicode="a" horiz-adv-x="564" d="M241 -6Q197 -6 161 12T104 71T83 175Q83 200 86 228T94 278Q108 368 140 425T228 511T368 540Q405 540 443 534T515 514T573 480L497 0H429L427 57Q413 46 382 32T314 6T241 -6ZM272 59Q320 59 359 74T434 108L487 446Q473
455 441 464T364 474Q302 474 264 452T204 385T171 268Q167 242 165 222T162 187Q162 123 192 91T272 59Z" />
<glyph unicode="b" horiz-adv-x="570" d="M333 -6Q301 -6 268 2T206 25T157 54L136 0H68L189 763H269L225 486Q270 512 321 526T407 540Q479 540 524 495T570 360Q570 337 567 307T558 244Q547 168 517 112T441 25T333 -6ZM313 59Q386 59 426 111T482 265Q486
289 488 310T490 349Q490 418 460 446T383 474Q343 474 300 462T216 430L165 105Q194 87 229 73T313 59Z" />
<glyph unicode="c" horiz-adv-x="480" d="M273 -6Q217 -6 175 10T109 69T85 188Q85 206 88 230T95 282Q110 375 143 432T227 514T342 540Q381 540 429 535T517 524L508 477H356Q309 477 272 458T210 392T172 265Q168 242 166 225T164 194Q164 140 179 110T224
68T297 56H454L447 10Q414 3 372 -1T273 -6Z" />
<glyph unicode="d" horiz-adv-x="567" d="M241 -6Q171 -6 128 39T85 172Q85 227 96 281Q111 360 137 418T217 508T362 540Q401 540 434 534T500 512L540 763H619L498 0H431L428 57Q406 42 376 28T312 4T241 -6ZM269 59Q317 59 357 74T436 108L489 446Q463 460
434 467T364 474Q303 474 266 453T207 386T172 266Q169 244 167 224T164 186Q164 139 178 112T216 72T269 59Z" />
<glyph unicode="e" horiz-adv-x="548" d="M303 -6Q226 -6 178 15T108 78T86 181Q86 211 89 239T97 294Q109 375 141 430T230 513T368 542Q410 542 445 535T505 511T545 466T559 396Q559 343 539 309T483 255T403 229T310 221Q263 221 225 225T168 236Q166 221
165 206T164 175Q164 112 202 84T330 55H492L484 7Q453 3 404 -1T303 -6ZM283 270Q344 270 389 280T459 316T484 388Q484 438 454 459T362 480Q301 480 263 457T204 388T173 279Q195 276 224 273T283 270Z" />
<glyph unicode="f" horiz-adv-x="373" d="M107 0L181 467H99L108 518L191 534L205 616Q210 644 218 671T245 720T293 756T369 769Q400 769 431 767T487 762L478 705H379Q344 705 325 693T296 656T281 598L271 534H433L422 467H260L186 0H107Z" />
<glyph unicode="g" horiz-adv-x="566" d="M196 -235L51 -228L60 -174H222Q268 -174 308 -163T375 -124T410 -52L428 57Q398 37 364 23T295 1T231 -6Q189 -6 156 15T104 76T85 170Q85 196 88 227T96 287Q107 353 128 401T183 479T263 524T373 540Q442 540 496 533T580
518L487 -63Q478 -117 451 -152T384 -207T296 -232T196 -235ZM266 59Q310 59 349 71T435 108L492 467Q462 470 431 472T368 474Q310 477 271 457T209 392T174 278Q170 247 167 226T164 183Q164 120 193 90T266 59Z" />
<glyph unicode="h" horiz-adv-x="576" d="M68 0L189 763H269L223 475Q264 503 318 522T434 542Q500 542 534 509T569 411Q569 388 565 360L508 0H429L484 348Q485 358 486 367T487 384Q487 432 462 451T393 470Q340 470 300 456T213 414L148 0H68Z" />
<glyph unicode="i" horiz-adv-x="215" d="M180 629Q173 629 169 633T166 645L179 723Q182 739 197 739H254Q262 739 264 735T266 723L254 645Q251 629 236 629H180ZM68 0L153 534H232L148 0H68Z" />
<glyph unicode="j" horiz-adv-x="215" d="M180 629Q173 629 169 633T166 645L179 723Q182 739 197 739H254Q262 739 264 735T266 723L254 645Q251 629 236 629H180ZM30 -237L153 534H232L147 -4Q137 -63 122 -122T88 -237H30Z" />
<glyph unicode="k" horiz-adv-x="526" d="M68 0L189 763H269L198 319Q258 323 308 345T395 413T454 534H533Q513 462 483 415T419 339T349 294L505 0H422L281 270Q259 264 233 261T189 258L148 0H68Z" />
<glyph unicode="l" horiz-adv-x="293" d="M215 0Q154 0 122 28T90 107Q90 128 92 147T97 182L189 763H269L180 205Q179 196 177 183T173 155T171 127Q171 93 187 80T231 62L283 57L274 0H215Z" />
<glyph unicode="m" horiz-adv-x="936" d="M68 0L153 534H216L223 475Q266 503 318 522T432 542Q489 542 519 521T565 461Q613 499 672 520T788 542Q858 542 894 510T930 412Q930 399 929 383T924 354L868 0H789L845 353Q846 359 847 367T848 384Q848 470 751 470Q698
470 655 453T566 407Q567 395 567 380T563 345L508 0H429L484 345Q485 358 486 366T487 385Q487 423 466 446T392 470Q338 470 298 455T213 414L148 0H68Z" />
<glyph unicode="n" horiz-adv-x="576" d="M68 0L153 534H216L223 475Q265 504 318 523T431 542Q481 542 511 525T555 480T569 416Q569 403 568 385T559 323L508 0H429L479 320Q484 351 485 363T487 385Q487 422 466 446T392 470Q340 470 300 456T213 414L148 0H68Z" />
<glyph unicode="o" horiz-adv-x="566" d="M282 -6Q222 -6 178 12T110 70T86 175Q86 200 88 224T94 273Q107 353 128 405T181 486T260 528T368 540Q443 540 485 519T546 456T565 352Q565 329 562 302T555 246Q540 148 508 93T421 16T282 -6ZM292 59Q332 59 362
67T414 96T451 157T476 259Q481 288 483 311T485 355Q485 421 456 448T357 476Q315 476 285 467T233 434T197 369T172 259Q168 236 166 216T164 178Q164 129 180 104T225 69T292 59Z" />
<glyph unicode="p" horiz-adv-x="565" d="M30 -237L151 523Q201 531 260 535T394 540Q480 540 522 495T565 357Q565 331 562 304T555 254Q542 172 512 114T431 25T306 -6Q262 -6 225 1T151 25L110 -237H30ZM299 62Q355 62 390 85T447 155T479 270Q481 286 484
306T487 345Q487 409 460 442T375 474L221 473L160 87Q188 78 208 73T250 65T299 62Z" />
<glyph unicode="q" horiz-adv-x="564" d="M380 -237L426 57Q380 25 326 10T231 -6Q161 -6 123 42T85 170Q85 196 88 223T95 280Q106 347 127 396T181 477T263 524T376 540Q431 540 488 534T579 518L459 -237H380ZM266 59Q310 59 351 73T435 108L491 467Q463 470
436 472T380 474Q313 477 271 456T207 388T173 272Q169 246 167 224T164 183Q164 122 192 91T266 59Z" />
<glyph unicode="r" horiz-adv-x="395" d="M69 0L153 534H220L222 468Q254 496 295 518T386 540Q405 540 421 539T451 533L439 453Q424 456 407 457T370 459Q322 459 283 443T212 407L148 0H69Z" />
<glyph unicode="s" horiz-adv-x="507" d="M273 -6Q249 -6 219 -5T158 -3T101 2T60 8L68 56H290Q337 56 366 72T403 127L409 164Q410 169 410 172T410 178Q410 232 341 232H243Q199 232 168 241T121 271T105 323Q105 333 106 343T109 366L116 408Q123 448 143 477T202
523T307 540Q334 540 372 538T446 533T507 525L499 478H292Q241 478 218 460T188 404L182 372Q180 360 180 353T179 340Q179 318 197 309T257 299H359Q415 299 450 273T485 197Q485 190 485 182T483 165L475 117Q464 50 411 22T273 -6Z" />
<glyph unicode="t" horiz-adv-x="385" d="M268 0Q201 0 167 29T133 114Q133 135 136 156T143 200L188 469H103L111 520L200 534L237 683H298L274 534H427L417 469H264L221 200Q219 185 216 167T213 132Q213 100 229 84T281 64L345 58L335 0H268Z" />
<glyph unicode="u" horiz-adv-x="576" d="M228 -6Q158 -6 125 27T91 118Q91 136 92 149T95 175L152 534H231L176 180Q175 173 174 165T173 148Q173 107 196 86T267 65Q320 65 360 79T447 119L512 534H592L507 0H440L437 59Q407 40 376 25T309 2T228 -6Z" />
<glyph unicode="v" horiz-adv-x="538" d="M212 0L95 534H176L269 78L451 411Q467 443 476 473T492 542H561Q561 501 547 459T510 376L301 0H212Z" />
<glyph unicode="w" horiz-adv-x="821" d="M195 0L95 534H176L254 80L445 534H502L583 78L739 427Q745 440 751 459T763 501T771 542H844Q844 519 839 493T824 441T805 394L615 0H530L457 409L279 0H195Z" />
<glyph unicode="x" horiz-adv-x="528" d="M418 0L280 239L109 534H190L338 281L500 0H418ZM28 0L278 289L300 216L112 0H28ZM334 240L306 307L494 534H581L334 240Z" />
<glyph unicode="y" horiz-adv-x="557" d="M97 -237V-178Q145 -167 195 -127T286 0Q255 4 230 14T189 51T165 125L98 534H179L236 142Q241 112 252 96T280 75T313 68L480 434Q489 457 498 485T510 542H580Q580 505 572 467T542 385L361 4Q321 -80 280 -130T194
-205T97 -237Z" />
<glyph unicode="z" horiz-adv-x="499" d="M54 1L63 60L424 469H115L125 534H525L516 474L155 66H465Q465 66 465 59T462 43T459 23T456 7T454 1H54Z" />
<glyph unicode="{" horiz-adv-x="310" d="M275 -210Q211 -210 176 -195T125 -152T110 -89Q110 -74 115 -39T127 39T142 124T155 197T160 238Q160 269 144 282T89 296L100 371Q117 373 137 379T172 398T191 438L226 656Q236 720 259 761T327 822T442 842L431 777Q394
777 369 767T328 729T303 642L269 427Q262 384 233 362T166 334Q204 328 223 307T242 255Q242 248 239 224T230 167T218 96T206 25T197 -33T193 -67Q193 -112 215 -130T284 -148L275 -210Z" />
<glyph unicode="|" horiz-adv-x="253" d="M82 -72L215 770H281L148 -72H82Z" />
<glyph unicode="}" horiz-adv-x="310" d="M-10 -210L0 -148Q39 -148 64 -136T105 -98T127 -27L167 224Q173 260 199 284T268 314Q236 318 215 336T194 389Q194 401 198 432T208 503T221 582T232 651T236 691Q236 740 213 758T147 777L157 842Q217 842 252 825T302
778T318 707Q318 702 315 680T307 626T297 559T286 491T278 436T275 407Q275 385 286 374T314 358T346 351L334 276Q302 276 276 261T244 209L205 -38Q199 -75 187 -106T151 -161T89 -197T-10 -210Z" />
<glyph unicode="~" horiz-adv-x="451" d="M374 538Q358 538 343 547T315 568T287 589T260 598Q232 598 208 586T154 553L147 580Q174 605 204 624T268 644Q283 644 298 635T327 613T354 592T380 583Q400 583 419 591T454 610T484 632L492 603Q466 578 437 558T374 538Z" />
<glyph unicode="&#xa0;" horiz-adv-x="239" />
<glyph unicode="&#xa1;" horiz-adv-x="266" d="M217 336L142 -200H63L159 336H217ZM242 536Q255 536 255 523Q255 522 255 522T255 520L243 440Q241 424 224 424H180Q166 424 166 436Q166 437 166 438T166 440L179 520Q180 529 185 532T198 536H242Z" />
<glyph unicode="&#xa2;" horiz-adv-x="487" d="M225 -86L238 -5Q193 -3 157 12T99 65T77 175Q77 251 95 316T147 430T226 507T325 536L339 623H386L373 535Q406 532 444 525T517 507L510 460Q482 466 441 470T346 474Q302 474 267 451T208 386T170 291T157 177Q157
128 171 102T211 67T275 57Q316 57 347 59T405 66T455 75L447 27Q401 11 365 5T285 -5L273 -86H225Z" />
<glyph unicode="&#xa3;" horiz-adv-x="609" d="M63 0L73 59L184 71L225 334L117 340L124 382L235 392L255 518Q268 604 301 652T384 719T501 738Q543 738 582 735T648 728L637 666H493Q449 666 417 656T365 615T335 525L314 392L527 385L520 340L304 334L263 71H555L544
0H63Z" />
<glyph unicode="&#xa4;" horiz-adv-x="609" d="M339 191Q298 191 266 210T214 262T195 334Q195 387 220 429T287 496T383 521Q425 521 457 502T509 450T528 378Q528 326 503 284T435 216T339 191ZM135 129L104 166L229 274L262 237L135 129ZM516 129L426 235L468
272L557 166L516 129ZM342 238Q381 238 412 254T462 300T481 374Q481 416 453 445T380 474Q342 474 311 457T262 410T243 338Q243 297 271 268T342 238ZM252 442L165 546L206 583L294 479L252 442ZM495 440L465 477L587 583L618 546L495 440Z" />
<glyph unicode="&#xa5;" horiz-adv-x="609" d="M98 260L106 307H556L549 260H98ZM79 134L86 181H537L529 134H79ZM243 0L281 240L125 736H212L333 330L600 736H691L360 240L322 0H243Z" />
<glyph unicode="&#xa6;" horiz-adv-x="253" d="M161 429L215 770H281L227 429H161ZM82 -72L134 256H200L148 -72H82Z" />
<glyph unicode="&#xa7;" horiz-adv-x="550" d="M315 -6Q294 -6 265 -6T203 -4T143 -1T98 4L107 59H312Q358 59 382 68T417 92T432 129Q438 164 440 181T443 204Q443 224 428 230T367 237H240Q173 237 140 256T106 318Q106 324 107 332T109 353L116 395Q124 443
144 462T199 491Q174 501 165 519T155 562Q155 569 156 577T158 596L167 653Q175 699 196 728T256 770T350 784Q370 784 401 784T467 782T531 779T576 773L568 719H350Q320 719 298 714T261 691T241 642Q236 611 234 598T232 578Q232 552 250 545T305 537H444Q511
537 539 519T568 459Q568 444 565 427L557 375Q551 334 533 313T478 283Q503 275 512 259T522 221Q522 213 522 204T517 176L509 126Q502 76 477 47T410 6T315 -6ZM267 299H377Q418 299 437 302T466 319T479 361L487 412Q488 418 488 423T489 432Q489 457 474 466T419
475H295Q243 475 222 462T195 410L187 360Q186 356 186 353T185 345Q185 323 202 311T267 299Z" />
<glyph unicode="&#xa8;" horiz-adv-x="413" d="M381 653Q368 653 368 666Q368 667 368 670T372 691T381 747Q383 763 400 763H436Q449 763 449 750Q449 750 449 746T445 726T436 669Q435 653 418 653H381ZM177 653Q164 653 164 666Q164 667 164 670T167 691T177
747Q179 763 195 763H232Q245 763 245 750Q245 750 245 746T241 726T232 669Q230 653 214 653H177Z" />
<glyph unicode="&#xa9;" horiz-adv-x="841" d="M322 0Q266 0 226 22T160 84T122 172T109 272Q109 339 124 405T167 530T234 634T323 706T429 732H657Q726 732 769 701T832 616T852 498Q852 401 828 312T762 153T666 41T551 0H322ZM409 147Q376 147 348 159T304
201T287 288Q287 349 302 402T344 496T405 560T479 583Q499 583 529 581T592 575T651 564L645 528Q616 532 585 534T527 538T485 540Q452 540 425 520T377 465T347 387T336 298Q336 244 357 217T428 190Q478 190 522 194T600 206L595 170Q548 155 503 151T409 147ZM319
43H554Q604 43 649 79T730 176T786 319T807 491Q807 548 793 592T746 663T660 689H422Q371 689 323 657T237 567T177 436T154 278Q154 231 162 189T190 114T242 62T319 43Z" />
<glyph unicode="&#xaa;" horiz-adv-x="408" d="M87 264L94 306H425L419 264H87ZM222 356Q173 356 139 387T105 489Q105 508 107 529T113 565Q128 663 175 709T318 756Q360 756 403 745T474 712L418 360H361L358 401Q347 393 325 383T275 364T222 356ZM250 412Q283
412 310 422T364 446L402 681Q391 687 368 693T315 700Q270 700 243 685T202 639T179 558Q171 522 171 499Q171 456 192 434T250 412Z" />
<glyph unicode="&#xab;" horiz-adv-x="611" d="M272 65L89 280L334 489L371 448L172 279L319 107L272 65ZM522 65L339 280L584 489L621 448L422 279L569 107L522 65Z" />
<glyph unicode="&#xac;" horiz-adv-x="609" d="M494 203L538 481H605L560 203H494ZM150 443L161 509H609L598 443H150Z" />
<glyph unicode="&#xad;" horiz-adv-x="338" d="M63 257L74 323H368L357 257H63Z" />
<glyph unicode="&#xae;" horiz-adv-x="841" d="M322 0Q266 0 226 22T160 84T122 172T109 272Q109 339 124 405T167 530T234 634T323 706T429 732H657Q726 732 769 701T832 616T852 498Q852 401 828 312T762 153T666 41T551 0H322ZM293 153L361 580H542Q571 580
596 573T636 545T651 486Q651 449 636 416T595 362T534 335L607 153H562L491 335L369 339L340 153H293ZM319 43H554Q604 43 649 79T730 176T786 319T807 491Q807 548 793 592T746 663T660 689H422Q371 689 323 657T237 567T177 436T154 278Q154 231 162 189T190
114T242 62T319 43ZM375 372H511Q538 372 559 387T592 425T604 476Q604 510 586 523T538 537H401L375 372Z" />
<glyph unicode="&#xaf;" horiz-adv-x="374" d="M161 671L169 719H434L426 671H161Z" />
<glyph unicode="&#xb0;" horiz-adv-x="329" d="M244 497Q194 497 163 528T131 608Q131 652 149 686T203 741T286 762Q338 762 367 731T397 650Q397 606 379 572T327 517T244 497ZM250 535Q298 535 328 566T359 647Q359 681 338 702T280 724Q232 724 201 692T169
612Q169 578 191 557T250 535Z" />
<glyph unicode="&#xb1;" horiz-adv-x="609" d="M99 123L110 189H558L547 123H99ZM317 282L387 730H453L383 282H317ZM155 473L166 539H614L603 473H155Z" />
<glyph unicode="&#xb2;" horiz-adv-x="419" d="M104 355L111 407L314 576Q367 620 388 658T409 729Q409 755 390 770T321 786H188L196 835Q227 839 265 842T345 846Q418 846 447 820T477 750Q477 700 452 650T359 544L202 413H443L434 355H104Z" />
<glyph unicode="&#xb3;" horiz-adv-x="419" d="M279 351Q226 351 180 354T98 361L107 411H267Q295 411 317 416T354 436T372 477L377 506Q378 510 378 513T378 519Q378 538 368 549T341 566T307 571L181 576L189 624L313 630Q348 632 371 644T399 687L404 719Q405
722 405 725T405 732Q405 758 385 772T321 786H180L189 835Q224 840 265 843T356 846Q414 846 443 821T472 754Q472 748 472 742T470 730L464 690Q460 661 446 643T414 614T380 600Q394 597 408 588T433 563T444 521Q444 516 444 511T441 499L436 466Q427 409 386
380T279 351Z" />
<glyph unicode="&#xb4;" horiz-adv-x="215" d="M122 631L244 767H315L172 631H122Z" />
<glyph unicode="&#xb5;" horiz-adv-x="588" d="M258 -6Q223 -6 194 4T144 33T112 79T100 140Q100 151 101 161T104 183L159 534H239L182 178Q182 170 181 162T180 147Q180 99 208 82T281 64Q330 64 369 77T454 115L520 534H599L515 0H453L448 59Q409 31 360 13T258
-6ZM33 -269L112 231H191L112 -269H33Z" />
<glyph unicode="&#xb6;" horiz-adv-x="573" d="M231 -270L325 323Q317 318 295 315T244 311Q174 311 141 346T108 433Q108 440 108 448T111 468L131 596Q139 644 166 675T233 721T316 736H674L665 677H589L481 0H425L532 679H438L287 -270H231ZM261 367H332L381
679H310Q256 679 224 653T185 583L169 475Q167 466 166 459T165 447Q165 412 180 395T217 373T261 367Z" />
<glyph unicode="&#xb7;" horiz-adv-x="273" d="M140 345Q133 345 129 349T126 360L134 407Q136 423 152 423H197Q213 423 210 407L202 360Q201 352 196 349T184 345H140Z" />
<glyph unicode="&#xb8;" horiz-adv-x="258" d="M25 -190L30 -157L53 -155Q75 -152 89 -143T109 -123T116 -102Q116 -88 104 -78T56 -66L92 -54Q129 -54 147 -67T166 -108Q166 -125 155 -144T119 -176T58 -190H25ZM56 -66L121 13H158L93 -66H56Z" />
<glyph unicode="&#xb9;" horiz-adv-x="419" d="M240 355L309 788L192 761L199 803L324 847H383L305 355H240ZM121 355L130 412H434L424 355H121Z" />
<glyph unicode="&#xba;" horiz-adv-x="431" d="M87 264L94 306H425L419 264H87ZM256 356Q210 356 177 369T125 412T107 489Q107 508 108 526T113 562Q126 640 150 682T215 740T319 756Q376 756 408 741T454 695T468 617Q468 600 466 580T461 539Q450 468 426 428T360
372T256 356ZM264 412Q302 412 327 422T369 463T394 550Q398 571 399 587T400 618Q400 663 380 682T309 701Q269 701 244 689T203 646T178 554Q176 534 175 520T174 493Q174 460 185 443T216 419T264 412Z" />
<glyph unicode="&#xbb;" horiz-adv-x="611" d="M97 65L63 108L261 277L115 450L162 489L344 277L97 65ZM347 65L313 108L511 277L365 450L412 489L594 277L347 65Z" />
<glyph unicode="&#xbc;" horiz-adv-x="1149" d="M328 0L830 770H886L384 0H328ZM980 -23L999 95H769L760 128L995 463H1063L842 150H1007L1027 271L1048 319H1099L1072 150H1137L1129 106L1064 95L1045 -23H980ZM247 355L316 788L199 761L206 803L331 847H390L312
355H247ZM128 355L137 412H441L431 355H128Z" />
<glyph unicode="&#xbd;" horiz-adv-x="1149" d="M328 0L830 770H886L384 0H328ZM756 -24L763 28L966 197Q1019 241 1040 279T1061 350Q1061 376 1042 391T973 407H840L848 456Q879 460 917 463T997 467Q1070 467 1099 441T1129 371Q1129 321 1104 271T1011 165L854
34H1095L1086 -24H756ZM247 355L316 788L199 761L206 803L331 847H390L312 355H247ZM128 355L137 412H441L431 355H128Z" />
<glyph unicode="&#xbe;" horiz-adv-x="1149" d="M328 0L830 770H886L384 0H328ZM980 -20L999 98H769L760 131L995 466H1063L842 153H1007L1027 274L1048 322H1099L1072 153H1137L1129 109L1064 98L1045 -20H980ZM289 351Q236 351 190 354T108 361L117 411H277Q305
411 327 416T364 436T382 477L387 506Q388 510 388 513T388 519Q388 538 378 549T351 566T317 571L191 576L199 624L323 630Q358 632 381 644T409 687L414 719Q415 722 415 725T415 732Q415 758 395 772T331 786H190L199 835Q234 840 275 843T366 846Q424 846 453
821T482 754Q482 748 482 742T480 730L474 690Q470 661 456 643T424 614T390 600Q404 597 418 588T443 563T454 521Q454 516 454 511T451 499L446 466Q437 409 396 380T289 351Z" />
<glyph unicode="&#xbf;" d="M402 336L377 178H327Q273 178 238 168T183 133T156 64L146 5Q144 -7 143 -18T142 -38Q142 -89 171 -111T260 -133Q311 -133 357 -124T458 -95L449 -151Q394 -179 338 -191T225 -204Q138 -204 99 -166T60 -61Q60 -35 65 -6L77 65Q91
154 149 197T325 241L340 336H402ZM422 536Q435 536 435 523Q435 522 435 522T435 520L422 440Q421 424 404 424H359Q346 424 346 436Q346 437 346 438T346 440L359 520Q360 529 365 532T377 536H422Z" />
<glyph unicode="&#xc0;" horiz-adv-x="676" d="M35 0L408 736H510L642 0H559L521 210H224L117 0H35ZM256 281H513L447 664L256 281ZM459 791L355 927H423L505 791H459Z" />
<glyph unicode="&#xc1;" horiz-adv-x="676" d="M35 0L408 736H510L642 0H559L521 210H224L117 0H35ZM256 281H513L447 664L256 281ZM427 791L549 927H620L477 791H427Z" />
<glyph unicode="&#xc2;" horiz-adv-x="676" d="M35 0L408 736H510L642 0H559L521 210H224L117 0H35ZM256 281H513L447 664L256 281ZM308 791L451 926H507L596 791H548L472 888L357 791H308Z" />
<glyph unicode="&#xc3;" horiz-adv-x="676" d="M35 0L408 736H510L642 0H559L521 210H224L117 0H35ZM256 281H513L447 664L256 281ZM304 809Q316 868 348 891T416 914Q439 914 458 905T495 885T530 864T565 855Q591 855 609 871T633 916H673Q663 865 636 838T563
810Q541 810 522 819T485 839T449 860T412 869Q388 869 369 855T345 809H304Z" />
<glyph unicode="&#xc4;" horiz-adv-x="676" d="M35 0L408 736H510L642 0H559L521 210H224L117 0H35ZM256 281H513L447 664L256 281ZM533 813Q520 813 520 826Q520 827 520 830T524 851T533 907Q535 923 552 923H588Q601 923 601 910Q601 910 601 906T597 886T588
829Q587 813 570 813H533ZM329 813Q316 813 316 826Q316 827 316 830T319 851T329 907Q331 923 347 923H384Q397 923 397 910Q397 910 397 906T393 886T384 829Q382 813 366 813H329Z" />
<glyph unicode="&#xc5;" horiz-adv-x="676" d="M35 0L408 736H510L642 0H559L521 210H224L117 0H35ZM256 281H513L447 664L256 281ZM462 773Q420 773 392 793T363 863Q363 897 378 925T422 970T493 988Q534 988 562 968T590 899Q590 848 558 811T462 773ZM465
807Q510 807 530 834T550 897Q550 931 532 943T489 955Q445 955 424 928T402 864Q402 831 421 819T465 807Z" />
<glyph unicode="&#xc6;" horiz-adv-x="933" d="M633 -4Q602 -5 575 -1T527 16T498 53T492 115L507 208H266L104 0H22L459 578Q504 638 545 672T632 721T738 736Q800 735 870 733T1014 726L1003 663H739Q704 663 684 656T655 637T643 605T635 561L609 401L919 396L909
335L599 330L571 157Q565 118 577 100T611 76T656 70H910L900 7Q873 5 843 4T783 1T725 -1T674 -2T633 -4ZM314 277H517L571 617L314 277Z" />
<glyph unicode="&#xc7;" horiz-adv-x="590" d="M317 -6Q206 -6 156 54T105 226Q105 263 109 305T120 383Q138 499 174 579T269 700T419 742Q496 742 551 732T644 711L633 650Q585 659 535 664T429 670Q380 670 343 654T279 602T232 508T198 366Q193 331 189 293T184
226Q184 141 218 103T337 65Q411 65 455 68T542 78L532 18Q483 5 427 0T317 -6ZM213 -197L218 -164L241 -162Q263 -159 277 -150T297 -130T304 -109Q304 -95 292 -85T244 -73L280 -61Q317 -61 335 -74T354 -115Q354 -132 343 -151T307 -183T246 -197H213ZM244 -73L309
6H346L281 -73H244Z" />
<glyph unicode="&#xc8;" horiz-adv-x="578" d="M227 -6Q201 -6 175 -1T128 21T97 66T94 143L165 590Q174 647 199 678T259 723T334 736Q409 735 483 733T634 727L623 663H342Q301 663 276 642T241 571L215 403L537 395L527 334L203 330L176 157Q171 121 180 102T208
75T256 68H530L520 4Q449 1 376 -2T227 -6ZM422 791L318 927H386L468 791H422Z" />
<glyph unicode="&#xc9;" horiz-adv-x="578" d="M227 -6Q201 -6 175 -1T128 21T97 66T94 143L165 590Q174 647 199 678T259 723T334 736Q409 735 483 733T634 727L623 663H342Q301 663 276 642T241 571L215 403L537 395L527 334L203 330L176 157Q171 121 180 102T208
75T256 68H530L520 4Q449 1 376 -2T227 -6ZM391 791L513 927H584L441 791H391Z" />
<glyph unicode="&#xca;" horiz-adv-x="578" d="M227 -6Q201 -6 175 -1T128 21T97 66T94 143L165 590Q174 647 199 678T259 723T334 736Q409 735 483 733T634 727L623 663H342Q301 663 276 642T241 571L215 403L537 395L527 334L203 330L176 157Q171 121 180 102T208
75T256 68H530L520 4Q449 1 376 -2T227 -6ZM271 791L414 926H470L559 791H511L435 888L320 791H271Z" />
<glyph unicode="&#xcb;" horiz-adv-x="578" d="M227 -6Q201 -6 175 -1T128 21T97 66T94 143L165 590Q174 647 199 678T259 723T334 736Q409 735 483 733T634 727L623 663H342Q301 663 276 642T241 571L215 403L537 395L527 334L203 330L176 157Q171 121 180 102T208
75T256 68H530L520 4Q449 1 376 -2T227 -6ZM497 813Q484 813 484 826Q484 827 484 830T488 851T497 907Q499 923 516 923H552Q565 923 565 910Q565 910 565 906T561 886T552 829Q551 813 534 813H497ZM293 813Q280 813 280 826Q280 827 280 830T283 851T293 907Q295
923 311 923H348Q361 923 361 910Q361 910 361 906T357 886T348 829Q346 813 330 813H293Z" />
<glyph unicode="&#xcc;" horiz-adv-x="223" d="M72 0L189 736H268L151 0H72ZM232 791L128 927H196L278 791H232Z" />
<glyph unicode="&#xcd;" horiz-adv-x="223" d="M72 0L189 736H268L151 0H72ZM201 791L323 927H394L251 791H201Z" />
<glyph unicode="&#xce;" horiz-adv-x="223" d="M72 0L189 736H268L151 0H72ZM81 791L224 926H280L369 791H321L245 888L130 791H81Z" />
<glyph unicode="&#xcf;" horiz-adv-x="223" d="M72 0L189 736H268L151 0H72ZM307 813Q294 813 294 826Q294 827 294 830T298 851T307 907Q309 923 326 923H362Q375 923 375 910Q375 910 375 906T371 886T362 829Q361 813 344 813H307ZM103 813Q90 813 90 826Q90
827 90 830T93 851T103 907Q105 923 121 923H158Q171 923 171 910Q171 910 171 906T167 886T158 829Q156 813 140 813H103Z" />
<glyph unicode="&#xd0;" horiz-adv-x="674" d="M59 345L69 401H393L383 345H59ZM72 0L189 736H453Q541 736 591 706T661 619T682 480Q682 448 679 416T670 351Q658 271 633 207T567 96T471 25T339 0H72ZM162 71H345Q402 71 444 93T515 156T563 250T592 368Q597
401 600 429T603 479Q603 541 588 582T537 643T434 664H256L162 71Z" />
<glyph unicode="&#xd1;" horiz-adv-x="669" d="M72 0L189 736H253L542 135L637 736H717L600 0H535L247 602L151 0H72ZM291 809Q303 868 335 891T403 914Q426 914 445 905T482 885T517 864T552 855Q578 855 596 871T620 916H660Q650 865 623 838T550 810Q528 810
509 819T472 839T436 860T399 869Q375 869 356 855T332 809H291Z" />
<glyph unicode="&#xd2;" horiz-adv-x="686" d="M341 -6Q285 -6 241 3T166 35T119 101T103 212Q103 247 107 288T118 378Q136 488 163 559T232 669T329 725T461 742Q515 742 558 732T633 697T682 628T699 514Q699 481 695 439T683 348Q666 237 638 168T568 60T471
8T341 -6ZM354 66Q410 66 450 78T520 123T569 212T604 361Q611 407 615 446T619 514Q619 580 599 613T542 658T449 670Q395 670 354 658T284 613T233 520T197 365Q191 320 187 282T182 215Q182 154 200 122T257 78T354 66ZM467 791L363 927H431L513 791H467Z" />
<glyph unicode="&#xd3;" horiz-adv-x="686" d="M341 -6Q285 -6 241 3T166 35T119 101T103 212Q103 247 107 288T118 378Q136 488 163 559T232 669T329 725T461 742Q515 742 558 732T633 697T682 628T699 514Q699 481 695 439T683 348Q666 237 638 168T568 60T471
8T341 -6ZM354 66Q410 66 450 78T520 123T569 212T604 361Q611 407 615 446T619 514Q619 580 599 613T542 658T449 670Q395 670 354 658T284 613T233 520T197 365Q191 320 187 282T182 215Q182 154 200 122T257 78T354 66ZM435 791L557 927H628L485 791H435Z" />
<glyph unicode="&#xd4;" horiz-adv-x="686" d="M341 -6Q285 -6 241 3T166 35T119 101T103 212Q103 247 107 288T118 378Q136 488 163 559T232 669T329 725T461 742Q515 742 558 732T633 697T682 628T699 514Q699 481 695 439T683 348Q666 237 638 168T568 60T471
8T341 -6ZM354 66Q410 66 450 78T520 123T569 212T604 361Q611 407 615 446T619 514Q619 580 599 613T542 658T449 670Q395 670 354 658T284 613T233 520T197 365Q191 320 187 282T182 215Q182 154 200 122T257 78T354 66ZM316 791L459 926H515L604 791H556L480
888L365 791H316Z" />
<glyph unicode="&#xd5;" horiz-adv-x="686" d="M341 -6Q285 -6 241 3T166 35T119 101T103 212Q103 247 107 288T118 378Q136 488 163 559T232 669T329 725T461 742Q515 742 558 732T633 697T682 628T699 514Q699 481 695 439T683 348Q666 237 638 168T568 60T471
8T341 -6ZM354 66Q410 66 450 78T520 123T569 212T604 361Q611 407 615 446T619 514Q619 580 599 613T542 658T449 670Q395 670 354 658T284 613T233 520T197 365Q191 320 187 282T182 215Q182 154 200 122T257 78T354 66ZM312 809Q324 868 356 891T424 914Q447
914 466 905T503 885T538 864T573 855Q599 855 617 871T641 916H681Q671 865 644 838T571 810Q549 810 530 819T493 839T457 860T420 869Q396 869 377 855T353 809H312Z" />
<glyph unicode="&#xd6;" horiz-adv-x="686" d="M341 -6Q285 -6 241 3T166 35T119 101T103 212Q103 247 107 288T118 378Q136 488 163 559T232 669T329 725T461 742Q515 742 558 732T633 697T682 628T699 514Q699 481 695 439T683 348Q666 237 638 168T568 60T471
8T341 -6ZM354 66Q410 66 450 78T520 123T569 212T604 361Q611 407 615 446T619 514Q619 580 599 613T542 658T449 670Q395 670 354 658T284 613T233 520T197 365Q191 320 187 282T182 215Q182 154 200 122T257 78T354 66ZM542 813Q529 813 529 826Q529 827 529
830T533 851T542 907Q544 923 561 923H597Q610 923 610 910Q610 910 610 906T606 886T597 829Q596 813 579 813H542ZM338 813Q325 813 325 826Q325 827 325 830T328 851T338 907Q340 923 356 923H393Q406 923 406 910Q406 910 406 906T402 886T393 829Q391 813
375 813H338Z" />
<glyph unicode="&#xd7;" horiz-adv-x="609" d="M198 174L159 221L526 538L565 491L198 174ZM468 174L201 491L256 538L523 221L468 174Z" />
<glyph unicode="&#xd8;" horiz-adv-x="688" d="M55 0L698 736H749L106 0H55ZM341 -6Q285 -6 241 3T166 35T119 101T103 212Q103 247 107 288T118 378Q136 488 163 559T232 669T329 725T461 742Q515 742 558 732T633 697T682 628T699 514Q699 481 695 439T683 348Q666
237 638 168T568 60T471 8T341 -6ZM354 66Q410 66 450 78T520 123T569 212T604 361Q611 407 615 446T619 514Q619 580 599 613T542 658T449 670Q395 670 354 658T284 613T233 520T197 365Q191 320 187 282T182 215Q182 154 200 122T257 78T354 66Z" />
<glyph unicode="&#xd9;" horiz-adv-x="676" d="M339 -6Q228 -6 170 40T112 200Q112 226 115 260T124 330L189 736H268L202 320Q197 288 194 258T190 205Q190 127 229 96T346 65Q393 65 429 74T494 110T542 186T576 320L642 736H721L654 310Q638 208 610 145T543
50T452 6T339 -6ZM449 791L345 927H413L495 791H449Z" />
<glyph unicode="&#xda;" horiz-adv-x="676" d="M339 -6Q228 -6 170 40T112 200Q112 226 115 260T124 330L189 736H268L202 320Q197 288 194 258T190 205Q190 127 229 96T346 65Q393 65 429 74T494 110T542 186T576 320L642 736H721L654 310Q638 208 610 145T543
50T452 6T339 -6ZM418 791L540 927H611L468 791H418Z" />
<glyph unicode="&#xdb;" horiz-adv-x="676" d="M339 -6Q228 -6 170 40T112 200Q112 226 115 260T124 330L189 736H268L202 320Q197 288 194 258T190 205Q190 127 229 96T346 65Q393 65 429 74T494 110T542 186T576 320L642 736H721L654 310Q638 208 610 145T543
50T452 6T339 -6ZM298 791L441 926H497L586 791H538L462 888L347 791H298Z" />
<glyph unicode="&#xdc;" horiz-adv-x="676" d="M339 -6Q228 -6 170 40T112 200Q112 226 115 260T124 330L189 736H268L202 320Q197 288 194 258T190 205Q190 127 229 96T346 65Q393 65 429 74T494 110T542 186T576 320L642 736H721L654 310Q638 208 610 145T543
50T452 6T339 -6ZM524 813Q511 813 511 826Q511 827 511 830T515 851T524 907Q526 923 543 923H579Q592 923 592 910Q592 910 592 906T588 886T579 829Q578 813 561 813H524ZM320 813Q307 813 307 826Q307 827 307 830T310 851T320 907Q322 923 338 923H375Q388
923 388 910Q388 910 388 906T384 886T375 829Q373 813 357 813H320Z" />
<glyph unicode="&#xdd;" horiz-adv-x="613" d="M258 0L296 240L140 736H227L348 330L615 736H706L375 240L337 0H258ZM385 791L507 927H578L435 791H385Z" />
<glyph unicode="&#xde;" horiz-adv-x="550" d="M72 0L189 736H266L151 0H72ZM331 164Q288 164 245 168T159 176L170 235H324Q360 235 392 247T448 289T480 370Q482 384 484 400T486 426Q486 481 456 503T372 525H211L220 597H387Q438 597 478 582T542 532T566
433Q566 420 564 400T559 363Q549 303 526 264T472 203T404 173T331 164Z" />
<glyph unicode="&#xdf;" horiz-adv-x="584" d="M391 -6Q343 -6 299 -2T231 8L239 60Q268 59 305 58T384 56Q426 56 449 69T482 100T495 133Q497 147 498 156T499 172Q499 195 484 209T446 234T400 257T362 290T346 342Q346 372 362 399T402 450T450 499T490 549T506
605Q506 649 476 674T394 699Q325 699 285 661T229 532L145 0H66L155 561Q165 627 195 673T277 744T401 769Q465 769 504 748T561 692T580 616Q580 580 564 550T526 496T480 449T441 406T425 361Q425 338 440 324T478 299T523 274T561 241T577 187Q577 181 577
170T570 129Q564 92 547 66T506 24T452 1T391 -6Z" />
<glyph unicode="&#xe0;" horiz-adv-x="564" d="M241 -6Q197 -6 161 12T104 71T83 175Q83 200 86 228T94 278Q108 368 140 425T228 511T368 540Q405 540 443 534T515 514T573 480L497 0H429L427 57Q413 46 382 32T314 6T241 -6ZM272 59Q320 59 359 74T434 108L487
446Q473 455 441 464T364 474Q302 474 264 452T204 385T171 268Q167 242 165 222T162 187Q162 123 192 91T272 59ZM382 631L278 767H346L428 631H382Z" />
<glyph unicode="&#xe1;" horiz-adv-x="564" d="M241 -6Q197 -6 161 12T104 71T83 175Q83 200 86 228T94 278Q108 368 140 425T228 511T368 540Q405 540 443 534T515 514T573 480L497 0H429L427 57Q413 46 382 32T314 6T241 -6ZM272 59Q320 59 359 74T434 108L487
446Q473 455 441 464T364 474Q302 474 264 452T204 385T171 268Q167 242 165 222T162 187Q162 123 192 91T272 59ZM353 631L475 767H546L403 631H353Z" />
<glyph unicode="&#xe2;" horiz-adv-x="564" d="M241 -6Q197 -6 161 12T104 71T83 175Q83 200 86 228T94 278Q108 368 140 425T228 511T368 540Q405 540 443 534T515 514T573 480L497 0H429L427 57Q413 46 382 32T314 6T241 -6ZM272 59Q320 59 359 74T434 108L487
446Q473 455 441 464T364 474Q302 474 264 452T204 385T171 268Q167 242 165 222T162 187Q162 123 192 91T272 59ZM240 631L383 766H439L528 631H480L404 728L289 631H240Z" />
<glyph unicode="&#xe3;" horiz-adv-x="564" d="M241 -6Q197 -6 161 12T104 71T83 175Q83 200 86 228T94 278Q108 368 140 425T228 511T368 540Q405 540 443 534T515 514T573 480L497 0H429L427 57Q413 46 382 32T314 6T241 -6ZM272 59Q320 59 359 74T434 108L487
446Q473 455 441 464T364 474Q302 474 264 452T204 385T171 268Q167 242 165 222T162 187Q162 123 192 91T272 59ZM220 649Q232 708 264 731T332 754Q355 754 374 745T411 725T446 704T481 695Q507 695 525 711T549 756H589Q579 705 552 678T479 650Q457 650 438
659T401 679T365 700T328 709Q304 709 285 695T261 649H220Z" />
<glyph unicode="&#xe4;" horiz-adv-x="564" d="M241 -6Q197 -6 161 12T104 71T83 175Q83 200 86 228T94 278Q108 368 140 425T228 511T368 540Q405 540 443 534T515 514T573 480L497 0H429L427 57Q413 46 382 32T314 6T241 -6ZM272 59Q320 59 359 74T434 108L487
446Q473 455 441 464T364 474Q302 474 264 452T204 385T171 268Q167 242 165 222T162 187Q162 123 192 91T272 59ZM459 653Q446 653 446 666Q446 667 446 670T450 691T459 747Q461 763 478 763H514Q527 763 527 750Q527 750 527 746T523 726T514 669Q513 653 496
653H459ZM255 653Q242 653 242 666Q242 667 242 670T245 691T255 747Q257 763 273 763H310Q323 763 323 750Q323 750 323 746T319 726T310 669Q308 653 292 653H255Z" />
<glyph unicode="&#xe5;" horiz-adv-x="564" d="M241 -6Q197 -6 161 12T104 71T83 175Q83 200 86 228T94 278Q108 368 140 425T228 511T368 540Q405 540 443 534T515 514T573 480L497 0H429L427 57Q413 46 382 32T314 6T241 -6ZM272 59Q320 59 359 74T434 108L487
446Q473 455 441 464T364 474Q302 474 264 452T204 385T171 268Q167 242 165 222T162 187Q162 123 192 91T272 59ZM389 593Q347 593 319 613T290 683Q290 717 305 745T349 790T420 808Q461 808 489 788T517 719Q517 668 485 631T389 593ZM392 627Q437 627 457 654T477
717Q477 751 459 763T416 775Q372 775 351 748T329 684Q329 651 348 639T392 627Z" />
<glyph unicode="&#xe6;" horiz-adv-x="897" d="M238 -6Q194 -6 160 12T106 70T86 174Q86 254 102 320T153 436T240 513T366 540Q393 540 426 535T490 519T544 492Q559 504 579 514T622 530T668 539T713 542Q809 542 858 504T908 388Q908 338 881 300T801 242T673
221Q639 221 606 223T549 230T516 236Q513 216 513 205T512 178Q512 138 523 111T562 70T640 55H842L834 7Q803 3 767 0T691 -4T615 -6Q573 -6 540 5T485 36T453 83Q428 62 394 42T320 8T238 -6ZM263 60Q297 60 330 71T392 101T439 137Q437 147 436 159T435 183Q435
224 441 270T461 361T500 441Q482 451 447 462T371 474Q310 474 270 449T207 383T175 291T165 188Q165 127 188 94T263 60ZM648 270Q735 270 783 297T832 379Q832 427 803 453T719 480Q666 480 631 467T575 428T542 365T521 279Q523 278 541 276T587 272T648 270Z"
/>
<glyph unicode="&#xe7;" horiz-adv-x="480" d="M273 -6Q217 -6 175 10T109 69T85 188Q85 206 88 230T95 282Q110 375 143 432T227 514T342 540Q381 540 429 535T517 524L508 477H356Q309 477 272 458T210 392T172 265Q168 242 166 225T164 194Q164 140 179 110T224
68T297 56H454L447 10Q414 3 372 -1T273 -6ZM143 59L148 92L171 94Q193 97 207 106T227 126T234 147Q234 161 222 171T174 183L210 195Q247 195 265 182T284 141Q284 124 273 105T237 73T176 59H143ZM174 183L239 262H276L211 183H174Z" />
<glyph unicode="&#xe8;" horiz-adv-x="548" d="M303 -6Q226 -6 178 15T108 78T86 181Q86 211 89 239T97 294Q109 375 141 430T230 513T368 542Q410 542 445 535T505 511T545 466T559 396Q559 343 539 309T483 255T403 229T310 221Q263 221 225 225T168 236Q166
221 165 206T164 175Q164 112 202 84T330 55H492L484 7Q453 3 404 -1T303 -6ZM283 270Q344 270 389 280T459 316T484 388Q484 438 454 459T362 480Q301 480 263 457T204 388T173 279Q195 276 224 273T283 270ZM380 631L276 767H344L426 631H380Z" />
<glyph unicode="&#xe9;" horiz-adv-x="548" d="M303 -6Q226 -6 178 15T108 78T86 181Q86 211 89 239T97 294Q109 375 141 430T230 513T368 542Q410 542 445 535T505 511T545 466T559 396Q559 343 539 309T483 255T403 229T310 221Q263 221 225 225T168 236Q166
221 165 206T164 175Q164 112 202 84T330 55H492L484 7Q453 3 404 -1T303 -6ZM283 270Q344 270 389 280T459 316T484 388Q484 438 454 459T362 480Q301 480 263 457T204 388T173 279Q195 276 224 273T283 270ZM352 631L474 767H545L402 631H352Z" />
<glyph unicode="&#xea;" horiz-adv-x="548" d="M303 -6Q226 -6 178 15T108 78T86 181Q86 211 89 239T97 294Q109 375 141 430T230 513T368 542Q410 542 445 535T505 511T545 466T559 396Q559 343 539 309T483 255T403 229T310 221Q263 221 225 225T168 236Q166
221 165 206T164 175Q164 112 202 84T330 55H492L484 7Q453 3 404 -1T303 -6ZM283 270Q344 270 389 280T459 316T484 388Q484 438 454 459T362 480Q301 480 263 457T204 388T173 279Q195 276 224 273T283 270ZM239 631L382 766H438L527 631H479L403 728L288 631H239Z"
/>
<glyph unicode="&#xeb;" horiz-adv-x="548" d="M303 -6Q226 -6 178 15T108 78T86 181Q86 211 89 239T97 294Q109 375 141 430T230 513T368 542Q410 542 445 535T505 511T545 466T559 396Q559 343 539 309T483 255T403 229T310 221Q263 221 225 225T168 236Q166
221 165 206T164 175Q164 112 202 84T330 55H492L484 7Q453 3 404 -1T303 -6ZM283 270Q344 270 389 280T459 316T484 388Q484 438 454 459T362 480Q301 480 263 457T204 388T173 279Q195 276 224 273T283 270ZM457 653Q444 653 444 666Q444 667 444 670T448 691T457
747Q459 763 476 763H512Q525 763 525 750Q525 750 525 746T521 726T512 669Q511 653 494 653H457ZM253 653Q240 653 240 666Q240 667 240 670T243 691T253 747Q255 763 271 763H308Q321 763 321 750Q321 750 321 746T317 726T308 669Q306 653 290 653H253Z" />
<glyph unicode="&#xec;" horiz-adv-x="216" d="M69 0L153 534H232L148 0H69ZM466 631L362 767H430L512 631H466Z" />
<glyph unicode="&#xed;" horiz-adv-x="216" d="M69 0L153 534H232L148 0H69ZM182 631L304 767H375L232 631H182Z" />
<glyph unicode="&#xee;" horiz-adv-x="216" d="M69 0L153 534H232L148 0H69ZM325 631L468 766H524L613 631H565L489 728L374 631H325Z" />
<glyph unicode="&#xef;" horiz-adv-x="216" d="M69 0L153 534H232L148 0H69ZM288 653Q275 653 275 666Q275 667 275 670T279 691T288 747Q290 763 307 763H343Q356 763 356 750Q356 750 356 746T352 726T343 669Q342 653 325 653H288ZM84 653Q71 653 71 666Q71
667 71 670T74 691T84 747Q86 763 102 763H139Q152 763 152 750Q152 750 152 746T148 726T139 669Q137 653 121 653H84Z" />
<glyph unicode="&#xf0;" horiz-adv-x="566" d="M93 266Q106 347 126 398T178 479T251 521T352 533Q409 533 449 513T511 454T532 362Q538 335 545 307T556 256Q541 153 508 96T421 17T282 -6Q222 -6 178 12T110 70T86 175Q86 198 87 220T93 266ZM171 253Q167 231
166 213T164 178Q164 129 180 104T225 69T292 59Q332 59 362 67T414 96T451 158T477 263Q480 288 482 310T485 351Q485 415 454 442T356 469Q314 469 284 460T232 428T196 362T171 253ZM244 763Q347 762 421 730T534 627T573 444Q573 403 569 356T556 256L495 290Q501
334 504 372T507 444Q507 543 475 600T382 682T235 708L244 763ZM613 757L620 729L272 595L264 623L613 757Z" />
<glyph unicode="&#xf1;" horiz-adv-x="576" d="M68 0L153 534H216L223 475Q265 504 318 523T431 542Q481 542 511 525T555 480T569 416Q569 403 568 385T559 323L508 0H429L479 320Q484 351 485 363T487 385Q487 422 466 446T392 470Q340 470 300 456T213 414L148
0H68ZM225 649Q237 708 269 731T337 754Q360 754 379 745T416 725T451 704T486 695Q512 695 530 711T554 756H594Q584 705 557 678T484 650Q462 650 443 659T406 679T370 700T333 709Q309 709 290 695T266 649H225Z" />
<glyph unicode="&#xf2;" horiz-adv-x="566" d="M282 -6Q222 -6 178 12T110 70T86 175Q86 200 88 224T94 273Q107 353 128 405T181 486T260 528T368 540Q443 540 485 519T546 456T565 352Q565 329 562 302T555 246Q540 148 508 93T421 16T282 -6ZM292 59Q332 59
362 67T414 96T451 157T476 259Q481 288 483 311T485 355Q485 421 456 448T357 476Q315 476 285 467T233 434T197 369T172 259Q168 236 166 216T164 178Q164 129 180 104T225 69T292 59ZM377 631L273 767H341L423 631H377Z" />
<glyph unicode="&#xf3;" horiz-adv-x="566" d="M282 -6Q222 -6 178 12T110 70T86 175Q86 200 88 224T94 273Q107 353 128 405T181 486T260 528T368 540Q443 540 485 519T546 456T565 352Q565 329 562 302T555 246Q540 148 508 93T421 16T282 -6ZM292 59Q332 59
362 67T414 96T451 157T476 259Q481 288 483 311T485 355Q485 421 456 448T357 476Q315 476 285 467T233 434T197 369T172 259Q168 236 166 216T164 178Q164 129 180 104T225 69T292 59ZM349 631L471 767H542L399 631H349Z" />
<glyph unicode="&#xf4;" horiz-adv-x="566" d="M282 -6Q222 -6 178 12T110 70T86 175Q86 200 88 224T94 273Q107 353 128 405T181 486T260 528T368 540Q443 540 485 519T546 456T565 352Q565 329 562 302T555 246Q540 148 508 93T421 16T282 -6ZM292 59Q332 59
362 67T414 96T451 157T476 259Q481 288 483 311T485 355Q485 421 456 448T357 476Q315 476 285 467T233 434T197 369T172 259Q168 236 166 216T164 178Q164 129 180 104T225 69T292 59ZM236 631L379 766H435L524 631H476L400 728L285 631H236Z" />
<glyph unicode="&#xf5;" horiz-adv-x="566" d="M282 -6Q222 -6 178 12T110 70T86 175Q86 200 88 224T94 273Q107 353 128 405T181 486T260 528T368 540Q443 540 485 519T546 456T565 352Q565 329 562 302T555 246Q540 148 508 93T421 16T282 -6ZM292 59Q332 59
362 67T414 96T451 157T476 259Q481 288 483 311T485 355Q485 421 456 448T357 476Q315 476 285 467T233 434T197 369T172 259Q168 236 166 216T164 178Q164 129 180 104T225 69T292 59ZM216 649Q228 708 260 731T328 754Q351 754 370 745T407 725T442 704T477
695Q503 695 521 711T545 756H585Q575 705 548 678T475 650Q453 650 434 659T397 679T361 700T324 709Q300 709 281 695T257 649H216Z" />
<glyph unicode="&#xf6;" horiz-adv-x="566" d="M282 -6Q222 -6 178 12T110 70T86 175Q86 200 88 224T94 273Q107 353 128 405T181 486T260 528T368 540Q443 540 485 519T546 456T565 352Q565 329 562 302T555 246Q540 148 508 93T421 16T282 -6ZM292 59Q332 59
362 67T414 96T451 157T476 259Q481 288 483 311T485 355Q485 421 456 448T357 476Q315 476 285 467T233 434T197 369T172 259Q168 236 166 216T164 178Q164 129 180 104T225 69T292 59ZM455 653Q442 653 442 666Q442 667 442 670T446 691T455 747Q457 763 474
763H510Q523 763 523 750Q523 750 523 746T519 726T510 669Q509 653 492 653H455ZM251 653Q238 653 238 666Q238 667 238 670T241 691T251 747Q253 763 269 763H306Q319 763 319 750Q319 750 319 746T315 726T306 669Q304 653 288 653H251Z" />
<glyph unicode="&#xf7;" horiz-adv-x="609" d="M299 108Q276 108 279 131L287 181Q292 206 315 206H360Q386 206 381 181L373 131Q371 118 363 113T344 108H299ZM363 506Q353 506 347 512T343 529L351 579Q354 604 379 604H423Q447 604 444 579L436 529Q434 516
427 511T408 506H363ZM131 323L142 389H590L579 323H131Z" />
<glyph unicode="&#xf8;" horiz-adv-x="565" d="M52 0L554 534H597L95 0H52ZM282 -6Q222 -6 178 12T110 70T86 175Q86 200 88 224T94 273Q107 353 128 405T181 486T260 528T368 540Q443 540 485 519T546 456T565 352Q565 329 562 302T555 246Q540 148 508 93T421
16T282 -6ZM292 59Q332 59 362 67T414 96T451 157T476 259Q481 288 483 311T485 355Q485 421 456 448T357 476Q315 476 285 467T233 434T197 369T172 259Q168 236 166 216T164 178Q164 129 180 104T225 69T292 59Z" />
<glyph unicode="&#xf9;" horiz-adv-x="576" d="M228 -6Q158 -6 125 27T91 118Q91 136 92 149T95 175L152 534H231L176 180Q175 173 174 165T173 148Q173 107 196 86T267 65Q320 65 360 79T447 119L512 534H592L507 0H440L437 59Q407 40 376 25T309 2T228 -6ZM389
631L285 767H353L435 631H389Z" />
<glyph unicode="&#xfa;" horiz-adv-x="576" d="M228 -6Q158 -6 125 27T91 118Q91 136 92 149T95 175L152 534H231L176 180Q175 173 174 165T173 148Q173 107 196 86T267 65Q320 65 360 79T447 119L512 534H592L507 0H440L437 59Q407 40 376 25T309 2T228 -6ZM361
631L483 767H554L411 631H361Z" />
<glyph unicode="&#xfb;" horiz-adv-x="576" d="M228 -6Q158 -6 125 27T91 118Q91 136 92 149T95 175L152 534H231L176 180Q175 173 174 165T173 148Q173 107 196 86T267 65Q320 65 360 79T447 119L512 534H592L507 0H440L437 59Q407 40 376 25T309 2T228 -6ZM248
631L391 766H447L536 631H488L412 728L297 631H248Z" />
<glyph unicode="&#xfc;" horiz-adv-x="576" d="M228 -6Q158 -6 125 27T91 118Q91 136 92 149T95 175L152 534H231L176 180Q175 173 174 165T173 148Q173 107 196 86T267 65Q320 65 360 79T447 119L512 534H592L507 0H440L437 59Q407 40 376 25T309 2T228 -6ZM467
653Q454 653 454 666Q454 667 454 670T458 691T467 747Q469 763 486 763H522Q535 763 535 750Q535 750 535 746T531 726T522 669Q521 653 504 653H467ZM263 653Q250 653 250 666Q250 667 250 670T253 691T263 747Q265 763 281 763H318Q331 763 331 750Q331 750
331 746T327 726T318 669Q316 653 300 653H263Z" />
<glyph unicode="&#xfd;" horiz-adv-x="557" d="M97 -237V-178Q145 -167 195 -127T286 0Q255 4 230 14T189 51T165 125L98 534H179L236 142Q241 112 252 96T280 75T313 68L480 434Q489 457 498 485T510 542H580Q580 505 572 467T542 385L361 4Q321 -80 280 -130T194
-205T97 -237ZM327 631L449 767H520L377 631H327Z" />
<glyph unicode="&#xfe;" horiz-adv-x="567" d="M30 -237L189 763H269L232 534Q263 537 303 538T394 540Q480 540 522 495T565 357Q565 331 562 304T555 254Q542 172 512 114T431 25T306 -6Q262 -6 224 1T151 25L110 -237H30ZM299 62Q355 62 390 85T447 155T479
270Q481 286 484 306T487 345Q487 409 460 442T375 474L222 473L161 87Q188 78 208 73T249 65T299 62Z" />
<glyph unicode="&#xff;" horiz-adv-x="557" d="M97 -237V-178Q145 -167 195 -127T286 0Q255 4 230 14T189 51T165 125L98 534H179L236 142Q241 112 252 96T280 75T313 68L480 434Q489 457 498 485T510 542H580Q580 505 572 467T542 385L361 4Q321 -80 280 -130T194
-205T97 -237ZM433 653Q420 653 420 666Q420 667 420 670T424 691T433 747Q435 763 452 763H488Q501 763 501 750Q501 750 501 746T497 726T488 669Q487 653 470 653H433ZM229 653Q216 653 216 666Q216 667 216 670T219 691T229 747Q231 763 247 763H284Q297 763
297 750Q297 750 297 746T293 726T284 669Q282 653 266 653H229Z" />
<glyph unicode="&#x2013;" horiz-adv-x="522" d="M65 256L76 323H549L538 256H65Z" />
<glyph unicode="&#x2014;" horiz-adv-x="745" d="M65 256L76 323H772L761 256H65Z" />
<glyph unicode="&#x2018;" horiz-adv-x="186" d="M149 525Q138 525 138 539Q138 541 138 542T139 545L161 687Q165 713 176 725T202 742T227 747Q234 747 238 747T246 745L242 716Q228 716 223 710T215 693L207 643H215Q230 643 230 629Q230 628 230 627T230 624L218
545Q214 525 197 525H149Z" />
<glyph unicode="&#x2019;" horiz-adv-x="186" d="M157 525Q151 525 147 525T138 527L143 555Q157 555 162 562T170 578L177 628H169Q154 628 154 643Q154 645 154 645T155 647L167 727Q169 747 187 747H235Q246 747 246 733Q246 732 246 731T246 727L223 584Q219
559 208 547T183 530T157 525Z" />
<glyph unicode="&#x201a;" horiz-adv-x="186" d="M57 -109Q50 -109 45 -109T38 -107L42 -79Q56 -79 62 -72T69 -56L77 -6H68Q54 -6 54 9Q54 10 54 11T54 13L67 93Q69 112 87 112H134Q146 112 146 99Q146 98 146 97T146 93L123 -50Q119 -75 108 -88T82 -105T57 -109Z" />
<glyph unicode="&#x201c;" horiz-adv-x="305" d="M149 525Q138 525 138 539Q138 541 138 542T139 545L161 687Q165 713 176 725T202 742T227 747Q234 747 238 747T246 745L242 716Q228 716 223 710T215 693L207 643H215Q230 643 230 629Q230 628 230 627T230 624L218
545Q214 525 197 525H149ZM268 525Q257 525 257 539Q257 541 257 542T258 545L280 687Q284 713 295 725T321 742T346 747Q353 747 357 747T365 745L361 716Q347 716 342 710T334 693L326 643H334Q349 643 349 629Q349 628 349 627T349 624L337 545Q333 525 316
525H268Z" />
<glyph unicode="&#x201d;" horiz-adv-x="305" d="M157 525Q151 525 147 525T138 527L143 555Q157 555 162 562T170 578L177 628H169Q154 628 154 643Q154 645 154 645T155 647L167 727Q169 747 187 747H235Q246 747 246 733Q246 732 246 731T246 727L223 584Q219
559 208 547T183 530T157 525ZM276 525Q270 525 266 525T257 527L262 555Q276 555 281 562T289 578L296 628H288Q273 628 273 643Q273 645 273 645T274 647L286 727Q288 747 306 747H354Q365 747 365 733Q365 732 365 731T365 727L342 584Q338 559 327 547T302
530T276 525Z" />
<glyph unicode="&#x201e;" horiz-adv-x="305" d="M57 -109Q50 -109 45 -109T38 -107L42 -79Q56 -79 62 -72T69 -56L77 -6H68Q54 -6 54 9Q54 10 54 11T54 13L67 93Q69 112 87 112H134Q146 112 146 99Q146 98 146 97T146 93L123 -50Q119 -75 108 -88T82 -105T57
-109ZM176 -109Q169 -109 164 -109T157 -107L161 -79Q175 -79 181 -72T188 -56L196 -6H187Q173 -6 173 9Q173 10 173 11T173 13L186 93Q188 112 206 112H253Q265 112 265 99Q265 98 265 97T265 93L242 -50Q238 -75 227 -88T201 -105T176 -109Z" />
<glyph unicode="&#x2022;" horiz-adv-x="327" d="M152 314Q120 314 125 346L136 416Q138 432 148 441T175 451H238Q273 451 267 416L256 346Q253 328 242 321T215 314H152Z" />
<glyph unicode="&#x2039;" horiz-adv-x="361" d="M272 65L89 280L334 489L371 448L172 279L319 107L272 65Z" />
<glyph unicode="&#x203a;" horiz-adv-x="361" d="M97 65L63 108L261 277L115 450L162 489L344 277L97 65Z" />
</font>
</defs>
</svg>
