<?xml version="1.0" standalone="no"?>
<!DOCTYPE svg PUBLIC "-//W3C//DTD SVG 1.1//EN" "http://www.w3.org/Graphics/SVG/1.1/DTD/svg11.dtd">
<svg xmlns="http://www.w3.org/2000/svg">
<defs >
<font id="Exo2" horiz-adv-x="559" ><font-face
    font-family="Exo 2"
    units-per-em="1000"
    panose-1="0 0 0 0 0 0 0 0 0 0"
    ascent="999"
    descent="-201"
    alphabetic="0" />
<glyph unicode=" " horiz-adv-x="223" />
<glyph unicode="!" horiz-adv-x="273" d="M179 695V389L171 211H103L94 389V695H179ZM148 118Q165 118 172 111T180 86V32Q180 14 173 7T148 0H126Q109 0 102 7T95 32V86Q95 104 102 111T126 118H148Z" />
<glyph unicode="&quot;" horiz-adv-x="353" d="M283 690L278 475H220L214 690H283ZM140 690L134 475H75L70 690H140Z" />
<glyph unicode="#" horiz-adv-x="685" d="M311 690L191 0H123L243 690H311ZM562 690L442 0H374L494 690H562ZM640 503L629 448H86L97 503H640ZM598 268L587 213H44L55 268H598Z" />
<glyph unicode="$" horiz-adv-x="564" d="M281 702Q330 701 382 697T486 682L480 618Q437 620 385 621T285 623Q248 623 222 621T178 609T154 578T146 518Q146 461 167 439T234 405L373 370Q453 351 483 304T513 176Q513 116 500 79T458 23T386 -4T281 -12Q247
-12 193 -9T67 7L73 74Q132 73 168 72T230 70T284 70Q337 70 367 78T410 109T423 178Q423 218 414 240T386 273T336 292L194 328Q119 347 88 394T57 520Q57 580 70 616T111 671T181 696T281 702ZM261 353L306 351L270 -127H224L261 353ZM345 799L312 351L266 353L300
799H345Z" />
<glyph unicode="%" horiz-adv-x="894" d="M207 703Q267 703 302 683T353 617T368 498Q368 425 353 380T303 314T207 293Q148 293 113 314T62 380T47 498Q47 572 62 617T112 682T207 703ZM207 649Q171 649 151 635T121 587T112 498Q112 442 121 409T150 362T207
347Q244 347 264 361T293 409T302 498Q302 554 294 587T265 634T207 649ZM699 690L252 0H192L639 690H699ZM686 400Q746 400 781 379T831 314T846 196Q846 123 831 78T781 12T686 -9Q627 -9 592 11T541 77T526 196Q526 269 541 313T591 379T686 400ZM685 346Q649
346 628 332T599 285T591 196Q591 140 599 107T628 59T685 44Q722 44 742 58T772 106T781 196Q781 252 772 285T743 332T685 346Z" />
<glyph unicode="&amp;" horiz-adv-x="772" d="M348 700Q380 700 421 699T507 690L497 625Q487 626 469 626T429 627T385 628T345 628Q282 628 245 620T192 586T176 509Q176 462 188 437T230 401T310 391H703L702 324H306Q252 324 220 312T173 271T159 189Q159
142 171 115T211 77T289 66Q363 67 415 89T507 157L521 103Q489 61 453 36T373 1T269 -10Q197 -10 153 7T88 65T67 175Q67 254 96 301T202 356V360Q139 366 113 406T87 521Q87 581 102 617T149 670T230 694T348 700ZM577 519V131Q577 96 592 81T641 66H715L725
4Q710 0 690 -3T651 -7T619 -9Q559 -9 528 21T497 105V362L506 519H577Z" />
<glyph unicode="&apos;" horiz-adv-x="209" d="M140 690L134 475H75L70 690H140Z" />
<glyph unicode="(" horiz-adv-x="359" d="M317 790L328 749Q228 700 183 592T137 313Q137 202 157 116T219 -29T328 -124L317 -165Q181 -112 118 3T54 312Q54 506 117 622T317 790Z" />
<glyph unicode=")" horiz-adv-x="359" d="M42 790Q179 738 242 622T306 312Q306 119 243 4T42 -165L32 -124Q99 -89 140 -30T202 116T222 313Q222 483 177 591T32 749L42 790Z" />
<glyph unicode="*" horiz-adv-x="450" d="M251 691L243 530L343 401L302 371L225 494L148 372L106 402L206 530L199 691H251ZM71 601L190 555L189 533L178 519L54 552L71 601ZM380 601L397 551L272 519L260 533V555L380 601Z" />
<glyph unicode="+" horiz-adv-x="551" d="M494 331V267H56V331H494ZM308 507L307 90H243L242 507H308Z" />
<glyph unicode="," horiz-adv-x="228" d="M127 118Q145 118 151 111T158 86V22Q158 -6 154 -33T142 -84T123 -132L83 -120Q88 -89 90 -63T93 0Q69 0 69 28V86Q70 104 78 111T102 118H127Z" />
<glyph unicode="-" horiz-adv-x="449" d="M377 285V220H72V285H377Z" />
<glyph unicode="." horiz-adv-x="229" d="M128 118Q146 118 153 111T160 86V32Q160 14 153 7T128 0H100Q83 0 76 7T68 32V86Q68 104 75 111T100 118H128Z" />
<glyph unicode="/" horiz-adv-x="517" d="M490 690L97 -66H27L420 690H490Z" />
<glyph unicode="0" horiz-adv-x="603" d="M301 703Q390 703 442 666T516 550T539 345Q539 219 517 140T442 24T301 -13Q213 -13 161 24T87 140T64 345Q64 471 86 550T161 666T301 703ZM301 626Q258 626 229 611T183 562T158 476T150 345Q150 269 157 215T182 128T229
80T301 64Q344 64 373 79T420 128T445 215T453 345Q453 422 446 475T421 562T374 610T301 626Z" />
<glyph unicode="1" horiz-adv-x="398" d="M286 690V0H198V547Q198 562 199 577T203 607L34 554L22 619L198 690H286Z" />
<glyph unicode="2" horiz-adv-x="562" d="M271 702Q337 702 384 691T457 648T483 553Q483 510 472 472T433 394T360 302L162 81Q188 83 217 84T274 85H508V0H55V55Q55 66 58 75T68 93L268 319Q334 390 365 445T394 549Q393 583 378 598T334 619T265 624Q233 624
204 623T143 619T67 608L61 676Q108 687 143 692T209 700T271 702Z" />
<glyph unicode="3" horiz-adv-x="556" d="M258 703Q334 703 380 689T449 639T471 543Q471 499 462 463T432 402T370 369V365Q438 354 463 309T490 192Q491 122 470 77T401 9T271 -13Q216 -13 161 -8T52 5L58 76Q92 73 123 71T186 67T249 66Q305 66 338 78T387
121T403 201Q403 239 393 267T353 312T266 328H138V397H266Q307 397 331 408T368 436T383 476T387 523Q386 567 373 588T330 617T246 625Q197 625 152 623T71 617L64 685Q115 694 162 698T258 703Z" />
<glyph unicode="4" horiz-adv-x="615" d="M330 690L137 282Q128 262 136 252T162 241H571V178L479 169H113Q85 169 66 185T42 226T47 276L243 690H330ZM482 558V0H399V444L414 558H482Z" />
<glyph unicode="5" horiz-adv-x="536" d="M460 690L456 615H166L156 427L230 421Q298 416 345 403T423 365T466 302T480 207Q480 165 472 126T440 56T372 7T257 -12Q216 -12 162 -6T52 13L62 84Q109 76 156 71T237 66Q303 66 336 82T381 130T394 207Q395 255 383
282T343 323T270 342T158 352L112 355Q97 357 88 367T79 394L95 690H460Z" />
<glyph unicode="6" horiz-adv-x="572" d="M334 702Q355 702 393 700T473 687L465 623Q443 625 425 626T385 627T334 627Q283 627 248 616T192 574T162 483T153 325Q153 250 157 199T175 119T219 76T300 63Q359 63 387 81T424 136T433 223Q433 280 423 314T384
363T305 379Q272 379 244 371T187 343T120 285L116 329Q149 376 179 402T244 439T328 450Q401 450 442 428T500 357T517 223Q517 170 509 127T478 52T412 5T299 -12Q226 -12 180 4T110 60T76 164T66 328Q66 450 82 524T132 636T215 688T334 702Z" />
<glyph unicode="7" horiz-adv-x="512" d="M429 690Q450 690 462 683T477 662T475 629L260 0H172L366 564Q371 578 376 590T387 615H43L39 690H429Z" />
<glyph unicode="8" horiz-adv-x="607" d="M304 700Q370 700 412 689T479 656T513 600T523 518Q523 473 513 439T482 385T425 360V356Q469 352 493 329T528 266T538 172Q538 109 519 69T450 9T304 -10Q211 -10 160 9T89 68T69 172Q69 226 79 265T115 328T183 356V360Q148
364 126 384T94 439T84 518Q84 565 94 599T128 656T195 689T304 700ZM306 323Q259 323 229 317T182 297T159 256T152 190Q152 144 164 117T210 78T305 66Q366 66 398 77T442 116T454 190Q454 231 448 257T425 297T380 317T306 323ZM305 629Q248 629 218 618T177
581T165 510Q165 463 176 438T218 403T306 393Q364 393 393 403T433 438T443 510Q443 555 433 581T392 618T305 629Z" />
<glyph unicode="9" horiz-adv-x="572" d="M276 702Q351 702 396 685T465 627T495 520T503 353Q503 237 488 165T442 55T359 2T236 -12Q213 -12 174 -10T87 3L95 68Q119 66 138 65T179 64T236 64Q288 64 323 76T379 119T409 208T418 355Q418 434 415 486T398 570T356
614T275 627Q218 627 189 608T149 553T139 465Q139 415 149 381T188 328T265 310Q298 310 325 318T382 347T449 404L453 361Q421 314 391 288T325 251T242 240Q171 240 130 269T72 349T55 465Q55 544 75 596T144 675T276 702Z" />
<glyph unicode=":" horiz-adv-x="236" d="M129 440Q147 440 154 433T161 408V354Q161 336 154 329T129 322H101Q84 322 77 329T69 354V408Q69 426 76 433T101 440H129ZM129 118Q147 118 154 111T161 86V32Q161 14 154 7T129 0H101Q84 0 77 7T69 32V86Q69 104 76
111T101 118H129Z" />
<glyph unicode=";" horiz-adv-x="237" d="M133 440Q151 440 158 433T165 408V354Q165 336 158 329T133 322H105Q88 322 81 329T73 354V408Q73 426 80 433T105 440H133ZM132 118Q150 118 156 111T163 86V22Q163 -6 159 -33T147 -84T128 -132L88 -120Q93 -89 95
-63T98 0Q74 0 74 28V86Q75 104 83 111T107 118H132Z" />
<glyph unicode="&lt;" horiz-adv-x="530" d="M459 506V438L127 298L459 161V93L53 264V332L459 506Z" />
<glyph unicode="=" horiz-adv-x="585" d="M512 430V367H74V430H512ZM512 219V155H74V219H512Z" />
<glyph unicode="&gt;" horiz-adv-x="530" d="M71 506L477 332V264L71 93V161L403 298L71 438V506Z" />
<glyph unicode="?" horiz-adv-x="505" d="M260 712Q361 712 411 675T462 557Q462 512 444 480T400 420T347 365T301 300T280 211H207Q206 266 222 306T262 376T312 431T354 483T372 542Q374 592 343 616T242 640Q193 640 162 639T105 636T45 630L40 691Q66 696
87 699T131 706T184 710T260 712ZM255 118Q272 118 279 111T286 86V32Q286 14 279 7T255 0H232Q215 0 208 7T201 32V86Q201 104 208 111T232 118H255Z" />
<glyph unicode="@" horiz-adv-x="718" d="M495 585Q567 585 606 553T646 443V132H582L574 207Q556 189 525 170T456 137T375 124Q336 124 307 137T261 177T244 243V294Q244 342 273 369T359 397H566V440Q566 480 548 497T480 514H352Q287 514 248 508T189 479T163
406T156 266Q156 193 160 146T178 71T216 32T282 17T385 14H643V-50Q579 -54 515 -56T386 -58Q302 -59 246 -53T156 -28T104 27T81 121T75 266Q75 350 80 407T100 499T146 552T227 577T352 585H495ZM566 345L388 341Q353 340 339 327T324 284V258Q324 222 341 207T390
192Q419 192 451 200T513 222T566 258V345Z" />
<glyph unicode="A" horiz-adv-x="622" d="M357 690Q369 690 378 684T390 666L612 0H521L342 566Q338 580 334 594T325 622H297Q293 609 289 595T280 566L101 0H10L232 666Q235 677 244 683T265 690H357ZM485 292V216H135V292H485Z" />
<glyph unicode="B" horiz-adv-x="620" d="M311 698Q396 698 446 683T518 628T541 518Q541 444 514 405T424 360V356Q501 349 531 302T562 172Q562 101 540 62T470 8T342 -8Q283 -8 241 -8T162 -5T87 0L101 70Q123 69 184 68T328 67Q383 67 414 76T459 112T473
187Q473 241 459 270T412 311T322 324H100V391H321Q371 392 400 401T443 436T456 508Q456 555 442 580T396 614T307 623Q258 623 219 623T151 623T101 620L87 690Q122 694 153 695T222 697T311 698ZM173 690V0H87V690H173Z" />
<glyph unicode="C" horiz-adv-x="570" d="M332 702Q376 702 407 700T465 694T520 682L511 615Q481 618 456 620T401 623T332 624Q265 624 226 598T171 511T154 345Q154 240 170 179T226 92T332 66Q396 66 439 68T525 77L534 11Q491 -1 446 -6T332 -12Q233 -12
174 22T88 135T61 345Q61 477 87 555T173 667T332 702Z" />
<glyph unicode="D" horiz-adv-x="664" d="M333 699Q407 699 458 681T541 622T587 513T602 345Q602 245 588 177T542 68T459 9T333 -9Q262 -9 202 -7T87 0L125 72Q167 71 218 70T333 68Q399 68 438 93T493 179T510 345Q510 450 494 510T438 597T333 623Q271 623
222 622T125 620L87 690Q141 694 201 696T333 699ZM175 690V0H87V690H175Z" />
<glyph unicode="E" horiz-adv-x="560" d="M214 691Q264 691 314 691T414 690T510 685L506 616H229Q198 616 184 601T169 550V140Q169 105 183 89T229 73H506L510 5Q464 2 415 1T315 0T214 -1Q153 -1 118 31T81 119V571Q82 627 117 659T214 691ZM99 400H467V329H99V400Z" />
<glyph unicode="F" horiz-adv-x="539" d="M218 691Q266 691 315 691T412 689T504 684L499 616H240Q205 616 189 601T173 550V0H85V567Q85 626 121 658T218 691ZM102 390H461V319H102V390Z" />
<glyph unicode="G" horiz-adv-x="628" d="M350 703Q385 703 418 701T482 695T542 682L533 616Q502 619 471 621T410 623T355 624Q299 624 261 614T199 573T166 487T155 341Q155 239 169 179T216 91T304 64Q342 64 373 75T432 103T486 140L498 86Q480 65 449 42T375
3T280 -13Q203 -13 155 25T84 143T62 347Q62 484 89 561T180 671T350 703ZM560 399V0H496L482 102L474 122V399H560Z" />
<glyph unicode="H" horiz-adv-x="668" d="M175 690V0H87V690H175ZM504 407V331H167V407H504ZM581 690V0H493V690H581Z" />
<glyph unicode="I" horiz-adv-x="262" d="M175 690V0H87V690H175Z" />
<glyph unicode="J" horiz-adv-x="340" d="M256 690V145Q256 69 222 30T122 -9Q109 -9 92 -8T58 -3T30 4L40 66H90Q168 66 168 142V690H256Z" />
<glyph unicode="K" horiz-adv-x="591" d="M558 690L357 404Q348 391 340 382T319 360V358Q332 346 343 334T362 310L572 0H473L228 361L462 690H558ZM174 690V474Q174 444 171 417T162 361Q167 333 170 305T174 251V0H87V690H174ZM276 395V324H143V395H276Z" />
<glyph unicode="L" horiz-adv-x="514" d="M172 690V140Q172 106 188 90T239 74H488L492 6Q427 1 360 0T225 -1Q149 -1 117 36T85 129V690H172Z" />
<glyph unicode="M" horiz-adv-x="877" d="M739 690Q775 690 775 653L804 0H716L691 617H670L516 108Q508 78 478 78H399Q368 78 359 108L205 617H185L161 0H73L100 653Q102 690 137 690H237Q265 690 274 660L403 239Q411 216 416 193T429 146H447Q454 170 460
193T473 241L602 660Q610 690 640 690H739Z" />
<glyph unicode="N" horiz-adv-x="705" d="M618 690V35Q618 0 584 0H498Q483 0 474 7T459 28L226 517Q217 537 205 562T187 608H171Q173 586 174 563T175 517V0H87V655Q87 690 122 690H205Q220 690 229 683T244 662L470 185Q481 164 493 138T517 85H534Q533 112
532 138T531 190V690H618Z" />
<glyph unicode="O" horiz-adv-x="668" d="M334 703Q409 703 461 685T545 626T591 515T606 345Q606 244 592 175T546 65T462 5T334 -13Q259 -13 207 5T122 64T76 175T61 345Q61 446 75 515T122 625T206 685T334 703ZM334 624Q266 624 227 598T171 512T154 345Q154
240 170 179T226 92T334 66Q402 66 441 92T497 179T514 345Q514 451 498 511T442 598T334 624Z" />
<glyph unicode="P" horiz-adv-x="590" d="M324 699Q407 699 455 680T525 615T546 483Q546 398 526 351T459 286T334 267Q292 267 254 269T183 274T129 282T97 289L100 343Q153 343 210 343T323 343Q373 344 402 355T444 397T457 483Q457 539 445 569T403 611T323
623Q241 623 182 622T101 619L87 690Q125 694 158 696T230 698T324 699ZM175 690V0H87V690H175Z" />
<glyph unicode="Q" horiz-adv-x="669" d="M335 703Q410 703 462 685T546 626T592 515T607 345Q607 244 593 175T547 65T463 5T335 -13Q259 -13 207 5T123 64T77 175T62 345Q62 446 76 515T123 625T207 685T335 703ZM294 -43Q353 -68 419 -85T559 -113L531 -201Q453
-185 388 -157T269 -96L294 -43ZM335 624Q267 624 228 598T172 512T155 345Q155 240 171 179T227 92T335 66Q403 66 442 92T498 179T515 345Q515 451 498 511T442 598T335 624Z" />
<glyph unicode="R" horiz-adv-x="618" d="M325 699Q405 699 454 682T525 621T548 500Q548 444 535 407T495 349T421 322V317Q438 313 454 301T485 268T506 218L573 0H479L418 216Q405 255 383 271T326 288Q265 288 220 288T145 290T97 291L100 364H323Q374 365
403 376T446 415T459 495Q459 546 446 573T404 612T323 623Q241 623 182 622T101 621L87 690Q125 694 158 696T230 698T325 699ZM174 690V0H87V690H174Z" />
<glyph unicode="S" horiz-adv-x="561" d="M279 702Q328 701 380 697T484 682L478 618Q435 620 383 621T283 623Q246 623 220 621T176 609T152 578T144 518Q144 461 164 439T231 405L371 370Q451 351 480 304T510 176Q510 116 497 79T455 23T383 -4T279 -12Q245
-12 191 -9T65 7L71 72Q130 70 166 69T228 67T282 67Q335 67 365 75T408 107T421 178Q421 218 412 240T384 273T334 292L191 328Q116 347 86 394T55 520Q55 580 68 616T109 671T179 696T279 702Z" />
<glyph unicode="T" horiz-adv-x="581" d="M334 690V0H246V690H334ZM557 690V612H24V690H557Z" />
<glyph unicode="U" horiz-adv-x="666" d="M584 690V264Q584 164 560 103T482 15T337 -13Q244 -13 188 14T107 103T82 264V690H170V264Q170 190 185 147T237 85T333 66Q393 66 428 84T480 146T496 264V690H584Z" />
<glyph unicode="V" horiz-adv-x="609" d="M592 690L383 25Q379 15 370 8T349 0H260Q247 0 238 7T226 25L17 690H108L271 143Q276 124 281 106T291 68H318Q323 87 328 106T339 144L501 690H592Z" />
<glyph unicode="W" horiz-adv-x="948" d="M917 690L777 26Q774 15 765 8T742 0H642Q629 0 620 7T608 27L500 546Q496 566 492 585T484 624H463Q459 605 456 585T448 546L341 27Q338 15 329 8T306 0H205Q192 0 183 7T171 26L31 690H124L232 152Q236 133 239 112T246
67H269Q273 90 277 111T285 152L392 661Q394 674 403 682T426 690H522Q535 690 544 682T556 661L663 152Q668 130 671 109T677 67H702Q705 88 708 109T715 151L824 690H917Z" />
<glyph unicode="X" horiz-adv-x="611" d="M573 690L391 357L586 0H490L301 357L478 690H573ZM133 690L310 357L121 0H25L219 357L38 690H133ZM358 392V324H252V392H358Z" />
<glyph unicode="Y" horiz-adv-x="569" d="M557 690L324 234H245L11 690H105L250 399Q259 380 266 360T281 321H288Q295 340 303 360T319 398L464 690H557ZM328 296V0H240V296H328Z" />
<glyph unicode="Z" horiz-adv-x="566" d="M416 616L512 615L145 74L48 75L416 616ZM519 75V0H48V75H519ZM512 690V615H54V690H512Z" />
<glyph unicode="[" horiz-adv-x="329" d="M288 768V712H186Q172 712 172 696V-93Q172 -109 186 -109H288V-165H145Q122 -165 107 -152T91 -111V714Q91 738 106 753T145 768H288Z" />
<glyph unicode="\" horiz-adv-x="518" d="M98 690L491 -66H420L27 690H98Z" />
<glyph unicode="]" horiz-adv-x="329" d="M183 768Q207 768 222 753T237 714V-111Q237 -135 222 -150T183 -165H41V-109H142Q157 -109 157 -93V696Q157 712 142 712H41V768H183Z" />
<glyph unicode="^" horiz-adv-x="426" d="M244 600L396 390L362 368L218 542H210L65 368L30 390L183 600H244Z" />
<glyph unicode="_" horiz-adv-x="438" d="M438 0V-65H0V0H438Z" />
<glyph unicode="`" horiz-adv-x="315" d="M85 723L257 577L228 538L36 658L85 723Z" />
<glyph unicode="a" horiz-adv-x="549" d="M308 499Q362 499 399 485T456 436T475 343V0H408L395 106L389 117V343Q389 388 369 407T290 427Q252 427 195 423T81 414L73 477Q107 483 147 488T230 496T308 499ZM435 300L434 236L201 235Q166 234 152 217T138 168V137Q138
99 156 82T214 64Q242 64 277 74T349 107T415 163V100Q404 86 384 68T335 32T272 3T197 -9Q154 -9 121 6T70 52T51 127V180Q51 237 86 268T186 300H435Z" />
<glyph unicode="b" horiz-adv-x="570" d="M340 499Q430 499 473 441T516 245Q516 182 506 134T471 54T405 5T300 -12Q275 -12 246 -10T187 -4T129 7T76 23L144 81Q171 73 197 68T249 62T298 60Q345 61 373 78T415 135T428 245Q428 312 418 351T383 408T310 425Q270
425 234 404T151 345L145 402Q175 434 206 455T272 488T340 499ZM161 700V518Q161 487 160 461T152 408L160 394L161 19L76 23V700H161Z" />
<glyph unicode="c" horiz-adv-x="489" d="M286 499Q308 499 335 497T390 490T443 476L432 421Q399 424 363 425T300 427Q242 427 208 411T159 355T144 244Q144 173 159 133T208 76T300 60Q315 60 339 61T390 64T443 70L452 13Q415 0 372 -6T285 -12Q201 -12 150
13T77 94T54 244Q54 338 77 394T151 474T286 499Z" />
<glyph unicode="d" horiz-adv-x="573" d="M240 499Q288 499 335 487T425 448L420 395Q373 409 337 417T260 425Q218 425 193 411T155 357T143 246Q143 174 154 134T191 78T255 62Q284 62 307 69T357 94T420 137L428 77Q388 40 337 14T227 -12Q135 -12 96 53T56
245Q56 340 76 395T137 475T240 499ZM494 700V0H428L418 85L409 92V426L415 441Q411 469 410 495T409 550V700H494Z" />
<glyph unicode="e" horiz-adv-x="537" d="M278 499Q388 499 437 459T487 340Q488 275 460 239T371 202H87V268H349Q382 268 392 290T402 340Q401 387 374 407T282 427Q229 427 199 412T156 358T143 250Q143 172 158 131T208 75T298 60Q337 60 383 63T467 72L476
15Q453 6 420 0T351 -9T287 -12Q203 -12 152 13T78 95T54 245Q54 341 77 396T150 475T278 499Z" />
<glyph unicode="f" horiz-adv-x="380" d="M258 717Q274 717 299 717T350 715T395 710L388 647H288Q240 647 221 628T201 565V0H116V574Q116 620 130 651T175 700T258 717ZM357 487V420H28V482L121 487H357Z" />
<glyph unicode="g" horiz-adv-x="558" d="M271 499Q349 499 394 483T459 433T479 344Q479 291 460 257T394 206T270 189Q192 189 147 205T82 256T62 343Q62 398 81 432T147 483T271 499ZM270 434Q197 434 169 414T140 344Q140 296 168 275T270 254Q344 254 372
275T400 344Q400 393 372 413T270 434ZM536 487L531 440L407 430L372 487H536ZM133 221L182 214Q165 199 159 178T162 138T203 115L385 86Q454 76 481 43T508 -51Q508 -108 487 -141T414 -188T276 -202Q210 -202 165 -195T93 -170T53 -124T41 -54Q41 -22 50 -1T80
38T134 71L194 104L233 90L184 53Q164 38 151 24T131 -7T124 -47Q124 -81 137 -99T183 -123T275 -130Q334 -130 366 -123T412 -98T425 -47Q425 -22 419 -9T394 11T341 23L166 47Q135 51 117 67T91 105T87 149T102 191T133 221Z" />
<glyph unicode="h" horiz-adv-x="581" d="M374 499Q506 499 506 365V0H420V341Q420 390 405 408T351 427Q306 427 261 406T154 345L150 406Q207 449 263 474T374 499ZM163 700L164 507Q164 474 162 445T154 394L163 379V0H78V700H163Z" />
<glyph unicode="i" horiz-adv-x="248" d="M166 487V0H82V487H166ZM144 694Q170 694 170 668V611Q170 585 144 585H104Q78 585 78 611V668Q78 694 104 694H144Z" />
<glyph unicode="j" horiz-adv-x="250" d="M168 487V-12Q168 -51 157 -86T124 -151T74 -203L27 -166Q56 -131 69 -95T83 -12V487H168ZM146 694Q171 694 171 668V611Q171 585 146 585H106Q80 585 80 611V668Q80 694 106 694H146Z" />
<glyph unicode="k" horiz-adv-x="509" d="M476 487L323 308Q316 299 306 290T289 275V273Q296 268 306 257T323 234L492 0H393L200 279L377 487H476ZM163 700L164 389Q164 358 162 332T154 276Q159 248 161 220T163 166V0H78V700H163ZM246 306V244H133V306H246Z" />
<glyph unicode="l" horiz-adv-x="297" d="M164 700L163 134Q163 102 180 86T230 69H277L287 4Q278 0 262 -3T228 -7T198 -9Q144 -9 112 23T79 115V700H164Z" />
<glyph unicode="m" horiz-adv-x="876" d="M671 499Q734 499 767 465T801 365V0H717V341Q716 386 699 406T641 427Q615 427 592 419T540 392T472 345L467 405Q520 452 570 475T671 499ZM148 487L154 394L163 379V0H78V487H148ZM352 499Q414 499 447 466T481 365V0H399V341Q399
388 380 407T323 427Q298 427 275 419T223 393T153 345L147 405Q200 452 250 475T352 499Z" />
<glyph unicode="n" horiz-adv-x="581" d="M374 499Q506 499 506 365V0H421V341Q421 390 405 408T351 427Q306 427 261 405T154 345L150 406Q207 450 263 474T374 499ZM150 487L157 394L163 379V0H78V487H150Z" />
<glyph unicode="o" horiz-adv-x="568" d="M284 499Q368 499 418 474T491 393T513 243Q513 150 491 94T419 12T284 -13Q201 -13 151 12T78 93T55 243Q55 336 77 392T150 474T284 499ZM284 427Q231 427 201 411T157 354T144 243Q144 172 157 132T200 76T284 59Q337
59 368 75T412 132T425 243Q425 314 412 354T368 410T284 427Z" />
<glyph unicode="p" horiz-adv-x="580" d="M357 499Q446 499 485 434T524 241Q524 147 504 92T444 12T340 -12Q292 -12 246 1T155 41L160 92Q207 79 243 71T319 62Q362 62 387 77T425 131T437 241Q437 310 426 350T392 407T329 425Q289 425 250 406T159 348L151
405Q178 434 212 455T283 487T357 499ZM148 487L157 386L163 373V61L159 49Q162 21 162 -5T163 -60V-201H78V487H148Z" />
<glyph unicode="q" horiz-adv-x="570" d="M274 499Q297 499 325 497T383 491T441 480T494 465L425 406Q399 414 372 419T320 426T273 427Q225 426 196 410T155 352T142 236Q142 147 164 105T250 62Q296 62 333 81T419 134L430 78Q399 50 365 30T296 -2T222 -13Q137
-13 96 48T55 242Q55 305 65 353T101 433T168 482T274 499ZM409 468L494 465V-201H409L408 -34Q408 -2 410 23T418 76L409 90V468Z" />
<glyph unicode="r" horiz-adv-x="401" d="M144 487L155 394L163 379V0H78V487H144ZM383 499L373 419H345Q302 419 259 402T154 352L147 405Q201 449 255 474T361 499H383Z" />
<glyph unicode="s" horiz-adv-x="508" d="M240 499Q272 499 308 497T379 492T445 484L438 422Q392 424 346 425T253 427Q208 428 182 425T145 409T133 365Q133 327 151 315T204 295L346 263Q404 249 431 220T459 129Q459 69 437 39T368 -1T251 -11Q225 -11 174
-9T60 3L66 65Q90 64 117 63T173 61T234 61Q289 61 320 66T364 85T377 129Q377 165 356 177T300 197L160 229Q120 239 96 255T61 298T50 365Q50 422 70 451T132 490T240 499Z" />
<glyph unicode="t" horiz-adv-x="381" d="M200 631V134Q200 99 215 84T266 69H340L350 4Q334 0 313 -3T272 -7T240 -9Q179 -9 147 25T115 123V631H200ZM355 487V420H27V482L123 487H355Z" />
<glyph unicode="u" horiz-adv-x="570" d="M160 487V145Q159 99 177 80T237 61Q278 61 318 80T416 137L427 78Q370 33 317 10T208 -13Q75 -13 75 121V487H160ZM492 487V0H424L416 92L407 107V487H492Z" />
<glyph unicode="v" horiz-adv-x="530" d="M511 487L333 21Q329 11 322 6T303 0H226Q216 0 208 5T196 21L18 487H109L229 146Q237 125 244 103T258 61H271Q279 82 286 103T301 146L421 487H511Z" />
<glyph unicode="w" horiz-adv-x="824" d="M799 487L657 24Q654 13 645 7T624 0H547Q535 0 526 7T514 27L434 358Q430 377 427 396T418 435H406Q402 415 398 396T389 358L310 27Q307 15 298 8T276 0H200Q188 0 179 6T167 24L25 487H113L214 128Q219 110 223 92T230
55H243Q248 73 252 91T261 128L342 460Q344 472 352 479T374 487H451Q463 487 471 480T483 459L563 128Q567 110 571 92T580 55H593Q598 74 601 91T610 128L711 487H799Z" />
<glyph unicode="x" horiz-adv-x="528" d="M493 487L342 251L505 0H413L254 251L401 487H493ZM127 487L274 251L116 0H23L186 251L35 487H127ZM317 286V220H212V286H317Z" />
<glyph unicode="y" horiz-adv-x="529" d="M510 487L315 -27Q303 -59 285 -90T242 -146T182 -188T102 -206L94 -150Q153 -131 185 -99T236 -21L260 37Q268 57 276 81T291 124L418 487H510ZM109 487L238 124Q243 109 248 95T256 65H279L251 0H225Q215 0 207 6T195
22L18 487H109Z" />
<glyph unicode="z" horiz-adv-x="510" d="M363 418L458 417L144 68L49 69L363 418ZM461 69V0H49V69H461ZM458 487V417H52V487H458Z" />
<glyph unicode="{" horiz-adv-x="319" d="M276 768V714Q224 714 205 695T186 629V450Q187 409 180 385T153 348T97 328Q134 317 154 303T182 267T190 210V-27Q190 -72 209 -91T280 -111V-165Q219 -169 181 -155T126 -110T108 -32V224Q108 250 102 262T82 282T46
297V359Q70 367 82 372T99 391T104 436V635Q104 682 121 713T177 758T276 768Z" />
<glyph unicode="|" horiz-adv-x="246" d="M154 781V-169H92V781H154Z" />
<glyph unicode="}" horiz-adv-x="320" d="M44 768Q106 773 143 759T198 713T216 635V436Q216 405 220 392T237 373T274 359V297Q252 289 238 282T218 263T212 224V-32Q212 -79 195 -110T140 -155T40 -165V-111Q93 -111 111 -92T130 -27V210Q131 245 139 267T167
303T223 328Q188 335 169 348T142 385T134 450V629Q134 675 116 694T44 714V768Z" />
<glyph unicode="~" horiz-adv-x="525" d="M154 348Q180 347 206 339T259 320T311 300T360 289Q386 286 395 299T405 343H449Q456 283 434 253T372 225Q342 227 315 235T262 253T212 273T166 284Q139 287 130 274T121 228H77Q72 270 81 296T110 336T154 348Z" />
<glyph unicode="&#xa0;" horiz-adv-x="223" />
<glyph unicode="&#xa1;" horiz-adv-x="256" d="M162 282L171 104V-196H86V104L94 282H162ZM140 493Q157 493 164 486T171 461V406Q171 389 164 382T140 375H118Q101 375 94 382T86 406V461Q86 479 93 486T118 493H140Z" />
<glyph unicode="&#xa2;" horiz-adv-x="508" d="M285 605Q307 605 334 603T389 595T442 581L431 524Q398 529 362 530T299 532Q239 532 204 516T154 460T138 349Q138 278 153 238T204 182T299 165Q314 165 338 166T390 169T442 176L451 119Q414 106 371 100T285
94Q201 94 150 118T77 199T54 349Q54 443 76 499T150 580T285 605ZM296 133L283 0H238L251 133H296ZM332 557L297 131H251L286 557H332ZM345 690L332 555H287L299 690H345Z" />
<glyph unicode="&#xa3;" horiz-adv-x="569" d="M316 702Q336 702 364 701T426 698T495 692L490 622Q470 623 453 624T418 625T375 626T314 626Q254 626 231 604T211 520L227 263Q229 216 223 182T200 121T155 72Q172 74 188 74T222 75H518V0H62V75Q114 101 129
150T140 263L125 521Q122 580 134 616T171 670T233 695T316 702ZM431 391L429 335H57L56 391H431Z" />
<glyph unicode="&#xa4;" horiz-adv-x="594" d="M296 497Q257 497 224 478T172 425T152 352Q152 312 171 279T224 227T296 208Q335 208 367 227T419 279T439 352Q439 392 420 425T368 477T296 497ZM106 580L189 496L152 459L69 542L106 580ZM488 580L526 542L444
461L407 498L488 580ZM155 252L195 212L106 123L66 163L155 252ZM438 247L526 160L488 123L401 210L438 247ZM296 548Q351 548 395 522T465 451T492 351Q492 297 466 253T395 182T296 155Q242 155 198 181T127 252T100 351Q100 406 126 450T197 521T296 548Z" />
<glyph unicode="&#xa5;" horiz-adv-x="618" d="M582 690L349 255H269L36 690H127L272 415Q282 397 290 377T306 337H313Q321 356 329 376T346 414L490 690H582ZM353 317V0H265V317H353ZM531 210V159H92L91 210H531ZM531 323V271H92L91 323H531Z" />
<glyph unicode="&#xa6;" horiz-adv-x="248" d="M155 781V381H93V781H155ZM155 231V-169H93V231H155Z" />
<glyph unicode="&#xa7;" horiz-adv-x="544" d="M140 388Q137 345 141 315T161 262T209 222L382 124Q413 106 435 86T470 37T483 -32Q483 -90 459 -118T390 -154T286 -162Q256 -161 219 -160T144 -156T68 -150L75 -83Q109 -85 138 -86T198 -88T265 -90Q304 -90
332 -87T376 -72T392 -29Q394 7 375 27T328 64L166 154Q117 180 95 213T70 289T78 388H140ZM260 703Q291 703 329 702T406 698T477 691L471 625Q442 627 417 628T360 629T282 630Q243 631 214 628T170 613T153 573Q152 537 171 517T219 480L381 389Q430 363 452
330T476 253T467 154H405Q409 197 404 227T383 281T336 322L163 421Q132 439 109 459T74 507T62 575Q62 629 85 656T152 693T260 703Z" />
<glyph unicode="&#xa8;" horiz-adv-x="411" d="M309 693Q333 693 333 669V614Q333 590 309 590H281Q257 590 257 614V669Q257 693 281 693H309ZM132 693Q155 693 155 669V614Q155 590 132 590H103Q80 590 80 614V669Q80 693 103 693H132Z" />
<glyph unicode="&#xa9;" horiz-adv-x="836" d="M418 703Q493 703 558 677T672 602T749 489T777 345Q777 267 750 202T673 88T558 14T418 -13Q343 -13 278 13T164 88T87 201T59 345Q59 423 87 488T164 602T278 676T418 703ZM423 568Q470 568 499 565T558 554L550
506Q518 508 492 508T422 509Q374 509 346 494T307 444T295 347Q295 286 306 251T346 200T422 185Q469 185 500 186T562 191L568 142Q537 135 505 131T423 127Q352 127 309 148T247 218T228 347Q228 428 247 476T309 546T423 568ZM418 657Q354 657 298 634T198
569T131 470T106 345Q106 278 130 221T198 122T297 56T418 33Q483 33 539 56T638 121T705 221T730 345Q730 413 706 469T639 568T540 634T418 657Z" />
<glyph unicode="&#xaa;" horiz-adv-x="441" d="M254 607Q308 607 338 584T368 499V272H317L307 344L304 352V500Q304 524 291 538T241 553Q207 553 166 551T86 545L79 593Q103 596 131 599T190 605T254 607ZM339 472L338 437L177 427Q149 426 138 415T127 385V367Q127
342 141 332T182 321Q206 321 232 330T283 355T323 387V349Q315 338 300 324T264 297T217 275T162 266Q118 266 91 288T64 353V391Q64 429 88 450T157 472H339Z" />
<glyph unicode="&#xab;" horiz-adv-x="485" d="M385 459L430 429L304 251L431 69L386 39L225 241V261L385 459ZM204 459L249 429L123 251L250 69L205 39L44 241V261L204 459Z" />
<glyph unicode="&#xac;" horiz-adv-x="590" d="M512 330V265H74V330H512ZM512 321V132H446V321H512Z" />
<glyph unicode="&#xad;" horiz-adv-x="448" d="M377 285V220H72V285H377Z" />
<glyph unicode="&#xae;" horiz-adv-x="553" d="M277 702Q339 702 389 672T469 592T499 480Q499 418 469 368T389 287T277 257Q215 257 165 287T84 367T54 480Q54 542 84 592T164 672T277 702ZM217 610V351H177V610H217ZM277 673Q224 673 181 647T111 577T85 480Q85
427 111 383T180 313T277 287Q330 287 373 313T442 383T468 480Q468 533 442 577T373 647T277 673ZM286 613Q341 613 365 598T389 538Q389 509 376 493T330 473V471Q342 470 353 461T369 433L399 351H357L329 431Q323 446 313 452T287 458Q244 458 219 458T182
459L183 487H285Q320 488 334 498T348 534Q349 563 335 572T285 581Q248 581 221 581T184 580L177 610Q203 612 225 612T286 613Z" />
<glyph unicode="&#xaf;" horiz-adv-x="400" d="M339 672V609H61V672H339Z" />
<glyph unicode="&#xb0;" horiz-adv-x="363" d="M182 703Q217 703 246 686T293 640T311 576Q311 541 294 512T247 466T182 448Q147 448 117 465T70 512T52 576Q52 611 69 639T116 685T182 703ZM182 651Q151 651 129 630T106 576Q106 555 116 538T144 510T182 500Q203
500 220 510T247 537T257 576Q257 609 235 630T182 651Z" />
<glyph unicode="&#xb1;" horiz-adv-x="588" d="M513 391V327H75V391H513ZM513 134V70H75V134H513ZM327 524L326 193H261V524H327Z" />
<glyph unicode="&#xb2;" horiz-adv-x="414" d="M200 773Q248 773 280 766T329 738T346 678Q346 644 326 610T265 535L145 416Q163 418 177 418T210 418L363 417L362 359H57V395Q57 403 59 410T68 423L193 547Q220 573 237 594T263 634T272 671Q273 700 253 708T197
716Q166 716 137 714T66 707L62 758Q108 768 142 770T200 773Z" />
<glyph unicode="&#xb3;" horiz-adv-x="407" d="M194 774Q272 774 304 754T336 680Q336 639 321 612T265 576V574Q311 567 328 542T347 472Q349 409 315 380T201 351Q164 351 127 354T56 363L61 413Q84 411 104 410T144 408T185 407Q237 407 257 423T278 480Q278
498 272 513T249 537T196 546H111V596L196 597Q231 597 246 607T266 633T270 664Q270 696 252 707T184 718Q153 718 122 717T67 712L63 761Q96 767 129 770T194 774Z" />
<glyph unicode="&#xb4;" horiz-adv-x="314" d="M221 731L270 665L78 545L49 584L221 731Z" />
<glyph unicode="&#xb5;" horiz-adv-x="577" d="M162 487V154Q162 102 182 84T243 66Q288 66 325 93T385 165T409 263L412 102Q396 71 369 45T307 4T229 -12Q186 -12 152 4T98 52T78 133V487H162ZM162 84L161 -76L151 -201H78V181L162 84ZM494 487V108Q494 92 496
80T503 62T522 55H554L560 4Q541 -3 522 -6T484 -10Q449 -10 431 11T412 77V102L409 118V487H494Z" />
<glyph unicode="&#xb6;" horiz-adv-x="593" d="M346 702Q377 702 419 699T497 685L491 634Q467 639 436 641T374 645T322 646L279 200Q151 210 96 268T40 450Q40 543 70 598T168 677T346 702ZM334 685V-210H269V685H334ZM497 685V0H432V685H497Z" />
<glyph unicode="&#xb7;" horiz-adv-x="236" d="M132 317Q150 317 157 310T164 285V231Q164 213 157 206T132 199H104Q87 199 80 206T72 231V285Q72 303 79 310T104 317H132Z" />
<glyph unicode="&#xb8;" horiz-adv-x="234" d="M90 -43Q129 -39 153 -43T190 -63T201 -108Q200 -150 178 -179T119 -222T34 -229L47 -184Q88 -185 113 -166T140 -115Q141 -97 129 -91T81 -83L90 -43Z" />
<glyph unicode="&#xb9;" horiz-adv-x="294" d="M210 767V359H144V669Q144 678 144 687T146 707L38 678L30 725L144 767H210Z" />
<glyph unicode="&#xba;" horiz-adv-x="444" d="M222 607Q312 607 348 569T385 435Q385 373 369 335T318 281T222 264Q132 264 96 302T59 435Q59 530 95 568T222 607ZM222 554Q168 554 147 529T126 435Q126 367 147 343T222 318Q276 318 296 342T317 435Q317 504
297 529T222 554Z" />
<glyph unicode="&#xbb;" horiz-adv-x="485" d="M99 459L259 261V241L98 39L53 69L180 251L54 429L99 459ZM281 459L441 261V241L280 39L235 69L362 251L236 429L281 459Z" />
<glyph unicode="&#xbc;" horiz-adv-x="863" d="M645 690L198 0H137L584 690H645ZM221 690V276H155V591Q155 601 156 610T159 630L46 601L38 647L155 690H221ZM667 414L545 172Q541 163 546 157T562 150H821V103L763 97H515Q490 97 476 114T476 162L603 414H667ZM773
335V0H710V267L722 335H773Z" />
<glyph unicode="&#xbd;" horiz-adv-x="887" d="M639 690L192 0H130L578 690H639ZM221 690V276H155V591Q155 601 156 610T159 630L46 601L38 647L155 690H221ZM670 421Q719 421 752 414T803 387T820 326Q820 292 800 258T738 182L611 58Q630 60 645 60T680 60L838
59L837 0H526V38Q526 46 528 53T536 66L665 191Q706 231 726 262T748 320Q748 350 726 357T666 364Q634 364 606 363T534 356L530 406Q578 416 611 418T670 421Z" />
<glyph unicode="&#xbe;" horiz-adv-x="954" d="M746 690L299 0H238L685 690H746ZM197 695Q280 695 312 675T344 600Q344 559 329 531T268 495V493Q318 486 336 460T355 389Q357 325 323 296T205 266Q168 266 130 269T56 277L60 327Q84 325 105 324T146 323T189
322Q243 322 265 338T287 397Q287 416 281 431T256 455T200 465L114 467V512L200 515Q236 516 253 526T274 552T279 583Q279 617 260 628T187 640Q154 640 123 639T68 636L64 685Q99 690 131 692T197 695ZM758 414L636 172Q632 163 637 157T654 150H912V103L855
97H606Q581 97 567 114T567 162L694 414H758ZM861 335V0H799V267L810 335H861Z" />
<glyph unicode="&#xbf;" horiz-adv-x="500" d="M296 288Q297 233 281 193T241 124T191 69T149 17T131 -44Q129 -93 160 -116T261 -140Q311 -140 342 -139T399 -136T458 -131L463 -192Q437 -196 416 -200T372 -207T319 -211T243 -213Q143 -213 92 -175T41 -58Q41
-13 59 19T103 79T156 135T202 200T223 288H296ZM271 499Q289 499 296 492T303 468V412Q303 395 296 388T271 381H250Q232 381 225 388T218 412V468Q218 485 225 492T250 499H271Z" />
<glyph unicode="&#xc0;" horiz-adv-x="622" d="M357 690Q369 690 378 684T390 666L612 0H521L342 566Q338 580 334 594T325 622H297Q293 609 289 595T280 566L101 0H10L232 666Q235 677 244 683T265 690H357ZM485 292V216H135V292H485ZM197 906L369 760L340 721L148
841L197 906Z" />
<glyph unicode="&#xc1;" horiz-adv-x="622" d="M357 690Q369 690 378 684T390 666L612 0H521L342 566Q338 580 334 594T325 622H297Q293 609 289 595T280 566L101 0H10L232 666Q235 677 244 683T265 690H357ZM485 292V216H135V292H485ZM412 914L461 848L269 728L240
767L412 914Z" />
<glyph unicode="&#xc2;" horiz-adv-x="622" d="M357 690Q369 690 378 684T390 666L612 0H521L342 566Q338 580 334 594T325 622H297Q293 609 289 595T280 566L101 0H10L232 666Q235 677 244 683T265 690H357ZM485 292V216H135V292H485ZM342 889L475 762L445 725L316
822H308L178 725L149 762L281 889H342Z" />
<glyph unicode="&#xc3;" horiz-adv-x="622" d="M357 690Q369 690 378 684T390 666L612 0H521L342 566Q338 580 334 594T325 622H297Q293 609 289 595T280 566L101 0H10L232 666Q235 677 244 683T265 690H357ZM485 292V216H135V292H485ZM231 872Q254 870 272 863T307
846T341 828T380 817Q409 813 419 826T429 867H469Q475 811 453 782T391 755Q357 758 333 771T287 797T240 812Q212 815 203 802T193 758H153Q149 798 158 824T187 862T231 872Z" />
<glyph unicode="&#xc4;" horiz-adv-x="622" d="M357 690Q369 690 378 684T390 666L612 0H521L342 566Q338 580 334 594T325 622H297Q293 609 289 595T280 566L101 0H10L232 666Q235 677 244 683T265 690H357ZM485 292V216H135V292H485ZM414 863Q438 863 438 839V784Q438
760 414 760H386Q362 760 362 784V839Q362 863 386 863H414ZM237 863Q260 863 260 839V784Q260 760 237 760H208Q185 760 185 784V839Q185 863 208 863H237Z" />
<glyph unicode="&#xc5;" horiz-adv-x="622" d="M357 690Q369 690 378 684T390 666L612 0H521L342 566Q338 580 334 594T325 622H297Q293 609 289 595T280 566L101 0H10L232 666Q235 677 244 683T265 690H357ZM485 292V216H135V292H485ZM311 924Q340 924 364 910T403
873T418 819Q418 790 404 766T365 728T311 714Q282 714 258 728T219 765T204 819Q204 849 218 872T257 910T311 924ZM311 880Q286 880 269 864T252 819Q252 791 269 775T311 758Q337 758 354 774T371 819Q371 847 354 863T311 880Z" />
<glyph unicode="&#xc6;" horiz-adv-x="913" d="M567 691Q660 691 728 690T862 685L859 615H604Q573 615 555 597T536 546V141Q536 107 552 91T604 74H859L862 5Q791 1 717 0T569 -1Q517 -1 485 33T453 119V558Q453 579 462 600T485 630H477Q464 623 449 607T419
567L91 0H-1L342 582Q360 614 380 635T427 669T487 686T567 691ZM477 298V225H177L185 298H477ZM467 401L819 400V329L467 328V401Z" />
<glyph unicode="&#xc7;" horiz-adv-x="570" d="M332 702Q376 702 407 700T465 694T520 682L511 615Q481 618 456 620T401 623T332 624Q265 624 226 598T171 511T154 345Q154 240 170 179T226 92T332 66Q396 66 439 68T525 77L534 11Q491 -1 446 -6T332 -12Q233
-12 174 22T88 135T61 345Q61 477 87 555T173 667T332 702ZM282 -55Q321 -51 345 -55T382 -75T393 -120Q392 -162 370 -191T311 -234T226 -241L239 -196Q280 -197 305 -178T332 -127Q333 -109 321 -103T273 -95L282 -55Z" />
<glyph unicode="&#xc8;" horiz-adv-x="560" d="M214 691Q264 691 314 691T414 690T510 685L506 616H229Q198 616 184 601T169 550V140Q169 105 183 89T229 73H506L510 5Q464 2 415 1T315 0T214 -1Q153 -1 118 31T81 119V571Q82 627 117 659T214 691ZM99 400H467V329H99V400ZM195
927L367 781L338 742L146 862L195 927Z" />
<glyph unicode="&#xc9;" horiz-adv-x="560" d="M214 691Q264 691 314 691T414 690T510 685L506 616H229Q198 616 184 601T169 550V140Q169 105 183 89T229 73H506L510 5Q464 2 415 1T315 0T214 -1Q153 -1 118 31T81 119V571Q82 627 117 659T214 691ZM99 400H467V329H99V400ZM411
935L460 869L268 749L239 788L411 935Z" />
<glyph unicode="&#xca;" horiz-adv-x="560" d="M214 691Q264 691 314 691T414 690T510 685L506 616H229Q198 616 184 601T169 550V140Q169 105 183 89T229 73H506L510 5Q464 2 415 1T315 0T214 -1Q153 -1 118 31T81 119V571Q82 627 117 659T214 691ZM99 400H467V329H99V400ZM340
910L473 783L443 746L314 843H306L176 746L147 783L279 910H340Z" />
<glyph unicode="&#xcb;" horiz-adv-x="560" d="M214 691Q264 691 314 691T414 690T510 685L506 616H229Q198 616 184 601T169 550V140Q169 105 183 89T229 73H506L510 5Q464 2 415 1T315 0T214 -1Q153 -1 118 31T81 119V571Q82 627 117 659T214 691ZM99 400H467V329H99V400ZM412
883Q436 883 436 859V804Q436 780 412 780H384Q360 780 360 804V859Q360 883 384 883H412ZM235 883Q258 883 258 859V804Q258 780 235 780H206Q183 780 183 804V859Q183 883 206 883H235Z" />
<glyph unicode="&#xcc;" horiz-adv-x="262" d="M175 690V0H87V690H175ZM16 913L188 767L159 728L-33 848L16 913Z" />
<glyph unicode="&#xcd;" horiz-adv-x="262" d="M175 690V0H87V690H175ZM232 921L281 855L89 735L60 774L232 921Z" />
<glyph unicode="&#xce;" horiz-adv-x="262" d="M175 690V0H87V690H175ZM161 896L294 769L264 732L135 829H127L-3 732L-32 769L100 896H161Z" />
<glyph unicode="&#xcf;" horiz-adv-x="262" d="M175 690V0H87V690H175ZM233 870Q257 870 257 846V791Q257 767 233 767H205Q181 767 181 791V846Q181 870 205 870H233ZM56 870Q79 870 79 846V791Q79 767 56 767H27Q4 767 4 791V846Q4 870 27 870H56Z" />
<glyph unicode="&#xd0;" horiz-adv-x="669" d="M331 391V342H22V391H331ZM337 699Q411 699 462 681T545 622T591 513T606 345Q606 245 592 177T546 68T463 9T337 -9Q266 -9 206 -7T91 0L129 72Q171 71 222 70T337 68Q403 68 442 93T497 179T514 345Q514 450 498
510T442 597T337 623Q275 623 226 622T129 620L91 690Q145 694 205 696T337 699ZM179 690V0H91V690H179Z" />
<glyph unicode="&#xd1;" horiz-adv-x="705" d="M618 690V35Q618 0 584 0H498Q483 0 474 7T459 28L226 517Q217 537 205 562T187 608H171Q173 586 174 563T175 517V0H87V655Q87 690 122 690H205Q220 690 229 683T244 662L470 185Q481 164 493 138T517 85H534Q533
112 532 138T531 190V690H618ZM284 879Q307 877 325 870T360 853T394 835T433 824Q462 820 472 833T482 874H522Q528 818 506 789T444 762Q410 765 386 778T340 804T293 819Q265 822 256 809T246 765H206Q202 805 211 831T240 869T284 879Z" />
<glyph unicode="&#xd2;" horiz-adv-x="668" d="M334 703Q409 703 461 685T545 626T591 515T606 345Q606 244 592 175T546 65T462 5T334 -13Q259 -13 207 5T122 64T76 175T61 345Q61 446 75 515T122 625T206 685T334 703ZM334 624Q266 624 227 598T171 512T154
345Q154 240 170 179T226 92T334 66Q402 66 441 92T497 179T514 345Q514 451 498 511T442 598T334 624ZM221 913L393 767L364 728L172 848L221 913Z" />
<glyph unicode="&#xd3;" horiz-adv-x="668" d="M334 703Q409 703 461 685T545 626T591 515T606 345Q606 244 592 175T546 65T462 5T334 -13Q259 -13 207 5T122 64T76 175T61 345Q61 446 75 515T122 625T206 685T334 703ZM334 624Q266 624 227 598T171 512T154
345Q154 240 170 179T226 92T334 66Q402 66 441 92T497 179T514 345Q514 451 498 511T442 598T334 624ZM436 921L485 855L293 735L264 774L436 921Z" />
<glyph unicode="&#xd4;" horiz-adv-x="668" d="M334 703Q409 703 461 685T545 626T591 515T606 345Q606 244 592 175T546 65T462 5T334 -13Q259 -13 207 5T122 64T76 175T61 345Q61 446 75 515T122 625T206 685T334 703ZM334 624Q266 624 227 598T171 512T154
345Q154 240 170 179T226 92T334 66Q402 66 441 92T497 179T514 345Q514 451 498 511T442 598T334 624ZM366 896L499 769L469 732L340 829H332L202 732L173 769L305 896H366Z" />
<glyph unicode="&#xd5;" horiz-adv-x="668" d="M334 703Q409 703 461 685T545 626T591 515T606 345Q606 244 592 175T546 65T462 5T334 -13Q259 -13 207 5T122 64T76 175T61 345Q61 446 75 515T122 625T206 685T334 703ZM334 624Q266 624 227 598T171 512T154
345Q154 240 170 179T226 92T334 66Q402 66 441 92T497 179T514 345Q514 451 498 511T442 598T334 624ZM255 879Q278 877 296 870T331 853T365 835T404 824Q433 820 443 833T453 874H493Q499 818 477 789T415 762Q381 765 357 778T311 804T264 819Q236 822 227
809T217 765H177Q173 805 182 831T211 869T255 879Z" />
<glyph unicode="&#xd6;" horiz-adv-x="668" d="M334 703Q409 703 461 685T545 626T591 515T606 345Q606 244 592 175T546 65T462 5T334 -13Q259 -13 207 5T122 64T76 175T61 345Q61 446 75 515T122 625T206 685T334 703ZM334 624Q266 624 227 598T171 512T154
345Q154 240 170 179T226 92T334 66Q402 66 441 92T497 179T514 345Q514 451 498 511T442 598T334 624ZM438 870Q462 870 462 846V791Q462 767 438 767H410Q386 767 386 791V846Q386 870 410 870H438ZM261 870Q284 870 284 846V791Q284 767 261 767H232Q209 767
209 791V846Q209 870 232 870H261Z" />
<glyph unicode="&#xd7;" horiz-adv-x="484" d="M402 475L46 155L88 104L444 425L402 475ZM88 475L46 424L402 104L444 155L88 475Z" />
<glyph unicode="&#xd8;" horiz-adv-x="668" d="M493 750L539 731L169 -58L124 -38L493 750ZM334 703Q409 703 461 685T545 626T591 515T606 345Q606 244 592 175T546 65T462 5T334 -13Q259 -13 207 5T122 64T76 175T61 345Q61 446 75 515T122 625T206 685T334
703ZM334 624Q266 624 227 598T171 512T154 345Q154 240 170 179T226 92T334 66Q402 66 441 92T497 179T514 345Q514 451 498 511T442 598T334 624Z" />
<glyph unicode="&#xd9;" horiz-adv-x="666" d="M584 690V264Q584 164 560 103T482 15T337 -13Q244 -13 188 14T107 103T82 264V690H170V264Q170 190 185 147T237 85T333 66Q393 66 428 84T480 146T496 264V690H584ZM219 913L391 767L362 728L170 848L219 913Z" />
<glyph unicode="&#xda;" horiz-adv-x="666" d="M584 690V264Q584 164 560 103T482 15T337 -13Q244 -13 188 14T107 103T82 264V690H170V264Q170 190 185 147T237 85T333 66Q393 66 428 84T480 146T496 264V690H584ZM435 921L484 855L292 735L263 774L435 921Z" />
<glyph unicode="&#xdb;" horiz-adv-x="666" d="M584 690V264Q584 164 560 103T482 15T337 -13Q244 -13 188 14T107 103T82 264V690H170V264Q170 190 185 147T237 85T333 66Q393 66 428 84T480 146T496 264V690H584ZM364 896L497 769L467 732L338 829H330L200 732L171
769L303 896H364Z" />
<glyph unicode="&#xdc;" horiz-adv-x="666" d="M584 690V264Q584 164 560 103T482 15T337 -13Q244 -13 188 14T107 103T82 264V690H170V264Q170 190 185 147T237 85T333 66Q393 66 428 84T480 146T496 264V690H584ZM437 870Q461 870 461 846V791Q461 767 437 767H409Q385
767 385 791V846Q385 870 409 870H437ZM260 870Q283 870 283 846V791Q283 767 260 767H231Q208 767 208 791V846Q208 870 231 870H260Z" />
<glyph unicode="&#xdd;" horiz-adv-x="569" d="M557 690L324 234H245L11 690H105L250 399Q259 380 266 360T281 321H288Q295 340 303 360T319 398L464 690H557ZM328 296V0H240V296H328ZM386 911L435 845L243 725L214 764L386 911Z" />
<glyph unicode="&#xde;" horiz-adv-x="592" d="M325 567Q408 567 456 548T525 482T546 349Q546 263 526 216T459 150T334 131Q292 131 254 133T183 138T129 146T97 153L100 207Q153 207 210 207T323 207Q373 208 402 219T444 261T457 349Q457 407 445 437T403
480T323 492Q241 492 182 491T101 488L87 559Q125 563 158 564T230 566T325 567ZM175 690V0H87V690H175Z" />
<glyph unicode="&#xdf;" horiz-adv-x="675" d="M341 721Q421 721 471 709T544 669T567 589Q567 562 560 541T535 499T480 458Q449 440 427 429T393 404T381 367Q381 341 398 329T446 302L550 256Q581 242 600 226T628 187T638 126Q638 69 618 40T559 0T461 -11Q430
-11 390 -9T301 0L306 64Q344 61 380 60T445 59Q484 60 508 64T543 83T555 130Q555 153 548 165T525 187T488 206L382 253Q345 270 323 296T300 365Q300 403 317 425T362 464T423 498Q459 518 473 536T487 586Q487 608 475 622T433 643T345 651Q290 651 259 642T214
607T201 534V0H116V543Q116 602 131 637T176 690T246 715T341 721ZM160 487V419H28V485L120 487H160Z" />
<glyph unicode="&#xe0;" horiz-adv-x="549" d="M308 499Q362 499 399 485T456 436T475 343V0H408L395 106L389 117V343Q389 388 369 407T290 427Q252 427 195 423T81 414L73 477Q107 483 147 488T230 496T308 499ZM435 300L434 236L201 235Q166 234 152 217T138
168V137Q138 99 156 82T214 64Q242 64 277 74T349 107T415 163V100Q404 86 384 68T335 32T272 3T197 -9Q154 -9 121 6T70 52T51 127V180Q51 237 86 268T186 300H435ZM159 733L331 587L302 548L110 668L159 733Z" />
<glyph unicode="&#xe1;" horiz-adv-x="549" d="M308 499Q362 499 399 485T456 436T475 343V0H408L395 106L389 117V343Q389 388 369 407T290 427Q252 427 195 423T81 414L73 477Q107 483 147 488T230 496T308 499ZM435 300L434 236L201 235Q166 234 152 217T138
168V137Q138 99 156 82T214 64Q242 64 277 74T349 107T415 163V100Q404 86 384 68T335 32T272 3T197 -9Q154 -9 121 6T70 52T51 127V180Q51 237 86 268T186 300H435ZM374 741L423 675L231 555L202 594L374 741Z" />
<glyph unicode="&#xe2;" horiz-adv-x="549" d="M308 499Q362 499 399 485T456 436T475 343V0H408L395 106L389 117V343Q389 388 369 407T290 427Q252 427 195 423T81 414L73 477Q107 483 147 488T230 496T308 499ZM435 300L434 236L201 235Q166 234 152 217T138
168V137Q138 99 156 82T214 64Q242 64 277 74T349 107T415 163V100Q404 86 384 68T335 32T272 3T197 -9Q154 -9 121 6T70 52T51 127V180Q51 237 86 268T186 300H435ZM304 716L437 589L407 552L278 649H270L140 552L111 589L243 716H304Z" />
<glyph unicode="&#xe3;" horiz-adv-x="549" d="M308 499Q362 499 399 485T456 436T475 343V0H408L395 106L389 117V343Q389 388 369 407T290 427Q252 427 195 423T81 414L73 477Q107 483 147 488T230 496T308 499ZM435 300L434 236L201 235Q166 234 152 217T138
168V137Q138 99 156 82T214 64Q242 64 277 74T349 107T415 163V100Q404 86 384 68T335 32T272 3T197 -9Q154 -9 121 6T70 52T51 127V180Q51 237 86 268T186 300H435ZM193 699Q216 697 234 690T269 673T303 655T342 644Q371 640 381 653T391 694H431Q437 638 415
609T353 582Q319 585 295 598T249 624T202 639Q174 642 165 629T155 585H115Q111 625 120 651T149 689T193 699Z" />
<glyph unicode="&#xe4;" horiz-adv-x="549" d="M308 499Q362 499 399 485T456 436T475 343V0H408L395 106L389 117V343Q389 388 369 407T290 427Q252 427 195 423T81 414L73 477Q107 483 147 488T230 496T308 499ZM435 300L434 236L201 235Q166 234 152 217T138
168V137Q138 99 156 82T214 64Q242 64 277 74T349 107T415 163V100Q404 86 384 68T335 32T272 3T197 -9Q154 -9 121 6T70 52T51 127V180Q51 237 86 268T186 300H435ZM376 946Q400 946 400 922V867Q400 843 376 843H348Q324 843 324 867V922Q324 946 348 946H376ZM199
946Q222 946 222 922V867Q222 843 199 843H170Q147 843 147 867V922Q147 946 170 946H199Z" />
<glyph unicode="&#xe5;" horiz-adv-x="549" d="M308 499Q362 499 399 485T456 436T475 343V0H408L395 106L389 117V343Q389 388 369 407T290 427Q252 427 195 423T81 414L73 477Q107 483 147 488T230 496T308 499ZM435 300L434 236L201 235Q166 234 152 217T138
168V137Q138 99 156 82T214 64Q242 64 277 74T349 107T415 163V100Q404 86 384 68T335 32T272 3T197 -9Q154 -9 121 6T70 52T51 127V180Q51 237 86 268T186 300H435ZM273 751Q302 751 326 737T365 700T380 646Q380 617 366 593T327 555T273 541Q244 541 220 555T181
592T166 646Q166 676 180 699T219 737T273 751ZM273 707Q248 707 231 691T214 646Q214 618 231 602T273 585Q299 585 316 601T333 646Q333 674 316 690T273 707Z" />
<glyph unicode="&#xe6;" horiz-adv-x="871" d="M612 499Q722 499 771 459T822 340Q822 295 809 265T767 218T695 202H421V268H673Q711 268 724 289T736 340Q736 386 709 406T616 427Q563 427 533 412T490 358T477 250Q477 172 492 131T542 75T632 60Q672 60 718
63T802 72L810 15Q788 6 754 0T685 -9T621 -12Q538 -12 487 13T412 95T389 245Q389 341 412 396T484 475T612 499ZM435 300L434 236L201 235Q166 234 152 217T138 168V137Q138 99 156 82T214 64Q243 64 279 74T352 108T420 166V103Q409 88 388 69T338 32T274 3T197
-9Q154 -9 121 6T70 52T51 127V180Q51 237 86 268T186 300H435ZM308 499Q362 499 399 485T456 436T475 343V241H389V343Q389 388 369 407T290 427Q252 427 195 423T81 414L73 477Q107 483 147 488T230 496T308 499Z" />
<glyph unicode="&#xe7;" horiz-adv-x="489" d="M286 499Q308 499 335 497T390 490T443 476L432 421Q399 424 363 425T300 427Q242 427 208 411T159 355T144 244Q144 173 159 133T208 76T300 60Q315 60 339 61T390 64T443 70L452 13Q415 0 372 -6T285 -12Q201 -12
150 13T77 94T54 244Q54 338 77 394T151 474T286 499ZM235 -55Q274 -51 298 -55T335 -75T346 -120Q345 -162 323 -191T264 -234T179 -241L192 -196Q233 -197 258 -178T285 -127Q286 -109 274 -103T226 -95L235 -55Z" />
<glyph unicode="&#xe8;" horiz-adv-x="537" d="M278 499Q388 499 437 459T487 340Q488 275 460 239T371 202H87V268H349Q382 268 392 290T402 340Q401 387 374 407T282 427Q229 427 199 412T156 358T143 250Q143 172 158 131T208 75T298 60Q337 60 383 63T467
72L476 15Q453 6 420 0T351 -9T287 -12Q203 -12 152 13T78 95T54 245Q54 341 77 396T150 475T278 499ZM166 733L338 587L309 548L117 668L166 733Z" />
<glyph unicode="&#xe9;" horiz-adv-x="537" d="M278 499Q388 499 437 459T487 340Q488 275 460 239T371 202H87V268H349Q382 268 392 290T402 340Q401 387 374 407T282 427Q229 427 199 412T156 358T143 250Q143 172 158 131T208 75T298 60Q337 60 383 63T467
72L476 15Q453 6 420 0T351 -9T287 -12Q203 -12 152 13T78 95T54 245Q54 341 77 396T150 475T278 499ZM382 741L431 675L239 555L210 594L382 741Z" />
<glyph unicode="&#xea;" horiz-adv-x="537" d="M278 499Q388 499 437 459T487 340Q488 275 460 239T371 202H87V268H349Q382 268 392 290T402 340Q401 387 374 407T282 427Q229 427 199 412T156 358T143 250Q143 172 158 131T208 75T298 60Q337 60 383 63T467
72L476 15Q453 6 420 0T351 -9T287 -12Q203 -12 152 13T78 95T54 245Q54 341 77 396T150 475T278 499ZM312 716L445 589L415 552L286 649H278L148 552L119 589L251 716H312Z" />
<glyph unicode="&#xeb;" horiz-adv-x="537" d="M278 499Q388 499 437 459T487 340Q488 275 460 239T371 202H87V268H349Q382 268 392 290T402 340Q401 387 374 407T282 427Q229 427 199 412T156 358T143 250Q143 172 158 131T208 75T298 60Q337 60 383 63T467
72L476 15Q453 6 420 0T351 -9T287 -12Q203 -12 152 13T78 95T54 245Q54 341 77 396T150 475T278 499ZM384 946Q408 946 408 922V867Q408 843 384 843H356Q332 843 332 867V922Q332 946 356 946H384ZM207 946Q230 946 230 922V867Q230 843 207 843H178Q155 843
155 867V922Q155 946 178 946H207Z" />
<glyph unicode="&#xec;" horiz-adv-x="249" d="M167 487V0H82V487H167ZM266 734L438 588L409 549L217 669L266 734Z" />
<glyph unicode="&#xed;" horiz-adv-x="249" d="M167 487V0H82V487H167ZM226 742L275 676L83 556L54 595L226 742Z" />
<glyph unicode="&#xee;" horiz-adv-x="249" d="M167 487V0H82V487H167ZM411 716L544 589L514 552L385 649H377L247 552L218 589L350 716H411Z" />
<glyph unicode="&#xef;" horiz-adv-x="249" d="M167 487V0H82V487H167ZM483 946Q507 946 507 922V867Q507 843 483 843H455Q431 843 431 867V922Q431 946 455 946H483ZM306 946Q329 946 329 922V867Q329 843 306 843H277Q254 843 254 867V922Q254 946 277 946H306Z" />
<glyph unicode="&#xf0;" d="M129 698Q183 701 236 690T336 651T418 575T474 455T495 283Q495 217 486 163T454 69T387 9T275 -13Q163 -13 109 42T55 219Q55 292 75 343T140 421T260 448Q287 448 317 443T380 422T441 377L434 340Q393 360 355 368T273 377Q224
377 196 359T157 305T145 219Q145 131 176 95T276 59Q334 59 361 85T398 163T407 287Q407 380 390 443T344 545T278 604T200 631T119 636L129 698ZM413 712L443 673L239 516L208 554L413 712Z" />
<glyph unicode="&#xf1;" horiz-adv-x="581" d="M374 499Q506 499 506 365V0H421V341Q421 390 405 408T351 427Q306 427 261 405T154 345L150 406Q207 450 263 474T374 499ZM150 487L157 394L163 379V0H78V487H150ZM223 699Q246 697 264 690T299 673T333 655T372
644Q401 640 411 653T421 694H461Q467 638 445 609T383 582Q349 585 325 598T279 624T232 639Q204 642 195 629T185 585H145Q141 625 150 651T179 689T223 699Z" />
<glyph unicode="&#xf2;" horiz-adv-x="568" d="M284 499Q368 499 418 474T491 393T513 243Q513 150 491 94T419 12T284 -13Q201 -13 151 12T78 93T55 243Q55 336 77 392T150 474T284 499ZM284 427Q231 427 201 411T157 354T144 243Q144 172 157 132T200 76T284
59Q337 59 368 75T412 132T425 243Q425 314 412 354T368 410T284 427ZM171 729L343 583L314 544L122 664L171 729Z" />
<glyph unicode="&#xf3;" horiz-adv-x="568" d="M284 499Q368 499 418 474T491 393T513 243Q513 150 491 94T419 12T284 -13Q201 -13 151 12T78 93T55 243Q55 336 77 392T150 474T284 499ZM284 427Q231 427 201 411T157 354T144 243Q144 172 157 132T200 76T284
59Q337 59 368 75T412 132T425 243Q425 314 412 354T368 410T284 427ZM386 737L435 671L243 551L214 590L386 737Z" />
<glyph unicode="&#xf4;" horiz-adv-x="568" d="M284 499Q368 499 418 474T491 393T513 243Q513 150 491 94T419 12T284 -13Q201 -13 151 12T78 93T55 243Q55 336 77 392T150 474T284 499ZM284 427Q231 427 201 411T157 354T144 243Q144 172 157 132T200 76T284
59Q337 59 368 75T412 132T425 243Q425 314 412 354T368 410T284 427ZM316 968L449 841L419 804L290 901H282L152 804L123 841L255 968H316Z" />
<glyph unicode="&#xf5;" horiz-adv-x="568" d="M284 499Q368 499 418 474T491 393T513 243Q513 150 491 94T419 12T284 -13Q201 -13 151 12T78 93T55 243Q55 336 77 392T150 474T284 499ZM284 427Q231 427 201 411T157 354T144 243Q144 172 157 132T200 76T284
59Q337 59 368 75T412 132T425 243Q425 314 412 354T368 410T284 427ZM205 951Q228 949 246 942T281 925T315 907T354 896Q383 892 393 905T403 946H443Q449 890 427 861T365 834Q331 837 307 850T261 876T214 891Q186 894 177 881T167 837H127Q123 877 132 903T161
941T205 951Z" />
<glyph unicode="&#xf6;" horiz-adv-x="568" d="M284 499Q368 499 418 474T491 393T513 243Q513 150 491 94T419 12T284 -13Q201 -13 151 12T78 93T55 243Q55 336 77 392T150 474T284 499ZM284 427Q231 427 201 411T157 354T144 243Q144 172 157 132T200 76T284
59Q337 59 368 75T412 132T425 243Q425 314 412 354T368 410T284 427ZM388 942Q412 942 412 918V863Q412 839 388 839H360Q336 839 336 863V918Q336 942 360 942H388ZM211 942Q234 942 234 918V863Q234 839 211 839H182Q159 839 159 863V918Q159 942 182 942H211Z"
/>
<glyph unicode="&#xf7;" horiz-adv-x="571" d="M504 327V263H66V327H504ZM295 176Q312 176 319 169T327 144V96Q327 78 320 71T295 64H273Q255 64 249 71T242 96V144Q242 162 248 169T273 176H295ZM295 525Q312 525 319 518T327 493V444Q327 427 320 420T295 413H273Q255
413 249 420T242 444V493Q242 510 248 517T273 525H295Z" />
<glyph unicode="&#xf8;" horiz-adv-x="568" d="M405 560L444 541L157 -75L118 -56L405 560ZM284 499Q368 499 418 474T491 393T513 243Q513 150 491 94T419 12T284 -13Q201 -13 151 12T78 93T55 243Q55 336 77 392T150 474T284 499ZM284 427Q231 427 201 411T157
354T144 243Q144 172 157 132T200 76T284 59Q337 59 368 75T412 132T425 243Q425 314 412 354T368 410T284 427Z" />
<glyph unicode="&#xf9;" horiz-adv-x="570" d="M160 487V145Q159 99 177 80T237 61Q278 61 318 80T416 137L427 78Q370 33 317 10T208 -13Q75 -13 75 121V487H160ZM492 487V0H424L416 92L407 107V487H492ZM170 736L342 590L313 551L121 671L170 736Z" />
<glyph unicode="&#xfa;" horiz-adv-x="570" d="M160 487V145Q159 99 177 80T237 61Q278 61 318 80T416 137L427 78Q370 33 317 10T208 -13Q75 -13 75 121V487H160ZM492 487V0H424L416 92L407 107V487H492ZM386 744L435 678L243 558L214 597L386 744Z" />
<glyph unicode="&#xfb;" horiz-adv-x="570" d="M160 487V145Q159 99 177 80T237 61Q278 61 318 80T416 137L427 78Q370 33 317 10T208 -13Q75 -13 75 121V487H160ZM492 487V0H424L416 92L407 107V487H492ZM315 719L448 592L418 555L289 652H281L151 555L122 592L254
719H315Z" />
<glyph unicode="&#xfc;" horiz-adv-x="570" d="M160 487V145Q159 99 177 80T237 61Q278 61 318 80T416 137L427 78Q370 33 317 10T208 -13Q75 -13 75 121V487H160ZM492 487V0H424L416 92L407 107V487H492ZM388 693Q412 693 412 669V614Q412 590 388 590H360Q336
590 336 614V669Q336 693 360 693H388ZM211 693Q234 693 234 669V614Q234 590 211 590H182Q159 590 159 614V669Q159 693 182 693H211Z" />
<glyph unicode="&#xfd;" horiz-adv-x="529" d="M510 487L315 -27Q303 -59 285 -90T242 -146T182 -188T102 -206L94 -150Q153 -131 185 -99T236 -21L260 37Q268 57 276 81T291 124L418 487H510ZM109 487L238 124Q243 109 248 95T256 65H279L251 0H225Q215 0 207
6T195 22L18 487H109ZM368 742L417 676L225 556L196 595L368 742Z" />
<glyph unicode="&#xfe;" horiz-adv-x="574" d="M342 499Q437 499 477 438T517 240Q517 146 499 91T441 11T339 -13Q287 -13 236 1T137 45L153 98Q200 79 238 69T312 58Q355 58 380 74T417 131T429 241Q429 312 418 352T381 409T315 426Q278 426 241 408T159 356L140
412Q184 452 233 475T342 499ZM163 700V530Q163 501 163 475T159 421L163 409V61L159 49Q162 21 162 -5T163 -60V-201H78V700H163Z" />
<glyph unicode="&#xff;" horiz-adv-x="529" d="M510 487L315 -27Q303 -59 285 -90T242 -146T182 -188T102 -206L94 -150Q153 -131 185 -99T236 -21L260 37Q268 57 276 81T291 124L418 487H510ZM109 487L238 124Q243 109 248 95T256 65H279L251 0H225Q215 0 207
6T195 22L18 487H109ZM369 946Q393 946 393 922V867Q393 843 369 843H341Q317 843 317 867V922Q317 946 341 946H369ZM192 946Q215 946 215 922V867Q215 843 192 843H163Q140 843 140 867V922Q140 946 163 946H192Z" />
<glyph unicode="&#x2013;" horiz-adv-x="592" d="M520 285V220H72V285H520Z" />
<glyph unicode="&#x2014;" horiz-adv-x="896" d="M824 285V220H72V285H824Z" />
<glyph unicode="&#x2018;" horiz-adv-x="217" d="M96 497Q78 497 72 503T65 527V586Q66 613 70 638T81 686T100 730L140 719Q135 690 133 666T130 607Q154 607 154 581V527Q153 510 145 504T121 497H96Z" />
<glyph unicode="&#x2019;" horiz-adv-x="214" d="M120 722Q138 722 144 716T151 692V633Q150 606 146 581T135 533T116 489L76 500Q81 529 83 553T86 612Q62 612 62 638V692Q63 709 71 715T95 722H120Z" />
<glyph unicode="&#x201a;" horiz-adv-x="228" d="M127 111Q146 111 152 105T159 81V22Q159 -5 155 -30T143 -78T123 -122L83 -111Q88 -82 90 -58T93 1Q69 1 69 27V81Q70 98 78 104T102 111H127Z" />
<glyph unicode="&#x201c;" horiz-adv-x="369" d="M96 497Q78 497 72 503T65 527V586Q66 613 70 638T81 686T100 730L140 719Q135 690 133 666T130 607Q154 607 154 581V527Q153 510 145 504T121 497H96ZM249 497Q231 497 225 503T218 527V586Q219 613 223 638T234
686T253 730L293 719Q288 690 286 666T283 607Q307 607 307 581V527Q306 510 298 504T274 497H249Z" />
<glyph unicode="&#x201d;" horiz-adv-x="367" d="M273 722Q291 722 297 716T304 692V633Q303 606 299 581T288 533T269 489L229 500Q234 529 236 553T239 612Q215 612 215 638V692Q216 709 224 715T248 722H273ZM120 722Q138 722 144 716T151 692V633Q150 606
146 581T135 533T116 489L76 500Q81 529 83 553T86 612Q62 612 62 638V692Q63 709 71 715T95 722H120Z" />
<glyph unicode="&#x201e;" horiz-adv-x="381" d="M280 111Q298 111 304 105T311 81V22Q310 -5 306 -30T295 -78T276 -122L236 -111Q241 -82 243 -58T246 1Q222 1 222 27V81Q223 98 231 104T255 111H280ZM127 111Q145 111 151 105T158 81V22Q157 -5 153 -30T142
-78T123 -122L83 -111Q88 -82 90 -58T93 1Q69 1 69 27V81Q70 98 78 104T102 111H127Z" />
<glyph unicode="&#x2022;" horiz-adv-x="363" d="M189 358Q236 358 254 340T272 275V263Q272 214 254 196T189 177H177Q128 177 110 195T91 263V275Q91 322 109 340T177 358H189Z" />
<glyph unicode="&#x2039;" horiz-adv-x="285" d="M196 459L241 429L115 251L242 69L197 39L36 241V261L196 459Z" />
<glyph unicode="&#x203a;" horiz-adv-x="287" d="M88 459L249 261V241L87 39L43 69L170 251L44 429L88 459Z" />
</font>
</defs>
</svg>
