<?xml version="1.0" standalone="no"?>
<!DOCTYPE svg PUBLIC "-//W3C//DTD SVG 1.1//EN" "http://www.w3.org/Graphics/SVG/1.1/DTD/svg11.dtd">
<svg xmlns="http://www.w3.org/2000/svg">
<defs >
<font id="Exo2" horiz-adv-x="559" ><font-face
    font-family="Exo 2 Light"
    units-per-em="1000"
    panose-1="0 0 0 0 0 0 0 0 0 0"
    ascent="999"
    descent="-201"
    alphabetic="0" />
<glyph unicode=" " horiz-adv-x="225" />
<glyph unicode="!" horiz-adv-x="264" d="M220 695L175 377L146 208H95L112 377L157 695H220ZM115 107Q128 107 133 101T136 81L129 23Q127 11 121 6T103 0H84Q58 0 61 26L69 84Q73 107 96 107H115Z" />
<glyph unicode="&quot;" horiz-adv-x="340" d="M321 690L287 477H242L268 690H321ZM183 690L148 477H104L130 690H183Z" />
<glyph unicode="#" horiz-adv-x="675" d="M605 690L388 0H337L554 690H605ZM580 262L567 218H37L51 262H580ZM354 690L137 0H86L303 690H354ZM656 499L641 456H113L127 499H656Z" />
<glyph unicode="$" horiz-adv-x="563" d="M334 702Q384 701 434 697T532 684L524 636Q487 639 455 640T393 642T326 643Q292 643 264 641T215 628T180 595T160 528Q156 493 161 471T183 434T235 405L376 350Q428 330 455 305T489 246T490 160Q480 86 450 49T367
0T237 -12Q207 -12 154 -9T34 5L42 53Q93 51 127 50T189 48T241 47Q301 48 338 56T396 89T424 167Q430 206 425 228T401 264T348 292L205 348Q157 367 131 392T96 453T94 535Q102 592 121 626T172 676T243 697T334 702ZM277 352L311 349L211 -130H176L277 352ZM408
801L315 349L281 352L373 801H408Z" />
<glyph unicode="%" horiz-adv-x="888" d="M753 690L198 0H147L702 690H753ZM261 661Q217 661 191 645T150 592T128 495Q120 438 124 403T149 351T208 335Q253 335 279 351T319 405T342 501Q350 559 346 594T322 645T261 661ZM259 703Q319 703 351 681T393 614T392
495Q382 424 361 380T304 314T210 293Q152 293 120 315T78 383T79 501Q90 573 110 617T166 682T259 703ZM695 359Q650 359 624 342T584 289T561 192Q554 135 558 100T582 48T641 32Q686 32 712 49T753 103T775 198Q783 257 780 292T756 343T695 359ZM693 400Q752
400 784 379T826 311T824 192Q814 121 793 77T736 12T643 -9Q584 -9 552 12T511 80T512 198Q522 270 542 314T598 379T693 400Z" />
<glyph unicode="&amp;" horiz-adv-x="768" d="M383 699Q420 699 460 695T547 678L536 629Q501 637 461 641T383 645Q322 645 283 635T223 597T193 512Q184 461 195 433T240 394T332 383H734L725 332H326Q261 332 219 321T152 277T117 181Q110 139 115 113T135
72T176 52T235 46Q327 46 387 77T487 170Q530 235 544 323T556 520H615Q616 400 600 308T540 145Q507 90 462 56T362 6T239 -11Q164 -12 119 5T56 64T48 177Q57 235 79 274T139 333T231 356L232 361Q186 364 160 384T127 439T128 524Q141 597 172 635T255 686T383
699Z" />
<glyph unicode="&apos;" horiz-adv-x="202" d="M183 690L148 477H104L130 690H183Z" />
<glyph unicode="(" horiz-adv-x="355" d="M380 791L388 757Q277 705 213 597T124 310Q108 197 116 111T160 -35T259 -133L250 -164Q127 -110 81 8T61 317Q88 506 164 621T380 791Z" />
<glyph unicode=")" horiz-adv-x="355" d="M110 789Q232 737 280 620T300 307Q273 119 196 4T-20 -166L-26 -132Q85 -77 149 33T237 316Q253 429 245 515T201 663T102 758L110 789Z" />
<glyph unicode="*" horiz-adv-x="448" d="M300 691L271 532L352 403L317 380L254 503L158 381L126 406L242 532L258 691H300ZM110 597L228 553L226 535L215 523L94 559L110 597ZM418 597L427 556L297 523L290 535L291 553L418 597Z" />
<glyph unicode="+" horiz-adv-x="548" d="M329 503L271 93H222L278 503H329ZM494 323L487 274H56L63 323H494Z" />
<glyph unicode="," horiz-adv-x="219" d="M96 107Q109 107 114 101T116 81L107 17Q104 -6 97 -30T80 -79T58 -127L25 -116Q35 -86 42 -60T56 2Q45 1 41 7T37 23L45 83Q48 96 54 101T75 107H96Z" />
<glyph unicode="-" horiz-adv-x="459" d="M380 277L374 227H67L74 277H380Z" />
<glyph unicode="." horiz-adv-x="218" d="M94 107Q108 107 112 101T116 81L108 23Q106 11 100 6T82 0H60Q33 0 37 26L45 84Q48 107 72 107H94Z" />
<glyph unicode="/" horiz-adv-x="514" d="M538 690L40 -64H-17L481 690H538Z" />
<glyph unicode="0" horiz-adv-x="594" d="M265 -13Q199 -13 154 10T87 82T65 206Q65 267 71 336T94 470T143 587T223 671T344 703Q411 703 455 680T522 608T545 485Q545 422 539 353T517 218T469 101T388 18T265 -13ZM267 45Q328 45 367 74T429 152T464 259T478
376T482 483Q482 569 447 607T341 645Q282 645 244 616T182 538T147 431T132 314T128 207Q128 121 163 83T267 45Z" />
<glyph unicode="1" horiz-adv-x="387" d="M326 690L229 0H164L245 574Q247 587 249 601T256 629L73 571L71 618L261 690H326Z" />
<glyph unicode="2" horiz-adv-x="554" d="M320 702Q379 702 422 693T489 659T514 583Q514 528 492 480T433 387T349 296L107 60Q135 61 163 62T218 63H470L461 0H15L21 42Q22 51 24 58T33 71L282 315Q326 357 363 400T423 488T446 575Q446 606 431 620T386 639T318
644Q285 644 256 643T193 637T116 625L113 676Q162 687 197 692T262 700T320 702Z" />
<glyph unicode="3" horiz-adv-x="548" d="M307 703Q411 703 455 672T500 573Q500 526 486 481T443 404T371 366L370 362Q423 353 448 319T473 233Q473 159 443 105T355 21T215 -13Q173 -14 122 -10T16 5L26 55Q58 52 89 49T152 45T209 46Q305 53 356 102T408 235Q408
262 397 285T357 323T277 338L147 339L154 389L281 390Q362 391 399 437T436 565Q436 612 406 628T295 644Q254 644 207 641T123 635L119 685Q172 694 218 698T307 703Z" />
<glyph unicode="4" horiz-adv-x="603" d="M376 690L114 275Q102 256 107 245T131 233H549L542 186L448 179H103Q74 179 56 194T36 234T48 281L308 690H376ZM508 559L429 0H367L429 444L458 559H508Z" />
<glyph unicode="5" horiz-adv-x="530" d="M508 690L496 634H199L158 418L223 415Q299 411 352 396T433 347T461 250Q461 130 396 62T209 -12Q169 -14 121 -9T20 14L33 66Q77 54 119 49T195 46Q293 51 345 102T398 249Q398 296 374 319T300 350T170 361L124 364Q110
366 102 375T97 399L153 690H508Z" />
<glyph unicode="6" horiz-adv-x="567" d="M378 702Q392 702 415 702T467 698T520 688L506 640Q486 643 466 644T424 645T375 645Q323 645 285 633T220 585T174 485T139 316Q129 242 127 191T135 107T177 59T261 44Q329 44 368 76T424 163T441 290Q441 338 420
365T333 393Q279 393 226 367T112 269L111 311Q149 363 185 392T261 434T348 447Q431 447 467 410T504 304Q504 208 479 137T399 27T253 -12Q187 -12 146 5T85 62T64 164T74 319Q92 441 116 517T177 633T263 687T378 702Z" />
<glyph unicode="7" horiz-adv-x="506" d="M478 690Q508 690 516 676T512 635L205 0H138L423 589Q429 601 435 612T449 635L88 634L92 690H478Z" />
<glyph unicode="8" horiz-adv-x="608" d="M356 699Q444 700 488 680T546 620T550 515Q543 470 529 436T490 383T430 359L427 355Q469 351 491 328T518 265T515 169Q507 106 483 67T408 10T265 -9Q178 -9 130 10T65 69T57 175Q65 229 80 268T123 330T195 357L197
361Q147 367 129 408T121 521Q130 583 153 622T224 681T356 699ZM310 332Q259 332 226 326T172 305T139 260T121 181Q114 131 123 102T167 60T270 47Q337 47 375 61T431 105T455 187Q462 233 459 261T440 305T393 326T310 332ZM353 645Q289 645 254 632T203 590T180
510Q173 458 181 431T222 394T319 384Q367 384 397 390T446 410T473 449T489 515Q496 564 489 592T450 633T353 645Z" />
<glyph unicode="9" horiz-adv-x="567" d="M331 702Q399 702 440 683T501 621T520 512T505 351Q487 236 463 165T403 55T317 2T198 -12Q172 -12 134 -10T51 3L62 50Q84 48 105 47T147 45T191 44Q252 45 293 58T362 105T407 200T441 357Q454 435 457 489T450 579T410
630T327 646Q266 646 230 626T174 566T146 464Q138 402 146 365T182 311T259 296Q297 298 328 309T394 347T469 421L470 381Q434 331 400 301T330 258T247 243Q194 241 159 256T104 301T81 373T85 471Q93 530 110 574T158 646T231 688T331 702Z" />
<glyph unicode=":" horiz-adv-x="224" d="M154 437Q168 437 172 431T176 411L168 353Q166 341 160 336T142 330H120Q93 330 97 356L105 414Q108 437 132 437H154ZM108 107Q122 107 126 101T130 81L122 23Q120 11 114 6T96 0H74Q47 0 51 26L59 84Q62 107 86 107H108Z" />
<glyph unicode=";" horiz-adv-x="228" d="M144 437Q158 437 162 431T166 411L158 353Q156 341 150 336T132 330H110Q83 330 87 356L95 414Q98 437 122 437H144ZM101 107Q114 107 119 101T121 81L112 17Q109 -6 102 -30T85 -79T63 -127L30 -116Q40 -86 47 -60T61
2Q50 1 46 7T42 23L50 83Q53 96 59 101T80 107H101Z" />
<glyph unicode="&lt;" horiz-adv-x="530" d="M486 499L478 444L112 296L436 148L429 97L52 271L59 323L486 499Z" />
<glyph unicode="=" horiz-adv-x="588" d="M527 422L520 373H89L96 422H527ZM498 210L491 161H60L67 210H498Z" />
<glyph unicode="&gt;" horiz-adv-x="529" d="M102 500L479 323L471 271L45 98L52 153L418 300L94 450L102 500Z" />
<glyph unicode="?" horiz-adv-x="498" d="M306 712Q404 712 451 673T488 554Q482 509 459 477T405 417T342 361T286 296T254 207L199 208Q206 264 229 303T282 373T342 430T394 485T420 551Q429 610 399 634T295 658Q244 658 212 657T154 653T94 646L92 692Q117
697 138 700T181 706T234 710T306 712ZM220 107Q233 107 238 101T243 81L234 24Q233 12 227 6T209 0H190Q164 0 167 26L175 83Q179 107 202 107H220Z" />
<glyph unicode="@" horiz-adv-x="760" d="M426 632Q521 632 578 622T663 578T692 481T680 309Q668 216 654 155T619 57T566 6T487 -9Q456 -9 436 0T404 26T391 67T392 120L438 428H501L452 103Q448 72 457 59T492 45Q522 45 542 57T576 100T600 182T621 314Q632
390 634 439T628 517T595 558T530 574T425 578H117L122 625Q168 627 220 628T324 631T426 632ZM304 447Q350 447 397 443T501 428L473 389Q414 393 381 394T324 395Q270 395 235 388T179 363T146 311T123 221Q113 161 114 122T133 62T192 42Q248 42 301 77T414
182L425 146Q391 102 354 66T274 9T180 -12Q134 -12 107 5T66 53T53 129T62 227Q74 296 92 339T138 406T207 438T304 447Z" />
<glyph unicode="A" horiz-adv-x="612" d="M400 690Q409 690 416 685T424 670L561 0H495L383 581Q381 596 379 610T374 639H344Q338 625 331 610T318 581L43 0H-27L299 672Q302 682 309 686T325 690H400ZM482 286L474 228H124L132 286H482Z" />
<glyph unicode="B" horiz-adv-x="615" d="M359 698Q442 698 490 682T556 626T564 515Q554 442 522 404T426 359L425 355Q501 348 524 299T536 169Q526 99 500 60T426 7T299 -8Q241 -8 200 -8T124 -5T51 0L71 52Q93 51 151 50T290 49Q351 49 388 60T445 100T472
184Q481 243 470 274T424 318T328 332H111L119 383H331Q386 384 421 395T474 434T500 514Q508 567 497 594T451 631T357 641Q309 641 270 641T203 641T158 640L148 690Q182 694 212 695T277 697T359 698ZM212 690L115 0H51L148 690H212Z" />
<glyph unicode="C" horiz-adv-x="563" d="M384 702Q427 702 458 700T515 694T567 682L555 633Q527 637 502 639T450 643T384 644Q327 644 287 629T219 580T172 488T142 342Q126 231 134 167T181 75T292 46Q356 46 399 49T485 58L490 9Q446 -2 402 -7T292 -12Q194
-12 140 24T71 140T73 348Q87 446 110 514T170 623T258 683T384 702Z" />
<glyph unicode="D" horiz-adv-x="661" d="M375 699Q476 699 532 665T604 553T602 342Q587 235 562 166T500 59T409 6T280 -9Q223 -9 164 -7T51 0L86 52Q130 51 181 50T279 49Q340 49 382 62T454 108T502 199T534 348Q546 435 544 492T524 582T469 628T374 642Q343
642 307 642T236 640T172 638L148 690Q182 693 221 695T300 698T375 699ZM214 690L117 0H51L148 690H214Z" />
<glyph unicode="E" horiz-adv-x="554" d="M260 691Q310 691 360 691T460 690T557 685L548 634H269Q232 634 213 616T189 561L129 126Q124 92 139 74T189 56H466L465 5Q419 2 371 1T275 0T180 -1Q115 -1 85 33T62 125L126 579Q133 630 167 660T260 691ZM118 392H474L467
341L110 340L118 392Z" />
<glyph unicode="F" horiz-adv-x="535" d="M264 691Q337 691 410 690T552 685L543 634H278Q240 634 219 618T193 561L114 0H49L129 576Q137 631 172 661T264 691ZM119 383H468L461 333L112 332L119 383Z" />
<glyph unicode="G" horiz-adv-x="623" d="M393 703Q431 703 464 701T529 695T589 682L579 634Q548 638 518 640T459 643T400 644Q337 644 293 630T220 583T172 491T141 342Q129 234 136 169T175 75T266 46Q306 46 340 60T407 101T474 160L481 115Q456 85 430 62T374
22T313 -4T247 -13Q171 -13 128 24T71 141T73 348Q87 452 112 521T176 629T268 686T393 703ZM567 400L510 0H463L468 112L466 129L503 400H567Z" />
<glyph unicode="H" horiz-adv-x="663" d="M214 690L117 0H51L148 690H214ZM531 397L524 340H157L165 397H531ZM627 690L530 0H465L562 690H627Z" />
<glyph unicode="I" horiz-adv-x="250" d="M214 690L117 0H51L148 690H214Z" />
<glyph unicode="J" horiz-adv-x="333" d="M300 690L221 133Q212 63 175 28T76 -8Q64 -8 49 -7T18 -3T-7 3L6 48H56Q100 48 125 70T157 134L234 690H300Z" />
<glyph unicode="K" horiz-adv-x="581" d="M600 690L351 400Q342 390 332 380T309 360V357Q316 348 323 337T337 315L518 0H443L237 362L520 690H600ZM213 690L182 466Q178 437 173 412T158 358Q159 331 157 305T151 254L116 0H51L148 690H213ZM282 386L275 333H138L145
386H282Z" />
<glyph unicode="L" horiz-adv-x="506" d="M211 690L133 126Q128 94 142 75T193 56H451L449 5Q382 1 314 0T178 -1Q141 -1 114 14T74 59T68 128L145 690H211Z" />
<glyph unicode="M" horiz-adv-x="869" d="M786 690Q800 690 807 682T813 659L749 0H683L747 635H726L471 93Q466 82 459 77T440 72H374Q362 72 355 78T345 96L239 635H217L102 0H37L158 662Q161 676 168 683T189 690H266Q277 690 284 684T292 666L383 216Q388
192 391 169T399 122H421Q431 146 442 170T463 216L676 668Q682 680 689 684T708 689L786 690Z" />
<glyph unicode="N" horiz-adv-x="698" d="M662 690L568 26Q566 13 560 7T540 0H474Q462 0 455 6T444 24L248 548Q241 566 234 588T221 629H201Q199 608 197 587T192 543L117 0H51L144 664Q147 678 154 684T174 690H237Q249 690 256 684T267 666L458 155Q466 134
474 110T490 62H512Q515 86 517 109T523 157L597 690H662Z" />
<glyph unicode="O" horiz-adv-x="664" d="M387 703Q482 703 536 668T607 554T605 342Q592 243 569 175T509 65T420 6T295 -13Q200 -13 145 21T72 135T73 348Q87 446 110 513T169 623T259 684T387 703ZM383 644Q307 644 260 616T185 522T142 342Q126 231 135 167T183
74T295 46Q371 46 418 74T493 169T537 348Q554 461 545 525T497 617T383 644Z" />
<glyph unicode="P" horiz-adv-x="585" d="M377 699Q455 699 500 679T560 613T564 485Q553 400 526 355T452 293T327 276Q288 276 252 277T185 282T134 287T104 292L109 333Q161 333 216 333T325 333Q383 333 417 347T471 394T499 491Q508 551 499 584T459 629T375
641Q295 641 237 641T157 638L148 690Q185 694 217 696T287 698T377 699ZM214 690L117 0H51L148 690H214Z" />
<glyph unicode="Q" horiz-adv-x="664" d="M387 703Q482 703 536 668T607 554T605 342Q592 243 569 175T509 65T420 6T295 -13Q200 -13 145 21T72 135T73 348Q87 446 110 513T169 623T259 684T387 703ZM244 -46Q295 -76 354 -95T485 -126L460 -192Q386 -177 326
-149T218 -85L244 -46ZM383 644Q307 644 260 616T185 522T142 342Q126 231 135 167T183 74T295 46Q371 46 418 74T493 169T537 348Q554 461 545 525T497 617T383 644Z" />
<glyph unicode="R" horiz-adv-x="614" d="M377 699Q450 699 495 681T560 620T568 498Q560 443 542 406T492 348T414 321L413 317Q431 312 445 299T468 265T483 217L527 0H460L418 218Q410 261 389 278T332 296Q271 297 227 297T154 298T105 300L114 353H330Q385
354 419 367T473 412T501 501Q509 557 500 587T461 629T376 641Q294 641 236 641T157 639L148 690Q185 694 218 696T289 698T377 699ZM212 690L115 0H51L148 690H212Z" />
<glyph unicode="S" horiz-adv-x="558" d="M330 702Q380 701 430 697T528 684L521 636Q483 639 452 640T389 642T323 643Q289 643 261 641T211 628T176 595T157 528Q153 493 157 471T179 434T232 405L372 350Q424 330 451 305T486 246T487 160Q476 86 446 49T363
0T233 -12Q203 -12 150 -9T30 5L38 53Q90 51 124 50T185 48T238 47Q297 48 334 56T392 89T421 167Q426 206 421 228T398 264T344 292L202 348Q154 367 128 392T93 453T91 535Q99 592 118 626T168 676T239 697T330 702Z" />
<glyph unicode="T" horiz-adv-x="568" d="M372 690L275 0H210L307 690H372ZM602 690L594 632H69L77 690H602Z" />
<glyph unicode="U" horiz-adv-x="665" d="M634 690L574 260Q560 161 528 101T439 14T297 -13Q209 -13 157 15T87 103T83 263L142 690H209L148 260Q138 180 147 133T193 66T295 46Q362 46 405 67T472 136T509 263L568 690H634Z" />
<glyph unicode="V" horiz-adv-x="599" d="M635 690L321 18Q314 0 294 0H223Q213 0 207 6T199 21L72 690H139L238 125Q242 106 245 88T250 50H276Q283 69 291 89T309 128L566 690H635Z" />
<glyph unicode="W" horiz-adv-x="937" d="M962 690L712 19Q708 10 701 5T683 0H605Q595 0 588 6T580 23L533 564Q532 584 530 602T526 639H504Q497 620 490 600T476 560L279 20Q276 10 269 5T251 0H173Q163 0 156 6T147 22L84 690H151L199 129Q201 110 201 90T203
49H229Q237 70 243 91T257 132L454 668Q460 690 482 690H557Q567 690 573 683T581 666L631 129Q633 109 634 89T637 49H663Q669 69 676 90T690 130L893 690H962Z" />
<glyph unicode="X" horiz-adv-x="602" d="M166 690L309 352L63 0H-13L241 358L98 690H166ZM360 385L352 333H265L273 385H360ZM618 690L380 358L534 0H466L313 366L545 690H618Z" />
<glyph unicode="Y" horiz-adv-x="554" d="M595 690L297 240H239L67 690H134L249 382Q255 365 261 346T272 308H279Q288 326 300 347T322 385L523 690H595ZM307 291L267 0H200L242 291H307Z" />
<glyph unicode="Z" d="M481 634L555 633L87 56L15 57L481 634ZM480 57L471 0H7L15 57H480ZM563 690L555 633H100L108 690H563Z" />
<glyph unicode="[" horiz-adv-x="319" d="M343 768L337 724H231Q225 724 220 720T213 708L99 -108Q97 -121 108 -121H218L212 -165H78Q58 -165 46 -153T37 -118L155 724Q158 744 171 756T206 768H343Z" />
<glyph unicode="\" horiz-adv-x="499" d="M134 690L423 -64H371L82 690H134Z" />
<glyph unicode="]" horiz-adv-x="319" d="M243 768Q263 768 275 755T284 721L166 -121Q163 -140 149 -152T115 -165H-22L-17 -121H89Q95 -121 101 -116T108 -105L223 711Q225 724 212 724H103L109 768H243Z" />
<glyph unicode="^" horiz-adv-x="414" d="M279 592L405 385L376 367L257 544H249L76 367L50 386L233 592H279Z" />
<glyph unicode="_" horiz-adv-x="436" d="M402 0L394 -50H-42L-34 0H402Z" />
<glyph unicode="`" horiz-adv-x="301" d="M127 718L283 571L258 542L91 673L127 718Z" />
<glyph unicode="a" horiz-adv-x="570" d="M303 497Q327 497 354 496T408 491T462 485T514 477L486 437Q431 439 390 441T321 443Q267 443 233 436T177 407T144 346T121 241Q110 165 112 122T132 62T190 44Q225 44 263 60T342 107T424 182L435 146Q404 100 362
65T274 9T179 -12Q120 -12 89 13T51 96T58 247Q70 326 88 375T135 451T205 487T303 497ZM450 477H514L447 0H397L407 117L400 124L450 477Z" />
<glyph unicode="b" horiz-adv-x="569" d="M372 497Q428 497 460 474T502 395T498 238Q486 157 468 107T422 31T356 -4T267 -13Q238 -13 209 -11T152 -4T96 7T43 22L76 56Q111 51 142 48T200 43T245 41Q297 41 329 49T381 79T413 140T433 243Q444 321 441 364T419
424T358 441Q316 441 260 408T133 312L121 344Q147 373 178 400T242 449T308 484T372 497ZM200 700L172 498Q167 462 162 433T147 372L152 359L105 19L42 22L138 700H200Z" />
<glyph unicode="c" horiz-adv-x="481" d="M310 497Q342 497 383 493T458 475L446 434Q417 439 381 440T321 442Q257 442 216 425T152 365T118 240Q107 160 117 118T161 59T257 43Q273 43 297 44T349 47T401 53L406 10Q370 -1 328 -6T247 -12Q163 -12 116 13T54
95T51 245Q65 338 94 393T176 473T310 497Z" />
<glyph unicode="d" horiz-adv-x="568" d="M297 497Q346 497 401 492T504 477L485 438Q431 440 390 442T318 444Q265 444 231 436T175 407T142 346T120 241Q110 169 111 126T130 64T185 44Q240 44 297 78T422 182L433 146Q411 117 382 89T319 38T247 2T169 -12Q117
-12 88 14T52 98T56 247Q68 326 87 375T134 451T202 487T297 497ZM544 700L445 0H396L406 118L400 124L446 463L454 479Q455 505 457 528T463 578L480 700H544Z" />
<glyph unicode="e" horiz-adv-x="533" d="M313 497Q383 497 424 481T482 432T486 343Q478 299 458 273T402 234T311 216L72 192L78 241L310 265Q347 269 369 277T405 302T424 349Q433 392 421 412T379 437T308 443Q263 443 232 436T178 408T142 350T118 249Q106
164 116 120T161 59T254 42Q282 42 314 44T376 49T432 55L437 12Q415 4 380 -1T307 -9T242 -12Q160 -12 114 15T54 101T53 251Q64 325 83 373T133 448T208 486T313 497Z" />
<glyph unicode="f" horiz-adv-x="368" d="M309 716Q325 716 348 716T396 714T440 710L431 663H329Q277 663 252 643T219 569L129 -66Q120 -133 86 -168T-17 -204Q-37 -204 -65 -203T-123 -198L-114 -151H-37Q13 -151 36 -131T67 -57L156 578Q166 645 202 680T309
716ZM371 485L363 433H49L55 480L148 485H371Z" />
<glyph unicode="g" horiz-adv-x="573" d="M455 477H519L448 4Q442 -45 424 -84T374 -151T297 -195T192 -214Q176 -215 145 -215T80 -212T17 -203L24 -160Q48 -161 73 -161T127 -162T190 -160Q267 -155 318 -120T384 -7Q392 36 399 69T420 125L403 134L455 477ZM298
497Q333 497 370 495T444 488T515 477L487 437Q432 439 391 441T319 443Q266 443 232 436T178 407T145 346T122 241Q111 166 112 123T133 62T191 44Q226 44 264 60T342 106T424 182L438 149Q406 102 364 66T274 9T178 -12Q123 -12 92 13T52 94T58 247Q70 327 89
376T136 451T204 487T298 497Z" />
<glyph unicode="h" horiz-adv-x="574" d="M391 497Q453 497 483 463T505 363L453 0H390L440 349Q446 401 431 421T373 442Q323 442 270 411T144 320L145 370Q215 431 275 464T391 497ZM203 700L175 497Q171 461 163 423T148 360L153 345L104 0H41L140 700H203Z" />
<glyph unicode="i" horiz-adv-x="236" d="M176 485L108 0H46L114 485H176ZM187 689Q198 689 203 683T206 666L198 607Q195 588 176 588H147Q124 588 127 611L135 669Q138 689 157 689H187Z" />
<glyph unicode="j" horiz-adv-x="236" d="M176 485L105 -26Q100 -62 86 -95T49 -156T-2 -206L-36 -177Q-3 -143 16 -107T42 -22L114 485H176ZM187 689Q198 689 203 683T206 666L198 607Q195 588 176 588H147Q124 588 127 611L135 669Q138 689 157 689H187Z" />
<glyph unicode="k" horiz-adv-x="509" d="M203 700L155 344Q151 312 145 286T127 229Q129 222 131 216T134 203L104 0H42L140 700H203ZM484 485Q458 412 416 361T322 276T216 218T115 176L111 230Q185 256 247 293T354 379T419 485H484ZM303 279Q312 264 321 248T338
214L438 0H370L252 259L303 279Z" />
<glyph unicode="l" horiz-adv-x="283" d="M204 700L123 119Q117 83 132 67T182 50H235L237 2Q229 -1 214 -3T184 -7T158 -8Q105 -8 78 22T58 110L141 700H204Z" />
<glyph unicode="m" horiz-adv-x="873" d="M158 485L148 361L152 345L104 0H41L110 485H158ZM366 497Q431 497 459 462T479 363L428 0H367L416 349Q423 398 407 420T345 442Q317 442 289 429T226 390T144 322V370Q207 432 260 464T366 497ZM691 497Q756 497 784
462T804 363L753 0H691L740 349Q746 401 729 421T669 442Q641 442 613 430T552 391T470 322V370Q533 433 586 465T691 497Z" />
<glyph unicode="n" horiz-adv-x="574" d="M391 497Q432 497 459 482T499 437T505 363L453 0H390L440 349Q446 401 431 421T373 442Q323 442 270 411T144 322L145 370Q215 431 275 464T391 497ZM160 485L149 361L152 345L104 0H41L110 485H160Z" />
<glyph unicode="o" horiz-adv-x="562" d="M306 497Q387 497 433 472T494 390T496 239Q483 147 454 92T374 12T243 -13Q163 -13 116 12T54 94T51 245Q64 337 93 392T173 472T306 497ZM306 442Q247 442 210 424T151 362T118 239Q107 164 115 121T154 60T243 42Q302
42 339 60T398 123T431 245Q442 321 434 363T395 424T306 442Z" />
<glyph unicode="p" horiz-adv-x="571" d="M378 497Q437 497 468 472T505 391T499 238Q487 158 469 109T422 34T353 -3T257 -13Q234 -13 208 -11T155 -7T102 -1T52 7L70 46Q126 44 167 42T236 40Q290 40 324 47T380 76T413 138T435 243Q446 319 444 362T424 423T366
441Q339 441 300 425T218 378T133 302L123 338Q146 369 177 397T244 448T314 483T378 497ZM160 485L150 366L156 360L109 22L101 5Q100 -21 99 -43T93 -93L75 -209H11L110 485H160Z" />
<glyph unicode="q" horiz-adv-x="568" d="M284 497Q314 497 343 495T401 488T457 477T511 464L478 428Q443 434 412 437T355 441T307 443Q257 443 225 435T172 406T141 344T120 241Q110 166 112 123T134 62T194 44Q232 44 265 58T335 102T423 181L433 146Q399
103 360 68T275 10T177 -12Q127 -12 95 11T53 90T56 247Q67 327 85 376T131 452T197 487T284 497ZM448 466L511 464L416 -209H352L381 -11Q387 28 393 57T410 119L401 128L448 466Z" />
<glyph unicode="r" horiz-adv-x="393" d="M158 485L148 355L152 340L104 0H41L110 485H158ZM403 497L386 437H365Q317 437 267 406T144 319L142 363Q207 427 267 462T380 497H403Z" />
<glyph unicode="s" horiz-adv-x="503" d="M264 497Q297 497 332 495T400 490T462 483L454 437Q409 439 363 440T266 443Q219 443 190 440T146 424T126 380Q121 344 137 329T187 299L332 239Q368 224 390 208T422 168T427 106Q420 53 392 28T318 -4T206 -11Q168
-11 141 -10T88 -5T25 2L33 48Q60 46 87 45T141 43T194 42Q256 43 291 48T343 68T365 112Q368 137 361 150T338 172T299 191L155 251Q123 265 101 281T69 322T64 385Q71 434 95 458T162 490T264 497Z" />
<glyph unicode="t" horiz-adv-x="364" d="M225 631L153 119Q148 82 162 66T212 50H293L295 3Q280 -1 260 -3T223 -7T195 -8Q134 -8 108 24T89 114L162 631H225ZM368 485L360 433H46L52 480L147 485H368Z" />
<glyph unicode="u" horiz-adv-x="563" d="M170 485L120 136Q113 87 130 65T190 43Q240 43 288 75T405 170L411 122Q344 55 286 21T170 -13Q104 -13 75 23T55 122L106 485H170ZM508 485L440 0H391L403 133L398 148L445 485H508Z" />
<glyph unicode="v" horiz-adv-x="521" d="M506 485Q493 426 477 375T441 280T402 197Q375 144 350 104T308 41Q297 27 286 18T262 4T228 0H169Q162 0 156 5T147 18L50 485H116L198 51H215Q232 51 242 56T266 78Q280 96 302 133T350 223Q385 292 405 353T440 485H506Z" />
<glyph unicode="w" horiz-adv-x="837" d="M115 485L190 51H203Q215 51 224 56T246 81Q260 103 278 140T313 224Q327 261 338 298T360 377T380 468Q381 476 386 480T399 485H468Q475 485 480 480T486 468L542 51H554Q567 51 576 59T594 80Q617 113 635 144T673
224Q703 290 721 354T751 485H817Q805 430 791 381T759 286T722 197Q697 145 672 102T630 39Q620 26 610 18T588 5T557 0H514Q506 0 500 5T493 18L439 441H427Q423 415 414 376T393 292T365 208Q355 179 341 149T313 92T286 48Q275 30 262 20T234 5T201 0H162Q154
0 148 5T140 18L50 485H115Z" />
<glyph unicode="x" horiz-adv-x="517" d="M132 485L256 246L58 0H-15L191 252L67 485H132ZM300 277L292 227H207L214 277H300ZM506 485L316 251L450 0H385L250 256L436 485H506Z" />
<glyph unicode="y" horiz-adv-x="529" d="M510 485Q500 442 488 401T462 319T431 236T393 155T349 73Q298 -17 251 -75T155 -164T48 -207L36 -163Q73 -153 105 -135T168 -86T229 -13T292 91Q329 156 356 217T405 344T445 485H510ZM115 485L198 72Q203 51 224 51H279L249
0H197Q177 0 163 12T144 42L48 485H115Z" />
<glyph unicode="z" horiz-adv-x="497" d="M391 433L466 432L89 51L14 52L391 433ZM415 52L408 0H7L15 52H415ZM473 485L465 432H72L79 485H473Z" />
<glyph unicode="{" horiz-adv-x="311" d="M331 768L329 727Q274 727 250 704T219 632L192 444Q187 403 177 380T148 346T92 327Q125 316 142 303T164 269T164 213L129 -32Q122 -80 138 -102T210 -124L207 -165Q153 -168 120 -154T75 -110T69 -33L105 228Q109 255
104 268T86 288T49 304L56 354Q82 362 96 368T118 388T130 435L159 639Q165 685 184 715T239 758T331 768Z" />
<glyph unicode="|" horiz-adv-x="241" d="M213 781L80 -169H31L164 781H213Z" />
<glyph unicode="}" horiz-adv-x="311" d="M109 768Q166 771 198 757T242 712T248 636L219 432Q215 400 218 386T234 366T271 352L264 302Q240 293 225 286T200 266T186 225L150 -36Q144 -82 126 -111T71 -154T-22 -165L-20 -124Q36 -124 59 -101T89 -30L124 216Q130
251 139 271T170 304T228 329Q197 336 180 347T159 382T160 447L187 635Q194 683 178 705T106 727L109 768Z" />
<glyph unicode="~" horiz-adv-x="526" d="M159 342Q188 340 213 331T261 311T308 291T357 279Q387 277 400 291T419 338L453 335Q451 281 427 255T366 230Q333 232 306 241T256 261T212 281T167 293Q138 296 124 281T105 231L71 234Q73 272 85 296T116 331T159 342Z" />
<glyph unicode="&#xa0;" horiz-adv-x="225" />
<glyph unicode="&#xa1;" horiz-adv-x="246" d="M147 280L129 112L85 -199H22L66 112L96 280H147ZM159 488Q172 488 177 482T181 462L173 406Q172 394 166 388T146 382H129Q102 382 106 408L114 465Q117 488 141 488H159Z" />
<glyph unicode="&#xa2;" horiz-adv-x="504" d="M325 603Q357 603 399 599T473 581L462 541Q433 545 396 547T336 549Q272 549 231 532T167 472T133 347Q123 267 132 224T176 165T272 149Q287 149 312 150T365 153T417 160L422 116Q385 105 343 100T261 94Q178
94 131 119T69 201T67 351Q81 444 110 499T191 579T325 603ZM260 126L232 0H197L226 126H260ZM358 568L261 124H226L322 568H358ZM386 690L358 566H323L351 690H386Z" />
<glyph unicode="&#xa3;" horiz-adv-x="564" d="M371 702Q403 702 448 700T543 692L535 640Q515 641 497 642T459 643T417 644T362 645Q294 645 264 618T227 522L205 257Q201 210 190 173T159 106T104 54Q119 56 135 56T166 56H479L472 0H23L30 57Q87 86 111 138T141
257L163 525Q169 584 186 619T229 672T291 696T371 702ZM442 384L434 343H68L73 384H442Z" />
<glyph unicode="&#xa4;" horiz-adv-x="597" d="M326 547Q387 547 428 521T488 451T501 349Q494 292 466 249T392 182T287 158Q229 158 188 183T126 252T113 355Q120 412 147 455T220 522T326 547ZM155 249L182 217L86 132L58 163L155 249ZM439 231L515 146L484
119L410 204L439 231ZM325 509Q252 509 207 465T153 349Q146 282 181 240T284 196Q332 196 370 215T431 271T460 355Q465 400 451 434T405 489T325 509ZM132 590L204 506L173 478L101 561L132 590ZM525 577L552 544L461 465L433 495L525 577Z" />
<glyph unicode="&#xa5;" horiz-adv-x="610" d="M623 690L327 255L270 256L95 690H162L278 398Q284 381 290 362T302 323H310Q318 342 330 363T354 400L551 690H623ZM338 306L294 0H229L272 306H338ZM509 205L502 165H72L76 205H509ZM524 317L518 276H87L92 317H524Z" />
<glyph unicode="&#xa6;" horiz-adv-x="241" d="M213 781L157 381H108L165 781H213ZM136 231L80 -169H31L87 231H136Z" />
<glyph unicode="&#xa7;" horiz-adv-x="544" d="M96 397L143 396Q134 352 132 320T142 265T184 223L351 120Q373 106 390 91T418 58T432 18T432 -35Q424 -90 397 -116T327 -149T228 -156Q198 -155 163 -154T90 -151T12 -144L20 -94Q73 -97 118 -98T215 -101Q255
-101 287 -98T340 -79T365 -27Q371 12 355 34T312 73L153 170Q109 197 91 228T76 301T96 397ZM310 703Q336 703 374 702T454 698T528 691L520 642Q489 644 463 645T405 647T325 648Q280 649 248 645T198 626T173 577Q168 539 183 517T228 477L388 378Q432 351 449
319T464 244T444 148L396 149Q406 193 407 226T397 284T354 327L189 430Q158 450 138 471T110 520T107 584Q114 635 139 660T207 694T310 703Z" />
<glyph unicode="&#xa8;" horiz-adv-x="407" d="M191 688Q202 688 206 683T208 669L200 614Q199 604 194 599T178 594H157Q138 594 140 613L148 669Q150 678 155 683T171 688H191ZM362 688Q374 688 377 683T380 669L372 614Q371 604 366 599T350 594H329Q310 594
312 613L320 669Q322 678 327 683T342 688H362Z" />
<glyph unicode="&#xa9;" horiz-adv-x="842" d="M471 703Q574 703 650 658T764 532T786 342Q773 240 720 160T582 34T385 -13Q306 -13 244 13T139 88T78 202T71 348Q84 449 136 529T274 656T471 703ZM467 572Q509 572 537 569T596 559L587 523Q556 526 530 527T472
528Q413 528 377 513T320 459T289 345Q280 278 287 240T323 185T404 168Q436 168 460 168T505 170T547 174L550 137Q519 130 486 127T411 123Q335 123 294 145T240 217T239 351Q251 434 276 482T348 551T467 572ZM473 668Q373 668 295 626T169 510T107 342Q96 246
128 174T228 62T384 22Q484 22 562 64T689 180T749 348Q762 443 730 514T632 627T473 668Z" />
<glyph unicode="&#xaa;" horiz-adv-x="445" d="M257 605Q291 605 331 601T406 590L385 560Q348 562 319 562T272 563Q227 563 200 555T158 519T134 433Q127 380 130 353T148 317T189 308Q221 308 259 329T339 390L349 365Q330 338 304 315T247 277T181 263Q143
263 118 277T84 329T84 437Q92 491 107 525T143 576T193 599T257 605ZM358 590H406L362 270H322L326 341L324 346L358 590Z" />
<glyph unicode="&#xab;" horiz-adv-x="468" d="M402 457L429 432L268 250L381 64L348 41L212 246L213 261L402 457ZM229 457L256 432L95 250L208 64L175 41L39 246L40 261L229 457Z" />
<glyph unicode="&#xac;" horiz-adv-x="588" d="M511 322L504 272H74L81 322H511ZM511 322L485 133H434L460 314L511 322Z" />
<glyph unicode="&#xad;" horiz-adv-x="459" d="M635 277L629 227H322L329 277H635Z" />
<glyph unicode="&#xae;" horiz-adv-x="563" d="M328 702Q394 702 441 675T513 598T530 476Q522 411 490 362T407 285T289 257Q222 257 174 285T102 366T86 485Q94 553 126 601T211 676T328 702ZM257 614L219 347H187L225 614H257ZM328 678Q232 678 177 623T111
481Q105 418 125 373T188 304T289 280Q350 280 396 306T470 378T504 482Q511 545 491 588T429 655T328 678ZM328 617Q361 617 384 612T420 590T427 538Q424 506 409 491T361 470V468Q372 464 378 456T389 429L411 347H377L357 430Q353 448 343 453T318 459Q277
459 257 459T227 460T211 461L213 484H314Q353 485 372 494T395 541Q399 574 384 582T329 591Q310 591 289 591T253 591T231 590L225 614Q253 616 276 616T328 617Z" />
<glyph unicode="&#xaf;" horiz-adv-x="400" d="M395 663L389 615H116L122 663H395Z" />
<glyph unicode="&#xb0;" horiz-adv-x="369" d="M234 703Q273 703 300 686T341 640T351 574Q346 517 307 484T213 450Q173 450 146 468T107 516T97 580Q103 636 141 669T234 703ZM232 663Q195 663 169 639T139 577Q135 539 156 515T215 490Q252 490 278 513T309
577Q313 614 293 638T232 663Z" />
<glyph unicode="&#xb1;" horiz-adv-x="589" d="M351 517L305 192H256L301 517H351ZM487 127L479 79H49L56 127H487ZM522 379L515 330H84L91 379H522Z" />
<glyph unicode="&#xb2;" horiz-adv-x="396" d="M271 766Q330 766 362 751T394 691Q394 660 379 631T340 576T288 525L149 401Q166 402 181 402T213 402L373 401L366 358H73L77 383Q78 390 80 395T88 404L240 540Q266 563 288 585T323 631T336 680Q336 706 317
714T264 722Q234 722 204 720T133 710L135 749Q180 760 213 763T271 766Z" />
<glyph unicode="&#xb3;" horiz-adv-x="400" d="M259 767Q325 767 355 751T385 695Q385 651 366 616T303 572V570Q338 563 352 544T367 495Q367 445 350 413T298 365T213 350Q175 350 139 354T74 363L85 402Q105 399 125 397T166 394T209 393Q263 393 288 417T314
494Q314 516 299 531T237 547L153 548L158 586L243 588Q290 588 311 612T332 678Q332 705 314 714T249 723Q219 723 188 721T134 714L135 752Q167 758 198 762T259 767Z" />
<glyph unicode="&#xb4;" horiz-adv-x="301" d="M286 719L318 670L124 542L102 572L286 719Z" />
<glyph unicode="&#xb5;" horiz-adv-x="576" d="M180 485L130 136Q124 90 141 69T202 48Q240 48 283 69T363 134T414 249L398 115Q374 76 340 47T267 3T189 -13Q144 -13 115 6T74 59T67 132L117 485H180ZM510 485L457 102Q453 74 456 58T483 41H525V3Q508 -2 489
-5T454 -9Q416 -9 402 13T393 79L398 116L397 132L447 485H510ZM122 81L99 -86L73 -197H21L72 168L122 81Z" />
<glyph unicode="&#xb6;" horiz-adv-x="592" d="M395 702Q428 702 471 698T548 685L538 646Q514 651 483 653T422 657T370 658L272 200Q188 207 139 238T72 326T66 462Q79 556 116 608T221 681T395 702ZM380 685L254 -210H203L329 685H380ZM548 685L452 0H400L497
685H548Z" />
<glyph unicode="&#xb7;" horiz-adv-x="223" d="M124 311Q138 311 142 305T146 285L138 227Q136 215 130 210T112 204H90Q63 204 67 230L75 288Q78 311 102 311H124Z" />
<glyph unicode="&#xb8;" horiz-adv-x="229" d="M52 -45Q86 -42 108 -47T140 -68T144 -113Q139 -152 115 -179T54 -218T-28 -225L-16 -191Q30 -192 61 -169T97 -111Q100 -91 90 -84T44 -76L52 -45Z" />
<glyph unicode="&#xb9;" horiz-adv-x="292" d="M268 760L210 358H160L206 680Q207 688 208 696T213 714L100 682L98 718L217 760H268Z" />
<glyph unicode="&#xba;" horiz-adv-x="443" d="M260 605Q349 605 380 566T398 431Q389 369 369 332T313 279T220 263Q134 263 102 302T83 437Q96 530 135 567T260 605ZM260 564Q219 564 194 552T155 511T133 431Q123 358 141 332T220 305Q281 305 308 333T347
437Q357 511 339 537T260 564Z" />
<glyph unicode="&#xbb;" horiz-adv-x="468" d="M54 40L27 65L188 248L75 434L107 456L243 251L242 236L54 40ZM227 40L200 65L361 248L248 434L280 456L416 251L415 236L227 40Z" />
<glyph unicode="&#xbc;" horiz-adv-x="849" d="M692 690L136 0H87L643 690H692ZM266 690L208 276H157L204 610Q206 619 207 628T211 645L91 612L90 647L215 690H266ZM668 414L502 167Q496 158 499 151T514 144H786L781 108L718 103H478Q463 103 452 111T439 133T448
164L617 414H668ZM764 335L717 0H669L706 267L724 335H764Z" />
<glyph unicode="&#xbd;" horiz-adv-x="872" d="M687 690L131 0H83L638 690H687ZM265 690L207 276H156L203 610Q205 619 206 628T211 645L91 612L89 647L215 690H265ZM674 421Q723 421 755 414T801 387T809 327Q805 292 780 258T704 179L546 44Q565 45 582 45T619
45H789L782 0H477L481 30Q482 37 484 42T491 52L649 189Q698 232 724 265T755 330Q760 363 737 370T674 377Q653 377 633 377T591 374T539 368L536 406Q586 417 617 419T674 421Z" />
<glyph unicode="&#xbe;" horiz-adv-x="942" d="M796 690L240 0H191L747 690H796ZM246 695Q329 695 358 674T380 597Q377 571 368 550T342 514T294 495L289 492Q337 485 352 458T362 386Q357 345 341 319T291 279T203 266Q165 266 129 269T58 277L62 315Q85 313
105 312T147 310T190 309Q249 309 277 329T312 398Q315 418 311 435T288 462T228 472H141L146 510H231Q270 511 291 524T320 555T330 591Q336 628 317 640T241 653Q208 653 177 652T121 648L119 685Q153 690 184 692T246 695ZM760 414L594 167Q589 158 592 151T607
144H879L874 108L810 103H570Q555 103 544 111T531 133T540 164L709 414H760ZM851 335L804 0H756L793 267L812 335H851Z" />
<glyph unicode="&#xbf;" horiz-adv-x="495" d="M283 287Q276 231 254 191T201 121T142 65T90 11T62 -55Q53 -110 83 -135T187 -161Q238 -161 271 -160T330 -157T388 -151L391 -196Q365 -200 344 -204T301 -210T249 -214T176 -216Q75 -216 30 -174T-6 -58Q0 -13
23 19T77 79T140 135T196 200T229 287H283ZM293 496Q306 496 312 490T316 470L308 413Q306 400 300 395T282 389H264Q238 389 241 415L250 473Q252 496 275 496H293Z" />
<glyph unicode="&#xc0;" horiz-adv-x="612" d="M400 690Q409 690 416 685T424 670L561 0H495L383 581Q381 596 379 610T374 639H344Q338 625 331 610T318 581L43 0H-27L299 672Q302 682 309 686T325 690H400ZM482 286L474 228H124L132 286H482ZM261 907L417 760L392
731L225 862L261 907Z" />
<glyph unicode="&#xc1;" horiz-adv-x="612" d="M400 690Q409 690 416 685T424 670L561 0H495L383 581Q381 596 379 610T374 639H344Q338 625 331 610T318 581L43 0H-27L299 672Q302 682 309 686T325 690H400ZM482 286L474 228H124L132 286H482ZM496 908L528 859L334
731L312 761L496 908Z" />
<glyph unicode="&#xc2;" horiz-adv-x="612" d="M400 690Q409 690 416 685T424 670L561 0H495L383 581Q381 596 379 610T374 639H344Q338 625 331 610T318 581L43 0H-27L299 672Q302 682 309 686T325 690H400ZM482 286L474 228H124L132 286H482ZM412 891L535 763L510
738L392 839H384L236 738L216 767L366 891H412Z" />
<glyph unicode="&#xc3;" horiz-adv-x="612" d="M400 690Q409 690 416 685T424 670L561 0H495L383 581Q381 596 379 610T374 639H344Q338 625 331 610T318 581L43 0H-27L299 672Q302 682 309 686T325 690H400ZM482 286L474 228H124L132 286H482ZM309 875Q333 873
349 865T380 846T410 826T446 815Q477 812 491 826T510 871L541 869Q539 817 515 791T454 767Q428 769 410 778T377 797T348 817T316 828Q286 831 272 816T253 768L221 771Q224 826 249 852T309 875Z" />
<glyph unicode="&#xc4;" horiz-adv-x="612" d="M400 690Q409 690 416 685T424 670L561 0H495L383 581Q381 596 379 610T374 639H344Q338 625 331 610T318 581L43 0H-27L299 672Q302 682 309 686T325 690H400ZM482 286L474 228H124L132 286H482ZM312 865Q323 865
327 860T329 846L321 791Q320 781 315 776T299 771H278Q259 771 261 790L269 846Q271 855 276 860T292 865H312ZM483 865Q495 865 498 860T501 846L493 791Q492 781 487 776T471 771H450Q431 771 433 790L441 846Q443 855 448 860T463 865H483Z" />
<glyph unicode="&#xc5;" horiz-adv-x="612" d="M400 690Q409 690 416 685T424 670L561 0H495L383 581Q381 596 379 610T374 639H344Q338 625 331 610T318 581L43 0H-27L299 672Q302 682 309 686T325 690H400ZM482 286L474 228H124L132 286H482ZM389 920Q432 920
458 895T485 828Q485 781 454 749T374 717Q330 717 304 742T277 809Q277 856 309 888T389 920ZM388 885Q355 885 336 864T316 812Q316 787 331 770T375 752Q408 752 427 774T447 826Q447 851 432 868T388 885Z" />
<glyph unicode="&#xc6;" horiz-adv-x="909" d="M623 691Q717 691 783 690T911 685L903 634H643Q610 634 588 616T560 560L500 126Q495 92 510 74T560 56H822L819 5Q751 1 684 0T548 -1Q490 -1 459 33T437 125L499 570Q502 592 514 613T543 642H539Q523 635 504
619T464 574L34 0H-38L408 591Q431 622 453 641T501 671T555 686T623 691ZM481 297L472 241H180L199 299L481 297ZM489 393L829 392L822 340H481L489 393Z" />
<glyph unicode="&#xc7;" horiz-adv-x="563" d="M384 702Q427 702 458 700T515 694T567 682L555 633Q527 637 502 639T450 643T384 644Q327 644 287 629T219 580T172 488T142 342Q126 231 134 167T181 75T292 46Q356 46 399 49T485 58L490 9Q446 -2 402 -7T292
-12Q194 -12 140 24T71 140T73 348Q87 446 110 514T170 623T258 683T384 702ZM236 -57Q270 -54 292 -59T324 -80T328 -125Q323 -164 299 -191T238 -230T156 -237L168 -203Q214 -204 245 -181T281 -123Q284 -103 274 -96T228 -88L236 -57Z" />
<glyph unicode="&#xc8;" horiz-adv-x="554" d="M260 691Q310 691 360 691T460 690T557 685L548 634H269Q232 634 213 616T189 561L129 126Q124 92 139 74T189 56H466L465 5Q419 2 371 1T275 0T180 -1Q115 -1 85 33T62 125L126 579Q133 630 167 660T260 691ZM118
392H474L467 341L110 340L118 392ZM262 929L418 782L393 753L226 884L262 929Z" />
<glyph unicode="&#xc9;" horiz-adv-x="554" d="M260 691Q310 691 360 691T460 690T557 685L548 634H269Q232 634 213 616T189 561L129 126Q124 92 139 74T189 56H466L465 5Q419 2 371 1T275 0T180 -1Q115 -1 85 33T62 125L126 579Q133 630 167 660T260 691ZM118
392H474L467 341L110 340L118 392ZM497 930L529 881L335 753L313 783L497 930Z" />
<glyph unicode="&#xca;" horiz-adv-x="554" d="M260 691Q310 691 360 691T460 690T557 685L548 634H269Q232 634 213 616T189 561L129 126Q124 92 139 74T189 56H466L465 5Q419 2 371 1T275 0T180 -1Q115 -1 85 33T62 125L126 579Q133 630 167 660T260 691ZM118
392H474L467 341L110 340L118 392ZM412 913L535 785L510 760L392 861H384L236 760L216 789L366 913H412Z" />
<glyph unicode="&#xcb;" horiz-adv-x="554" d="M260 691Q310 691 360 691T460 690T557 685L548 634H269Q232 634 213 616T189 561L129 126Q124 92 139 74T189 56H466L465 5Q419 2 371 1T275 0T180 -1Q115 -1 85 33T62 125L126 579Q133 630 167 660T260 691ZM118
392H474L467 341L110 340L118 392ZM312 886Q323 886 327 881T329 867L321 812Q320 802 315 797T299 792H278Q259 792 261 811L269 867Q271 876 276 881T292 886H312ZM483 886Q495 886 498 881T501 867L493 812Q492 802 487 797T471 792H450Q431 792 433 811L441
867Q443 876 448 881T463 886H483Z" />
<glyph unicode="&#xcc;" horiz-adv-x="250" d="M214 690L117 0H51L148 690H214ZM79 907L235 760L210 731L43 862L79 907Z" />
<glyph unicode="&#xcd;" horiz-adv-x="250" d="M214 690L117 0H51L148 690H214ZM315 908L347 859L153 731L131 761L315 908Z" />
<glyph unicode="&#xce;" horiz-adv-x="250" d="M214 690L117 0H51L148 690H214ZM230 891L353 763L328 738L210 839H202L54 738L34 767L184 891H230Z" />
<glyph unicode="&#xcf;" horiz-adv-x="250" d="M214 690L117 0H51L148 690H214ZM130 865Q141 865 145 860T147 846L139 791Q138 781 133 776T117 771H96Q77 771 79 790L87 846Q89 855 94 860T110 865H130ZM301 865Q313 865 316 860T319 846L311 791Q310 781 305
776T289 771H268Q249 771 251 790L259 846Q261 855 266 860T281 865H301Z" />
<glyph unicode="&#xd0;" horiz-adv-x="661" d="M335 387L330 349H28L34 387H335ZM375 699Q476 699 532 665T604 553T602 342Q587 235 562 166T500 59T409 6T280 -9Q223 -9 164 -7T51 0L86 52Q130 51 181 50T279 49Q340 49 382 62T454 108T502 199T534 348Q546
435 544 492T524 582T469 628T374 642Q343 642 307 642T236 640T172 638L148 690Q182 693 221 695T300 698T375 699ZM214 690L117 0H51L148 690H214Z" />
<glyph unicode="&#xd1;" horiz-adv-x="698" d="M662 690L568 26Q566 13 560 7T540 0H474Q462 0 455 6T444 24L248 548Q241 566 234 588T221 629H201Q199 608 197 587T192 543L117 0H51L144 664Q147 678 154 684T174 690H237Q249 690 256 684T267 666L458 155Q466
134 474 110T490 62H512Q515 86 517 109T523 157L597 690H662ZM358 875Q382 873 398 865T429 846T459 826T495 815Q526 812 540 826T559 871L590 869Q588 817 564 791T503 767Q477 769 459 778T426 797T397 817T365 828Q335 831 321 816T302 768L270 771Q273 826
298 852T358 875Z" />
<glyph unicode="&#xd2;" horiz-adv-x="664" d="M387 703Q482 703 536 668T607 554T605 342Q592 243 569 175T509 65T420 6T295 -13Q200 -13 145 21T72 135T73 348Q87 446 110 513T169 623T259 684T387 703ZM383 644Q307 644 260 616T185 522T142 342Q126 231 135
167T183 74T295 46Q371 46 418 74T493 169T537 348Q554 461 545 525T497 617T383 644ZM282 907L438 760L413 731L246 862L282 907Z" />
<glyph unicode="&#xd3;" horiz-adv-x="664" d="M387 703Q482 703 536 668T607 554T605 342Q592 243 569 175T509 65T420 6T295 -13Q200 -13 145 21T72 135T73 348Q87 446 110 513T169 623T259 684T387 703ZM383 644Q307 644 260 616T185 522T142 342Q126 231 135
167T183 74T295 46Q371 46 418 74T493 169T537 348Q554 461 545 525T497 617T383 644ZM517 908L549 859L355 731L333 761L517 908Z" />
<glyph unicode="&#xd4;" horiz-adv-x="664" d="M387 703Q482 703 536 668T607 554T605 342Q592 243 569 175T509 65T420 6T295 -13Q200 -13 145 21T72 135T73 348Q87 446 110 513T169 623T259 684T387 703ZM383 644Q307 644 260 616T185 522T142 342Q126 231 135
167T183 74T295 46Q371 46 418 74T493 169T537 348Q554 461 545 525T497 617T383 644ZM433 891L556 763L531 738L413 839H405L257 738L237 767L387 891H433Z" />
<glyph unicode="&#xd5;" horiz-adv-x="664" d="M387 703Q482 703 536 668T607 554T605 342Q592 243 569 175T509 65T420 6T295 -13Q200 -13 145 21T72 135T73 348Q87 446 110 513T169 623T259 684T387 703ZM383 644Q307 644 260 616T185 522T142 342Q126 231 135
167T183 74T295 46Q371 46 418 74T493 169T537 348Q554 461 545 525T497 617T383 644ZM329 875Q353 873 369 865T400 846T430 826T466 815Q497 812 511 826T530 871L561 869Q559 817 535 791T474 767Q448 769 430 778T397 797T368 817T336 828Q306 831 292 816T273
768L241 771Q244 826 269 852T329 875Z" />
<glyph unicode="&#xd6;" horiz-adv-x="664" d="M387 703Q482 703 536 668T607 554T605 342Q592 243 569 175T509 65T420 6T295 -13Q200 -13 145 21T72 135T73 348Q87 446 110 513T169 623T259 684T387 703ZM383 644Q307 644 260 616T185 522T142 342Q126 231 135
167T183 74T295 46Q371 46 418 74T493 169T537 348Q554 461 545 525T497 617T383 644ZM332 865Q343 865 347 860T349 846L341 791Q340 781 335 776T319 771H298Q279 771 281 790L289 846Q291 855 296 860T312 865H332ZM503 865Q515 865 518 860T521 846L513 791Q512
781 507 776T491 771H470Q451 771 453 790L461 846Q463 855 468 860T483 865H503Z" />
<glyph unicode="&#xd7;" horiz-adv-x="525" d="M447 469L478 427L77 109L47 151L447 469ZM126 464L433 147L397 110L90 428L126 464Z" />
<glyph unicode="&#xd8;" horiz-adv-x="664" d="M562 749L596 730L118 -57L84 -37L562 749ZM387 703Q482 703 536 668T607 554T605 342Q592 243 569 175T509 65T420 6T295 -13Q200 -13 145 21T72 135T73 348Q87 446 110 513T169 623T259 684T387 703ZM383 644Q307
644 260 616T185 522T142 342Q126 231 135 167T183 74T295 46Q371 46 418 74T493 169T537 348Q554 461 545 525T497 617T383 644Z" />
<glyph unicode="&#xd9;" horiz-adv-x="665" d="M634 690L574 260Q560 161 528 101T439 14T297 -13Q209 -13 157 15T87 103T83 263L142 690H209L148 260Q138 180 147 133T193 66T295 46Q362 46 405 67T472 136T509 263L568 690H634ZM282 907L438 760L413 731L246
862L282 907Z" />
<glyph unicode="&#xda;" horiz-adv-x="665" d="M634 690L574 260Q560 161 528 101T439 14T297 -13Q209 -13 157 15T87 103T83 263L142 690H209L148 260Q138 180 147 133T193 66T295 46Q362 46 405 67T472 136T509 263L568 690H634ZM517 908L549 859L355 731L333
761L517 908Z" />
<glyph unicode="&#xdb;" horiz-adv-x="665" d="M634 690L574 260Q560 161 528 101T439 14T297 -13Q209 -13 157 15T87 103T83 263L142 690H209L148 260Q138 180 147 133T193 66T295 46Q362 46 405 67T472 136T509 263L568 690H634ZM433 891L556 763L531 738L413
839H405L257 738L237 767L387 891H433Z" />
<glyph unicode="&#xdc;" horiz-adv-x="665" d="M634 690L574 260Q560 161 528 101T439 14T297 -13Q209 -13 157 15T87 103T83 263L142 690H209L148 260Q138 180 147 133T193 66T295 46Q362 46 405 67T472 136T509 263L568 690H634ZM332 865Q343 865 347 860T349
846L341 791Q340 781 335 776T319 771H298Q279 771 281 790L289 846Q291 855 296 860T312 865H332ZM503 865Q515 865 518 860T521 846L513 791Q512 781 507 776T491 771H470Q451 771 453 790L461 846Q463 855 468 860T483 865H503Z" />
<glyph unicode="&#xdd;" horiz-adv-x="554" d="M595 690L297 240H239L67 690H134L249 382Q255 365 261 346T272 308H279Q288 326 300 347T322 385L523 690H595ZM307 291L267 0H200L242 291H307ZM456 908L488 859L294 731L272 761L456 908Z" />
<glyph unicode="&#xde;" horiz-adv-x="587" d="M359 563Q434 563 479 544T541 478T545 347Q533 265 507 219T434 155T313 137Q257 137 210 140T130 146T85 153L90 195Q142 195 197 195T305 195Q362 196 397 209T451 256T480 353Q489 415 480 448T442 493T357 506Q277
506 219 506T139 503L129 555Q167 559 199 560T268 562T359 563ZM214 690L117 0H51L148 690H214Z" />
<glyph unicode="&#xdf;" horiz-adv-x="663" d="M388 718Q468 718 516 707T584 668T598 591Q595 560 583 538T547 497T489 461Q457 448 430 437T385 409T365 366Q361 341 374 327T417 296L525 236Q568 212 587 186T599 106Q593 56 568 31T503 -2T408 -11Q380 -11
340 -9T251 0L259 48Q299 46 336 44T402 43Q444 44 472 49T516 69T535 116Q539 141 532 155T512 178T482 198L372 258Q335 279 317 305T303 369Q308 404 328 425T379 463T450 496Q472 507 491 519T523 549T538 594Q540 616 530 632T490 656T396 665Q334 665 297
654T241 614T214 531L129 -66Q122 -114 105 -144T56 -189T-23 -204Q-35 -204 -64 -203T-123 -198L-114 -151H-37Q13 -151 36 -131T67 -57L151 540Q160 600 180 635T230 689T301 712T388 718ZM179 485L170 433H48L55 479L148 485H179Z" />
<glyph unicode="&#xe0;" horiz-adv-x="570" d="M303 497Q327 497 354 496T408 491T462 485T514 477L486 437Q431 439 390 441T321 443Q267 443 233 436T177 407T144 346T121 241Q110 165 112 122T132 62T190 44Q225 44 263 60T342 107T424 182L435 146Q404 100
362 65T274 9T179 -12Q120 -12 89 13T51 96T58 247Q70 326 88 375T135 451T205 487T303 497ZM450 477H514L447 0H397L407 117L400 124L450 477ZM217 727L373 580L348 551L181 682L217 727Z" />
<glyph unicode="&#xe1;" horiz-adv-x="570" d="M303 497Q327 497 354 496T408 491T462 485T514 477L486 437Q431 439 390 441T321 443Q267 443 233 436T177 407T144 346T121 241Q110 165 112 122T132 62T190 44Q225 44 263 60T342 107T424 182L435 146Q404 100
362 65T274 9T179 -12Q120 -12 89 13T51 96T58 247Q70 326 88 375T135 451T205 487T303 497ZM450 477H514L447 0H397L407 117L400 124L450 477ZM451 728L483 679L289 551L267 581L451 728Z" />
<glyph unicode="&#xe2;" horiz-adv-x="570" d="M303 497Q327 497 354 496T408 491T462 485T514 477L486 437Q431 439 390 441T321 443Q267 443 233 436T177 407T144 346T121 241Q110 165 112 122T132 62T190 44Q225 44 263 60T342 107T424 182L435 146Q404 100
362 65T274 9T179 -12Q120 -12 89 13T51 96T58 247Q70 326 88 375T135 451T205 487T303 497ZM450 477H514L447 0H397L407 117L400 124L450 477ZM367 710L490 582L465 557L347 658H339L191 557L171 586L321 710H367Z" />
<glyph unicode="&#xe3;" horiz-adv-x="570" d="M303 497Q327 497 354 496T408 491T462 485T514 477L486 437Q431 439 390 441T321 443Q267 443 233 436T177 407T144 346T121 241Q110 165 112 122T132 62T190 44Q225 44 263 60T342 107T424 182L435 146Q404 100
362 65T274 9T179 -12Q120 -12 89 13T51 96T58 247Q70 326 88 375T135 451T205 487T303 497ZM450 477H514L447 0H397L407 117L400 124L450 477ZM264 695Q288 693 304 685T335 666T365 646T401 635Q432 632 446 646T465 691L496 689Q494 637 470 611T409 587Q383
589 365 598T332 617T303 637T271 648Q241 651 227 636T208 588L176 591Q179 646 204 672T264 695Z" />
<glyph unicode="&#xe4;" horiz-adv-x="570" d="M303 497Q327 497 354 496T408 491T462 485T514 477L486 437Q431 439 390 441T321 443Q267 443 233 436T177 407T144 346T121 241Q110 165 112 122T132 62T190 44Q225 44 263 60T342 107T424 182L435 146Q404 100
362 65T274 9T179 -12Q120 -12 89 13T51 96T58 247Q70 326 88 375T135 451T205 487T303 497ZM450 477H514L447 0H397L407 117L400 124L450 477ZM267 940Q278 940 282 935T284 921L276 866Q275 856 270 851T254 846H233Q214 846 216 865L224 921Q226 930 231 935T247
940H267ZM438 940Q450 940 453 935T456 921L448 866Q447 856 442 851T426 846H405Q386 846 388 865L396 921Q398 930 403 935T418 940H438Z" />
<glyph unicode="&#xe5;" horiz-adv-x="570" d="M303 497Q327 497 354 496T408 491T462 485T514 477L486 437Q431 439 390 441T321 443Q267 443 233 436T177 407T144 346T121 241Q110 165 112 122T132 62T190 44Q225 44 263 60T342 107T424 182L435 146Q404 100
362 65T274 9T179 -12Q120 -12 89 13T51 96T58 247Q70 326 88 375T135 451T205 487T303 497ZM450 477H514L447 0H397L407 117L400 124L450 477ZM344 739Q387 739 413 714T440 647Q440 600 409 568T329 536Q285 536 259 561T232 628Q232 675 264 707T344 739ZM343
704Q310 704 291 683T271 631Q271 606 286 589T330 571Q363 571 382 593T402 645Q402 670 387 687T343 704Z" />
<glyph unicode="&#xe6;" horiz-adv-x="873" d="M299 497Q336 497 375 494T453 485T528 472L495 432Q456 435 425 437T367 441T317 443Q264 443 230 435T175 405T143 344T121 241Q111 167 112 124T130 63T185 44Q221 44 258 59T333 106T413 182L424 147Q395 102
356 66T270 9T173 -12Q115 -12 85 15T49 100T56 247Q68 326 87 375T134 451T203 487T299 497ZM652 497Q722 497 764 481T821 432T826 343Q818 299 798 273T741 234T650 216L410 192L418 241L650 265Q686 269 708 277T744 302T763 349Q772 392 760 412T719 437T647
443Q603 443 571 436T518 408T482 350T458 249Q445 164 455 120T500 59T594 42Q621 42 652 44T715 49T769 55L774 12Q752 4 717 -1T645 -9T581 -12Q499 -12 453 15T394 101T392 251Q403 325 422 373T472 448T547 486T652 497Z" />
<glyph unicode="&#xe7;" horiz-adv-x="481" d="M310 497Q342 497 383 493T458 475L446 434Q417 439 381 440T321 442Q257 442 216 425T152 365T118 240Q107 160 117 118T161 59T257 43Q273 43 297 44T349 47T401 53L406 10Q370 -1 328 -6T247 -12Q163 -12 116
13T54 95T51 245Q65 338 94 393T176 473T310 497ZM191 -57Q225 -54 247 -59T279 -80T283 -125Q278 -164 254 -191T193 -230T111 -237L123 -203Q169 -204 200 -181T236 -123Q239 -103 229 -96T183 -88L191 -57Z" />
<glyph unicode="&#xe8;" horiz-adv-x="533" d="M313 497Q383 497 424 481T482 432T486 343Q478 299 458 273T402 234T311 216L72 192L78 241L310 265Q347 269 369 277T405 302T424 349Q433 392 421 412T379 437T308 443Q263 443 232 436T178 408T142 350T118 249Q106
164 116 120T161 59T254 42Q282 42 314 44T376 49T432 55L437 12Q415 4 380 -1T307 -9T242 -12Q160 -12 114 15T54 101T53 251Q64 325 83 373T133 448T208 486T313 497ZM208 727L364 580L339 551L172 682L208 727Z" />
<glyph unicode="&#xe9;" horiz-adv-x="533" d="M313 497Q383 497 424 481T482 432T486 343Q478 299 458 273T402 234T311 216L72 192L78 241L310 265Q347 269 369 277T405 302T424 349Q433 392 421 412T379 437T308 443Q263 443 232 436T178 408T142 350T118 249Q106
164 116 120T161 59T254 42Q282 42 314 44T376 49T432 55L437 12Q415 4 380 -1T307 -9T242 -12Q160 -12 114 15T54 101T53 251Q64 325 83 373T133 448T208 486T313 497ZM444 728L476 679L282 551L260 581L444 728Z" />
<glyph unicode="&#xea;" horiz-adv-x="533" d="M313 497Q383 497 424 481T482 432T486 343Q478 299 458 273T402 234T311 216L72 192L78 241L310 265Q347 269 369 277T405 302T424 349Q433 392 421 412T379 437T308 443Q263 443 232 436T178 408T142 350T118 249Q106
164 116 120T161 59T254 42Q282 42 314 44T376 49T432 55L437 12Q415 4 380 -1T307 -9T242 -12Q160 -12 114 15T54 101T53 251Q64 325 83 373T133 448T208 486T313 497ZM359 710L482 582L457 557L339 658H331L183 557L163 586L313 710H359Z" />
<glyph unicode="&#xeb;" horiz-adv-x="533" d="M313 497Q383 497 424 481T482 432T486 343Q478 299 458 273T402 234T311 216L72 192L78 241L310 265Q347 269 369 277T405 302T424 349Q433 392 421 412T379 437T308 443Q263 443 232 436T178 408T142 350T118 249Q106
164 116 120T161 59T254 42Q282 42 314 44T376 49T432 55L437 12Q415 4 380 -1T307 -9T242 -12Q160 -12 114 15T54 101T53 251Q64 325 83 373T133 448T208 486T313 497ZM259 940Q270 940 274 935T276 921L268 866Q267 856 262 851T246 846H225Q206 846 208 865L216
921Q218 930 223 935T239 940H259ZM430 940Q442 940 445 935T448 921L440 866Q439 856 434 851T418 846H397Q378 846 380 865L388 921Q390 930 395 935T410 940H430Z" />
<glyph unicode="&#xec;" horiz-adv-x="236" d="M177 485L108 0H45L114 485H177ZM303 727L459 580L434 551L267 682L303 727Z" />
<glyph unicode="&#xed;" horiz-adv-x="236" d="M177 485L108 0H45L114 485H177ZM539 728L571 679L377 551L355 581L539 728Z" />
<glyph unicode="&#xee;" horiz-adv-x="236" d="M177 485L108 0H45L114 485H177ZM454 710L577 582L552 557L434 658H426L278 557L258 586L408 710H454Z" />
<glyph unicode="&#xef;" horiz-adv-x="236" d="M177 485L108 0H45L114 485H177ZM354 940Q365 940 369 935T371 921L363 866Q362 856 357 851T341 846H320Q301 846 303 865L311 921Q313 930 318 935T334 940H354ZM525 940Q537 940 540 935T543 921L535 866Q534
856 529 851T513 846H492Q473 846 475 865L483 921Q485 930 490 935T505 940H525Z" />
<glyph unicode="&#xf0;" horiz-adv-x="551" d="M179 698Q229 700 278 690T370 654T443 580T484 458T481 278Q472 216 457 163T415 71T342 9T229 -13Q157 -13 113 12T54 90T49 222Q63 326 115 386T274 447Q297 447 321 443T369 428T415 397T454 341L447 313Q425
346 398 363T342 387T284 394Q228 394 194 372T141 311T115 217Q101 120 130 81T232 42Q295 42 332 70T388 154T418 290Q431 388 422 454T386 559T324 619T248 646T169 652L179 698ZM468 706L488 676L267 529L250 557L468 706Z" />
<glyph unicode="&#xf1;" horiz-adv-x="574" d="M391 497Q432 497 459 482T499 437T505 363L453 0H390L440 349Q446 401 431 421T373 442Q323 442 270 411T144 322L145 370Q215 431 275 464T391 497ZM160 485L149 361L152 345L104 0H41L110 485H160ZM262 695Q286
693 302 685T333 666T363 646T399 635Q430 632 444 646T463 691L494 689Q492 637 468 611T407 587Q381 589 363 598T330 617T301 637T269 648Q239 651 225 636T206 588L174 591Q177 646 202 672T262 695Z" />
<glyph unicode="&#xf2;" horiz-adv-x="562" d="M306 497Q387 497 433 472T494 390T496 239Q483 147 454 92T374 12T243 -13Q163 -13 116 12T54 94T51 245Q64 337 93 392T173 472T306 497ZM306 442Q247 442 210 424T151 362T118 239Q107 164 115 121T154 60T243
42Q302 42 339 60T398 123T431 245Q442 321 434 363T395 424T306 442ZM208 727L364 580L339 551L172 682L208 727Z" />
<glyph unicode="&#xf3;" horiz-adv-x="562" d="M306 497Q387 497 433 472T494 390T496 239Q483 147 454 92T374 12T243 -13Q163 -13 116 12T54 94T51 245Q64 337 93 392T173 472T306 497ZM306 442Q247 442 210 424T151 362T118 239Q107 164 115 121T154 60T243
42Q302 42 339 60T398 123T431 245Q442 321 434 363T395 424T306 442ZM444 728L476 679L282 551L260 581L444 728Z" />
<glyph unicode="&#xf4;" horiz-adv-x="562" d="M306 497Q387 497 433 472T494 390T496 239Q483 147 454 92T374 12T243 -13Q163 -13 116 12T54 94T51 245Q64 337 93 392T173 472T306 497ZM306 442Q247 442 210 424T151 362T118 239Q107 164 115 121T154 60T243
42Q302 42 339 60T398 123T431 245Q442 321 434 363T395 424T306 442ZM359 710L482 582L457 557L339 658H331L183 557L163 586L313 710H359Z" />
<glyph unicode="&#xf5;" horiz-adv-x="562" d="M306 497Q387 497 433 472T494 390T496 239Q483 147 454 92T374 12T243 -13Q163 -13 116 12T54 94T51 245Q64 337 93 392T173 472T306 497ZM306 442Q247 442 210 424T151 362T118 239Q107 164 115 121T154 60T243
42Q302 42 339 60T398 123T431 245Q442 321 434 363T395 424T306 442ZM256 695Q280 693 296 685T327 666T357 646T393 635Q424 632 438 646T457 691L488 689Q486 637 462 611T401 587Q375 589 357 598T324 617T295 637T263 648Q233 651 219 636T200 588L168 591Q171
646 196 672T256 695Z" />
<glyph unicode="&#xf6;" horiz-adv-x="562" d="M306 497Q387 497 433 472T494 390T496 239Q483 147 454 92T374 12T243 -13Q163 -13 116 12T54 94T51 245Q64 337 93 392T173 472T306 497ZM306 442Q247 442 210 424T151 362T118 239Q107 164 115 121T154 60T243
42Q302 42 339 60T398 123T431 245Q442 321 434 363T395 424T306 442ZM259 940Q270 940 274 935T276 921L268 866Q267 856 262 851T246 846H225Q206 846 208 865L216 921Q218 930 223 935T239 940H259ZM430 940Q442 940 445 935T448 921L440 866Q439 856 434 851T418
846H397Q378 846 380 865L388 921Q390 930 395 935T410 940H430Z" />
<glyph unicode="&#xf7;" horiz-adv-x="575" d="M507 320L499 271H69L76 320H507ZM278 176Q291 176 296 170T301 149L292 95Q291 84 285 79T266 73H248Q235 73 230 79T226 99L234 151Q235 164 241 170T259 176H278ZM325 517Q339 516 344 510T348 490L341 437Q339
425 333 420T314 414H296Q283 414 277 420T273 440L281 493Q282 505 288 511T307 517H325Z" />
<glyph unicode="&#xf8;" horiz-adv-x="562" d="M448 554L478 537L110 -70L80 -53L448 554ZM306 497Q387 497 433 472T494 390T496 239Q483 147 454 92T374 12T243 -13Q163 -13 116 12T54 94T51 245Q64 337 93 392T173 472T306 497ZM306 442Q247 442 210 424T151
362T118 239Q107 164 115 121T154 60T243 42Q302 42 339 60T398 123T431 245Q442 321 434 363T395 424T306 442Z" />
<glyph unicode="&#xf9;" horiz-adv-x="563" d="M170 485L120 136Q113 87 130 65T190 43Q240 43 288 75T405 170L411 122Q344 55 286 21T170 -13Q104 -13 75 23T55 122L106 485H170ZM508 485L440 0H391L403 133L398 148L445 485H508ZM210 728L366 581L341 552L174
683L210 728Z" />
<glyph unicode="&#xfa;" horiz-adv-x="563" d="M170 485L120 136Q113 87 130 65T190 43Q240 43 288 75T405 170L411 122Q344 55 286 21T170 -13Q104 -13 75 23T55 122L106 485H170ZM508 485L440 0H391L403 133L398 148L445 485H508ZM445 729L477 680L283 552L261
582L445 729Z" />
<glyph unicode="&#xfb;" horiz-adv-x="563" d="M170 485L120 136Q113 87 130 65T190 43Q240 43 288 75T405 170L411 122Q344 55 286 21T170 -13Q104 -13 75 23T55 122L106 485H170ZM508 485L440 0H391L403 133L398 148L445 485H508ZM360 712L483 584L458 559L340
660H332L184 559L164 588L314 712H360Z" />
<glyph unicode="&#xfc;" horiz-adv-x="563" d="M170 485L120 136Q113 87 130 65T190 43Q240 43 288 75T405 170L411 122Q344 55 286 21T170 -13Q104 -13 75 23T55 122L106 485H170ZM508 485L440 0H391L403 133L398 148L445 485H508ZM260 943Q271 943 275 938T277
924L269 869Q268 859 263 854T247 849H226Q207 849 209 868L217 924Q219 933 224 938T240 943H260ZM431 943Q443 943 446 938T449 924L441 869Q440 859 435 854T419 849H398Q379 849 381 868L389 924Q391 933 396 938T411 943H431Z" />
<glyph unicode="&#xfd;" horiz-adv-x="529" d="M510 485Q500 442 488 401T462 319T431 236T393 155T349 73Q298 -17 251 -75T155 -164T48 -207L36 -163Q73 -153 105 -135T168 -86T229 -13T292 91Q329 156 356 217T405 344T445 485H510ZM115 485L198 72Q203 51
224 51H279L249 0H197Q177 0 163 12T144 42L48 485H115ZM413 728L445 679L251 551L229 581L413 728Z" />
<glyph unicode="&#xfe;" horiz-adv-x="570" d="M379 497Q435 497 466 472T505 391T499 238Q487 158 469 109T422 34T353 -3T257 -13Q211 -13 157 -7T57 7L76 47Q129 45 169 44T236 42Q290 42 324 49T379 78T412 138T434 243Q445 319 444 362T424 423T366 441Q332
441 294 425T215 378T133 302L122 338Q154 385 196 420T285 476T379 497ZM204 700L174 487Q170 460 167 436T155 384L157 374L111 37L105 24Q104 -4 102 -28T94 -80L76 -204H14L140 700H204Z" />
<glyph unicode="&#xff;" horiz-adv-x="529" d="M510 485Q500 442 488 401T462 319T431 236T393 155T349 73Q298 -17 251 -75T155 -164T48 -207L36 -163Q73 -153 105 -135T168 -86T229 -13T292 91Q329 156 356 217T405 344T445 485H510ZM115 485L198 72Q203 51
224 51H279L249 0H197Q177 0 163 12T144 42L48 485H115ZM229 940Q240 940 244 935T246 921L238 866Q237 856 232 851T216 846H195Q176 846 178 865L186 921Q188 930 193 935T209 940H229ZM400 940Q412 940 415 935T418 921L410 866Q409 856 404 851T388 846H367Q348
846 350 865L358 921Q360 930 365 935T380 940H400Z" />
<glyph unicode="&#x2013;" horiz-adv-x="602" d="M523 277L516 227H67L74 277H523Z" />
<glyph unicode="&#x2014;" horiz-adv-x="908" d="M829 277L822 227H67L74 277H829Z" />
<glyph unicode="&#x2018;" horiz-adv-x="209" d="M123 504Q110 504 105 509T102 528L112 590Q114 611 121 634T138 682T160 727L192 716Q183 687 176 663T163 604Q173 605 177 600T181 584L172 526Q170 514 165 509T143 504H123Z" />
<glyph unicode="&#x2019;" horiz-adv-x="207" d="M175 718Q188 718 193 713T196 694L186 632Q184 611 177 588T160 540T138 495L106 506Q115 535 122 559T135 618Q125 617 121 622T117 638L126 696Q128 708 133 713T155 718H175Z" />
<glyph unicode="&#x201a;" horiz-adv-x="220" d="M96 101Q108 101 113 96T116 77L106 15Q104 -6 97 -29T79 -77T57 -122L25 -111Q34 -82 41 -58T55 1Q45 0 40 6T36 21L45 79Q48 92 53 96T75 101H96Z" />
<glyph unicode="&#x201c;" horiz-adv-x="347" d="M123 504Q110 504 105 509T102 528L112 590Q114 611 121 634T138 682T160 727L192 716Q183 687 176 663T163 604Q173 605 177 600T181 584L172 526Q170 514 165 509T143 504H123ZM261 504Q248 504 244 509T241
528L250 590Q253 611 260 634T277 682T299 727L330 716Q322 687 315 663T301 604Q311 605 316 600T319 584L311 526Q309 514 304 509T282 504H261Z" />
<glyph unicode="&#x201d;" horiz-adv-x="346" d="M314 718Q327 718 331 713T334 694L325 632Q322 611 315 588T298 540T276 495L245 506Q253 535 260 559T274 618Q264 617 259 622T256 638L264 696Q266 708 272 713T293 718H314ZM175 718Q188 718 193 713T196
694L186 632Q184 611 177 588T160 540T138 495L106 506Q115 535 122 559T135 618Q125 617 121 622T117 638L126 696Q128 708 133 713T155 718H175Z" />
<glyph unicode="&#x201e;" horiz-adv-x="358" d="M233 101Q246 101 250 96T253 77L244 15Q241 -6 234 -29T217 -77T195 -122L164 -111Q173 -82 180 -58T193 1Q183 0 178 6T175 21L183 79Q185 91 191 96T212 101H233ZM94 101Q107 101 112 96T115 77L105 15Q103
-6 96 -29T79 -77T57 -122L25 -111Q34 -82 41 -58T54 1Q44 0 40 6T36 21L45 79Q47 91 52 96T74 101H94Z" />
<glyph unicode="&#x2022;" horiz-adv-x="358" d="M192 351Q234 351 249 333T260 273L258 259Q254 229 245 213T219 191T172 184H161Q117 184 101 202T92 265L94 278Q98 308 107 323T134 344T181 351H192Z" />
<glyph unicode="&#x2039;" horiz-adv-x="295" d="M229 457L256 432L95 250L208 64L175 41L39 246L40 261L229 457Z" />
<glyph unicode="&#x203a;" horiz-adv-x="296" d="M108 457L244 253L243 238L54 41L27 66L189 250L76 436L108 457Z" />
</font>
</defs>
</svg>
