<?xml version="1.0" standalone="no"?>
<!DOCTYPE svg PUBLIC "-//W3C//DTD SVG 1.1//EN" "http://www.w3.org/Graphics/SVG/1.1/DTD/svg11.dtd">
<svg xmlns="http://www.w3.org/2000/svg">
<defs >
<font id="Dosis" horiz-adv-x="435" ><font-face
    font-family="Dosis"
    units-per-em="1000"
    panose-1="0 0 0 0 0 0 0 0 0 0"
    ascent="1027"
    descent="-237"
    alphabetic="0" />
<glyph unicode=" " horiz-adv-x="200" />
<glyph unicode="!" horiz-adv-x="202" d="M101 165Q91 165 83 171T75 188Q75 270 72 358T66 535T63 705Q63 724 74 734T101 744Q116 744 127 734T139 705Q139 623 137 535T131 359T127 188Q127 177 118 171T101 165ZM102 -6Q82 -6 69 8T56 40Q56 60 69 73T102
87Q120 87 133 74T147 40Q147 22 134 8T102 -6Z" />
<glyph unicode="&quot;" horiz-adv-x="270" d="M200 576Q188 576 183 583T178 599L168 746Q168 756 178 762T200 768Q211 768 221 762T232 746L222 599Q222 590 217 583T200 576ZM70 576Q58 576 53 583T48 599L38 746Q38 756 48 762T70 768Q81 768 91 762T102
746L92 599Q92 590 87 583T70 576Z" />
<glyph unicode="#" horiz-adv-x="590" d="M152 34Q140 34 130 41T120 63L149 253H53Q41 253 35 260T29 278Q29 289 35 296T49 304H159L184 464H87Q75 464 69 471T63 490Q63 501 69 508T83 515H193L222 698Q224 705 231 709T248 713Q262 713 270 706T279 684L252
515H379L408 698Q410 705 417 709T434 713Q448 713 456 706T466 684L438 515H536Q545 515 553 509T561 490Q561 480 555 472T540 464H430L404 304H502Q511 304 519 297T527 278Q527 268 521 261T506 253H395L364 54Q363 45 355 40T336 34Q329 34 322 37T310 47T305
63L335 253H209L178 55Q177 44 169 39T152 34ZM218 304H344L370 464H244L218 304Z" />
<glyph unicode="$" horiz-adv-x="498" d="M262 -52Q253 -52 246 -46T239 -32V3Q176 4 132 23T63 68T39 111Q39 119 43 128T55 142T69 148Q78 148 88 136T116 108T163 80T239 66V357Q206 369 174 382T116 415T73 466T57 546Q57 593 73 625T115 676T174 706T239
718V749Q239 757 246 762T262 768Q271 768 278 763T285 749V720Q313 719 339 714T388 701T423 683T437 659Q437 653 434 645T424 629T408 622Q400 622 386 630T347 648T285 659V411Q316 400 346 385T401 347T440 289T455 202Q455 111 408 63T285 6V-32Q285 -40
278 -46T262 -52ZM283 68Q336 76 364 108T392 196Q392 240 377 267T338 311T283 341V68ZM242 426V658Q210 656 183 645T138 612T121 552Q121 513 137 490T181 452T242 426Z" />
<glyph unicode="%" horiz-adv-x="758" d="M193 -26Q182 -26 175 -19T167 -2Q167 5 169 10L550 757Q556 769 571 769Q580 769 589 762T599 742Q599 735 596 729L217 -12Q213 -19 207 -22T193 -26ZM164 351Q112 351 77 377T41 465V617Q41 679 76 705T164 731Q200
731 228 720T272 684T288 617V465Q288 424 272 399T228 363T164 351ZM164 396Q199 396 218 413T238 465V617Q238 652 219 669T164 686Q130 686 111 669T91 617V465Q91 430 110 413T164 396ZM593 -3Q541 -3 506 23T470 111V263Q470 325 505 351T593 377Q629 377
657 366T701 330T717 263V111Q717 69 701 44T657 8T593 -3ZM593 42Q628 42 647 59T667 111V263Q667 298 648 315T593 332Q559 332 540 315T520 263V111Q520 76 539 59T593 42Z" />
<glyph unicode="&amp;" horiz-adv-x="610" d="M265 -10Q192 -10 141 19T63 97T35 203Q35 254 55 293T106 359T171 402Q141 438 116 479T90 578Q90 633 115 671T181 728T271 748Q326 748 362 730T416 689T434 652Q434 640 425 631T403 622Q393 622 384 632T363
657T329 682T274 693Q220 693 189 661T158 574Q158 539 171 510T206 454T251 401L455 179Q475 227 481 277T488 361Q489 375 495 381T518 388Q534 388 540 380T546 353Q546 333 542 297T528 218T496 134L588 35Q591 32 592 28T594 21Q594 10 585 2T564 -7Q559 -7
555 -5T545 2L464 89Q433 46 384 18T265 -10ZM273 50Q329 50 365 73T424 131L209 360Q186 348 162 329T120 281T102 209Q102 167 122 131T180 72T273 50Z" />
<glyph unicode="&apos;" horiz-adv-x="140" d="M70 576Q58 576 53 583T48 599L38 746Q38 756 48 762T70 768Q81 768 91 762T102 746L92 599Q92 590 87 583T70 576Z" />
<glyph unicode="(" horiz-adv-x="298" d="M247 -20Q208 -20 175 -9T116 23T76 77T61 151V584Q61 622 75 655T116 713T175 753T248 768Q265 768 272 760T280 739Q280 726 273 717T255 708Q214 708 186 690T142 643T127 584V151Q127 106 147 82T197 49T255 40Q270
40 275 30T280 10Q280 -3 272 -11T247 -20Z" />
<glyph unicode=")" horiz-adv-x="298" d="M52 -20Q34 -20 27 -12T19 10Q19 20 23 30T43 40Q72 40 101 48T150 81T171 151V584Q171 614 156 642T113 689T43 708Q33 708 26 717T19 739Q19 751 26 759T51 768Q89 768 122 754T182 714T222 655T237 584V151Q237 109
223 77T183 24T124 -9T52 -20Z" />
<glyph unicode="*" d="M124 381Q118 381 111 384T98 393T93 408Q93 417 99 424L178 530L52 568Q43 570 39 577T35 592Q35 603 42 612T62 621Q63 621 65 621T70 620L196 576L191 706Q191 719 199 725T218 731Q228 731 236 725T244 706L240 575L366 620Q369 621
374 621Q385 621 392 611T400 591Q400 583 396 577T382 568L257 532L338 423Q343 418 343 409Q343 397 334 389T312 381Q308 381 303 383T293 391L218 503L141 390Q138 385 134 383T124 381Z" />
<glyph unicode="+" horiz-adv-x="434" d="M218 100Q206 100 197 107T188 124V256H57Q46 256 39 264T32 284Q32 297 39 305T57 314H188V444Q188 454 197 462T218 470Q231 470 238 462T246 444V314H377Q386 314 394 306T402 284Q402 272 394 264T377 256H246V124Q246
114 239 107T218 100Z" />
<glyph unicode="," horiz-adv-x="171" d="M73 -84Q64 -84 56 -79T48 -65Q48 -59 50 -55L70 -3Q56 2 48 14T40 40Q40 60 53 73T85 87Q103 87 117 75T131 40Q131 37 131 32T126 16T114 -16T92 -71Q90 -78 85 -81T73 -84Z" />
<glyph unicode="-" horiz-adv-x="400" d="M70 212Q59 212 52 220T45 240Q45 253 52 261T70 270H330Q340 270 347 262T355 240Q355 228 348 220T330 212H70Z" />
<glyph unicode="." horiz-adv-x="171" d="M86 -6Q66 -6 53 8T40 40Q40 60 53 73T86 87Q104 87 117 74T131 40Q131 22 118 8T86 -6Z" />
<glyph unicode="/" horiz-adv-x="474" d="M47 -26Q36 -26 29 -19T21 -2Q21 5 24 10L405 757Q411 769 425 769Q435 769 444 762T453 742Q453 735 450 729L71 -12Q67 -19 61 -22T47 -26Z" />
<glyph unicode="0" horiz-adv-x="533" d="M266 -6Q208 -6 161 15T87 83T59 208V518Q59 595 86 642T160 710T266 731Q325 731 372 710T447 642T475 518V208Q475 130 447 83T372 15T266 -6ZM266 55Q333 55 371 92T409 208V518Q409 596 371 633T266 670Q199 670 162
633T125 518V208Q125 129 162 92T266 55ZM267 325Q251 325 241 336T230 362Q230 378 240 388T267 398Q283 398 293 388T303 362Q303 347 293 336T267 325Z" />
<glyph unicode="1" horiz-adv-x="234" d="M132 0Q119 0 109 6T99 26V619L59 554Q55 548 50 545T40 542Q29 542 22 551T14 571Q14 578 19 587T29 601L111 717Q116 723 121 727T136 732Q147 732 156 726T165 707V26Q165 13 155 7T132 0Z" />
<glyph unicode="2" horiz-adv-x="475" d="M65 0Q55 0 45 7T34 26V123Q34 164 58 199T121 265T203 326T285 388T347 457T372 537Q372 569 358 599T313 649T237 669Q186 669 151 640T116 551Q116 541 107 533T81 524Q66 524 59 533T51 565Q51 614 76 651T143 709T239
731Q297 731 341 706T412 637T438 539Q438 486 414 443T351 365T270 300T189 242T127 185T102 123V61H421Q431 61 438 53T445 31Q445 19 438 10T421 0H65Z" />
<glyph unicode="3" horiz-adv-x="488" d="M236 -6Q183 -6 144 9T79 49T41 102T29 159Q29 180 36 187T59 194Q80 194 87 187T94 166Q94 150 100 131T123 94T166 66T234 55Q305 55 342 91T379 205V224Q379 293 340 325T236 357Q223 357 217 365T211 385Q211 396
217 405T236 414Q276 414 304 425T346 465T361 542Q361 607 332 639T240 671Q201 671 176 661T136 634T117 599T112 564Q112 550 105 541T80 532Q66 532 59 535T49 547T46 570Q46 591 54 618T84 671T144 714T242 731Q296 731 337 714T401 659T425 555Q425 487 402
445T343 386Q387 368 416 329T445 224V205Q445 128 417 82T342 15T236 -6Z" />
<glyph unicode="4" horiz-adv-x="444" d="M320 0Q308 0 298 6T287 26V172H33Q21 172 14 179T7 199Q7 204 8 208T11 216L262 711Q268 722 276 726T293 731Q300 731 307 728T320 719T325 704Q325 699 322 691L92 235H287V428Q287 441 297 447T320 453Q333 453 343
447T353 428V235H408Q421 235 427 226T434 204Q434 192 427 182T408 172H353V26Q353 13 343 7T320 0Z" />
<glyph unicode="5" horiz-adv-x="475" d="M235 -6Q170 -6 123 17T52 79T27 164Q27 183 36 190T60 197Q78 197 85 189T93 169Q93 133 112 108T163 69T234 55Q301 55 339 92T377 206V225Q377 300 339 336T236 373H96Q76 373 70 380T63 398Q63 404 63 408T64 418L84
706Q85 717 90 724T105 731H385Q396 731 401 722T407 701Q407 689 402 680T385 670H143L126 430H236Q294 430 341 410T415 345T443 225V206Q443 129 416 83T341 15T235 -6Z" />
<glyph unicode="6" horiz-adv-x="519" d="M267 -6Q209 -6 162 15T87 83T59 208V518Q59 595 87 642T162 710T269 731Q319 731 357 717T422 679T461 624T475 560Q475 544 467 537T444 530Q430 530 420 536T409 557Q409 592 390 617T339 656T267 670Q200 670 163
633T125 518V365Q150 400 189 415T276 431Q331 431 376 413T448 352T475 232V208Q475 130 447 83T373 15T267 -6ZM267 53Q334 53 371 90T409 205V229Q409 308 372 341T267 374Q202 374 164 344T125 238V205Q125 127 162 90T267 53Z" />
<glyph unicode="7" horiz-adv-x="460" d="M115 -1Q105 -1 96 2T81 13T75 30Q75 37 79 44L378 616V670H94V555Q94 545 84 538T61 530Q48 530 38 537T28 555V706Q28 715 37 723T58 731H413Q424 731 434 723T444 706V620Q444 614 442 606T434 591L137 11Q131 -1 115 -1Z" />
<glyph unicode="8" horiz-adv-x="503" d="M252 -6Q194 -6 147 14T72 80T44 200V212Q44 289 74 334T153 399Q113 415 89 453T64 556Q64 622 89 660T156 715T252 731Q306 731 348 715T415 661T440 556Q440 492 416 454T352 399Q401 380 430 335T460 212V200Q460
126 432 81T358 15T252 -6ZM253 52Q319 52 356 90T394 205V219Q394 296 356 332T252 368Q186 368 148 332T110 219V205Q110 127 148 90T253 52ZM252 427Q310 427 343 456T376 551Q376 616 343 644T252 673Q194 673 162 645T129 551Q129 485 161 456T252 427Z" />
<glyph unicode="9" horiz-adv-x="519" d="M250 -6Q200 -6 162 8T97 47T58 102T44 165Q44 182 52 189T75 196Q89 196 99 190T110 168Q110 133 129 108T180 69T252 55Q319 55 356 92T394 208V361Q369 326 330 310T243 294Q188 294 143 312T71 374T44 494V518Q44
595 72 642T146 710T252 731Q310 731 357 710T432 642T460 518V208Q460 130 432 83T357 15T250 -6ZM252 351Q317 351 355 382T394 487V520Q394 599 357 636T252 673Q185 673 148 636T110 520V496Q110 417 147 384T252 351Z" />
<glyph unicode=":" horiz-adv-x="201" d="M101 330Q81 330 68 344T55 376Q55 395 68 408T101 422Q119 422 132 409T146 376Q146 358 133 344T101 330ZM101 -6Q81 -6 68 8T55 40Q55 60 68 73T101 87Q119 87 132 74T146 40Q146 22 133 8T101 -6Z" />
<glyph unicode=";" horiz-adv-x="203" d="M87 -84Q79 -84 71 -79T63 -65Q63 -59 65 -55L84 -3Q71 2 63 14T54 40Q54 60 67 73T99 87Q117 87 131 75T146 40Q146 37 145 32T141 16T129 -16T107 -71Q104 -78 99 -81T87 -84ZM103 330Q82 330 69 344T56 376Q56 395
69 408T103 422Q121 422 134 409T148 376Q148 358 135 344T103 330Z" />
<glyph unicode="&lt;" horiz-adv-x="403" d="M324 68Q318 68 312 72L43 250Q35 254 31 261T27 277Q27 285 31 293T43 305L312 483Q318 487 324 487Q335 487 345 478T355 456Q355 441 344 435L106 277L344 120Q355 114 355 99Q355 86 345 77T324 68Z" />
<glyph unicode="=" d="M91 358Q81 358 74 366T67 386Q67 399 74 407T91 416H344Q353 416 361 408T369 386Q369 374 361 366T344 358H91ZM91 155Q81 155 74 163T67 183Q67 196 74 204T91 213H344Q353 213 361 205T369 183Q369 171 361 163T344 155H91Z" />
<glyph unicode="&gt;" horiz-adv-x="403" d="M79 68Q69 68 59 77T48 99Q48 114 59 120L297 277L59 435Q48 441 48 456Q48 469 58 478T79 487Q86 487 91 483L361 305Q367 301 371 293T376 277Q376 269 372 262T361 250L91 72Q86 68 79 68Z" />
<glyph unicode="?" horiz-adv-x="401" d="M171 165Q159 165 152 171T144 194Q144 250 150 283T166 335T187 368Q203 385 223 402T263 442T296 493T309 561Q309 621 274 655T174 689Q141 689 121 682T88 665T68 648T49 640Q41 640 33 647T24 667Q24 683 44 701T99
731T177 744Q240 744 282 720T345 656T366 566Q366 519 351 484T314 423T269 377T233 340Q216 322 209 301T200 253T198 188Q198 177 192 171T171 165ZM171 -6Q151 -6 138 8T125 40Q125 60 138 73T171 87Q190 87 203 74T217 40Q217 22 204 8T171 -6Z" />
<glyph unicode="@" horiz-adv-x="719" d="M330 -103Q277 -103 228 -84T139 -26T78 73T55 217Q55 311 87 388T189 512T369 558Q468 558 537 521T641 412T677 236Q677 183 666 137T628 61T556 32Q519 32 492 51T459 97Q433 70 407 56T336 41Q303 41 274 51T228 86T211
150Q211 196 235 220T303 254T407 263H450V282Q450 326 427 346T352 367Q320 367 303 361T275 349T257 342Q251 342 246 347T239 359T236 370Q236 384 255 395T304 412T362 419Q406 419 437 404T486 361T504 291V125Q507 102 524 89T560 75Q581 75 594 89T615 127T624
177T627 229Q627 360 564 434T367 509Q292 509 242 486T162 421T118 327T104 218Q104 165 116 116T155 28T226 -33T337 -56Q381 -56 408 -48T452 -33T478 -25Q488 -25 493 -32T499 -47Q499 -57 484 -67T444 -85T388 -98T330 -103ZM343 85Q377 85 401 98T438 130T452
167V222H411Q370 222 338 218T286 198T267 150Q267 116 289 101T343 85Z" />
<glyph unicode="A" horiz-adv-x="538" d="M58 0Q50 0 41 3T26 13T20 28Q20 32 21 35L230 714Q234 726 245 731T269 737Q283 737 294 731T309 714L517 35Q518 32 518 29Q518 21 512 15T497 4T478 0Q470 0 463 4T454 17L407 171H131L85 17Q82 8 75 4T58 0ZM147 228H390L269
631L147 228Z" />
<glyph unicode="B" horiz-adv-x="538" d="M106 0Q93 0 85 7T76 25V706Q76 718 85 724T106 731H270Q326 731 372 718T446 669T474 561Q474 498 451 456T389 396Q420 384 443 363T479 309T492 224V206Q492 130 466 85T395 20T295 0H106ZM142 61H286Q352 61 389 96T426
209V226Q426 304 389 336T286 368H142V61ZM142 425H272Q342 425 375 454T408 554Q408 601 390 626T341 660T268 670H142V425Z" />
<glyph unicode="C" horiz-adv-x="525" d="M276 -6Q220 -6 173 15T97 83T69 208V518Q69 595 97 642T173 710T278 731Q344 731 390 708T460 647T485 564Q485 540 477 532T452 524Q434 524 427 531T419 549Q418 565 413 586T393 626T351 657T279 670Q209 670 172
633T135 518V208Q135 129 172 92T282 55Q327 55 353 67T392 98T411 138T419 178Q420 191 428 197T451 204Q468 204 476 196T485 163Q485 118 460 80T389 18T276 -6Z" />
<glyph unicode="D" horiz-adv-x="560" d="M106 0Q93 0 85 7T76 25V707Q76 717 84 724T106 731H283Q342 731 389 710T464 642T492 518V214Q492 136 465 89T390 21T283 0H106ZM142 61H283Q350 61 388 98T426 214V518Q426 596 388 633T283 670H142V61Z" />
<glyph unicode="E" horiz-adv-x="508" d="M106 0Q95 0 86 6T76 26V706Q76 718 85 724T106 731H462Q475 731 481 722T487 702Q487 689 481 680T462 670H142V395H299Q311 395 317 386T324 365Q324 356 318 347T299 338H142V61H462Q474 61 480 52T487 30Q487 19 481
10T462 0H106Z" />
<glyph unicode="F" horiz-adv-x="496" d="M109 0Q96 0 86 6T76 25V706Q76 718 85 724T106 731H460Q473 731 479 722T485 702Q485 689 479 680T460 670H142V395H300Q311 395 317 386T324 365Q324 356 319 347T300 338H142V25Q142 12 132 6T109 0Z" />
<glyph unicode="G" horiz-adv-x="542" d="M276 -6Q218 -6 171 15T97 83T69 208V518Q69 595 96 642T170 710T275 731Q339 731 386 709T459 647T485 558Q485 539 476 532T452 524Q439 524 430 530T419 549Q414 588 397 615T350 656T276 670Q209 670 172 633T135
518V208Q135 130 172 93T276 55Q343 55 381 92T419 208V327H285Q273 327 267 336T260 356Q260 366 266 375T285 384H460Q472 384 478 377T485 358V208Q485 130 457 83T382 15T276 -6Z" />
<glyph unicode="H" horiz-adv-x="573" d="M109 0Q96 0 86 6T76 26V707Q76 719 86 725T109 731Q121 731 131 725T142 707V408H431V707Q431 719 441 725T464 731Q476 731 486 725T497 707V26Q497 13 487 7T464 0Q451 0 441 6T431 26V351H142V26Q142 13 132 7T109 0Z" />
<glyph unicode="I" horiz-adv-x="218" d="M109 0Q96 0 86 6T76 26V707Q76 719 86 725T109 731Q121 731 131 725T142 707V26Q142 13 132 7T109 0Z" />
<glyph unicode="J" horiz-adv-x="509" d="M231 -6Q167 -6 120 16T47 79T21 170Q21 190 29 197T54 204Q66 204 76 198T87 178Q88 141 105 113T154 70T229 55Q296 55 333 92T371 208V670H230Q219 670 213 679T206 702Q206 712 211 721T230 731H407Q418 731 427 725T437
706V208Q437 130 410 83T336 15T231 -6Z" />
<glyph unicode="K" horiz-adv-x="523" d="M109 0Q96 0 86 6T76 26V707Q76 720 86 725T109 731Q121 731 131 726T142 707V353L431 721Q438 731 452 731Q460 731 468 726T482 714T488 697Q488 694 487 690T483 682L268 415L514 45Q518 39 518 32Q518 23 513 16T499
4T480 -1Q473 -1 467 2T455 13L224 360L142 256V26Q142 13 132 7T109 0Z" />
<glyph unicode="L" horiz-adv-x="462" d="M106 0Q95 0 86 6T76 26V707Q76 720 86 725T109 731Q121 731 131 726T142 707V61H427Q439 61 444 52T449 31Q449 19 444 10T427 0H106Z" />
<glyph unicode="M" horiz-adv-x="668" d="M109 0Q96 0 86 6T76 26V699Q76 717 86 724T109 731Q121 731 130 725T148 708T162 685L334 353L506 685Q513 697 520 707T538 724T559 731Q573 731 582 724T592 699V26Q592 13 582 7T559 0Q547 0 537 6T526 26V588L360
274Q354 263 347 258T333 253Q327 253 320 257T307 274L142 591V26Q142 13 132 7T109 0Z" />
<glyph unicode="N" horiz-adv-x="573" d="M109 0Q96 0 86 6T76 26V706Q76 720 86 725T109 731Q121 731 130 725T147 708T161 685L431 153V707Q431 720 441 725T464 731Q476 731 486 726T497 707V26Q497 13 487 7T464 0Q450 0 439 12T420 38L142 579V26Q142 13
132 7T109 0Z" />
<glyph unicode="O" horiz-adv-x="553" d="M276 -6Q218 -6 171 15T97 83T69 208V518Q69 595 96 642T170 710T276 731Q335 731 382 710T457 642T485 518V208Q485 130 457 83T382 15T276 -6ZM276 55Q343 55 381 92T419 208V518Q419 596 381 633T276 670Q209 670 172
633T135 518V208Q135 129 172 92T276 55Z" />
<glyph unicode="P" horiz-adv-x="527" d="M109 0Q96 0 86 6T76 26V707Q76 717 83 723T104 731H288Q346 731 393 710T467 643T494 519V509Q494 431 467 385T392 317T286 296H142V26Q142 13 132 7T109 0ZM142 353H286Q353 353 390 390T428 506V518Q428 596 391 633T286
670H142V353Z" />
<glyph unicode="Q" horiz-adv-x="553" d="M277 -109Q267 -109 259 -103T251 -83V-4Q199 0 158 22T93 89T69 208V518Q69 596 96 642T171 710T276 731Q335 731 382 710T457 643T485 518V208Q485 135 461 90T396 22T302 -4V-83Q302 -96 295 -102T277 -109ZM251 58V132Q251
145 259 150T277 156Q287 156 294 151T302 132V58Q357 65 388 101T419 208V518Q419 596 381 633T276 670Q209 670 172 633T135 518V208Q135 138 165 101T251 58Z" />
<glyph unicode="R" horiz-adv-x="528" d="M458 -1Q447 -1 438 10T424 33L269 333H142V26Q142 13 132 7T109 0Q96 0 86 6T76 26V707Q76 717 83 723T101 731H278Q337 731 386 713T464 653T494 534Q494 472 474 432T418 371T338 341L492 45Q495 42 495 39T496 32Q496
24 491 16T476 4T458 -1ZM142 390H278Q345 390 386 422T428 531Q428 606 387 638T278 670H142V390Z" />
<glyph unicode="S" horiz-adv-x="494" d="M241 -7Q177 -7 131 12T61 57T36 101Q36 109 40 118T52 132T66 138Q76 138 86 126T114 97T161 68T237 55Q284 55 317 70T368 116T386 193Q386 241 368 270T321 318T256 350T186 377T121 411T73 465T54 551Q54 606 74 641T125
696T194 724T266 733Q294 733 323 729T378 716T418 697T434 672Q434 665 431 657T421 642T405 635Q396 635 380 644T337 663T265 673Q229 673 196 663T141 627T120 557Q120 517 138 493T186 453T251 426T321 398T386 359T434 297T452 199Q452 128 425 83T351 15T241
-7Z" />
<glyph unicode="T" horiz-adv-x="477" d="M239 0Q226 0 216 6T206 26V669H38Q26 669 20 678T13 700Q13 712 19 721T38 731H439Q452 731 458 722T464 701Q464 689 458 679T439 669H272V26Q272 13 262 7T239 0Z" />
<glyph unicode="U" horiz-adv-x="563" d="M281 -6Q222 -6 175 15T100 83T72 208V707Q72 719 82 725T105 731Q118 731 128 725T138 707V208Q138 129 176 92T281 55Q349 55 387 92T425 208V707Q425 719 435 725T458 731Q471 731 481 725T491 707V208Q491 130 464
83T388 15T281 -6Z" />
<glyph unicode="V" horiz-adv-x="537" d="M269 -6Q256 -6 245 0T230 18L20 696Q19 699 19 703Q19 712 25 718T40 727T58 731Q67 731 74 727T84 714L269 100L453 714Q456 723 462 727T478 731Q487 731 496 727T511 717T518 702Q518 701 518 700T516 696L309 18Q305
6 294 0T269 -6Z" />
<glyph unicode="W" horiz-adv-x="784" d="M258 -6Q245 -6 234 0T219 18L22 696Q20 700 20 704Q20 712 26 718T41 728T58 731Q67 731 75 727T85 714L258 100L357 473Q361 486 371 491T393 496Q405 496 414 491T426 473L527 100L699 714Q702 723 709 727T726 731Q736
731 744 728T758 719T764 704Q764 700 763 696L567 18Q563 6 552 0T527 -6Q514 -6 503 0T488 18L393 371L298 18Q295 6 284 0T258 -6Z" />
<glyph unicode="X" horiz-adv-x="483" d="M63 -1Q54 -1 45 3T29 15T23 31Q23 38 28 47L200 366L31 683Q25 695 25 704Q25 713 30 719T44 729T63 733Q76 733 84 722T98 699L241 424L385 699Q391 711 399 722T420 733Q430 733 438 730T452 720T458 704Q458 695 452
683L282 366L455 47Q460 38 460 31Q460 22 454 15T439 4T420 -1Q410 -1 402 9T389 30L241 310L94 30Q89 20 82 10T63 -1Z" />
<glyph unicode="Y" horiz-adv-x="529" d="M264 0Q252 0 242 6T231 26V280Q231 285 230 288L23 685Q20 691 19 695T18 703Q18 712 23 718T37 727T54 731Q62 731 68 726T80 711L264 346L449 711Q455 721 461 726T475 731Q484 731 492 728T505 718T511 703Q511 700
510 696T507 685L299 288Q297 285 297 280V26Q297 13 287 7T264 0Z" />
<glyph unicode="Z" horiz-adv-x="482" d="M47 0Q36 0 30 6T23 23Q23 34 29 46L362 670H60Q48 670 42 679T35 701Q35 712 41 721T60 731H423Q436 731 442 725T448 710Q448 698 440 684L108 61H435Q448 61 454 52T460 31Q460 19 454 10T435 0H47Z" />
<glyph unicode="[" horiz-adv-x="303" d="M99 -21Q87 -21 78 -14T68 4V743Q68 755 77 761T99 768H260Q271 768 277 759T284 739Q284 726 278 717T260 708H134V39H260Q271 39 277 31T284 9Q284 -3 278 -12T260 -21H99Z" />
<glyph unicode="\" horiz-adv-x="351" d="M299 0Q291 0 284 4T275 17L27 718Q26 722 26 727Q26 739 34 746T54 754Q61 754 67 751T75 740L324 33Q326 31 326 29T326 25Q326 14 318 7T299 0Z" />
<glyph unicode="]" horiz-adv-x="303" d="M43 -21Q32 -21 26 -12T19 9Q19 22 25 30T43 39H169V708H43Q32 708 26 717T19 739Q19 750 25 759T43 768H204Q217 768 226 762T235 743V4Q235 -7 226 -14T204 -21H43Z" />
<glyph unicode="^" horiz-adv-x="268" d="M21 592Q13 592 7 600T0 618Q0 624 3 630T13 640L117 696Q126 701 134 701Q143 701 151 696L255 640Q262 637 265 631T268 617Q268 607 262 600T248 593Q246 593 243 594T238 596L134 651L30 595Q28 594 26 593T21 592Z" />
<glyph unicode="_" horiz-adv-x="335" d="M8 -58Q-2 -58 -9 -50T-16 -29Q-16 -17 -9 -9T8 0H328Q338 0 346 -8T354 -29Q354 -42 346 -50T328 -58H8Z" />
<glyph unicode="`" horiz-adv-x="155" d="M129 591Q127 591 124 592T119 594L13 651Q0 658 0 673Q0 683 7 692T24 701Q28 701 33 698L144 637Q155 632 155 619Q155 609 148 600T129 591Z" />
<glyph unicode="a" horiz-adv-x="438" d="M167 -7Q111 -7 71 25T31 125Q31 180 60 209T142 250T264 262H315V286Q315 318 304 349T267 401T197 422Q164 422 143 415T110 401T90 393Q78 393 71 405T64 428Q64 441 84 452T136 471T199 479Q266 479 305 452T362 380T380
286V26Q380 15 372 8T348 0Q336 0 327 7T318 26V70Q292 41 255 17T167 -7ZM183 48Q216 48 246 65T295 106T315 153V217H273Q228 217 188 212T122 188T96 131Q96 88 121 68T183 48Z" />
<glyph unicode="b" horiz-adv-x="484" d="M263 -7Q216 -7 179 16T126 70V26Q126 16 117 8T95 0Q82 0 73 8T63 26V739Q63 750 72 756T95 763Q109 763 118 757T128 739V403Q145 432 178 455T261 479Q310 479 350 454T415 386T440 292V183Q440 134 416 90T351 20T263
-7ZM251 53Q285 53 313 71T358 120T375 183V292Q375 324 358 353T313 400T250 419Q220 419 192 404T146 360T128 292V152Q128 137 144 114T189 72T251 53Z" />
<glyph unicode="c" horiz-adv-x="412" d="M240 -7Q174 -7 131 18T67 86T46 183V290Q46 343 66 386T130 454T240 479Q282 479 313 469T362 443T380 414Q380 408 377 401T367 388T352 382Q343 382 332 391T300 410T243 419Q178 419 145 385T111 290V183Q111 122
144 88T244 53Q282 53 303 62T335 81T357 91Q366 91 372 86T382 74T386 59Q386 46 368 31T318 4T240 -7Z" />
<glyph unicode="d" horiz-adv-x="484" d="M222 -7Q175 -7 134 19T69 90T45 183V292Q45 344 69 386T134 453T224 479Q273 479 306 456T356 403V739Q356 750 366 756T389 763Q404 763 412 757T421 739V26Q421 16 413 8T389 0Q377 0 368 8T359 26V70Q343 39 306 16T222
-7ZM233 53Q269 53 296 71T340 113T356 152V292Q356 332 338 360T292 403T234 419Q200 419 172 401T127 353T110 292V183Q110 150 127 120T172 72T233 53Z" />
<glyph unicode="e" horiz-adv-x="458" d="M260 -7Q197 -7 149 17T73 83T45 183V295Q45 345 71 387T140 454T236 479Q286 479 328 456T397 391T423 297Q423 258 410 242T378 221T336 217H110V180Q110 120 153 85T262 50Q302 50 324 60T358 80T382 90Q390 90 396
85T406 72T410 59Q410 48 392 32T340 5T260 -7ZM110 265H310Q340 265 350 271T360 299Q360 331 345 360T301 407T235 425Q201 425 173 409T127 365T110 303V265Z" />
<glyph unicode="f" horiz-adv-x="305" d="M94 0Q81 0 72 7T63 25V579Q63 630 87 671T152 738T241 763H266Q280 763 287 754T294 733Q294 722 287 713T266 704H249Q215 704 188 688T145 644T128 584V473H271Q282 473 288 465T294 447Q294 436 288 428T271 419H128V25Q128
14 118 7T94 0Z" />
<glyph unicode="g" horiz-adv-x="454" d="M230 -232Q171 -232 126 -216T54 -170T27 -99Q27 -55 53 -29T112 10Q88 19 73 34T57 79Q57 107 71 123T107 151Q80 173 66 205T52 277V315Q52 363 73 400T133 458T224 479Q259 479 289 468T341 437Q356 468 375 484T412
500Q427 500 434 492T442 474Q442 465 437 460T425 452Q413 450 398 441T369 409Q383 390 390 366T397 315V277Q397 230 375 192T314 133T223 111Q180 111 146 128Q135 122 125 114T115 89Q115 67 138 57T196 43T270 35T345 18T403 -19T426 -90Q426 -137 401 -168T331
-216T230 -232ZM229 -183Q292 -183 327 -158T363 -92Q363 -60 344 -44T295 -20T234 -10T179 -4Q144 -15 117 -36T90 -93Q90 -133 127 -158T229 -183ZM225 160Q276 160 304 193T333 277V315Q333 364 305 397T224 430Q172 430 144 397T115 315V278Q115 228 144 194T225
160Z" />
<glyph unicode="h" horiz-adv-x="495" d="M95 0Q82 0 73 8T63 26V739Q63 750 72 756T95 763Q109 763 118 757T128 739V403Q145 432 178 455T260 479Q308 479 348 454T413 386T437 292V26Q437 13 427 7T404 0Q393 0 383 6T372 26V292Q372 324 355 353T310 400T248
419Q218 419 191 404T146 360T128 292V26Q128 16 119 8T95 0Z" />
<glyph unicode="i" horiz-adv-x="189" d="M95 613Q77 613 64 625T51 655Q51 672 64 684T95 696Q113 696 126 684T139 655Q139 638 126 626T95 613ZM94 0Q81 0 72 8T62 26V449Q62 460 71 466T94 473Q108 473 117 467T127 449V26Q127 16 118 8T94 0Z" />
<glyph unicode="j" horiz-adv-x="191" d="M-3 -232Q-21 -232 -29 -223T-37 -203Q-37 -189 -29 -181T-9 -173Q23 -173 38 -156T58 -110T63 -43V449Q63 460 72 466T95 473Q109 473 118 467T128 449V-43Q128 -98 115 -141T73 -208T-3 -232ZM95 613Q77 613 64 625T51
655Q51 672 64 684T95 696Q113 696 126 684T139 655Q139 638 126 626T95 613Z" />
<glyph unicode="k" horiz-adv-x="455" d="M95 0Q82 0 73 8T63 26V739Q63 750 72 756T95 763Q109 763 118 757T128 739V252L372 469Q380 475 387 475Q395 475 402 471T415 460T420 444Q420 439 419 435T413 426L266 297L439 44Q443 38 443 30Q443 23 438 15T425
3T408 -2Q396 -2 388 9L220 256L128 175V26Q128 16 119 8T95 0Z" />
<glyph unicode="l" horiz-adv-x="208" d="M103 0Q90 0 81 8T71 26V739Q71 750 80 756T103 763Q117 763 126 757T136 739V26Q136 16 127 8T103 0Z" />
<glyph unicode="m" horiz-adv-x="779" d="M94 0Q81 0 72 8T62 26V449Q62 460 71 466T94 473Q107 473 116 467T125 449V403Q142 432 175 455T258 479Q308 479 345 451T400 379Q426 430 467 454T552 479Q595 479 633 457T696 394T720 292V26Q720 16 711 8T687 0Q674
0 665 8T655 26V292Q655 334 638 362T595 404T541 419Q512 419 486 404T442 362T424 296V25Q424 12 414 6T391 0Q380 0 370 6T359 25V295Q359 331 344 359T302 403T245 419Q216 419 189 404T145 361T127 292V26Q127 16 118 8T94 0Z" />
<glyph unicode="n" horiz-adv-x="494" d="M94 0Q81 0 72 8T62 26V449Q62 460 71 466T94 473Q107 473 116 467T125 449V403Q141 432 175 455T259 479Q307 479 347 454T412 386T436 292V26Q436 13 426 7T403 0Q392 0 382 6T371 26V292Q371 324 354 353T309 400T247
419Q217 419 190 404T145 360T127 292V26Q127 16 118 8T94 0Z" />
<glyph unicode="o" horiz-adv-x="469" d="M234 -7Q183 -7 140 19T71 89T44 183V292Q44 342 70 384T139 453T234 479Q285 479 328 454T398 386T424 292V183Q424 134 398 90T329 20T234 -7ZM234 53Q269 53 297 71T342 120T359 183V292Q359 324 343 353T298 400T234
419Q199 419 171 401T126 353T109 292V183Q109 150 126 120T171 72T234 53Z" />
<glyph unicode="p" horiz-adv-x="484" d="M95 -232Q82 -232 73 -224T63 -206V449Q63 460 72 466T95 473Q108 473 117 467T126 449V403Q143 432 177 455T260 479Q310 479 350 454T415 386T440 292V183Q440 134 416 90T351 20T263 -7Q217 -7 181 16T128 70V-206Q128
-216 119 -224T95 -232ZM251 53Q284 53 312 71T357 120T375 183V292Q375 324 358 353T313 400T249 419Q219 419 192 404T146 360T128 292V152Q128 137 144 114T188 72T251 53Z" />
<glyph unicode="q" horiz-adv-x="484" d="M389 -232Q376 -232 366 -224T356 -206V70Q341 39 304 16T222 -7Q175 -7 134 19T69 90T45 183V292Q45 344 69 386T134 453T224 479Q274 479 308 456T359 403V449Q359 460 368 466T390 473Q404 473 412 467T421 449V-206Q421
-216 413 -224T389 -232ZM234 53Q269 53 296 71T340 113T356 152V292Q356 332 339 360T293 403T235 419Q201 419 173 401T127 353T110 292V183Q110 150 127 120T172 72T234 53Z" />
<glyph unicode="r" horiz-adv-x="330" d="M94 0Q81 0 72 8T62 26V449Q62 460 71 466T94 473Q107 473 116 467T125 449V400Q136 420 155 438T200 467T259 479H294Q305 479 312 471T320 449Q320 437 313 428T294 419H259Q226 419 196 402T146 352T127 273V26Q127
16 118 8T94 0Z" />
<glyph unicode="s" horiz-adv-x="387" d="M191 -7Q144 -7 109 5T54 33T34 65Q34 72 37 78T45 90T57 95Q68 95 81 84T119 60T189 48Q246 48 269 69T292 119Q292 152 275 170T229 199T169 218T109 240T63 278T45 343Q45 375 61 406T111 458T203 479Q236 479 267
472T317 454T337 430Q337 425 334 417T324 403T310 396Q302 396 289 403T254 417T204 424Q168 424 146 411T114 381T104 346Q104 317 122 302T168 278T228 260T288 236T334 194T352 122Q352 63 310 28T191 -7Z" />
<glyph unicode="t" horiz-adv-x="295" d="M219 0Q142 0 101 35T60 147V674Q60 685 70 691T92 698Q105 698 115 692T125 674V473H255Q265 473 271 465T277 446Q277 435 271 427T255 419H125V147Q125 98 146 79T219 59H247Q261 59 268 51T276 30Q276 18 269 9T247 0H219Z" />
<glyph unicode="u" horiz-adv-x="496" d="M249 -7Q196 -7 153 19T84 88T58 181V448Q58 457 68 465T91 473Q104 473 113 465T123 448V181Q123 148 140 119T185 72T248 53Q284 53 312 71T356 118T373 181V449Q373 459 383 466T406 473Q421 473 429 466T438 449V181Q438
130 413 88T344 19T249 -7Z" />
<glyph unicode="v" horiz-adv-x="420" d="M210 -8Q199 -8 191 -4T180 8L19 430Q18 432 17 437T15 445Q15 453 21 460T36 471T54 475Q62 475 68 472T78 460L210 100L342 456Q344 464 349 469T365 475Q373 475 382 471T398 461T405 446Q405 441 404 437T401 430L240
8Q237 1 229 -3T210 -8Z" />
<glyph unicode="w" horiz-adv-x="666" d="M202 -8Q192 -8 186 -4T175 12L19 431Q18 434 17 438T15 446Q15 454 21 460T36 471T54 475Q61 475 68 471T77 460L205 104L308 429Q311 438 317 442T334 446Q343 446 350 442T360 429L459 100L590 460Q594 475 612 475Q621
475 630 472T645 462T651 446Q651 443 650 438T647 431L491 8Q488 -1 481 -4T465 -8Q455 -8 449 -4T438 7L334 332L231 12Q228 2 220 -3T202 -8Z" />
<glyph unicode="x" horiz-adv-x="409" d="M63 -7Q56 -7 47 -2T32 10T25 25Q25 33 29 39L162 239L32 433Q31 436 29 439T27 446Q27 454 33 461T49 474T67 479Q72 479 77 477T87 469L205 286L324 469Q327 474 332 476T343 479Q352 479 361 475T376 463T383 446Q383
440 378 433L247 239L381 39Q383 37 384 33T385 25Q385 18 379 11T364 -2T346 -7Q341 -7 336 -5T327 3L205 190L84 3Q80 -2 75 -4T63 -7Z" />
<glyph unicode="y" horiz-adv-x="420" d="M45 -232Q32 -232 24 -226T15 -203Q15 -191 19 -182T35 -173Q59 -173 81 -158T122 -116T156 -54T180 20L17 439Q14 444 14 448Q14 457 20 464T36 475T54 479Q62 479 68 476T77 465L214 97L343 465Q346 472 352 475T365
479Q373 479 382 475T398 464T405 447Q405 442 403 439L248 19Q233 -21 216 -65T177 -146T122 -208T45 -232Z" />
<glyph unicode="z" horiz-adv-x="401" d="M50 0Q38 0 31 8T24 26Q24 32 27 39T34 51L278 416H58Q48 416 41 424T33 444Q33 456 40 464T58 473H340Q351 473 358 466T366 447Q366 435 357 423L112 58H353Q364 58 371 50T378 28Q378 17 371 9T353 0H50Z" />
<glyph unicode="{" horiz-adv-x="309" d="M256 -20Q206 -20 164 -1T96 53T70 133Q70 143 72 164T77 212T83 265T88 310T90 336Q90 349 81 352T60 356T39 363T30 385Q30 400 39 405T60 412T81 417T90 434Q90 441 87 463T80 514T73 567T70 604Q70 636 85 665T126
718T185 754T256 768Q275 768 283 759T291 738Q291 728 285 719T266 709Q232 709 202 694T154 654T136 596Q136 585 139 561T146 509T153 459T156 429Q156 411 143 399T121 384Q131 381 143 370T156 340Q156 331 153 304T146 242T139 179T136 136Q136 108 150 89T185
59T228 44T266 39Q276 39 281 34T289 23T291 10Q291 -4 281 -12T256 -20Z" />
<glyph unicode="|" horiz-adv-x="202" d="M101 -21Q87 -21 78 -14T68 4V744Q68 754 77 761T101 768Q114 768 124 761T134 744V4Q134 -6 124 -13T101 -21Z" />
<glyph unicode="}" horiz-adv-x="309" d="M53 -20Q38 -20 28 -12T18 10Q18 16 20 22T27 34T43 39Q59 39 81 43T124 59T159 89T173 136Q173 149 170 178T163 242T156 303T153 340Q153 358 165 369T188 384Q178 386 166 398T153 429Q153 436 156 458T163 509T170
561T173 596Q173 628 155 653T107 694T43 709Q31 709 25 718T18 738Q18 750 26 759T53 768Q90 768 123 755T183 718T224 666T239 604Q239 592 236 567T229 514T222 464T219 434Q219 421 228 418T249 413T270 406T279 385Q279 369 270 364T249 357T228 352T219 336Q219
329 221 310T226 265T232 213T237 165T239 133Q239 88 213 53T145 -1T53 -20Z" />
<glyph unicode="~" horiz-adv-x="403" d="M273 215Q246 215 226 224T186 241T139 250Q118 250 105 242T83 226T66 218Q60 218 56 222T49 232T47 243Q47 258 56 268T79 285T108 297T135 301Q161 301 181 293T221 275T267 266Q289 266 301 273T320 288T337 295Q344
295 348 291T354 282T357 272Q357 256 348 246T326 228T298 218T273 215Z" />
<glyph unicode="&#xa0;" horiz-adv-x="200" />
<glyph unicode="&#xa1;" horiz-adv-x="202" d="M101 -6Q85 -6 74 4T63 33Q63 115 66 203T72 380T75 550Q75 562 83 567T101 573Q110 573 118 568T127 550Q127 468 130 380T136 204T139 33Q139 14 128 4T101 -6ZM101 651Q81 651 68 665T55 698Q55 716 68 730T101
744Q120 744 133 730T147 698Q147 679 134 665T101 651Z" />
<glyph unicode="&#xa2;" horiz-adv-x="417" d="M216 40Q206 40 199 47T192 63V171Q113 181 75 233T37 358V377Q37 425 53 464T103 530T192 564V672Q192 681 199 687T216 694Q225 694 232 688T240 672V565Q277 564 308 555T357 532T375 502Q375 495 371 488T361
476T346 471Q337 471 327 480T296 497T240 507V228Q277 229 296 238T326 256T346 265Q359 265 368 255T377 234Q377 218 357 204T306 180T240 169V63Q240 54 233 47T216 40ZM192 230V505Q143 495 120 462T97 377V358Q97 306 120 273T192 230Z" />
<glyph unicode="&#xa3;" horiz-adv-x="487" d="M49 0Q36 0 30 9T24 31Q24 42 30 51T49 61H108L151 367H75Q65 367 59 375T52 393Q52 404 58 412T75 421H159L181 579Q189 631 221 674T300 742T401 768H420Q434 768 441 759T448 738Q448 727 441 718T420 708H396Q357
708 325 690T272 643T246 579L224 421H373Q383 421 388 413T394 393Q394 384 389 376T373 367H216L172 61H425Q436 61 442 52T448 31Q448 19 442 10T425 0H49Z" />
<glyph unicode="&#xa4;" horiz-adv-x="477" d="M240 290Q207 290 178 302T125 335L95 305Q89 300 82 300Q74 300 68 306T62 321Q62 328 67 333L99 365Q82 387 73 414T63 472Q63 501 72 529T98 579L72 605Q67 610 67 618Q67 627 73 633T88 639Q95 639 101 634L125
609Q148 629 177 640T240 652Q270 652 298 642T349 612L376 639Q382 644 390 644Q398 644 404 638T410 623Q410 616 405 610L377 583Q396 561 407 533T418 472Q418 441 407 413T377 361L405 333Q410 326 410 321Q410 314 404 307T390 300Q382 300 377 305L349 332Q326
313 298 302T240 290ZM240 339Q276 339 305 358T351 407T369 472Q369 505 352 535T306 584T240 603Q204 603 175 585T128 536T111 472Q111 438 128 408T174 358T240 339Z" />
<glyph unicode="&#xa5;" horiz-adv-x="506" d="M251 0Q238 0 228 7T218 25V184H104Q94 184 87 191T80 209Q80 221 87 229T104 237H218V310H104Q94 310 87 317T80 336Q80 348 87 355T104 363H202L28 694Q27 697 26 699T25 704Q25 711 30 717T45 728T62 733Q70 733
75 729T86 716L251 394L423 716Q427 724 432 728T446 733Q455 733 463 729T476 719T482 704Q482 698 480 694L298 363H402Q412 363 419 356T427 336Q427 325 420 318T402 310H283V237H402Q412 237 419 229T427 210Q427 199 420 192T402 184H283V25Q283 14 274 7T251
0Z" />
<glyph unicode="&#xa6;" horiz-adv-x="203" d="M102 447Q88 447 79 454T69 472V744Q69 754 78 761T102 768Q115 768 125 761T135 744V472Q135 462 125 455T102 447ZM102 -21Q88 -21 79 -14T69 4V276Q69 286 78 293T102 300Q115 300 125 293T135 276V4Q135 -6 125
-13T102 -21Z" />
<glyph unicode="&#xa7;" horiz-adv-x="467" d="M232 -67Q175 -67 134 -44T71 17T49 99Q49 116 57 122T79 129Q95 129 101 122T108 105Q108 91 113 72T130 34T166 4T225 -8Q286 -8 317 23T349 112Q349 148 334 169T293 204T237 228T175 251T119 283T78 334T62 416V540Q62
598 78 635T121 693T177 722T235 731Q289 731 325 710T379 652T397 570Q397 552 389 546T368 539Q353 539 346 546T338 570Q338 589 330 613T301 655T238 673Q210 673 184 661T142 622T125 548Q125 513 140 491T182 456T239 432T301 409T358 377T399 326T415 245V123Q415
71 401 35T360 -23T300 -56T232 -67ZM357 220V249Q357 291 340 316T294 355T234 379T172 402T121 437V409Q121 367 138 342T184 303T244 278T307 255T357 220Z" />
<glyph unicode="&#xa8;" horiz-adv-x="196" d="M160 593Q145 593 134 604T123 630Q123 646 134 656T160 666Q176 666 186 656T196 630Q196 615 186 604T160 593ZM37 593Q21 593 11 604T0 630Q0 646 10 656T37 666Q52 666 62 656T73 630Q73 615 63 604T37 593Z" />
<glyph unicode="&#xa9;" horiz-adv-x="716" d="M355 35Q302 35 249 55T150 115T78 216T51 358Q51 442 79 503T154 605T254 665T361 685Q414 685 467 665T566 605T638 504T665 362Q665 278 637 217T562 115T462 55T355 35ZM355 79Q433 79 493 115T587 215T621 362Q621
444 589 507T499 605T361 641Q284 641 224 606T129 506T95 358Q95 278 127 214T218 115T355 79ZM358 169Q316 169 285 196T254 288V446Q254 511 285 538T359 565Q408 565 436 538T465 470Q465 454 460 449T442 443Q431 443 425 447T418 460Q418 471 414 485T398
511T361 522Q302 522 302 446V288Q302 212 361 212Q386 212 397 223T413 249T418 276Q419 285 425 289T441 293Q454 293 459 288T465 267Q465 225 437 197T358 169Z" />
<glyph unicode="&#xaa;" horiz-adv-x="314" d="M132 433Q126 432 119 432T106 433Q76 437 56 456T35 515Q35 567 76 585T183 604H213V617Q213 645 198 670T144 696Q122 696 109 692T89 682T75 677Q65 677 60 686T55 704Q55 714 69 722T104 735T145 740Q189 740
215 723T253 677T265 617V455Q265 447 258 442T240 436Q230 436 223 441T216 455V480Q201 463 181 450T132 433ZM136 473Q155 473 172 483T201 508T213 538V571H186Q160 571 138 568T101 554T87 520Q87 495 101 484T136 473Z" />
<glyph unicode="&#xab;" horiz-adv-x="405" d="M329 74Q313 74 307 86L218 250Q214 258 211 264T207 277Q207 284 210 290T218 305L307 469Q313 481 330 481Q340 481 348 476T362 464T367 449Q367 444 364 438L277 277L364 117Q367 112 367 106Q367 99 362 92T348
79T329 74ZM157 74Q141 74 135 86L46 250Q42 258 39 264T35 277Q35 284 38 290T46 305L135 469Q141 481 158 481Q168 481 176 476T190 464T195 449Q195 444 192 438L105 277L192 117Q195 112 195 106Q195 99 190 92T176 79T157 74Z" />
<glyph unicode="&#xac;" horiz-adv-x="485" d="M388 163Q374 163 365 170T355 188V312H77Q66 312 59 320T52 340Q52 353 59 361T77 370H395Q404 370 412 362T420 340V188Q420 178 411 171T388 163Z" />
<glyph unicode="&#xad;" horiz-adv-x="460" d="M70 212Q59 212 52 220T45 240Q45 253 52 261T70 270H390Q400 270 407 262T415 240Q415 228 408 220T390 212H70Z" />
<glyph unicode="&#xae;" horiz-adv-x="716" d="M355 35Q302 35 249 55T150 115T78 216T51 358Q51 442 79 503T154 605T254 665T361 685Q414 685 467 665T566 605T638 504T665 362Q665 278 637 217T562 115T462 55T355 35ZM355 79Q433 79 493 115T587 215T621 362Q621
444 589 507T499 605T361 641Q284 641 224 606T129 506T95 358Q95 278 127 214T218 115T355 79ZM448 171Q442 171 438 176T429 190L359 343H309V189Q309 181 303 177T287 172Q278 172 271 176T263 189V543Q263 549 267 554T279 560H367Q397 560 420 550T459 517T474
453Q474 405 455 381T406 349L472 203Q474 198 474 196Q474 187 466 179T448 171ZM309 382H368Q395 382 411 398T428 449Q428 487 412 502T368 518H309V382Z" />
<glyph unicode="&#xaf;" horiz-adv-x="0" d="M25 635Q14 635 7 642T0 660Q0 672 7 679T25 686H240Q249 686 257 679T265 660Q265 650 257 643T240 635H25Z" />
<glyph unicode="&#xb0;" horiz-adv-x="419" d="M209 406Q162 406 122 431T57 498T32 588Q32 636 56 677T120 743T209 768Q257 768 297 744T362 679T387 588Q387 541 363 499T298 432T209 406ZM209 455Q245 455 274 474T321 523T339 588Q339 621 322 651T275 700T209
719Q173 719 144 700T98 652T81 588Q81 554 98 524T144 474T209 455Z" />
<glyph unicode="&#xb1;" horiz-adv-x="476" d="M239 171Q227 171 218 178T209 195V324H78Q67 324 60 332T53 353Q53 365 60 373T78 382H209V510Q209 520 218 528T239 536Q252 536 259 528T267 510V382H398Q407 382 415 374T423 353Q423 340 415 332T398 324H267V195Q267
185 260 178T239 171ZM78 57Q67 57 60 65T53 85Q53 98 60 106T78 115H398Q407 115 415 107T423 85Q423 73 415 65T398 57H78Z" />
<glyph unicode="&#xb2;" horiz-adv-x="306" d="M56 354Q49 354 41 359T33 372V421Q33 447 52 467T99 506T155 543T203 582T222 627Q222 648 206 666T153 685Q127 685 109 672T91 631Q91 625 84 619T64 613Q54 613 48 619T41 640Q41 668 56 688T97 719T154 731Q187
731 213 718T256 682T272 629Q272 596 253 571T207 527T151 490T103 457T84 423V399H258Q265 399 270 393T275 377Q275 369 270 362T258 354H56Z" />
<glyph unicode="&#xb3;" horiz-adv-x="314" d="M152 351Q110 351 83 365T42 400T29 441Q29 454 35 458T53 462Q69 462 74 458T79 444Q79 433 86 422T109 404T152 396Q189 396 208 412T227 463V472Q227 505 207 518T152 531Q143 531 139 537T134 551Q134 559 138
565T152 572Q182 572 199 583T216 630Q216 660 201 673T154 687Q128 687 114 680T95 663T89 642Q89 632 84 627T65 621Q49 621 44 626T39 645Q39 661 48 681T83 716T155 731Q203 731 234 711T265 640Q265 607 253 585T219 553Q244 544 260 525T277 472V463Q277
423 260 398T215 362T152 351Z" />
<glyph unicode="&#xb4;" horiz-adv-x="155" d="M26 591Q16 591 8 600T0 619Q0 632 11 637L123 698Q128 701 131 701Q142 701 148 692T155 673Q155 658 143 651L36 594Q34 593 31 592T26 591Z" />
<glyph unicode="&#xb5;" horiz-adv-x="490" d="M102 -232Q89 -232 80 -225T71 -207V448Q71 457 80 465T103 473Q117 473 126 465T136 448V163Q136 147 146 128T174 92T214 64T262 53Q294 53 321 71T365 119T381 181V448Q381 459 391 466T413 473Q427 473 436 466T446
448V181Q446 130 422 87T355 19T260 -7Q217 -7 183 12T131 57V-207Q131 -217 123 -224T102 -232Z" />
<glyph unicode="&#xb6;" horiz-adv-x="527" d="M296 0Q286 0 279 6T271 26V306H230Q175 306 131 326T60 392T34 513V525Q34 600 60 645T130 710T230 731H425Q434 731 442 725T450 706V25Q450 12 442 6T425 0Q415 0 407 6T399 25V688H322V26Q322 13 314 7T296 0Z" />
<glyph unicode="&#xb7;" horiz-adv-x="185" d="M94 255Q73 255 60 269T46 300Q46 319 59 332T94 345Q113 345 126 332T140 300Q140 283 127 269T94 255Z" />
<glyph unicode="&#xb8;" horiz-adv-x="167" d="M78 -210Q64 -210 46 -207T14 -199T0 -184Q0 -181 2 -175T7 -165T16 -160Q22 -160 34 -166T72 -173Q101 -173 113 -162T125 -135Q125 -114 108 -105T62 -93L24 -90L50 9H90L71 -60Q122 -62 144 -83T167 -133Q167
-150 158 -168T128 -198T78 -210Z" />
<glyph unicode="&#xb9;" horiz-adv-x="169" d="M94 354Q84 354 77 358T69 372V662L47 637Q42 632 36 632Q28 632 23 638T18 652Q18 658 21 663T27 671L82 726Q88 732 97 732Q105 732 112 727T119 714V372Q119 363 111 359T94 354Z" />
<glyph unicode="&#xba;" horiz-adv-x="327" d="M163 431Q130 431 102 448T56 494T39 554V619Q39 651 55 679T100 723T164 740Q197 740 225 724T271 680T289 619V554Q289 522 272 494T226 449T163 431ZM164 478Q194 478 215 501T237 554V619Q237 647 216 670T163
693Q132 693 112 670T91 619V554Q91 525 112 502T164 478Z" />
<glyph unicode="&#xbb;" horiz-adv-x="405" d="M249 74Q239 74 230 79T216 91T211 106Q211 112 214 117L300 277L214 438Q211 444 211 449Q211 456 215 463T229 476T247 481Q265 481 270 469L359 305Q364 296 367 290T370 277Q370 271 367 265T359 250L270 86Q264
74 249 74ZM77 74Q67 74 58 79T44 91T39 106Q39 112 42 117L128 277L42 438Q39 444 39 449Q39 456 43 463T57 476T75 481Q93 481 98 469L187 305Q192 296 195 290T198 277Q198 271 195 265T187 250L98 86Q92 74 77 74Z" />
<glyph unicode="&#xbc;" horiz-adv-x="603" d="M94 354Q84 354 77 358T69 372V662L47 637Q42 632 36 632Q28 632 23 638T18 652Q18 658 21 663T27 671L82 726Q88 732 97 732Q105 732 112 727T119 714V372Q119 363 111 359T94 354ZM55 -26Q45 -26 37 -19T29 -2Q29
5 32 10L413 757Q419 769 433 769Q443 769 452 762T462 742Q462 735 458 729L79 -12Q76 -19 70 -22T55 -26ZM515 0Q505 0 498 4T490 17V86H347Q340 86 335 91T329 105Q329 108 332 115L472 362Q476 370 482 373T495 377Q502 377 511 372T520 357Q520 353 518 349L394
133H490V210Q490 218 497 222T515 226Q525 226 532 222T540 210V133H570Q579 133 583 126T588 109Q588 100 583 93T570 86H540V17Q540 8 533 4T515 0Z" />
<glyph unicode="&#xbd;" horiz-adv-x="622" d="M94 354Q84 354 77 358T69 372V662L47 637Q42 632 36 632Q28 632 23 638T18 652Q18 658 21 663T27 671L82 726Q88 732 97 732Q105 732 112 727T119 714V372Q119 363 111 359T94 354ZM55 -26Q45 -26 37 -19T29 -2Q29
5 32 10L413 757Q419 769 433 769Q443 769 452 762T462 742Q462 735 458 729L79 -12Q76 -19 70 -22T55 -26ZM372 0Q365 0 357 5T349 17V67Q349 92 368 112T415 152T471 189T519 228T538 273Q538 294 522 312T469 330Q443 330 425 318T407 277Q407 271 400 265T380
258Q370 258 364 264T357 286Q357 314 372 334T413 365T470 377Q503 377 529 364T572 328T588 275Q588 242 569 217T523 172T467 136T419 103T400 69V45H574Q581 45 586 39T591 23Q591 14 586 7T574 0H372Z" />
<glyph unicode="&#xbe;" horiz-adv-x="748" d="M152 351Q110 351 83 365T42 400T29 441Q29 454 35 458T53 462Q69 462 74 458T79 444Q79 433 86 422T109 404T152 396Q189 396 208 412T227 463V472Q227 505 207 518T152 531Q143 531 139 537T134 551Q134 559 138
565T152 572Q182 572 199 583T216 630Q216 660 201 673T154 687Q128 687 114 680T95 663T89 642Q89 632 84 627T65 621Q49 621 44 626T39 645Q39 661 48 681T83 716T155 731Q203 731 234 711T265 640Q265 607 253 585T219 553Q244 544 260 525T277 472V463Q277
423 260 398T215 362T152 351ZM200 -26Q190 -26 182 -19T174 -2Q174 5 177 10L558 757Q564 769 578 769Q588 769 597 762T607 742Q607 735 603 729L224 -12Q221 -19 215 -22T200 -26ZM660 0Q650 0 643 4T635 17V86H492Q485 86 480 91T474 105Q474 108 477 115L617
362Q621 370 627 373T640 377Q647 377 656 372T665 357Q665 353 663 349L539 133H635V210Q635 218 642 222T660 226Q670 226 677 222T685 210V133H715Q724 133 728 126T733 109Q733 100 728 93T715 86H685V17Q685 8 678 4T660 0Z" />
<glyph unicode="&#xbf;" horiz-adv-x="400" d="M223 -6Q161 -6 119 18T56 82T34 172Q34 219 49 254T87 315T132 362T168 398Q185 417 192 437T200 485T202 550Q202 561 209 567T230 573Q242 573 249 567T256 544Q256 488 251 455T236 403T213 370Q198 353 178
335T137 295T105 245T92 177Q92 117 126 83T227 49Q260 49 280 56T313 73T333 90T351 98Q360 98 368 91T377 71Q377 55 357 38T302 7T223 -6ZM229 651Q211 651 198 665T184 698Q184 716 197 730T229 744Q249 744 262 730T275 698Q275 679 262 665T229 651Z" />
<glyph unicode="&#xc0;" horiz-adv-x="538" d="M58 0Q50 0 41 3T26 13T20 28Q20 32 21 35L230 714Q234 726 245 731T269 737Q283 737 294 731T309 714L517 35Q518 32 518 29Q518 21 512 15T497 4T478 0Q470 0 463 4T454 17L407 171H131L85 17Q82 8 75 4T58 0ZM147
228H390L269 631L147 228ZM314 845Q312 845 309 846T304 848L198 905Q185 912 185 927Q185 937 192 946T209 955Q213 955 218 952L329 891Q340 886 340 873Q340 863 333 854T314 845Z" />
<glyph unicode="&#xc1;" horiz-adv-x="538" d="M58 0Q50 0 41 3T26 13T20 28Q20 32 21 35L230 714Q234 726 245 731T269 737Q283 737 294 731T309 714L517 35Q518 32 518 29Q518 21 512 15T497 4T478 0Q470 0 463 4T454 17L407 171H131L85 17Q82 8 75 4T58 0ZM147
228H390L269 631L147 228ZM226 845Q216 845 208 854T200 873Q200 886 211 891L323 952Q328 955 331 955Q342 955 348 946T355 927Q355 912 343 905L236 848Q234 847 231 846T226 845Z" />
<glyph unicode="&#xc2;" horiz-adv-x="538" d="M58 0Q50 0 41 3T26 13T20 28Q20 32 21 35L230 714Q234 726 245 731T269 737Q283 737 294 731T309 714L517 35Q518 32 518 29Q518 21 512 15T497 4T478 0Q470 0 463 4T454 17L407 171H131L85 17Q82 8 75 4T58 0ZM147
228H390L269 631L147 228ZM157 846Q149 846 143 854T136 872Q136 878 139 884T149 894L253 950Q262 955 270 955Q279 955 287 950L391 894Q398 891 401 885T404 871Q404 861 398 854T384 847Q382 847 379 848T374 850L270 905L166 849Q164 848 162 847T157 846Z"
/>
<glyph unicode="&#xc3;" horiz-adv-x="538" d="M58 0Q50 0 41 3T26 13T20 28Q20 32 21 35L230 714Q234 726 245 731T269 737Q283 737 294 731T309 714L517 35Q518 32 518 29Q518 21 512 15T497 4T478 0Q470 0 463 4T454 17L407 171H131L85 17Q82 8 75 4T58 0ZM147
228H390L269 631L147 228ZM340 863Q313 863 293 872T254 889T207 898Q186 898 173 890T151 874T133 866Q127 866 123 870T117 880T114 891Q114 905 123 915T146 933T175 944T202 948Q229 948 248 940T288 923T334 914Q356 914 368 921T387 936T404 943Q411 943
415 939T422 930T424 920Q424 904 415 894T393 876T365 866T340 863Z" />
<glyph unicode="&#xc4;" horiz-adv-x="538" d="M58 0Q50 0 41 3T26 13T20 28Q20 32 21 35L230 714Q234 726 245 731T269 737Q283 737 294 731T309 714L517 35Q518 32 518 29Q518 21 512 15T497 4T478 0Q470 0 463 4T454 17L407 171H131L85 17Q82 8 75 4T58 0ZM147
228H390L269 631L147 228ZM331 847Q316 847 305 858T294 884Q294 900 305 910T331 920Q347 920 357 910T367 884Q367 869 357 858T331 847ZM208 847Q192 847 182 858T171 884Q171 900 181 910T208 920Q223 920 233 910T244 884Q244 869 234 858T208 847Z" />
<glyph unicode="&#xc5;" horiz-adv-x="538" d="M58 0Q50 0 41 3T26 13T20 28Q20 32 21 35L230 714Q234 726 245 731T269 737Q283 737 294 731T309 714L517 35Q518 32 518 29Q518 21 512 15T497 4T478 0Q470 0 463 4T454 17L407 171H131L85 17Q82 8 75 4T58 0ZM147
228H390L269 631L147 228ZM269 832Q244 832 223 845T190 881T177 928Q177 952 189 973T223 1007T269 1021Q294 1021 315 1009T349 974T362 928Q362 903 349 881T315 846T269 832ZM270 865Q293 865 310 884T328 928Q328 949 311 967T270 986Q244 986 227 967T210
928Q210 904 227 885T270 865Z" />
<glyph unicode="&#xc6;" horiz-adv-x="714" d="M103 0Q86 0 79 9T72 31V518Q72 595 99 642T173 710T278 731H665Q678 731 684 722T690 702Q690 689 684 680T665 670H431V395H578Q590 395 596 386T603 365Q603 356 597 347T578 338H431V61H665Q677 61 683 52T690
30Q690 19 684 10T665 0H396Q384 0 375 6T365 26V338H136V31Q136 18 131 9T103 0ZM136 395H365V670H278Q211 670 174 633T136 518V395Z" />
<glyph unicode="&#xc7;" horiz-adv-x="525" d="M276 -6Q220 -6 173 15T97 83T69 208V518Q69 595 97 642T173 710T278 731Q344 731 390 708T460 647T485 564Q485 540 477 532T452 524Q434 524 427 531T419 549Q418 565 413 586T393 626T351 657T279 670Q209 670
172 633T135 518V208Q135 129 172 92T282 55Q327 55 353 67T392 98T411 138T419 178Q420 191 428 197T451 204Q468 204 476 196T485 163Q485 118 460 80T389 18T276 -6ZM302 -210Q288 -210 270 -207T238 -199T224 -184Q224 -181 226 -175T231 -165T240 -160Q246
-160 258 -166T296 -173Q325 -173 337 -162T349 -135Q349 -114 332 -105T286 -93L248 -90L274 9H314L295 -60Q346 -62 368 -83T391 -133Q391 -150 382 -168T352 -198T302 -210Z" />
<glyph unicode="&#xc8;" horiz-adv-x="508" d="M106 0Q95 0 86 6T76 26V706Q76 718 85 724T106 731H462Q475 731 481 722T487 702Q487 689 481 680T462 670H142V395H299Q311 395 317 386T324 365Q324 356 318 347T299 338H142V61H462Q474 61 480 52T487 30Q487
19 481 10T462 0H106ZM325 845Q323 845 320 846T315 848L209 905Q196 912 196 927Q196 937 203 946T220 955Q224 955 229 952L340 891Q351 886 351 873Q351 863 344 854T325 845Z" />
<glyph unicode="&#xc9;" horiz-adv-x="508" d="M106 0Q95 0 86 6T76 26V706Q76 718 85 724T106 731H462Q475 731 481 722T487 702Q487 689 481 680T462 670H142V395H299Q311 395 317 386T324 365Q324 356 318 347T299 338H142V61H462Q474 61 480 52T487 30Q487
19 481 10T462 0H106ZM237 845Q227 845 219 854T211 873Q211 886 222 891L334 952Q339 955 342 955Q353 955 359 946T366 927Q366 912 354 905L247 848Q245 847 242 846T237 845Z" />
<glyph unicode="&#xca;" horiz-adv-x="508" d="M106 0Q95 0 86 6T76 26V706Q76 718 85 724T106 731H462Q475 731 481 722T487 702Q487 689 481 680T462 670H142V395H299Q311 395 317 386T324 365Q324 356 318 347T299 338H142V61H462Q474 61 480 52T487 30Q487
19 481 10T462 0H106ZM168 846Q160 846 154 854T147 872Q147 878 150 884T160 894L264 950Q273 955 281 955Q290 955 298 950L402 894Q409 891 412 885T415 871Q415 861 409 854T395 847Q393 847 390 848T385 850L281 905L177 849Q175 848 173 847T168 846Z" />
<glyph unicode="&#xcb;" horiz-adv-x="508" d="M106 0Q95 0 86 6T76 26V706Q76 718 85 724T106 731H462Q475 731 481 722T487 702Q487 689 481 680T462 670H142V395H299Q311 395 317 386T324 365Q324 356 318 347T299 338H142V61H462Q474 61 480 52T487 30Q487
19 481 10T462 0H106ZM342 847Q327 847 316 858T305 884Q305 900 316 910T342 920Q358 920 368 910T378 884Q378 869 368 858T342 847ZM219 847Q203 847 193 858T182 884Q182 900 192 910T219 920Q234 920 244 910T255 884Q255 869 245 858T219 847Z" />
<glyph unicode="&#xcc;" horiz-adv-x="218" d="M109 0Q96 0 86 6T76 26V707Q76 719 86 725T109 731Q121 731 131 725T142 707V26Q142 13 132 7T109 0ZM153 845Q151 845 148 846T143 848L37 905Q24 912 24 927Q24 937 31 946T48 955Q52 955 57 952L168 891Q179
886 179 873Q179 863 172 854T153 845Z" />
<glyph unicode="&#xcd;" horiz-adv-x="218" d="M109 0Q96 0 86 6T76 26V707Q76 719 86 725T109 731Q121 731 131 725T142 707V26Q142 13 132 7T109 0ZM66 845Q56 845 48 854T40 873Q40 886 51 891L163 952Q168 955 171 955Q182 955 188 946T195 927Q195 912 183
905L76 848Q74 847 71 846T66 845Z" />
<glyph unicode="&#xce;" horiz-adv-x="218" d="M109 0Q96 0 86 6T76 26V707Q76 719 86 725T109 731Q121 731 131 725T142 707V26Q142 13 132 7T109 0ZM-4 846Q-12 846 -18 854T-25 872Q-25 878 -22 884T-12 894L92 950Q101 955 109 955Q118 955 126 950L230 894Q237
891 240 885T243 871Q243 861 237 854T223 847Q221 847 218 848T213 850L109 905L5 849Q3 848 1 847T-4 846Z" />
<glyph unicode="&#xcf;" horiz-adv-x="218" d="M109 0Q96 0 86 6T76 26V707Q76 719 86 725T109 731Q121 731 131 725T142 707V26Q142 13 132 7T109 0ZM171 847Q156 847 145 858T134 884Q134 900 145 910T171 920Q187 920 197 910T207 884Q207 869 197 858T171
847ZM48 847Q32 847 22 858T11 884Q11 900 21 910T48 920Q63 920 73 910T84 884Q84 869 74 858T48 847Z" />
<glyph unicode="&#xd0;" horiz-adv-x="569" d="M115 0Q102 0 94 7T85 25V357H22Q12 357 6 365T0 384Q0 395 6 403T22 411H85V707Q85 717 93 724T115 731H292Q351 731 398 710T473 642T501 518V214Q501 136 474 89T399 21T292 0H115ZM151 61H292Q359 61 397 98T435
214V518Q435 596 397 633T292 670H151V411H265Q275 411 281 403T288 384Q288 373 282 365T265 357H151V61Z" />
<glyph unicode="&#xd1;" horiz-adv-x="573" d="M109 0Q96 0 86 6T76 26V706Q76 720 86 725T109 731Q121 731 130 725T147 708T161 685L431 153V707Q431 720 441 725T464 731Q476 731 486 726T497 707V26Q497 13 487 7T464 0Q450 0 439 12T420 38L142 579V26Q142
13 132 7T109 0ZM357 863Q330 863 310 872T271 889T224 898Q203 898 190 890T168 874T150 866Q144 866 140 870T134 880T131 891Q131 905 140 915T163 933T192 944T219 948Q246 948 265 940T305 923T351 914Q373 914 385 921T404 936T421 943Q428 943 432 939T439
930T441 920Q441 904 432 894T410 876T382 866T357 863Z" />
<glyph unicode="&#xd2;" horiz-adv-x="553" d="M276 -6Q218 -6 171 15T97 83T69 208V518Q69 595 96 642T170 710T276 731Q335 731 382 710T457 642T485 518V208Q485 130 457 83T382 15T276 -6ZM276 55Q343 55 381 92T419 208V518Q419 596 381 633T276 670Q209
670 172 633T135 518V208Q135 129 172 92T276 55ZM322 845Q320 845 317 846T312 848L206 905Q193 912 193 927Q193 937 200 946T217 955Q221 955 226 952L337 891Q348 886 348 873Q348 863 341 854T322 845Z" />
<glyph unicode="&#xd3;" horiz-adv-x="553" d="M276 -6Q218 -6 171 15T97 83T69 208V518Q69 595 96 642T170 710T276 731Q335 731 382 710T457 642T485 518V208Q485 130 457 83T382 15T276 -6ZM276 55Q343 55 381 92T419 208V518Q419 596 381 633T276 670Q209
670 172 633T135 518V208Q135 129 172 92T276 55ZM234 845Q224 845 216 854T208 873Q208 886 219 891L331 952Q336 955 339 955Q350 955 356 946T363 927Q363 912 351 905L244 848Q242 847 239 846T234 845Z" />
<glyph unicode="&#xd4;" horiz-adv-x="553" d="M276 -6Q218 -6 171 15T97 83T69 208V518Q69 595 96 642T170 710T276 731Q335 731 382 710T457 642T485 518V208Q485 130 457 83T382 15T276 -6ZM276 55Q343 55 381 92T419 208V518Q419 596 381 633T276 670Q209
670 172 633T135 518V208Q135 129 172 92T276 55ZM164 846Q156 846 150 854T143 872Q143 878 146 884T156 894L260 950Q269 955 277 955Q286 955 294 950L398 894Q405 891 408 885T411 871Q411 861 405 854T391 847Q389 847 386 848T381 850L277 905L173 849Q171
848 169 847T164 846Z" />
<glyph unicode="&#xd5;" horiz-adv-x="553" d="M276 -6Q218 -6 171 15T97 83T69 208V518Q69 595 96 642T170 710T276 731Q335 731 382 710T457 642T485 518V208Q485 130 457 83T382 15T276 -6ZM276 55Q343 55 381 92T419 208V518Q419 596 381 633T276 670Q209
670 172 633T135 518V208Q135 129 172 92T276 55ZM348 863Q321 863 301 872T262 889T215 898Q194 898 181 890T159 874T141 866Q135 866 131 870T125 880T122 891Q122 905 131 915T154 933T183 944T210 948Q237 948 256 940T296 923T342 914Q364 914 376 921T395
936T412 943Q419 943 423 939T430 930T432 920Q432 904 423 894T401 876T373 866T348 863Z" />
<glyph unicode="&#xd6;" horiz-adv-x="553" d="M276 -6Q218 -6 171 15T97 83T69 208V518Q69 595 96 642T170 710T276 731Q335 731 382 710T457 642T485 518V208Q485 130 457 83T382 15T276 -6ZM276 55Q343 55 381 92T419 208V518Q419 596 381 633T276 670Q209
670 172 633T135 518V208Q135 129 172 92T276 55ZM339 847Q324 847 313 858T302 884Q302 900 313 910T339 920Q355 920 365 910T375 884Q375 869 365 858T339 847ZM216 847Q200 847 190 858T179 884Q179 900 189 910T216 920Q231 920 241 910T252 884Q252 869 242
858T216 847Z" />
<glyph unicode="&#xd7;" horiz-adv-x="397" d="M89 135Q82 135 75 139T63 151T58 166Q58 175 65 182L160 275L65 368Q59 374 59 385Q59 397 68 406T89 415Q99 415 106 409L198 316L291 409Q297 415 308 415Q320 415 329 406T339 385Q339 374 332 368L237 275L332
182Q339 175 339 166Q339 158 335 151T324 140T308 135Q299 135 292 142L198 235L105 142Q99 135 89 135Z" />
<glyph unicode="&#xd8;" horiz-adv-x="553" d="M276 -6Q218 -6 171 15T97 83T69 208V518Q69 595 96 642T170 710T276 731Q335 731 382 710T457 642T485 518V208Q485 130 457 83T382 15T276 -6ZM276 55Q343 55 381 92T419 208V518Q419 596 381 633T276 670Q209
670 172 633T135 518V208Q135 129 172 92T276 55ZM89 229Q78 229 71 236T63 253Q63 260 66 265L447 1012Q453 1024 467 1024Q477 1024 486 1017T495 997Q495 990 492 984L113 243Q109 236 103 233T89 229Z" />
<glyph unicode="&#xd9;" horiz-adv-x="563" d="M281 -6Q222 -6 175 15T100 83T72 208V707Q72 719 82 725T105 731Q118 731 128 725T138 707V208Q138 129 176 92T281 55Q349 55 387 92T425 208V707Q425 719 435 725T458 731Q471 731 481 725T491 707V208Q491 130
464 83T388 15T281 -6ZM327 845Q325 845 322 846T317 848L211 905Q198 912 198 927Q198 937 205 946T222 955Q226 955 231 952L342 891Q353 886 353 873Q353 863 346 854T327 845Z" />
<glyph unicode="&#xda;" horiz-adv-x="563" d="M281 -6Q222 -6 175 15T100 83T72 208V707Q72 719 82 725T105 731Q118 731 128 725T138 707V208Q138 129 176 92T281 55Q349 55 387 92T425 208V707Q425 719 435 725T458 731Q471 731 481 725T491 707V208Q491 130
464 83T388 15T281 -6ZM239 845Q229 845 221 854T213 873Q213 886 224 891L336 952Q341 955 344 955Q355 955 361 946T368 927Q368 912 356 905L249 848Q247 847 244 846T239 845Z" />
<glyph unicode="&#xdb;" horiz-adv-x="563" d="M281 -6Q222 -6 175 15T100 83T72 208V707Q72 719 82 725T105 731Q118 731 128 725T138 707V208Q138 129 176 92T281 55Q349 55 387 92T425 208V707Q425 719 435 725T458 731Q471 731 481 725T491 707V208Q491 130
464 83T388 15T281 -6ZM169 846Q161 846 155 854T148 872Q148 878 151 884T161 894L265 950Q274 955 282 955Q291 955 299 950L403 894Q410 891 413 885T416 871Q416 861 410 854T396 847Q394 847 391 848T386 850L282 905L178 849Q176 848 174 847T169 846Z" />
<glyph unicode="&#xdc;" horiz-adv-x="563" d="M281 -6Q222 -6 175 15T100 83T72 208V707Q72 719 82 725T105 731Q118 731 128 725T138 707V208Q138 129 176 92T281 55Q349 55 387 92T425 208V707Q425 719 435 725T458 731Q471 731 481 725T491 707V208Q491 130
464 83T388 15T281 -6ZM344 847Q329 847 318 858T307 884Q307 900 318 910T344 920Q360 920 370 910T380 884Q380 869 370 858T344 847ZM221 847Q205 847 195 858T184 884Q184 900 194 910T221 920Q236 920 246 910T257 884Q257 869 247 858T221 847Z" />
<glyph unicode="&#xdd;" horiz-adv-x="529" d="M264 0Q252 0 242 6T231 26V280Q231 285 230 288L23 685Q20 691 19 695T18 703Q18 712 23 718T37 727T54 731Q62 731 68 726T80 711L264 346L449 711Q455 721 461 726T475 731Q484 731 492 728T505 718T511 703Q511
700 510 696T507 685L299 288Q297 285 297 280V26Q297 13 287 7T264 0ZM222 845Q212 845 204 854T196 873Q196 886 207 891L319 952Q324 955 327 955Q338 955 344 946T351 927Q351 912 339 905L232 848Q230 847 227 846T222 845Z" />
<glyph unicode="&#xde;" horiz-adv-x="495" d="M108 0Q95 0 86 8T76 26V712Q76 723 85 729T107 735Q122 735 131 729T141 711V543Q158 574 192 596T279 619Q325 619 364 600T428 545T452 458V297Q452 247 428 211T365 154T284 133Q254 133 224 143T172 172T141
212V26Q141 16 132 8T108 0ZM268 193Q298 193 325 205T370 240T387 297V458Q387 491 370 513T326 547T268 559Q235 559 206 547T159 512T141 458V293Q141 271 157 248T202 209T268 193Z" />
<glyph unicode="&#xdf;" horiz-adv-x="550" d="M329 -20Q318 -20 300 -19T265 -13T235 1T223 24Q223 31 225 38T232 50T243 55Q254 55 271 46T322 36Q380 36 415 77T450 197V214Q450 253 435 289T386 351T297 382Q281 384 272 388T263 409Q263 426 273 430T298
438Q325 440 341 454T365 488T377 529T380 570Q380 633 354 670T271 708Q231 708 208 690T176 644T166 583V25Q166 14 156 7T132 0Q119 0 110 7T101 25V419H28Q18 419 12 427T6 446Q6 457 12 465T28 473H101V583Q101 633 117 675T171 742T268 768Q316 768 354 749T415
690T438 587Q438 552 430 517T407 456T367 418Q401 412 434 384T489 313T512 218V201Q512 126 486 77T418 4T329 -20Z" />
<glyph unicode="&#xe0;" horiz-adv-x="438" d="M167 -7Q111 -7 71 25T31 125Q31 180 60 209T142 250T264 262H315V286Q315 318 304 349T267 401T197 422Q164 422 143 415T110 401T90 393Q78 393 71 405T64 428Q64 441 84 452T136 471T199 479Q266 479 305 452T362
380T380 286V26Q380 15 372 8T348 0Q336 0 327 7T318 26V70Q292 41 255 17T167 -7ZM183 48Q216 48 246 65T295 106T315 153V217H273Q228 217 188 212T122 188T96 131Q96 88 121 68T183 48ZM259 590Q257 590 254 591T249 593L143 650Q130 657 130 672Q130 682 137
691T154 700Q158 700 163 697L274 636Q285 631 285 618Q285 608 278 599T259 590Z" />
<glyph unicode="&#xe1;" horiz-adv-x="438" d="M167 -7Q111 -7 71 25T31 125Q31 180 60 209T142 250T264 262H315V286Q315 318 304 349T267 401T197 422Q164 422 143 415T110 401T90 393Q78 393 71 405T64 428Q64 441 84 452T136 471T199 479Q266 479 305 452T362
380T380 286V26Q380 15 372 8T348 0Q336 0 327 7T318 26V70Q292 41 255 17T167 -7ZM183 48Q216 48 246 65T295 106T315 153V217H273Q228 217 188 212T122 188T96 131Q96 88 121 68T183 48ZM172 590Q162 590 154 599T146 618Q146 631 157 636L269 697Q274 700 277
700Q288 700 294 691T301 672Q301 657 289 650L182 593Q180 592 177 591T172 590Z" />
<glyph unicode="&#xe2;" horiz-adv-x="438" d="M167 -7Q111 -7 71 25T31 125Q31 180 60 209T142 250T264 262H315V286Q315 318 304 349T267 401T197 422Q164 422 143 415T110 401T90 393Q78 393 71 405T64 428Q64 441 84 452T136 471T199 479Q266 479 305 452T362
380T380 286V26Q380 15 372 8T348 0Q336 0 327 7T318 26V70Q292 41 255 17T167 -7ZM183 48Q216 48 246 65T295 106T315 153V217H273Q228 217 188 212T122 188T96 131Q96 88 121 68T183 48ZM102 847Q94 847 88 855T81 873Q81 879 84 885T94 895L198 951Q207 956
215 956Q224 956 232 951L336 895Q343 892 346 886T349 872Q349 862 343 855T329 848Q327 848 324 849T319 851L215 906L111 850Q109 849 107 848T102 847Z" />
<glyph unicode="&#xe3;" horiz-adv-x="438" d="M167 -7Q111 -7 71 25T31 125Q31 180 60 209T142 250T264 262H315V286Q315 318 304 349T267 401T197 422Q164 422 143 415T110 401T90 393Q78 393 71 405T64 428Q64 441 84 452T136 471T199 479Q266 479 305 452T362
380T380 286V26Q380 15 372 8T348 0Q336 0 327 7T318 26V70Q292 41 255 17T167 -7ZM183 48Q216 48 246 65T295 106T315 153V217H273Q228 217 188 212T122 188T96 131Q96 88 121 68T183 48ZM285 864Q258 864 238 873T199 890T152 899Q131 899 118 891T96 875T78
867Q72 867 68 871T62 881T59 892Q59 906 68 916T91 934T120 945T147 949Q174 949 193 941T233 924T279 915Q301 915 313 922T332 937T349 944Q356 944 360 940T367 931T369 921Q369 905 360 895T338 877T310 867T285 864Z" />
<glyph unicode="&#xe4;" horiz-adv-x="438" d="M167 -7Q111 -7 71 25T31 125Q31 180 60 209T142 250T264 262H315V286Q315 318 304 349T267 401T197 422Q164 422 143 415T110 401T90 393Q78 393 71 405T64 428Q64 441 84 452T136 471T199 479Q266 479 305 452T362
380T380 286V26Q380 15 372 8T348 0Q336 0 327 7T318 26V70Q292 41 255 17T167 -7ZM183 48Q216 48 246 65T295 106T315 153V217H273Q228 217 188 212T122 188T96 131Q96 88 121 68T183 48ZM277 848Q262 848 251 859T240 885Q240 901 251 911T277 921Q293 921 303
911T313 885Q313 870 303 859T277 848ZM154 848Q138 848 128 859T117 885Q117 901 127 911T154 921Q169 921 179 911T190 885Q190 870 180 859T154 848Z" />
<glyph unicode="&#xe5;" horiz-adv-x="438" d="M167 -7Q111 -7 71 25T31 125Q31 180 60 209T142 250T264 262H315V286Q315 318 304 349T267 401T197 422Q164 422 143 415T110 401T90 393Q78 393 71 405T64 428Q64 441 84 452T136 471T199 479Q266 479 305 452T362
380T380 286V26Q380 15 372 8T348 0Q336 0 327 7T318 26V70Q292 41 255 17T167 -7ZM183 48Q216 48 246 65T295 106T315 153V217H273Q228 217 188 212T122 188T96 131Q96 88 121 68T183 48ZM214 833Q189 833 168 846T135 882T122 929Q122 953 134 974T168 1008T214
1022Q239 1022 260 1010T294 975T307 929Q307 904 294 882T260 847T214 833ZM215 866Q238 866 255 885T273 929Q273 950 256 968T215 987Q189 987 172 968T155 929Q155 905 172 886T215 866Z" />
<glyph unicode="&#xe6;" horiz-adv-x="728" d="M172 -7Q135 -7 103 7T51 50T31 125Q31 180 60 209T141 250T262 262H313V286Q313 319 302 350T264 402T193 423Q162 423 142 416T109 402T88 394Q76 394 69 406T62 428Q62 442 82 453T134 472T198 480Q258 480 295
454T350 386Q374 427 415 453T505 479Q537 479 570 468T630 434T675 374T692 286Q692 256 684 241T657 222T606 217H381V180Q381 120 424 85T531 50Q569 50 591 60T627 80T652 90Q659 90 665 86T676 74T680 59Q680 44 656 29T596 3T521 -7Q465 -7 417 19T344 95Q311
41 264 17T172 -7ZM182 48Q218 48 247 65T295 107T313 153V217H271Q224 217 184 212T120 188T96 129Q96 89 121 69T182 48ZM381 265H580Q612 265 621 272T630 297Q630 331 614 360T570 407T505 425Q471 425 443 409T398 365T381 304V265Z" />
<glyph unicode="&#xe7;" horiz-adv-x="412" d="M240 -7Q174 -7 131 18T67 86T46 183V290Q46 343 66 386T130 454T240 479Q282 479 313 469T362 443T380 414Q380 408 377 401T367 388T352 382Q343 382 332 391T300 410T243 419Q178 419 145 385T111 290V183Q111
122 144 88T244 53Q282 53 303 62T335 81T357 91Q366 91 372 86T382 74T386 59Q386 46 368 31T318 4T240 -7ZM247 -210Q233 -210 215 -207T183 -199T169 -184Q169 -181 171 -175T176 -165T185 -160Q191 -160 203 -166T241 -173Q270 -173 282 -162T294 -135Q294
-114 277 -105T231 -93L193 -90L219 9H259L240 -60Q291 -62 313 -83T336 -133Q336 -150 327 -168T297 -198T247 -210Z" />
<glyph unicode="&#xe8;" horiz-adv-x="458" d="M260 -7Q197 -7 149 17T73 83T45 183V295Q45 345 71 387T140 454T236 479Q286 479 328 456T397 391T423 297Q423 258 410 242T378 221T336 217H110V180Q110 120 153 85T262 50Q302 50 324 60T358 80T382 90Q390 90
396 85T406 72T410 59Q410 48 392 32T340 5T260 -7ZM110 265H310Q340 265 350 271T360 299Q360 331 345 360T301 407T235 425Q201 425 173 409T127 365T110 303V265ZM281 591Q279 591 276 592T271 594L165 651Q152 658 152 673Q152 683 159 692T176 701Q180 701
185 698L296 637Q307 632 307 619Q307 609 300 600T281 591Z" />
<glyph unicode="&#xe9;" horiz-adv-x="458" d="M260 -7Q197 -7 149 17T73 83T45 183V295Q45 345 71 387T140 454T236 479Q286 479 328 456T397 391T423 297Q423 258 410 242T378 221T336 217H110V180Q110 120 153 85T262 50Q302 50 324 60T358 80T382 90Q390 90
396 85T406 72T410 59Q410 48 392 32T340 5T260 -7ZM110 265H310Q340 265 350 271T360 299Q360 331 345 360T301 407T235 425Q201 425 173 409T127 365T110 303V265ZM193 591Q183 591 175 600T167 619Q167 632 178 637L290 698Q295 701 298 701Q309 701 315 692T322
673Q322 658 310 651L203 594Q201 593 198 592T193 591Z" />
<glyph unicode="&#xea;" horiz-adv-x="458" d="M260 -7Q197 -7 149 17T73 83T45 183V295Q45 345 71 387T140 454T236 479Q286 479 328 456T397 391T423 297Q423 258 410 242T378 221T336 217H110V180Q110 120 153 85T262 50Q302 50 324 60T358 80T382 90Q390 90
396 85T406 72T410 59Q410 48 392 32T340 5T260 -7ZM110 265H310Q340 265 350 271T360 299Q360 331 345 360T301 407T235 425Q201 425 173 409T127 365T110 303V265ZM123 592Q115 592 109 600T102 618Q102 624 105 630T115 640L219 696Q228 701 236 701Q245 701
253 696L357 640Q364 637 367 631T370 617Q370 607 364 600T350 593Q348 593 345 594T340 596L236 651L132 595Q130 594 128 593T123 592Z" />
<glyph unicode="&#xeb;" horiz-adv-x="458" d="M260 -7Q197 -7 149 17T73 83T45 183V295Q45 345 71 387T140 454T236 479Q286 479 328 456T397 391T423 297Q423 258 410 242T378 221T336 217H110V180Q110 120 153 85T262 50Q302 50 324 60T358 80T382 90Q390 90
396 85T406 72T410 59Q410 48 392 32T340 5T260 -7ZM110 265H310Q340 265 350 271T360 299Q360 331 345 360T301 407T235 425Q201 425 173 409T127 365T110 303V265ZM298 593Q283 593 272 604T261 630Q261 646 272 656T298 666Q314 666 324 656T334 630Q334 615
324 604T298 593ZM175 593Q159 593 149 604T138 630Q138 646 148 656T175 666Q190 666 200 656T211 630Q211 615 201 604T175 593Z" />
<glyph unicode="&#xec;" horiz-adv-x="189" d="M94 0Q81 0 72 8T62 26V449Q62 460 71 466T94 473Q108 473 117 467T127 449V26Q127 16 118 8T94 0ZM140 846Q138 846 135 847T130 849L24 906Q11 913 11 928Q11 938 18 947T35 956Q39 956 44 953L155 892Q166 887
166 874Q166 864 159 855T140 846Z" />
<glyph unicode="&#xed;" horiz-adv-x="189" d="M94 0Q81 0 72 8T62 26V449Q62 460 71 466T94 473Q108 473 117 467T127 449V26Q127 16 118 8T94 0ZM52 591Q42 591 34 600T26 619Q26 632 37 637L149 698Q154 701 157 701Q168 701 174 692T181 673Q181 658 169 651L62
594Q60 593 57 592T52 591Z" />
<glyph unicode="&#xee;" horiz-adv-x="189" d="M94 0Q81 0 72 8T62 26V449Q62 460 71 466T94 473Q108 473 117 467T127 449V26Q127 16 118 8T94 0ZM238 847Q230 847 224 855T217 873Q217 879 220 885T230 895L334 951Q343 956 351 956Q360 956 368 951L472 895Q479
892 482 886T485 872Q485 862 479 855T465 848Q463 848 460 849T455 851L351 906L247 850Q245 849 243 848T238 847Z" />
<glyph unicode="&#xef;" horiz-adv-x="189" d="M94 0Q81 0 72 8T62 26V449Q62 460 71 466T94 473Q108 473 117 467T127 449V26Q127 16 118 8T94 0ZM413 848Q398 848 387 859T376 885Q376 901 387 911T413 921Q429 921 439 911T449 885Q449 870 439 859T413 848ZM290
848Q274 848 264 859T253 885Q253 901 263 911T290 921Q305 921 315 911T326 885Q326 870 316 859T290 848Z" />
<glyph unicode="&#xf0;" horiz-adv-x="482" d="M235 -7Q196 -7 162 8T102 50T60 111T44 183V292Q44 342 68 384T132 453T221 479Q251 479 279 469T329 441T360 396Q355 467 336 521T289 612L206 564Q201 561 195 561Q185 561 177 570T169 590Q169 602 180 608L257
653Q233 679 206 691T152 704Q145 707 141 713T136 730Q136 737 139 744T150 757T172 763Q206 763 243 744T315 686L387 728Q392 731 396 731Q406 731 414 722T422 703Q422 691 412 685L344 645Q381 592 403 519T425 360V183Q425 133 399 90T330 20T235 -7ZM235
53Q270 53 298 71T343 120T360 183V295Q360 328 343 356T297 402T234 419Q199 419 171 401T126 353T109 292V183Q109 150 126 120T171 72T235 53Z" />
<glyph unicode="&#xf1;" horiz-adv-x="494" d="M94 0Q81 0 72 8T62 26V449Q62 460 71 466T94 473Q107 473 116 467T125 449V403Q141 432 175 455T259 479Q307 479 347 454T412 386T436 292V26Q436 13 426 7T403 0Q392 0 382 6T371 26V292Q371 324 354 353T309
400T247 419Q217 419 190 404T145 360T127 292V26Q127 16 118 8T94 0ZM318 861Q291 861 271 870T232 887T185 896Q164 896 151 888T129 872T111 864Q105 864 101 868T95 878T92 889Q92 903 101 913T124 931T153 942T180 946Q207 946 226 938T266 921T312 912Q334
912 346 919T365 934T382 941Q389 941 393 937T400 928T402 918Q402 902 393 892T371 874T343 864T318 861Z" />
<glyph unicode="&#xf2;" horiz-adv-x="469" d="M234 -7Q183 -7 140 19T71 89T44 183V292Q44 342 70 384T139 453T234 479Q285 479 328 454T398 386T424 292V183Q424 134 398 90T329 20T234 -7ZM234 53Q269 53 297 71T342 120T359 183V292Q359 324 343 353T298
400T234 419Q199 419 171 401T126 353T109 292V183Q109 150 126 120T171 72T234 53ZM279 590Q277 590 274 591T269 593L163 650Q150 657 150 672Q150 682 157 691T174 700Q178 700 183 697L294 636Q305 631 305 618Q305 608 298 599T279 590Z" />
<glyph unicode="&#xf3;" horiz-adv-x="469" d="M234 -7Q183 -7 140 19T71 89T44 183V292Q44 342 70 384T139 453T234 479Q285 479 328 454T398 386T424 292V183Q424 134 398 90T329 20T234 -7ZM234 53Q269 53 297 71T342 120T359 183V292Q359 324 343 353T298
400T234 419Q199 419 171 401T126 353T109 292V183Q109 150 126 120T171 72T234 53ZM191 591Q181 591 173 600T165 619Q165 632 176 637L288 698Q293 701 296 701Q307 701 313 692T320 673Q320 658 308 651L201 594Q199 593 196 592T191 591Z" />
<glyph unicode="&#xf4;" horiz-adv-x="469" d="M234 -7Q183 -7 140 19T71 89T44 183V292Q44 342 70 384T139 453T234 479Q285 479 328 454T398 386T424 292V183Q424 134 398 90T329 20T234 -7ZM234 53Q269 53 297 71T342 120T359 183V292Q359 324 343 353T298
400T234 419Q199 419 171 401T126 353T109 292V183Q109 150 126 120T171 72T234 53ZM122 847Q114 847 108 855T101 873Q101 879 104 885T114 895L218 951Q227 956 235 956Q244 956 252 951L356 895Q363 892 366 886T369 872Q369 862 363 855T349 848Q347 848 344
849T339 851L235 906L131 850Q129 849 127 848T122 847Z" />
<glyph unicode="&#xf5;" horiz-adv-x="469" d="M234 -7Q183 -7 140 19T71 89T44 183V292Q44 342 70 384T139 453T234 479Q285 479 328 454T398 386T424 292V183Q424 134 398 90T329 20T234 -7ZM234 53Q269 53 297 71T342 120T359 183V292Q359 324 343 353T298
400T234 419Q199 419 171 401T126 353T109 292V183Q109 150 126 120T171 72T234 53ZM306 609Q279 609 259 618T220 635T173 644Q152 644 139 636T117 620T99 612Q93 612 89 616T83 626T80 637Q80 651 89 661T112 679T141 690T168 694Q195 694 214 686T254 669T300
660Q322 660 334 667T353 682T370 689Q377 689 381 685T388 676T390 666Q390 650 381 640T359 622T331 612T306 609Z" />
<glyph unicode="&#xf6;" horiz-adv-x="469" d="M234 -7Q183 -7 140 19T71 89T44 183V292Q44 342 70 384T139 453T234 479Q285 479 328 454T398 386T424 292V183Q424 134 398 90T329 20T234 -7ZM234 53Q269 53 297 71T342 120T359 183V292Q359 324 343 353T298
400T234 419Q199 419 171 401T126 353T109 292V183Q109 150 126 120T171 72T234 53ZM296 592Q281 592 270 603T259 629Q259 645 270 655T296 665Q312 665 322 655T332 629Q332 614 322 603T296 592ZM173 592Q157 592 147 603T136 629Q136 645 146 655T173 665Q188
665 198 655T209 629Q209 614 199 603T173 592Z" />
<glyph unicode="&#xf7;" horiz-adv-x="460" d="M70 258Q59 258 52 265T45 285Q45 298 52 306T70 314H389Q399 314 407 306T415 285Q415 273 407 266T389 258H70ZM226 74Q206 74 192 88T177 122Q177 142 191 156T226 170Q245 170 260 156T275 122Q275 103 260 89T226
74ZM226 401Q206 401 192 415T177 449Q177 468 191 482T226 497Q245 497 260 483T275 449Q275 430 260 416T226 401Z" />
<glyph unicode="&#xf8;" horiz-adv-x="469" d="M234 -7Q183 -7 140 19T71 89T44 183V292Q44 342 70 384T139 453T234 479Q285 479 328 454T398 386T424 292V183Q424 134 398 90T329 20T234 -7ZM234 53Q269 53 297 71T342 120T359 183V292Q359 324 343 353T298
400T234 419Q199 419 171 401T126 353T109 292V183Q109 150 126 120T171 72T234 53ZM89 -32Q81 -32 75 -27T69 -13Q69 -6 72 -2L101 50L331 452L359 500Q364 509 374 509Q382 509 389 503T396 487Q396 481 391 474L364 427L133 24L106 -22Q100 -32 89 -32Z" />
<glyph unicode="&#xf9;" horiz-adv-x="496" d="M249 -7Q196 -7 153 19T84 88T58 181V448Q58 457 68 465T91 473Q104 473 113 465T123 448V181Q123 148 140 119T185 72T248 53Q284 53 312 71T356 118T373 181V449Q373 459 383 466T406 473Q421 473 429 466T438
449V181Q438 130 413 88T344 19T249 -7ZM293 587Q291 587 288 588T283 590L177 647Q164 654 164 669Q164 679 171 688T188 697Q192 697 197 694L308 633Q319 628 319 615Q319 605 312 596T293 587Z" />
<glyph unicode="&#xfa;" horiz-adv-x="496" d="M249 -7Q196 -7 153 19T84 88T58 181V448Q58 457 68 465T91 473Q104 473 113 465T123 448V181Q123 148 140 119T185 72T248 53Q284 53 312 71T356 118T373 181V449Q373 459 383 466T406 473Q421 473 429 466T438
449V181Q438 130 413 88T344 19T249 -7ZM205 587Q195 587 187 596T179 615Q179 628 190 633L302 694Q307 697 310 697Q321 697 327 688T334 669Q334 654 322 647L215 590Q213 589 210 588T205 587Z" />
<glyph unicode="&#xfb;" horiz-adv-x="496" d="M249 -7Q196 -7 153 19T84 88T58 181V448Q58 457 68 465T91 473Q104 473 113 465T123 448V181Q123 148 140 119T185 72T248 53Q284 53 312 71T356 118T373 181V449Q373 459 383 466T406 473Q421 473 429 466T438
449V181Q438 130 413 88T344 19T249 -7ZM136 844Q128 844 122 852T115 870Q115 876 118 882T128 892L232 948Q241 953 249 953Q258 953 266 948L370 892Q377 889 380 883T383 869Q383 859 377 852T363 845Q361 845 358 846T353 848L249 903L145 847Q143 846 141
845T136 844Z" />
<glyph unicode="&#xfc;" horiz-adv-x="496" d="M249 -7Q196 -7 153 19T84 88T58 181V448Q58 457 68 465T91 473Q104 473 113 465T123 448V181Q123 148 140 119T185 72T248 53Q284 53 312 71T356 118T373 181V449Q373 459 383 466T406 473Q421 473 429 466T438
449V181Q438 130 413 88T344 19T249 -7ZM310 589Q295 589 284 600T273 626Q273 642 284 652T310 662Q326 662 336 652T346 626Q346 611 336 600T310 589ZM187 589Q171 589 161 600T150 626Q150 642 160 652T187 662Q202 662 212 652T223 626Q223 611 213 600T187
589Z" />
<glyph unicode="&#xfd;" horiz-adv-x="420" d="M45 -232Q32 -232 24 -226T15 -203Q15 -191 19 -182T35 -173Q59 -173 81 -158T122 -116T156 -54T180 20L17 439Q14 444 14 448Q14 457 20 464T36 475T54 479Q62 479 68 476T77 465L214 97L343 465Q346 472 352 475T365
479Q373 479 382 475T398 464T405 447Q405 442 403 439L248 19Q233 -21 216 -65T177 -146T122 -208T45 -232ZM167 587Q157 587 149 596T141 615Q141 628 152 633L264 694Q269 697 272 697Q283 697 289 688T296 669Q296 654 284 647L177 590Q175 589 172 588T167
587Z" />
<glyph unicode="&#xfe;" horiz-adv-x="484" d="M95 -232Q82 -232 73 -224T63 -206V739Q63 750 72 756T95 763Q109 763 118 757T128 739V403Q145 432 178 455T260 479Q310 479 350 454T415 386T440 292V183Q440 134 416 90T351 20T263 -7Q217 -7 181 16T128 70V-206Q128
-216 119 -224T95 -232ZM251 53Q284 53 312 71T357 120T375 183V292Q375 324 358 353T313 400T249 419Q219 419 192 404T146 360T128 292V152Q128 137 144 114T188 72T251 53Z" />
<glyph unicode="&#xff;" horiz-adv-x="420" d="M45 -232Q32 -232 24 -226T15 -203Q15 -191 19 -182T35 -173Q59 -173 81 -158T122 -116T156 -54T180 20L17 439Q14 444 14 448Q14 457 20 464T36 475T54 479Q62 479 68 476T77 465L214 97L343 465Q346 472 352 475T365
479Q373 479 382 475T398 464T405 447Q405 442 403 439L248 19Q233 -21 216 -65T177 -146T122 -208T45 -232ZM272 845Q257 845 246 856T235 882Q235 898 246 908T272 918Q288 918 298 908T308 882Q308 867 298 856T272 845ZM149 845Q133 845 123 856T112 882Q112
898 122 908T149 918Q164 918 174 908T185 882Q185 867 175 856T149 845Z" />
<glyph unicode="&#x2013;" horiz-adv-x="460" d="M70 212Q59 212 52 220T45 240Q45 253 52 261T70 270H390Q400 270 407 262T415 240Q415 228 408 220T390 212H70Z" />
<glyph unicode="&#x2014;" horiz-adv-x="741" d="M70 212Q59 212 52 220T45 240Q45 253 52 261T70 270H670Q680 270 688 262T696 240Q696 228 688 220T670 212H70Z" />
<glyph unicode="&#x2018;" horiz-adv-x="160" d="M79 570Q61 570 47 583T33 616Q33 622 36 632T43 656T56 688T74 729Q76 736 81 738T92 741Q100 741 108 736T116 720Q116 715 114 712L95 660Q108 655 116 643T125 617Q125 598 112 584T79 570Z" />
<glyph unicode="&#x2019;" horiz-adv-x="159" d="M70 570Q61 570 53 575T45 591Q45 596 47 600L67 652Q53 657 45 668T37 695Q37 714 50 727T83 741Q101 741 114 728T128 695Q128 690 126 680T118 655T106 623T88 582Q85 577 80 574T70 570Z" />
<glyph unicode="&#x201a;" horiz-adv-x="171" d="M73 -84Q64 -84 56 -79T48 -63Q48 -58 50 -55L70 -3Q56 2 48 14T40 40Q40 60 53 73T86 87Q104 87 117 74T131 41Q131 35 129 25T121 1T109 -31T91 -72Q88 -78 83 -81T73 -84Z" />
<glyph unicode="&#x201c;" horiz-adv-x="311" d="M229 570Q211 570 198 583T184 616Q184 622 186 632T194 656T206 688T224 729Q227 736 232 738T242 741Q251 741 259 736T267 720Q267 715 265 712L245 660Q259 655 267 643T275 617Q275 598 262 584T229 570ZM79
570Q61 570 47 583T33 616Q33 622 36 632T43 656T56 688T74 729Q76 736 81 738T92 741Q100 741 108 736T116 720Q116 715 114 712L95 660Q108 655 116 643T125 617Q125 598 112 584T79 570Z" />
<glyph unicode="&#x201d;" horiz-adv-x="309" d="M220 570Q212 570 204 575T196 591Q196 596 198 600L217 652Q204 657 196 668T187 695Q187 714 200 727T233 741Q252 741 265 728T279 695Q279 690 276 680T269 655T256 623T238 582Q236 577 231 574T220 570ZM70
570Q61 570 53 575T45 591Q45 596 47 600L67 652Q53 657 45 668T37 695Q37 714 50 727T83 741Q101 741 114 728T128 695Q128 690 126 680T118 655T106 623T88 582Q85 577 80 574T70 570Z" />
<glyph unicode="&#x201e;" horiz-adv-x="322" d="M223 -84Q215 -84 207 -79T199 -63Q199 -58 201 -55L220 -3Q207 2 199 14T190 40Q190 60 203 73T236 87Q255 87 268 74T282 41Q282 35 279 25T272 1T259 -31T241 -72Q239 -78 234 -81T223 -84ZM73 -84Q64 -84 56
-79T48 -63Q48 -58 50 -55L70 -3Q56 2 48 14T40 40Q40 60 53 73T86 87Q104 87 117 74T131 41Q131 35 129 25T121 1T109 -31T91 -72Q88 -78 83 -81T73 -84Z" />
<glyph unicode="&#x2022;" horiz-adv-x="312" d="M156 196Q127 196 103 210T64 248T49 300Q49 328 63 351T102 389T156 404Q185 404 209 390T248 352T263 300Q263 272 248 248T209 210T156 196Z" />
<glyph unicode="&#x2039;" horiz-adv-x="233" d="M157 74Q141 74 135 86L46 250Q42 258 39 264T35 277Q35 284 38 290T46 305L135 469Q141 481 158 481Q168 481 176 476T190 464T195 449Q195 444 192 438L105 277L192 117Q195 112 195 106Q195 99 190 92T176 79T157 74Z" />
<glyph unicode="&#x203a;" horiz-adv-x="233" d="M77 74Q67 74 58 79T44 91T39 106Q39 112 42 117L128 277L42 438Q39 444 39 449Q39 456 43 463T57 476T75 481Q93 481 98 469L187 305Q192 296 195 290T198 277Q198 271 195 265T187 250L98 86Q92 74 77 74Z" />
</font>
</defs>
</svg>
