<?xml version="1.0" standalone="no"?>
<!DOCTYPE svg PUBLIC "-//W3C//DTD SVG 1.1//EN" "http://www.w3.org/Graphics/SVG/1.1/DTD/svg11.dtd">
<svg xmlns="http://www.w3.org/2000/svg">
<defs >
<font id="Cuprum" horiz-adv-x="452" ><font-face
    font-family="Cuprum"
    units-per-em="1000"
    panose-1="0 0 5 0 0 0 0 0 0 0"
    ascent="895"
    descent="-260"
    alphabetic="0" />
<glyph unicode=" " horiz-adv-x="250" />
<glyph unicode="!" horiz-adv-x="230" d="M105 185L183 700H293L185 185H105ZM67 -5L86 105H176L157 -5H67Z" />
<glyph unicode="&quot;" horiz-adv-x="330" d="M296 465L313 700H413L346 465H296ZM146 465L163 700H263L196 465H146Z" />
<glyph unicode="#" horiz-adv-x="570" d="M85 0L150 200H55L67 270H172L225 430H125L138 500H253L318 700H408L343 500H453L518 700H608L543 500H638L625 430H515L462 270H567L555 200H440L375 0H285L350 200H240L175 0H85ZM257 270H377L430 430H310L257 270Z" />
<glyph unicode="$" horiz-adv-x="445" d="M174 -90L188 -10H183Q138 -10 98 -4T36 10L44 55H199L246 319Q220 332 196 348T153 387T127 444T128 530Q142 611 187 655T314 708L329 790H389L375 709Q413 708 445 702T496 690L488 645H363L317 385Q343 372 369 357T414
319T442 264T441 180Q426 96 382 51T248 -6L234 -90H174ZM261 66Q301 80 322 108T351 180Q359 222 343 247T300 289L261 66ZM263 417L302 636Q233 614 218 530Q211 487 224 461T263 417Z" />
<glyph unicode="%" horiz-adv-x="680" d="M100 0L613 700H703L190 0H100ZM508 -10Q441 -10 411 27T394 140Q408 215 451 252T561 290Q629 290 658 253T674 140Q661 65 619 28T508 -10ZM518 50Q548 50 569 70T599 140Q608 189 594 209T550 230Q520 230 499 210T469
140Q461 91 474 71T518 50ZM242 410Q175 410 145 447T128 560Q142 635 185 672T295 710Q363 710 392 673T408 560Q395 485 353 448T242 410ZM252 470Q282 470 303 490T333 560Q342 609 328 629T284 650Q254 650 233 630T203 560Q195 511 208 491T252 470Z" />
<glyph unicode="&amp;" horiz-adv-x="515" d="M193 -10Q118 -10 84 36T66 180Q74 225 87 266T113 330H183L156 180Q147 128 153 101T174 65T204 55Q224 55 240 63T276 94T323 160Q282 237 258 292T222 388T209 462T213 530Q229 620 281 665T415 710Q460 710 500
704T561 690L553 645H423Q378 645 346 616T303 530Q298 498 298 463T316 379T374 255L453 390H543L414 170L505 0H405L364 80Q341 50 319 30T268 0T193 -10Z" />
<glyph unicode="&apos;" horiz-adv-x="180" d="M146 465L163 700H263L196 465H146Z" />
<glyph unicode="(" horiz-adv-x="246" d="M156 -190Q117 -100 101 -17T86 140T99 280Q111 345 136 419T206 577T322 750L372 720Q305 615 264 512T199 280Q177 153 181 49T217 -160L156 -190Z" />
<glyph unicode=")" horiz-adv-x="246" d="M22 -190L-28 -160Q40 -55 81 49T145 280Q168 408 163 511T126 720L188 750Q227 660 243 577T258 420T245 280Q234 215 209 141T138 -17T22 -190Z" />
<glyph unicode="*" horiz-adv-x="430" d="M202 325L143 360L236 490L110 515L139 585L272 555L298 700H378L352 555L497 585L500 515L366 490L413 360L342 325L295 455L202 325Z" />
<glyph unicode="+" horiz-adv-x="430" d="M192 100L221 265H76L89 335H234L263 500H343L314 335H459L446 265H301L272 100H192Z" />
<glyph unicode="," horiz-adv-x="170" d="M19 -115L58 105H153L84 -115H19Z" />
<glyph unicode="-" horiz-adv-x="360" d="M76 265L89 335H389L376 265H76Z" />
<glyph unicode="." horiz-adv-x="170" d="M39 -5L58 105H148L129 -5H39Z" />
<glyph unicode="/" horiz-adv-x="390" d="M0 0L423 700H513L90 0H0Z" />
<glyph unicode="0" horiz-adv-x="510" d="M253 -10Q206 -10 172 7T117 65T95 175T111 350Q136 490 175 568T266 678T380 710Q427 710 461 693T516 635T538 525T521 350Q497 210 458 132T368 22T253 -10ZM263 50Q284 50 306 63T352 110T395 201T431 350Q447 440
447 498T437 590T408 636T369 650Q348 650 326 637T281 590T238 499T201 350Q185 260 185 202T195 110T224 64T263 50Z" />
<glyph unicode="1" horiz-adv-x="280" d="M120 0L231 630H121L129 680Q153 688 195 694T283 700H333L210 0H120Z" />
<glyph unicode="2" horiz-adv-x="390" d="M10 0L24 80Q116 174 177 236T275 342T331 422T358 500Q372 579 349 612T273 645H133L141 690Q165 698 207 704T295 710Q393 710 430 662T448 500Q439 451 417 409T355 319T256 213T117 70H372L360 0H10Z" />
<glyph unicode="3" horiz-adv-x="415" d="M163 -10Q118 -10 78 -4T16 10L24 55H154Q229 55 267 87T318 190Q332 265 305 297T203 330H133L145 400H205Q273 400 309 430T357 525Q368 585 345 615T268 645H138L146 690Q170 698 212 704T300 710Q390 710 427 665T447
525Q437 469 408 432T330 372L329 368Q368 358 387 331T410 267T408 190Q389 85 333 38T163 -10Z" />
<glyph unicode="4" horiz-adv-x="470" d="M290 0L321 180H61L75 260L403 700H503L424 250H484L471 180H411L380 0H290ZM159 250H334L387 555H383L159 250Z" />
<glyph unicode="5" horiz-adv-x="445" d="M193 -10Q148 -10 108 -4T46 10L54 55H184Q259 55 297 88T350 200Q364 279 337 312T235 345H120L183 700H508L496 635H261L222 410H267Q380 410 420 362T440 200Q420 88 363 39T193 -10Z" />
<glyph unicode="6" horiz-adv-x="455" d="M233 -10Q139 -10 102 39T85 200L124 420Q152 578 214 644T370 710Q415 710 455 704T516 690L508 645H378Q341 645 309 623T252 547T210 400Q234 408 269 414T334 420Q409 420 442 370T455 200Q435 88 381 39T233 -10ZM243
50Q284 50 317 84T365 200Q381 290 357 325T268 360H203L175 200Q160 118 181 84T243 50Z" />
<glyph unicode="7" horiz-adv-x="410" d="M110 0Q157 143 230 300T401 630H131L143 700H503L489 620Q392 455 320 299T200 0H110Z" />
<glyph unicode="8" horiz-adv-x="480" d="M238 -10Q133 -10 94 36T71 180Q80 229 104 265T160 325T224 363V367Q201 376 181 398T151 454T149 535Q164 621 217 665T365 710Q459 710 496 666T519 535Q511 489 489 455T439 398T384 367V363Q411 350 434 326T468
265T471 180Q454 83 399 37T238 -10ZM248 50Q301 50 335 81T381 180Q391 236 367 269T297 325Q245 303 208 270T161 180Q149 113 172 82T248 50ZM311 405Q355 420 387 451T429 535Q439 591 417 620T354 650Q313 650 281 621T239 535Q229 483 250 452T311 405Z"
/>
<glyph unicode="9" horiz-adv-x="455" d="M208 -10Q163 -10 123 -4T61 10L69 55H199Q237 55 269 77T326 154T367 300Q344 293 309 287T244 280Q169 280 135 330T123 500Q143 613 197 661T345 710Q439 710 476 662T493 500L454 280Q426 123 364 57T208 -10ZM309
340H374L403 500Q417 583 396 616T334 650Q293 650 260 617T213 500Q197 410 221 375T309 340Z" />
<glyph unicode=":" horiz-adv-x="170" d="M108 390L128 500H218L198 390H108ZM39 -5L58 105H148L129 -5H39Z" />
<glyph unicode=";" horiz-adv-x="165" d="M19 -115L58 105H153L84 -115H19ZM108 390L128 500H218L198 390H108Z" />
<glyph unicode="&lt;" horiz-adv-x="400" d="M361 10L77 210L92 295L447 495L430 400L175 256L173 249L378 105L361 10Z" />
<glyph unicode="=" horiz-adv-x="430" d="M60 175L74 250H444L430 175H60ZM91 350L104 425H474L461 350H91Z" />
<glyph unicode="&gt;" horiz-adv-x="400" d="M41 10L58 105L313 249L315 256L110 400L127 495L412 295L397 210L41 10Z" />
<glyph unicode="?" horiz-adv-x="370" d="M137 185Q146 238 167 274T215 338T268 392T314 448T341 520Q352 584 329 614T253 645H123L131 690Q155 698 197 704T285 710Q375 710 411 664T431 520Q422 469 400 434T350 371T295 317T246 260T217 185H137ZM99 -5L118
105H208L189 -5H99Z" />
<glyph unicode="@" horiz-adv-x="830" d="M414 -90Q227 -90 148 9T104 310Q140 513 251 611T535 710Q655 710 730 669T834 550T844 365Q826 263 791 203T690 116T520 90L521 120H516Q494 101 464 91T404 80Q364 80 334 101T291 169T291 290Q308 385 338 439T419
517T545 540Q575 540 612 534T671 520L607 155Q642 155 669 172T718 234T754 365Q778 504 719 577T524 650Q439 650 373 617T262 510T194 310Q173 188 193 114T277 8T445 -25H575L567 -70Q543 -77 501 -83T414 -90ZM444 140Q463 140 484 146T518 160L574 480H534Q494
480 465 464T415 407T381 290Q371 235 377 202T401 155T444 140Z" />
<glyph unicode="A" horiz-adv-x="510" d="M20 0L313 700H443L490 0H400L386 180H186L110 0H20ZM214 250H384L362 600H358L214 250Z" />
<glyph unicode="B" horiz-adv-x="500" d="M228 -10Q183 -10 145 -6T71 10L191 690Q231 701 270 705T355 710Q460 710 499 665T522 525Q514 480 490 441T416 377L415 373Q472 356 488 307T493 190Q481 120 451 76T367 11T228 -10ZM169 55H239Q314 55 352 86T403
190Q417 269 391 302T289 335H219L169 55ZM230 400H290Q350 400 385 430T432 525Q443 585 418 615T333 645H273L230 400Z" />
<glyph unicode="C" horiz-adv-x="435" d="M268 -10Q198 -10 155 21T99 131T111 350Q136 490 175 568T267 678T385 710Q430 710 470 704T531 690L523 645H393Q353 645 317 620T252 532T201 350Q181 233 188 169T224 80T299 55H429L421 10Q398 3 356 -3T268 -10Z" />
<glyph unicode="D" horiz-adv-x="520" d="M228 -10Q183 -10 145 -6T71 10L191 690Q231 701 270 705T355 710Q435 710 483 679T543 569T531 350Q506 210 466 132T367 22T228 -10ZM169 55H239Q284 55 322 80T390 169T441 350Q462 468 455 531T418 620T343 645H273L169 55Z" />
<glyph unicode="E" horiz-adv-x="450" d="M70 0L193 700H533L521 630H271L230 400H450L438 330H218L172 70H422L410 0H70Z" />
<glyph unicode="F" horiz-adv-x="430" d="M70 0L193 700H533L521 630H271L227 385H437L425 315H215L160 0H70Z" />
<glyph unicode="G" horiz-adv-x="500" d="M288 -10Q208 -10 160 21T100 131T111 350Q136 490 175 568T270 678T395 710Q440 710 480 704T541 690L533 645H403Q358 645 320 620T252 532T201 350Q181 233 189 169T230 80T319 55H359L417 380H507L441 10Q418 3 376
-3T288 -10Z" />
<glyph unicode="H" horiz-adv-x="530" d="M70 0L193 700H283L228 390H438L493 700H583L460 0H370L426 320H216L160 0H70Z" />
<glyph unicode="I" horiz-adv-x="230" d="M70 0L193 700H283L160 0H70Z" />
<glyph unicode="J" horiz-adv-x="350" d="M88 -10Q66 -10 43 -4T1 10L9 55H99Q134 55 161 71T209 127T242 240L323 700H413L332 240Q315 145 285 91T206 13T88 -10Z" />
<glyph unicode="K" horiz-adv-x="490" d="M70 0L193 700H283L223 360L478 700H583L317 355L480 0H375L221 350L160 0H70Z" />
<glyph unicode="L" horiz-adv-x="420" d="M70 0L193 700H283L172 70H422L410 0H70Z" />
<glyph unicode="M" horiz-adv-x="740" d="M55 0L218 700H328L406 220H410L658 700H768L685 0H595L656 520H651L430 90H340L271 520H266L145 0H55Z" />
<glyph unicode="N" horiz-adv-x="540" d="M70 0L193 700H293L411 205H416L503 700H593L470 0H370L252 495H247L160 0H70Z" />
<glyph unicode="O" horiz-adv-x="530" d="M263 -10Q212 -10 176 7T118 65T95 175T111 350Q136 490 175 568T269 678T390 710Q441 710 477 693T534 635T557 525T541 350Q517 210 478 132T385 22T263 -10ZM273 50Q306 50 339 75T401 165T451 350Q467 440 467 498T456
590T424 636T379 650Q347 650 314 625T252 535T201 350Q185 260 185 202T197 110T229 64T273 50Z" />
<glyph unicode="P" horiz-adv-x="490" d="M70 0L191 690Q231 701 270 705T355 710Q435 710 479 687T535 610T531 460Q514 363 484 307T407 228T296 205Q274 205 245 208T197 215L160 0H70ZM208 275H278Q323 275 354 291T407 347T441 460Q454 533 447 573T414 629T343
645H273L208 275Z" />
<glyph unicode="Q" horiz-adv-x="540" d="M263 -10Q212 -10 176 7T118 65T95 175T111 350Q136 490 175 568T269 678T390 710Q441 710 477 693T534 635T557 525T541 350Q521 234 490 163T418 50Q456 50 485 44T535 30L528 -10H263ZM273 50Q306 50 339 75T401 165T451
350Q467 440 467 498T456 590T424 636T379 650Q347 650 314 625T252 535T201 350Q185 260 185 202T197 110T229 64T273 50Z" />
<glyph unicode="R" horiz-adv-x="505" d="M70 0L191 690Q231 701 270 705T355 710Q435 710 479 688T536 613T532 470Q521 403 502 359T456 289T394 250L470 0H370L300 230H200L160 0H70ZM212 300H282Q350 300 387 336T442 470Q454 538 447 576T414 629T343 645H273L212
300Z" />
<glyph unicode="S" horiz-adv-x="445" d="M183 -10Q138 -10 98 -4T36 10L44 55H174Q260 55 300 85T351 180Q358 218 347 241T313 281T262 311T207 340T158 379T127 439T128 530Q144 620 198 665T350 710Q395 710 435 704T496 690L488 645H358Q298 645 263 616T218
530Q211 490 222 465T255 422T305 392T361 363T410 325T441 268T441 180Q424 83 366 37T183 -10Z" />
<glyph unicode="T" horiz-adv-x="430" d="M170 0L281 630H121L133 700H543L531 630H371L260 0H170Z" />
<glyph unicode="U" horiz-adv-x="520" d="M258 -10Q188 -10 148 13T97 90T102 240L183 700H273L192 240Q179 165 184 124T211 67T268 50Q303 50 330 66T378 124T412 240L493 700H583L502 240Q485 145 455 91T376 13T258 -10Z" />
<glyph unicode="V" horiz-adv-x="490" d="M180 0L143 700H233L259 95H263L503 700H593L310 0H180Z" />
<glyph unicode="W" horiz-adv-x="720" d="M135 0L143 700H233L228 160H233L415 570H505L543 160H548L733 700H823L585 0H475L436 420H432L245 0H135Z" />
<glyph unicode="X" horiz-adv-x="460" d="M15 0L228 360L153 700H243L304 420L463 700H553L358 360L445 0H355L282 300L105 0H15Z" />
<glyph unicode="Y" horiz-adv-x="450" d="M180 0L218 220L133 700H223L285 345L473 700H563L308 220L270 0H180Z" />
<glyph unicode="Z" horiz-adv-x="405" d="M20 0L31 65L391 630H136L148 700H508L496 635L137 70H392L380 0H20Z" />
<glyph unicode="[" horiz-adv-x="260" d="M38 -180L200 740H390L379 680H279L138 -120H238L228 -180H38Z" />
<glyph unicode="\" horiz-adv-x="390" d="M300 0L123 700H213L390 0H300Z" />
<glyph unicode="]" horiz-adv-x="260" d="M-31 -180L-21 -120H78L219 680H119L130 740H320L158 -180H-31Z" />
<glyph unicode="^" horiz-adv-x="445" d="M167 410L109 450L303 700H388L494 450L422 410L332 610H327L167 410Z" />
<glyph unicode="_" horiz-adv-x="300" d="M-12 -70L0 0H300L287 -70H-12Z" />
<glyph unicode="`" horiz-adv-x="170" d="M181 560L133 690H228L241 560H181Z" />
<glyph unicode="a" horiz-adv-x="465" d="M208 -10Q156 -10 123 13T81 93T89 250Q107 350 137 406T214 486T329 510Q374 510 412 503T484 480L400 0H325V30H320Q298 11 268 1T208 -10ZM248 50Q267 50 288 56T322 70L389 450H319Q287 450 261 434T214 374T179 250Q165
170 169 127T195 67T248 50Z" />
<glyph unicode="b" horiz-adv-x="470" d="M228 -10Q183 -10 146 -3T73 20L193 700H283L245 485Q270 496 294 503T349 510Q402 510 434 487T477 407T469 250Q451 150 421 94T343 14T228 -10ZM168 50H238Q271 50 297 66T344 126T379 250Q393 330 388 373T363 433T309
450Q290 450 269 444T235 430L168 50Z" />
<glyph unicode="c" horiz-adv-x="375" d="M238 -10Q171 -10 132 13T82 93T89 250Q107 350 136 406T211 486T319 510Q349 510 382 504T436 490L429 450H329Q292 450 263 434T214 374T179 250Q165 170 170 127T201 67T268 50H368L361 10Q338 3 303 -3T238 -10Z" />
<glyph unicode="d" horiz-adv-x="470" d="M208 -10Q156 -10 123 13T81 93T89 250Q107 350 136 406T206 486T299 510Q329 510 352 503T395 485L433 700H523L400 0H325V30H320Q298 11 268 1T208 -10ZM248 50Q267 50 288 56T322 70L385 430Q375 438 357 444T319 450Q287
450 261 434T214 374T179 250Q165 170 169 127T195 67T248 50Z" />
<glyph unicode="e" horiz-adv-x="430" d="M253 -10Q178 -10 136 13T83 93T89 250Q107 350 136 406T211 486T319 510Q405 510 442 468T466 350Q454 283 408 247T267 210H172Q156 120 182 85T283 50H383L376 10Q353 3 318 -3T253 -10ZM182 270H277Q318 270 343 291T376
350Q385 399 365 427T310 455Q283 455 259 439T215 383T182 270Z" />
<glyph unicode="f" horiz-adv-x="320" d="M-7 -210Q-29 -210 -62 -204T-113 -190L-106 -150H-16Q-1 -150 16 -141T49 -109T72 -40L154 425H94L106 490H166L173 530Q186 600 210 636T269 686T343 700Q366 700 399 694T449 680L442 640H352Q337 640 320 632T287
599T263 530L256 490H396L388 445Q364 438 329 432T264 425H244L162 -40Q150 -110 125 -146T67 -196T-7 -210Z" />
<glyph unicode="g" horiz-adv-x="465" d="M162 -210Q132 -210 100 -204T46 -190L53 -150H153Q221 -150 258 -115T312 15Q288 4 263 -3T208 -10Q156 -10 123 13T81 93T89 250Q107 350 137 406T214 486T329 510Q374 510 412 503T484 480L407 40Q390 -55 360 -109T281
-187T162 -210ZM248 50Q267 50 288 56T322 70L389 450H319Q287 450 261 434T214 374T179 250Q165 170 169 127T195 67T248 50Z" />
<glyph unicode="h" horiz-adv-x="480" d="M70 0L193 700H283L245 485Q270 496 297 503T359 510Q402 510 432 498T476 453T478 360L415 0H325L388 360Q394 395 385 414T357 442T309 450Q290 450 269 444T235 430L160 0H70Z" />
<glyph unicode="i" horiz-adv-x="230" d="M70 0L158 500H248L160 0H70ZM170 570L189 680H279L260 570H170Z" />
<glyph unicode="j" horiz-adv-x="240" d="M-7 -210Q-29 -210 -52 -204T-93 -190L-86 -150H-16Q-1 -150 16 -141T49 -109T72 -40L168 500H258L162 -40Q150 -110 125 -146T67 -196T-7 -210ZM180 570L199 680H289L270 570H180Z" />
<glyph unicode="k" horiz-adv-x="435" d="M70 0L193 700H283L207 270L393 500H493L296 265L425 0H325L205 260L160 0H70Z" />
<glyph unicode="l" horiz-adv-x="230" d="M70 0L193 700H283L160 0H70Z" />
<glyph unicode="m" horiz-adv-x="690" d="M65 0L153 500H228L227 470H232Q255 489 280 499T339 510Q373 510 400 501T444 466Q473 488 510 499T574 510Q614 510 643 498T686 453T688 360L625 0H535L598 360Q604 395 596 414T571 442T534 450Q512 450 490 444T455
430Q457 419 457 401T453 360L390 0H300L363 360Q369 395 361 414T336 442T299 450Q280 450 262 444T230 430L155 0H65Z" />
<glyph unicode="n" horiz-adv-x="475" d="M65 0L153 500H228L227 470H232Q255 489 284 499T344 510Q392 510 424 498T470 453T473 360L410 0H320L383 360Q389 395 380 414T352 442T304 450Q285 450 264 444T230 430L155 0H65Z" />
<glyph unicode="o" horiz-adv-x="460" d="M228 -10Q168 -10 131 14T83 96T89 250Q106 348 137 404T213 485T319 510Q379 510 416 486T464 405T459 250Q442 153 411 96T334 15T228 -10ZM237 45Q262 45 287 63T333 125T369 250Q383 330 378 374T354 437T310 455Q285
455 260 437T214 375T179 250Q165 170 170 126T193 63T237 45Z" />
<glyph unicode="p" horiz-adv-x="465" d="M29 -200L153 500H228L227 470H232Q255 489 284 499T344 510Q397 510 429 487T472 407T464 250Q446 150 417 94T347 14T253 -10Q223 -10 201 -3T157 15L119 -200H29ZM233 50Q266 50 292 66T339 126T374 250Q388 330 383
373T358 433T304 450Q285 450 264 444T230 430L167 70Q177 63 195 57T233 50Z" />
<glyph unicode="q" horiz-adv-x="465" d="M274 -200L312 15Q288 4 263 -3T208 -10Q156 -10 123 13T81 93T89 250Q107 350 137 406T214 486T329 510Q374 510 412 503T484 480L364 -200H274ZM248 50Q267 50 288 56T322 70L389 450H319Q287 450 261 434T214 374T179
250Q165 170 169 127T195 67T248 50Z" />
<glyph unicode="r" horiz-adv-x="335" d="M65 0L153 500H229L227 460H232Q252 475 285 487T363 500H413L399 425H299Q280 425 262 421T226 405L155 0H65Z" />
<glyph unicode="s" horiz-adv-x="395" d="M158 -10Q128 -10 96 -4T41 10L48 50H148Q216 50 250 67T292 130Q298 160 284 178T246 208T193 232T142 261T106 307T102 380Q115 455 164 482T304 510Q334 510 367 504T421 490L414 450H314Q262 450 230 434T192 380Q187
350 200 332T238 302T291 278T342 249T378 203T382 130Q373 75 347 45T274 2T158 -10Z" />
<glyph unicode="t" horiz-adv-x="345" d="M218 -10Q178 -10 149 3T108 53T108 160L154 425H94L106 490H166L187 610H277L256 490H396L388 445Q364 438 329 432T264 425H244L198 160Q190 115 197 92T218 59T248 50H338L331 10Q318 5 297 1T255 -7T218 -10Z" />
<glyph unicode="u" horiz-adv-x="475" d="M218 -10Q171 -10 138 2T92 47T89 140L153 500H243L179 140Q170 88 193 69T258 50Q277 50 298 56T332 70L408 500H498L410 0H335V30H330Q308 11 278 1T218 -10Z" />
<glyph unicode="v" horiz-adv-x="430" d="M150 0L103 500H188L227 85H231L418 500H503L280 0H150Z" />
<glyph unicode="w" horiz-adv-x="610" d="M105 0L103 500H188L190 120H195L335 400H415L457 120H462L598 500H683L505 0H395L354 270H350L215 0H105Z" />
<glyph unicode="x" horiz-adv-x="400" d="M15 0L184 255L107 500H197L255 315L379 500H469L304 255L385 0H295L234 195L105 0H15Z" />
<glyph unicode="y" horiz-adv-x="475" d="M172 -210Q142 -210 110 -204T56 -190L63 -150H163Q231 -150 268 -115T322 15Q298 4 273 -3T218 -10Q171 -10 138 2T92 47T89 140L153 500H243L179 140Q170 88 193 69T258 50Q277 50 298 56T332 70L408 500H498L417 40Q400
-55 370 -109T291 -187T172 -210Z" />
<glyph unicode="z" horiz-adv-x="370" d="M20 0L30 60L321 435H106L118 500H438L427 440L137 65H356L345 0H20Z" />
<glyph unicode="{" horiz-adv-x="290" d="M258 -180Q193 -180 153 -167T100 -117T98 -10L121 120Q132 184 116 211T64 250L74 310Q114 321 140 348T177 440L200 570Q213 640 239 676T310 726T420 740L409 680Q364 680 333 659T290 570L271 460Q261 405 246 373T209
321T159 282V278Q181 259 195 239T213 187T207 100L188 -10Q180 -55 188 -78T217 -111T268 -120L258 -180Z" />
<glyph unicode="|" horiz-adv-x="230" d="M34 -200L193 700H283L124 -200H34Z" />
<glyph unicode="}" horiz-adv-x="290" d="M-31 -180L-21 -120Q9 -120 32 -111T73 -79T98 -10L117 100Q127 155 142 187T179 239T229 278V282Q208 301 194 321T175 373T181 460L200 570Q208 615 200 639T170 671T119 680L130 740Q195 740 235 727T289 677T290 570L267
440Q256 376 272 349T324 310L314 250Q274 239 248 212T211 120L188 -10Q176 -80 149 -116T78 -166T-31 -180Z" />
<glyph unicode="~" horiz-adv-x="450" d="M65 199Q76 278 107 318T203 359Q235 359 256 347T294 320T324 292T355 280Q381 280 394 300T412 354H482Q471 275 440 235T340 194Q310 194 291 206T256 233T227 260T194 272Q168 272 154 253T135 199H65Z" />
<glyph unicode="&#xa0;" horiz-adv-x="250" />
<glyph unicode="&#xa1;" horiz-adv-x="230" d="M60 0L163 515H243L170 0H60ZM172 595L192 705H282L262 595H172Z" />
<glyph unicode="&#xa2;" horiz-adv-x="375" d="M194 -60L203 -8Q149 -3 118 23T80 104T89 250Q105 343 132 398T199 479T294 509L305 570H365L354 508Q401 502 436 490L429 450H344L273 50H368L361 10Q342 4 316 -1T263 -9L254 -60H194ZM215 58L283 443Q246 430
221 387T179 250Q163 159 172 116T215 58Z" />
<glyph unicode="&#xa3;" horiz-adv-x="415" d="M45 0L53 50Q70 60 84 78T111 128T132 210L151 320H91L103 390H163L183 500Q199 590 227 635T303 695T420 710Q443 710 466 704T506 690L498 645H408Q373 645 347 635T303 594T273 500L253 390H403L391 320H241L226
234Q213 159 193 124T148 74L147 70H407L395 0H45Z" />
<glyph unicode="&#xa4;" horiz-adv-x="520" d="M103 135L62 185L144 255Q137 274 135 299T136 350Q141 376 152 401T178 445L120 515L179 565L238 500Q260 519 292 529T354 540Q385 540 413 530T458 500L539 565L580 515L498 445Q506 426 508 401T506 350Q502
324 491 299T464 255L522 185L463 135L405 200Q383 181 351 171T287 160Q258 160 229 170T185 200L103 135ZM299 225Q337 225 368 255T411 350Q422 414 402 444T343 475Q306 475 274 445T231 350Q220 286 241 256T299 225Z" />
<glyph unicode="&#xa5;" horiz-adv-x="450" d="M180 0L216 205H96L108 275H208L198 335H119L131 405H185L133 700H223L285 345L473 700H563L406 405H461L449 335H369L337 275H438L426 205H306L270 0H180Z" />
<glyph unicode="&#xa6;" horiz-adv-x="230" d="M34 -200L98 160H188L124 -200H34ZM126 320L189 680H279L216 320H126Z" />
<glyph unicode="&#xa7;" horiz-adv-x="435" d="M142 -210Q105 -210 69 -204T11 -190L18 -150H133Q212 -150 250 -123T296 -50Q302 -15 287 7T244 46T186 77T128 114T89 167T84 250Q94 308 130 345T208 402Q187 416 171 435T147 482T146 550Q160 625 214 667T370
710Q408 710 444 704T501 690L494 650H379Q315 650 280 623T236 550Q230 515 244 493T285 454T341 423T396 386T435 333T439 250Q429 194 394 157T317 100Q340 86 358 67T385 19T386 -50Q373 -125 316 -167T142 -210ZM263 128Q294 144 317 172T349 250Q355 284
343 306T309 343T260 372Q229 357 206 329T174 250Q168 217 179 195T214 158T263 128Z" />
<glyph unicode="&#xa8;" horiz-adv-x="290" d="M282 580L301 690H391L372 580H282ZM122 580L141 690H231L212 580H122Z" />
<glyph unicode="&#xa9;" horiz-adv-x="810" d="M401 -20Q291 -20 218 24T116 152T106 350Q127 465 185 548T332 675T531 720Q641 720 714 676T817 548T826 350Q806 235 748 152T600 25T401 -20ZM437 130Q396 130 366 138T318 169T297 235T306 350Q319 421 337
464T382 531T441 562T515 570Q549 570 577 564T626 550L619 510H524Q489 510 463 499T418 454T386 350Q374 280 381 246T410 201T468 190H573L566 150Q542 143 507 137T437 130ZM412 40Q492 40 559 76T672 181T736 350Q754 450 732 519T656 624T521 660Q441 660
374 624T260 519T196 350Q179 250 201 181T277 76T412 40Z" />
<glyph unicode="&#xaa;" horiz-adv-x="285" d="M184 395Q164 395 146 404T119 434T116 490Q125 543 158 564T228 585Q247 585 269 583T292 580L295 600Q300 630 287 642T240 655H170L177 693Q193 698 216 701T259 705Q315 705 343 685T360 600L325 400H265L264
420Q247 409 227 402T184 395ZM223 445Q234 445 246 449T271 460L284 535H239Q217 535 201 524T181 490Q177 468 189 457T223 445Z" />
<glyph unicode="&#xab;" horiz-adv-x="435" d="M347 45L229 250L420 455L478 415L329 252L328 248L419 85L347 45ZM182 45L64 250L255 455L313 415L164 252L163 248L254 85L182 45Z" />
<glyph unicode="&#xac;" horiz-adv-x="420" d="M367 240L376 340H89L102 410H462L432 240H367Z" />
<glyph unicode="&#xad;" horiz-adv-x="360" d="M75 260L89 340H389L375 260H75Z" />
<glyph unicode="&#xae;" horiz-adv-x="810" d="M401 -20Q291 -20 218 24T116 152T106 350Q127 465 185 548T332 675T531 720Q641 720 714 676T817 548T826 350Q806 235 748 152T600 25T401 -20ZM412 40Q492 40 559 76T672 181T736 350Q754 450 732 519T656 624T521
660Q441 660 374 624T260 519T196 350Q179 250 201 181T277 76T412 40ZM289 140L361 550Q389 558 422 564T500 570Q550 570 583 558T631 516T635 430Q628 390 613 367T579 331T544 310L594 140H509L466 290H396L369 140H289ZM406 350H461Q491 350 519 367T555 430Q563
475 541 492T489 510H434L406 350Z" />
<glyph unicode="&#xaf;" horiz-adv-x="270" d="M132 640L143 700H373L362 640H132Z" />
<glyph unicode="&#xb0;" horiz-adv-x="380" d="M258 390Q191 390 157 432T136 550Q150 625 199 667T315 710Q383 710 416 668T436 550Q423 475 375 433T258 390ZM269 450Q299 450 323 474T356 550Q366 603 350 626T304 650Q274 650 250 627T216 550Q207 498 223
474T269 450Z" />
<glyph unicode="&#xb1;" horiz-adv-x="430" d="M201 150L228 305H83L96 375H241L268 530H348L321 375H466L453 305H308L281 150H201ZM38 50L51 120H421L408 50H38Z" />
<glyph unicode="&#xb2;" horiz-adv-x="255" d="M100 400L110 455Q169 496 214 534T267 610Q270 629 258 642T220 655H155L162 694Q178 699 200 702T244 705Q297 705 318 680T332 610Q325 569 289 532T184 450H304L295 400H100Z" />
<glyph unicode="&#xb3;" horiz-adv-x="255" d="M174 395Q152 395 134 398T101 406L108 445H183Q209 445 225 455T245 485Q249 508 238 519T203 530H158L167 580H207Q233 580 244 592T259 620Q261 635 251 645T214 655H145L152 694Q167 699 189 702T234 705Q283
705 307 687T324 620Q320 598 303 581T272 560Q291 556 303 538T310 485Q301 433 266 414T174 395Z" />
<glyph unicode="&#xb4;" horiz-adv-x="170" d="M118 560L176 690H271L178 560H118Z" />
<glyph unicode="&#xb5;" horiz-adv-x="475" d="M29 -200L153 500H243L183 160Q173 108 195 79T258 50Q277 50 298 56T332 70L408 500H498L410 0H335V30H330Q308 11 283 1T228 -10Q196 -10 178 4T158 20L119 -200H29Z" />
<glyph unicode="&#xb6;" horiz-adv-x="530" d="M174 -200L268 330Q186 330 146 379T120 515Q129 563 158 605T233 673T333 700H633L621 630H551L404 -200H324L471 630H401L254 -200H174Z" />
<glyph unicode="&#xb7;" horiz-adv-x="250" d="M132 295L151 405H241L222 295H132Z" />
<glyph unicode="&#xb8;" horiz-adv-x="200" d="M65 -165Q31 -165 13 -158T-6 -150L-1 -120H63Q78 -120 87 -113T98 -95Q100 -84 94 -77T72 -70H17L32 15H82L75 -25H90Q131 -25 149 -45T163 -95Q158 -125 132 -145T65 -165Z" />
<glyph unicode="&#xb9;" horiz-adv-x="185" d="M160 400L204 650H144L151 688Q167 693 194 696T248 700H278L225 400H160Z" />
<glyph unicode="&#xba;" horiz-adv-x="300" d="M219 395Q167 395 140 433T126 550Q140 629 181 667T274 705Q327 705 353 667T366 550Q353 471 313 433T219 395ZM228 445Q251 445 271 467T301 550Q312 610 300 632T265 655Q243 655 223 633T191 550Q181 490 193
468T228 445Z" />
<glyph unicode="&#xbb;" horiz-adv-x="435" d="M267 45L209 85L358 248L359 252L268 415L340 455L459 250L267 45ZM102 45L44 85L193 248L194 252L103 415L175 455L294 250L102 45Z" />
<glyph unicode="&#xbc;" horiz-adv-x="560" d="M40 0L553 700H633L120 0H40ZM410 0L421 65H276L285 115L457 300H527L495 115H525L516 65H486L475 0H410ZM355 115H430L447 213L355 115ZM175 400L219 650H159L166 688Q182 693 209 696T263 700H298L245 400H175Z" />
<glyph unicode="&#xbd;" horiz-adv-x="590" d="M50 0L563 700H643L130 0H50ZM335 0L344 55Q404 96 449 134T502 210Q505 229 493 242T454 255H389L396 294Q412 299 434 302T478 305Q531 305 553 280T567 210Q560 169 523 132T418 50H538L530 0H335ZM185 400L229
650H169L176 688Q192 693 219 696T273 700H308L255 400H185Z" />
<glyph unicode="&#xbe;" horiz-adv-x="565" d="M45 0L558 700H638L125 0H45ZM415 0L426 65H281L290 115L462 300H532L500 115H530L521 65H491L480 0H415ZM360 115H435L452 213L360 115ZM184 395Q162 395 144 398T111 406L118 445H193Q219 445 235 455T255 485Q259
508 248 519T213 530H168L177 580H217Q243 580 254 592T269 620Q271 635 261 645T224 655H155L162 694Q177 699 199 702T244 705Q293 705 317 687T334 620Q330 598 313 581T282 560Q301 556 313 538T320 485Q311 433 276 414T184 395Z" />
<glyph unicode="&#xbf;" horiz-adv-x="370" d="M208 -10Q118 -10 81 36T61 180Q70 231 92 266T142 329T197 383T246 440T275 515H355Q346 463 325 426T278 362T225 308T179 252T151 180Q140 116 163 86T239 55H369L361 10Q338 3 296 -3T208 -10ZM284 595L304 705H394L374
595H284Z" />
<glyph unicode="&#xc0;" horiz-adv-x="510" d="M20 0L313 700H443L490 0H400L386 180H186L110 0H20ZM214 250H384L362 600H358L214 250ZM347 760L299 890H394L407 760H347Z" />
<glyph unicode="&#xc1;" horiz-adv-x="510" d="M20 0L313 700H443L490 0H400L386 180H186L110 0H20ZM214 250H384L362 600H358L214 250ZM342 760L400 890H495L402 760H342Z" />
<glyph unicode="&#xc2;" horiz-adv-x="510" d="M20 0L313 700H443L490 0H400L386 180H186L110 0H20ZM214 250H384L362 600H358L214 250ZM264 750L362 880H457L509 750H449L400 824L324 750H264Z" />
<glyph unicode="&#xc3;" horiz-adv-x="510" d="M20 0L313 700H443L490 0H400L386 180H186L110 0H20ZM214 250H384L362 600H358L214 250ZM435 765Q410 765 396 780T372 809T350 824Q328 824 318 780H268Q279 833 301 859T361 885Q380 885 392 876T412 855T428 834T443
825Q468 825 477 870H527Q516 815 495 790T435 765Z" />
<glyph unicode="&#xc4;" horiz-adv-x="510" d="M20 0L313 700H443L490 0H400L386 180H186L110 0H20ZM214 250H384L362 600H358L214 250ZM425 780L444 890H534L515 780H425ZM265 780L284 890H374L355 780H265Z" />
<glyph unicode="&#xc5;" horiz-adv-x="510" d="M20 0L313 700H443L490 0H400L386 180H186L110 0H20ZM214 250H384L362 600H358L214 250ZM384 740Q347 740 327 761T313 820Q320 858 347 879T412 900Q450 900 470 879T483 820Q476 783 449 762T384 740ZM392 785Q407
785 418 793T433 820Q436 839 428 847T404 855Q389 855 378 847T363 820Q359 801 368 793T392 785Z" />
<glyph unicode="&#xc6;" horiz-adv-x="731" d="M0 0L363 700H814L802 630H552L511 400H731L719 330H499L453 70H703L691 0H351L382 180H183L90 0H0ZM220 250H395L462 630H417L220 250Z" />
<glyph unicode="&#xc7;" horiz-adv-x="435" d="M268 -10Q198 -10 155 21T99 131T111 350Q136 490 175 568T267 678T385 710Q430 710 470 704T531 690L523 645H393Q353 645 317 620T252 532T201 350Q181 233 188 169T224 80T299 55H429L421 10Q398 3 356 -3T268
-10ZM256 -165Q222 -165 204 -158T185 -150L190 -120H254Q269 -120 278 -113T289 -95Q291 -84 285 -77T263 -70H208L223 15H273L266 -25H281Q322 -25 340 -45T354 -95Q349 -125 323 -145T256 -165Z" />
<glyph unicode="&#xc8;" horiz-adv-x="450" d="M70 0L193 700H533L521 630H271L230 400H450L438 330H218L172 70H422L410 0H70ZM338 760L290 890H385L398 760H338Z" />
<glyph unicode="&#xc9;" horiz-adv-x="450" d="M70 0L193 700H533L521 630H271L230 400H450L438 330H218L172 70H422L410 0H70ZM336 760L394 890H489L396 760H336Z" />
<glyph unicode="&#xca;" horiz-adv-x="450" d="M70 0L193 700H533L521 630H271L230 400H450L438 330H218L172 70H422L410 0H70ZM258 750L356 880H451L503 750H443L394 824L318 750H258Z" />
<glyph unicode="&#xcb;" horiz-adv-x="450" d="M70 0L193 700H533L521 630H271L230 400H450L438 330H218L172 70H422L410 0H70ZM419 780L438 890H528L509 780H419ZM259 780L278 890H368L349 780H259Z" />
<glyph unicode="&#xcc;" horiz-adv-x="230" d="M70 0L193 700H283L160 0H70ZM210 760L162 890H257L270 760H210Z" />
<glyph unicode="&#xcd;" horiz-adv-x="230" d="M70 0L193 700H283L160 0H70ZM204 760L262 890H357L264 760H204Z" />
<glyph unicode="&#xce;" horiz-adv-x="215" d="M60 0L183 700H273L150 0H60ZM117 750L215 880H310L362 750H302L252 824L177 750H117Z" />
<glyph unicode="&#xcf;" horiz-adv-x="230" d="M70 0L193 700H283L160 0H70ZM287 780L306 890H396L377 780H287ZM127 780L146 890H236L217 780H127Z" />
<glyph unicode="&#xd0;" horiz-adv-x="540" d="M248 -10Q203 -10 165 -6T91 10L146 320H66L78 390H158L211 690Q251 701 290 705T375 710Q455 710 503 679T563 569T551 350Q527 210 487 132T387 22T248 -10ZM189 55H259Q304 55 342 80T410 169T461 350Q482 468
475 531T438 620T363 645H293L248 390H358L346 320H236L189 55Z" />
<glyph unicode="&#xd1;" horiz-adv-x="540" d="M70 0L193 700H293L411 205H416L503 700H593L470 0H370L252 495H247L160 0H70ZM459 765Q434 765 420 780T396 809T374 824Q352 824 342 780H292Q303 833 325 859T385 885Q404 885 416 876T436 855T452 834T467 825Q492
825 501 870H551Q540 815 519 790T459 765Z" />
<glyph unicode="&#xd2;" horiz-adv-x="530" d="M263 -10Q212 -10 176 7T118 65T95 175T111 350Q136 490 175 568T269 678T390 710Q441 710 477 693T534 635T557 525T541 350Q517 210 478 132T385 22T263 -10ZM273 50Q306 50 339 75T401 165T451 350Q467 440 467
498T456 590T424 636T379 650Q347 650 314 625T252 535T201 350Q185 260 185 202T197 110T229 64T273 50ZM358 760L310 890H405L418 760H358Z" />
<glyph unicode="&#xd3;" horiz-adv-x="530" d="M263 -10Q212 -10 176 7T118 65T95 175T111 350Q136 490 175 568T269 678T390 710Q441 710 477 693T534 635T557 525T541 350Q517 210 478 132T385 22T263 -10ZM273 50Q306 50 339 75T401 165T451 350Q467 440 467
498T456 590T424 636T379 650Q347 650 314 625T252 535T201 350Q185 260 185 202T197 110T229 64T273 50ZM356 760L414 890H509L416 760H356Z" />
<glyph unicode="&#xd4;" horiz-adv-x="530" d="M263 -10Q212 -10 176 7T118 65T95 175T111 350Q136 490 175 568T269 678T390 710Q441 710 477 693T534 635T557 525T541 350Q517 210 478 132T385 22T263 -10ZM273 50Q306 50 339 75T401 165T451 350Q467 440 467
498T456 590T424 636T379 650Q347 650 314 625T252 535T201 350Q185 260 185 202T197 110T229 64T273 50ZM278 750L376 880H471L523 750H463L414 824L338 750H278Z" />
<glyph unicode="&#xd5;" horiz-adv-x="530" d="M263 -10Q212 -10 176 7T118 65T95 175T111 350Q136 490 175 568T269 678T390 710Q441 710 477 693T534 635T557 525T541 350Q517 210 478 132T385 22T263 -10ZM273 50Q306 50 339 75T401 165T451 350Q467 440 467
498T456 590T424 636T379 650Q347 650 314 625T252 535T201 350Q185 260 185 202T197 110T229 64T273 50ZM449 765Q424 765 410 780T386 809T364 824Q342 824 332 780H282Q293 833 315 859T375 885Q394 885 406 876T426 855T442 834T457 825Q482 825 491 870H541Q530
815 509 790T449 765Z" />
<glyph unicode="&#xd6;" horiz-adv-x="530" d="M263 -10Q212 -10 176 7T118 65T95 175T111 350Q136 490 175 568T269 678T390 710Q441 710 477 693T534 635T557 525T541 350Q517 210 478 132T385 22T263 -10ZM273 50Q306 50 339 75T401 165T451 350Q467 440 467
498T456 590T424 636T379 650Q347 650 314 625T252 535T201 350Q185 260 185 202T197 110T229 64T273 50ZM439 780L458 890H548L529 780H439ZM279 780L298 890H388L369 780H279Z" />
<glyph unicode="&#xd7;" horiz-adv-x="400" d="M124 170L79 225L203 330L116 435L181 490L267 385L391 490L436 435L313 330L399 225L334 170L248 275L124 170Z" />
<glyph unicode="&#xd8;" horiz-adv-x="540" d="M268 -10Q215 -10 177 8T119 73L73 20L38 50L105 126Q98 167 100 222T116 350Q141 490 180 568T274 678T395 710Q448 710 486 692T543 627L589 680L624 650L558 574Q564 534 562 479T546 350Q522 210 483 132T390
22T268 -10ZM278 50Q311 50 344 75T406 165T456 350Q463 387 466 418T471 475L192 156Q199 95 223 73T278 50ZM191 225L469 543Q463 605 440 627T384 650Q352 650 319 625T257 535T206 350Q200 313 196 282T191 225Z" />
<glyph unicode="&#xd9;" horiz-adv-x="520" d="M258 -10Q188 -10 148 13T97 90T102 240L183 700H273L192 240Q179 165 184 124T211 67T268 50Q303 50 330 66T378 124T412 240L493 700H583L502 240Q485 145 455 91T376 13T258 -10ZM344 760L296 890H391L404 760H344Z" />
<glyph unicode="&#xda;" horiz-adv-x="520" d="M258 -10Q188 -10 148 13T97 90T102 240L183 700H273L192 240Q179 165 184 124T211 67T268 50Q303 50 330 66T378 124T412 240L493 700H583L502 240Q485 145 455 91T376 13T258 -10ZM342 760L400 890H495L402 760H342Z" />
<glyph unicode="&#xdb;" horiz-adv-x="520" d="M258 -10Q188 -10 148 13T97 90T102 240L183 700H273L192 240Q179 165 184 124T211 67T268 50Q303 50 330 66T378 124T412 240L493 700H583L502 240Q485 145 455 91T376 13T258 -10ZM264 750L362 880H457L509 750H449L400
824L324 750H264Z" />
<glyph unicode="&#xdc;" horiz-adv-x="520" d="M258 -10Q188 -10 148 13T97 90T102 240L183 700H273L192 240Q179 165 184 124T211 67T268 50Q303 50 330 66T378 124T412 240L493 700H583L502 240Q485 145 455 91T376 13T258 -10ZM425 780L444 890H534L515 780H425ZM265
780L284 890H374L355 780H265Z" />
<glyph unicode="&#xdd;" horiz-adv-x="450" d="M180 0L218 220L133 700H223L285 345L473 700H563L308 220L270 0H180ZM314 760L372 890H467L374 760H314Z" />
<glyph unicode="&#xde;" horiz-adv-x="500" d="M68 -10L195 710H285L271 630Q423 623 483 552T521 350Q498 219 413 149T172 70L158 -10H68ZM183 135Q289 139 351 192T431 350Q450 455 407 508T259 565L183 135Z" />
<glyph unicode="&#xdf;" horiz-adv-x="530" d="M323 -10Q301 -10 275 -4T226 10L233 50H313Q358 50 389 68T428 135Q433 165 421 186T387 224T344 261T310 304T304 365Q310 399 330 422T374 463T417 502T441 550Q449 591 428 618T368 645Q323 645 290 612T242
495L155 0H65L152 495Q172 611 227 660T380 710Q470 710 507 668T531 550Q525 514 505 491T461 449T418 411T394 365Q390 341 403 324T438 290T481 254T514 206T518 135Q508 78 483 47T418 3T323 -10Z" />
<glyph unicode="&#xe0;" horiz-adv-x="465" d="M208 -10Q156 -10 123 13T81 93T89 250Q107 350 137 406T214 486T329 510Q374 510 412 503T484 480L400 0H325V30H320Q298 11 268 1T208 -10ZM248 50Q267 50 288 56T322 70L389 450H319Q287 450 261 434T214 374T179
250Q165 170 169 127T195 67T248 50ZM314 560L266 690H361L374 560H314Z" />
<glyph unicode="&#xe1;" horiz-adv-x="465" d="M208 -10Q156 -10 123 13T81 93T89 250Q107 350 137 406T214 486T329 510Q374 510 412 503T484 480L400 0H325V30H320Q298 11 268 1T208 -10ZM248 50Q267 50 288 56T322 70L389 450H319Q287 450 261 434T214 374T179
250Q165 170 169 127T195 67T248 50ZM312 560L370 690H465L372 560H312Z" />
<glyph unicode="&#xe2;" horiz-adv-x="465" d="M208 -10Q156 -10 123 13T81 93T89 250Q107 350 137 406T214 486T329 510Q374 510 412 503T484 480L400 0H325V30H320Q298 11 268 1T208 -10ZM248 50Q267 50 288 56T322 70L389 450H319Q287 450 261 434T214 374T179
250Q165 170 169 127T195 67T248 50ZM234 550L332 680H427L479 550H419L370 624L294 550H234Z" />
<glyph unicode="&#xe3;" horiz-adv-x="465" d="M208 -10Q156 -10 123 13T81 93T89 250Q107 350 137 406T214 486T329 510Q374 510 412 503T484 480L400 0H325V30H320Q298 11 268 1T208 -10ZM248 50Q267 50 288 56T322 70L389 450H319Q287 450 261 434T214 374T179
250Q165 170 169 127T195 67T248 50ZM405 565Q380 565 366 580T342 609T320 624Q298 624 288 580H238Q249 633 271 659T331 685Q350 685 362 676T382 655T398 634T413 625Q438 625 447 670H497Q486 615 465 590T405 565Z" />
<glyph unicode="&#xe4;" horiz-adv-x="465" d="M208 -10Q156 -10 123 13T81 93T89 250Q107 350 137 406T214 486T329 510Q374 510 412 503T484 480L400 0H325V30H320Q298 11 268 1T208 -10ZM248 50Q267 50 288 56T322 70L389 450H319Q287 450 261 434T214 374T179
250Q165 170 169 127T195 67T248 50ZM395 580L414 690H504L485 580H395ZM235 580L254 690H344L325 580H235Z" />
<glyph unicode="&#xe5;" horiz-adv-x="465" d="M208 -10Q156 -10 123 13T81 93T89 250Q107 350 137 406T214 486T329 510Q374 510 412 503T484 480L400 0H325V30H320Q298 11 268 1T208 -10ZM248 50Q267 50 288 56T322 70L389 450H319Q287 450 261 434T214 374T179
250Q165 170 169 127T195 67T248 50ZM354 540Q317 540 297 561T283 620Q290 658 317 679T382 700Q420 700 440 679T453 620Q446 583 419 562T354 540ZM362 585Q377 585 388 593T403 620Q406 639 398 647T374 655Q359 655 348 647T333 620Q329 601 338 593T362 585Z"
/>
<glyph unicode="&#xe6;" horiz-adv-x="685" d="M193 -10Q148 -10 117 2T72 47T69 140Q79 198 103 229T164 272T245 285Q268 285 294 282T343 275L354 340Q366 408 342 429T264 450H164L171 490Q195 498 229 504T294 510Q339 510 374 492T422 440Q447 474 483 492T569
510Q659 510 695 471T718 360Q706 293 659 257T518 220H423Q406 123 432 87T533 50H633L626 10Q603 3 568 -3T503 -10Q443 -10 409 6T355 60Q327 26 287 8T193 -10ZM223 50Q248 50 267 57T298 72T309 80L334 225H264Q227 225 198 207T159 140Q150 88 171 69T223
50ZM434 280H529Q570 280 595 301T628 360Q636 405 617 430T560 455Q533 455 509 440T465 386T434 280Z" />
<glyph unicode="&#xe7;" horiz-adv-x="375" d="M238 -10Q171 -10 132 13T82 93T89 250Q107 350 136 406T211 486T319 510Q349 510 382 504T436 490L429 450H329Q292 450 263 434T214 374T179 250Q165 170 170 127T201 67T268 50H368L361 10Q338 3 303 -3T238 -10ZM216
-165Q182 -165 164 -158T145 -150L150 -120H214Q229 -120 238 -113T249 -95Q251 -84 245 -77T223 -70H168L183 15H233L226 -25H241Q282 -25 300 -45T314 -95Q309 -125 283 -145T216 -165Z" />
<glyph unicode="&#xe8;" horiz-adv-x="430" d="M253 -10Q178 -10 136 13T83 93T89 250Q107 350 136 406T211 486T319 510Q405 510 442 468T466 350Q454 283 408 247T267 210H172Q156 120 182 85T283 50H383L376 10Q353 3 318 -3T253 -10ZM182 270H277Q318 270
343 291T376 350Q385 399 365 427T310 455Q283 455 259 439T215 383T182 270ZM290 560L242 690H337L350 560H290Z" />
<glyph unicode="&#xe9;" horiz-adv-x="430" d="M253 -10Q178 -10 136 13T83 93T89 250Q107 350 136 406T211 486T319 510Q405 510 442 468T466 350Q454 283 408 247T267 210H172Q156 120 182 85T283 50H383L376 10Q353 3 318 -3T253 -10ZM182 270H277Q318 270
343 291T376 350Q385 399 365 427T310 455Q283 455 259 439T215 383T182 270ZM288 560L346 690H441L348 560H288Z" />
<glyph unicode="&#xea;" horiz-adv-x="430" d="M253 -10Q178 -10 136 13T83 93T89 250Q107 350 136 406T211 486T319 510Q405 510 442 468T466 350Q454 283 408 247T267 210H172Q156 120 182 85T283 50H383L376 10Q353 3 318 -3T253 -10ZM182 270H277Q318 270
343 291T376 350Q385 399 365 427T310 455Q283 455 259 439T215 383T182 270ZM210 550L308 680H403L455 550H395L346 624L270 550H210Z" />
<glyph unicode="&#xeb;" horiz-adv-x="430" d="M253 -10Q178 -10 136 13T83 93T89 250Q107 350 136 406T211 486T319 510Q405 510 442 468T466 350Q454 283 408 247T267 210H172Q156 120 182 85T283 50H383L376 10Q353 3 318 -3T253 -10ZM182 270H277Q318 270
343 291T376 350Q385 399 365 427T310 455Q283 455 259 439T215 383T182 270ZM371 580L390 690H480L461 580H371ZM211 580L230 690H320L301 580H211Z" />
<glyph unicode="&#xec;" horiz-adv-x="230" d="M70 0L158 500H248L160 0H70ZM433 560L385 690H480L493 560H433Z" />
<glyph unicode="&#xed;" horiz-adv-x="230" d="M70 0L158 500H248L160 0H70ZM166 560L224 690H319L226 560H166Z" />
<glyph unicode="&#xee;" horiz-adv-x="230" d="M70 0L158 500H248L160 0H70ZM344 550L442 680H537L589 550H529L480 624L404 550H344Z" />
<glyph unicode="&#xef;" horiz-adv-x="230" d="M70 0L158 500H248L160 0H70ZM505 580L524 690H614L595 580H505ZM345 580L364 690H454L435 580H345Z" />
<glyph unicode="&#xf0;" horiz-adv-x="455" d="M223 -10Q129 -10 92 40T77 215Q100 339 153 389T292 440Q326 440 349 433T393 415Q400 453 397 485T381 545L320 485L281 520L351 589Q326 616 286 636T193 670L205 710Q270 704 319 687T404 641L469 705L508 670L439
603Q470 560 478 500T473 360L447 215Q425 91 371 41T223 -10ZM232 45Q273 45 306 81T357 215L383 360Q373 368 354 374T312 380Q256 380 220 345T167 215Q156 150 161 113T186 61T232 45Z" />
<glyph unicode="&#xf1;" horiz-adv-x="475" d="M65 0L153 500H228L227 470H232Q255 489 284 499T344 510Q392 510 424 498T470 453T473 360L410 0H320L383 360Q389 395 380 414T352 442T304 450Q285 450 264 444T230 430L155 0H65ZM395 565Q370 565 356 580T332
609T310 624Q288 624 278 580H228Q239 633 261 659T321 685Q340 685 352 676T372 655T388 634T403 625Q428 625 437 670H487Q476 615 455 590T395 565Z" />
<glyph unicode="&#xf2;" horiz-adv-x="460" d="M228 -10Q168 -10 131 14T83 96T89 250Q106 348 137 404T213 485T319 510Q379 510 416 486T464 405T459 250Q442 153 411 96T334 15T228 -10ZM237 45Q262 45 287 63T333 125T369 250Q383 330 378 374T354 437T310
455Q285 455 260 437T214 375T179 250Q165 170 170 126T193 63T237 45ZM286 560L238 690H333L346 560H286Z" />
<glyph unicode="&#xf3;" horiz-adv-x="460" d="M228 -10Q168 -10 131 14T83 96T89 250Q106 348 137 404T213 485T319 510Q379 510 416 486T464 405T459 250Q442 153 411 96T334 15T228 -10ZM237 45Q262 45 287 63T333 125T369 250Q383 330 378 374T354 437T310
455Q285 455 260 437T214 375T179 250Q165 170 170 126T193 63T237 45ZM284 560L342 690H437L344 560H284Z" />
<glyph unicode="&#xf4;" horiz-adv-x="460" d="M228 -10Q168 -10 131 14T83 96T89 250Q106 348 137 404T213 485T319 510Q379 510 416 486T464 405T459 250Q442 153 411 96T334 15T228 -10ZM237 45Q262 45 287 63T333 125T369 250Q383 330 378 374T354 437T310
455Q285 455 260 437T214 375T179 250Q165 170 170 126T193 63T237 45ZM206 550L304 680H399L451 550H391L342 624L266 550H206Z" />
<glyph unicode="&#xf5;" horiz-adv-x="460" d="M228 -10Q168 -10 131 14T83 96T89 250Q106 348 137 404T213 485T319 510Q379 510 416 486T464 405T459 250Q442 153 411 96T334 15T228 -10ZM237 45Q262 45 287 63T333 125T369 250Q383 330 378 374T354 437T310
455Q285 455 260 437T214 375T179 250Q165 170 170 126T193 63T237 45ZM377 565Q352 565 338 580T314 609T292 624Q270 624 260 580H210Q221 633 243 659T303 685Q322 685 334 676T354 655T370 634T385 625Q410 625 419 670H469Q458 615 437 590T377 565Z" />
<glyph unicode="&#xf6;" horiz-adv-x="460" d="M228 -10Q168 -10 131 14T83 96T89 250Q106 348 137 404T213 485T319 510Q379 510 416 486T464 405T459 250Q442 153 411 96T334 15T228 -10ZM237 45Q262 45 287 63T333 125T369 250Q383 330 378 374T354 437T310
455Q285 455 260 437T214 375T179 250Q165 170 170 126T193 63T237 45ZM367 580L386 690H476L457 580H367ZM207 580L226 690H316L297 580H207Z" />
<glyph unicode="&#xf7;" horiz-adv-x="430" d="M75 260L89 340H459L445 260H75ZM191 95L207 185H287L271 95H191ZM248 415L264 505H344L328 415H248Z" />
<glyph unicode="&#xf8;" horiz-adv-x="480" d="M238 -10Q190 -10 157 5T106 55L68 20L40 60L91 107Q87 135 89 170T99 250Q116 348 147 404T223 485T329 510Q376 510 410 495T461 445L499 480L527 440L476 393Q479 365 478 330T469 250Q452 153 421 96T344 15T238
-10ZM247 45Q272 45 297 63T343 125T379 250Q382 267 383 282T386 311L180 123Q185 79 203 62T247 45ZM180 188L386 377Q381 421 363 438T320 455Q295 455 270 437T224 375T189 250Q186 233 184 218T180 188Z" />
<glyph unicode="&#xf9;" horiz-adv-x="475" d="M218 -10Q171 -10 138 2T92 47T89 140L153 500H243L179 140Q170 88 193 69T258 50Q277 50 298 56T332 70L408 500H498L410 0H335V30H330Q308 11 278 1T218 -10ZM300 560L252 690H347L360 560H300Z" />
<glyph unicode="&#xfa;" horiz-adv-x="475" d="M218 -10Q171 -10 138 2T92 47T89 140L153 500H243L179 140Q170 88 193 69T258 50Q277 50 298 56T332 70L408 500H498L410 0H335V30H330Q308 11 278 1T218 -10ZM294 560L352 690H447L354 560H294Z" />
<glyph unicode="&#xfb;" horiz-adv-x="475" d="M218 -10Q171 -10 138 2T92 47T89 140L153 500H243L179 140Q170 88 193 69T258 50Q277 50 298 56T332 70L408 500H498L410 0H335V30H330Q308 11 278 1T218 -10ZM213 550L311 680H406L458 550H398L349 624L273 550H213Z" />
<glyph unicode="&#xfc;" horiz-adv-x="475" d="M218 -10Q171 -10 138 2T92 47T89 140L153 500H243L179 140Q170 88 193 69T258 50Q277 50 298 56T332 70L408 500H498L410 0H335V30H330Q308 11 278 1T218 -10ZM377 580L396 690H486L467 580H377ZM217 580L236 690H326L307
580H217Z" />
<glyph unicode="&#xfd;" horiz-adv-x="475" d="M172 -210Q142 -210 110 -204T56 -190L63 -150H163Q231 -150 268 -115T322 15Q298 4 273 -3T218 -10Q171 -10 138 2T92 47T89 140L153 500H243L179 140Q170 88 193 69T258 50Q277 50 298 56T332 70L408 500H498L417
40Q400 -55 370 -109T291 -187T172 -210ZM292 560L350 690H445L352 560H292Z" />
<glyph unicode="&#xfe;" horiz-adv-x="470" d="M34 -200L193 700H283L245 485Q270 496 294 503T349 510Q402 510 434 487T477 407T469 250Q451 150 422 94T352 14T258 -10Q228 -10 206 -3T162 15L124 -200H34ZM238 50Q271 50 297 66T344 126T379 250Q393 330 388
373T363 433T309 450Q290 450 269 444T235 430L172 70Q182 63 200 57T238 50Z" />
<glyph unicode="&#xff;" horiz-adv-x="475" d="M172 -210Q142 -210 110 -204T56 -190L63 -150H163Q231 -150 268 -115T322 15Q298 4 273 -3T218 -10Q171 -10 138 2T92 47T89 140L153 500H243L179 140Q170 88 193 69T258 50Q277 50 298 56T332 70L408 500H498L417
40Q400 -55 370 -109T291 -187T172 -210ZM375 580L394 690H484L465 580H375ZM215 580L234 690H324L305 580H215Z" />
<glyph unicode="&#x2013;" horiz-adv-x="460" d="M73 245L85 315H485L473 245H73Z" />
<glyph unicode="&#x2014;" horiz-adv-x="640" d="M73 245L85 315H665L653 245H73Z" />
<glyph unicode="&#x2018;" horiz-adv-x="170" d="M124 480L193 700H258L219 480H124Z" />
<glyph unicode="&#x2019;" horiz-adv-x="170" d="M124 480L163 700H258L189 480H124Z" />
<glyph unicode="&#x201a;" horiz-adv-x="170" d="M19 -115L58 105H153L84 -115H19Z" />
<glyph unicode="&#x201c;" horiz-adv-x="320" d="M269 480L338 700H403L364 480H269ZM119 480L188 700H253L214 480H119Z" />
<glyph unicode="&#x201d;" horiz-adv-x="320" d="M274 480L313 700H408L339 480H274ZM124 480L163 700H258L189 480H124Z" />
<glyph unicode="&#x201e;" horiz-adv-x="320" d="M169 -115L208 105H303L234 -115H169ZM19 -115L58 105H153L84 -115H19Z" />
<glyph unicode="&#x2022;" horiz-adv-x="250" d="M92 270L120 429H280L252 270H92Z" />
<glyph unicode="&#x2039;" horiz-adv-x="295" d="M201 10L64 250L286 490L344 450L164 252L163 248L273 50L201 10Z" />
<glyph unicode="&#x203a;" horiz-adv-x="295" d="M96 10L38 50L218 248L219 252L109 450L181 490L319 250L96 10Z" />
</font>
</defs>
</svg>
