<?xml version="1.0" standalone="no"?>
<!DOCTYPE svg PUBLIC "-//W3C//DTD SVG 1.1//EN" "http://www.w3.org/Graphics/SVG/1.1/DTD/svg11.dtd">
<svg xmlns="http://www.w3.org/2000/svg">
<defs >
<font id="Cuprum" horiz-adv-x="451" ><font-face
    font-family="Cuprum SemiBold"
    units-per-em="1000"
    panose-1="0 0 5 0 0 0 0 0 0 0"
    ascent="895"
    descent="-260"
    alphabetic="0" />
<glyph unicode=" " horiz-adv-x="250" />
<glyph unicode="!" horiz-adv-x="250" d="M78 185L60 700H190L171 185H78ZM69 -8V108H179V-8H69Z" />
<glyph unicode="&quot;" horiz-adv-x="357" d="M228 465L203 700H317L292 465H228ZM65 465L40 700H153L128 465H65Z" />
<glyph unicode="#" horiz-adv-x="583" d="M82 0L112 197H20V273H124L148 427H50V503H162L192 700H298L268 503H365L395 700H502L472 503H563V427H457L434 273H533V197H422L392 0H285L315 197H218L188 0H82ZM222 273H336L360 427H246L222 273Z" />
<glyph unicode="$" horiz-adv-x="458" d="M197 -90V-10H192Q142 -10 100 -4T35 10V62H197V312Q167 325 138 341T85 381T47 441T32 530Q32 607 73 653T197 708V790H263V709Q303 708 336 702T388 690V638H263V390Q292 376 321 360T374 321T412 265T427 180Q427 101
389 55T263 -5V-90H197ZM263 79Q291 93 304 118T317 180Q317 215 302 237T263 276V79ZM197 427V627Q142 602 142 530Q142 492 157 468T197 427Z" />
<glyph unicode="%" horiz-adv-x="707" d="M103 0L493 700H603L213 0H103ZM530 -10Q460 -10 420 30T380 140Q380 210 420 250T530 290Q600 290 640 250T680 140Q680 70 640 30T530 -10ZM530 57Q555 57 571 76T588 140Q588 184 572 203T530 223Q505 223 489 204T472
140Q472 96 488 77T530 57ZM177 410Q107 410 67 450T27 560Q27 630 67 670T177 710Q247 710 287 670T327 560Q327 490 287 450T177 410ZM177 477Q202 477 218 496T235 560Q235 604 219 623T177 643Q152 643 135 624T118 560Q118 516 135 497T177 477Z" />
<glyph unicode="&amp;" horiz-adv-x="535" d="M205 -10Q127 -10 81 39T35 180Q35 225 41 266T55 330H142V180Q142 131 153 106T179 71T208 62Q225 62 239 71T268 102T295 160Q243 233 209 286T156 381T128 458T120 530Q120 615 167 662T300 710Q350 710 392 704T457
690V638H320Q282 638 256 610T230 530Q230 505 234 480T248 425T280 357T337 268L385 390H495L405 170L525 0H405L355 72Q338 45 319 27T272 -1T205 -10Z" />
<glyph unicode="&apos;" horiz-adv-x="193" d="M65 465L40 700H153L128 465H65Z" />
<glyph unicode="(" horiz-adv-x="259" d="M203 -190Q145 -110 112 -27T64 136T50 280Q50 345 64 424T111 586T203 750L259 720Q212 615 191 512T170 280Q170 153 191 49T259 -160L203 -190Z" />
<glyph unicode=")" horiz-adv-x="259" d="M56 -190L0 -160Q47 -55 68 49T89 280Q89 408 68 511T0 720L56 750Q114 670 147 587T195 424T209 280Q209 215 195 136T148 -26T56 -190Z" />
<glyph unicode="*" horiz-adv-x="443" d="M157 315L78 358L143 479L20 505L40 590L175 560V700H268V560L403 590L423 505L301 479L365 358L286 315L222 437L157 315Z" />
<glyph unicode="+" horiz-adv-x="443" d="M178 93V262H30V338H178V507H265V338H413V262H265V93H178Z" />
<glyph unicode="," horiz-adv-x="187" d="M40 -118V108H152L115 -118H40Z" />
<glyph unicode="-" horiz-adv-x="373" d="M30 262V338H343V262H30Z" />
<glyph unicode="." horiz-adv-x="190" d="M40 -8V108H150V-8H40Z" />
<glyph unicode="/" horiz-adv-x="410" d="M0 0L300 700H410L110 0H0Z" />
<glyph unicode="0" horiz-adv-x="523" d="M262 -10Q198 -10 150 23T74 134T47 350Q47 487 74 565T149 677T262 710Q326 710 374 677T450 566T477 350Q477 213 450 135T375 23T262 -10ZM262 57Q280 57 298 69T332 114T357 204T367 350Q367 439 358 496T333 585T299
630T262 643Q243 643 225 631T191 586T166 496T157 350Q157 261 166 204T191 115T225 70T262 57Z" />
<glyph unicode="1" horiz-adv-x="297" d="M117 0V623H10V680Q33 688 75 694T167 700H227V0H117Z" />
<glyph unicode="2" horiz-adv-x="410" d="M13 0V87Q84 169 132 228T211 333T256 418T270 500Q270 574 242 606T163 638H23V690Q46 698 88 704T180 710Q280 710 330 659T380 500Q380 452 362 406T310 309T229 201T125 77H377V0H13Z" />
<glyph unicode="3" horiz-adv-x="428" d="M172 -10Q122 -10 80 -4T15 10V62H152Q219 62 250 93T282 190Q282 262 251 294T152 327H75V403H142Q202 403 232 433T262 525Q262 580 234 609T155 638H25V690Q48 698 90 704T182 710Q274 710 323 662T372 525Q372 469
347 432T278 372V368Q315 357 340 330T379 267T392 190Q392 90 340 40T172 -10Z" />
<glyph unicode="4" horiz-adv-x="480" d="M287 0V173H27V260L277 700H397V250H453V173H397V0H287ZM128 250H287V532H283L128 250Z" />
<glyph unicode="5" horiz-adv-x="458" d="M202 -10Q152 -10 110 -4T45 10V62H182Q249 62 280 94T312 200Q312 276 281 309T182 342H57V700H398V628H167V413H202Q317 413 369 362T422 200Q422 93 370 42T202 -10Z" />
<glyph unicode="6" horiz-adv-x="468" d="M242 -10Q146 -10 97 41T47 200V420Q47 573 101 641T252 710Q302 710 344 704T408 690V638H278Q243 638 216 618T173 547T157 407Q180 415 208 419T260 423Q342 423 389 371T437 203Q437 93 388 42T242 -10ZM242 57Q278
57 302 90T327 203Q327 289 302 323T212 357H157V200Q157 123 181 90T242 57Z" />
<glyph unicode="7" horiz-adv-x="423" d="M107 0Q130 143 175 297T287 623H20V700H393V613Q326 444 283 294T217 0H107Z" />
<glyph unicode="8" horiz-adv-x="493" d="M247 -10Q139 -10 88 39T37 180Q37 229 54 264T101 324T163 363V367Q137 376 112 397T69 453T52 535Q52 616 101 663T247 710Q343 710 392 663T442 535Q442 488 425 454T383 398T330 367V363Q363 349 392 325T439 265T457
180Q457 88 406 39T247 -10ZM247 57Q292 57 319 87T347 180Q347 236 319 268T247 322Q203 300 175 268T147 180Q147 118 174 88T247 57ZM247 408Q283 421 307 452T332 535Q332 586 306 614T247 643Q213 643 188 615T162 535Q162 483 186 452T247 408Z" />
<glyph unicode="9" horiz-adv-x="468" d="M217 -10Q167 -10 125 -4T60 10V62H190Q226 62 253 82T296 154T312 293Q290 286 261 282T208 277Q126 277 79 329T32 497Q32 607 81 658T227 710Q323 710 372 659T422 500V280Q422 128 368 59T217 -10ZM257 343H312V500Q312
578 288 610T227 643Q190 643 166 610T142 497Q142 412 167 378T257 343Z" />
<glyph unicode=":" horiz-adv-x="190" d="M40 383V500H150V383H40ZM40 -8V108H150V-8H40Z" />
<glyph unicode=";" horiz-adv-x="182" d="M40 -118V108H152L115 -118H40ZM40 383V500H150V383H40Z" />
<glyph unicode="&lt;" horiz-adv-x="403" d="M363 7L40 203V302L363 498V387L147 257V251L363 118V7Z" />
<glyph unicode="=" horiz-adv-x="443" d="M30 347V428H413V347H30ZM30 172V253H413V172H30Z" />
<glyph unicode="&gt;" horiz-adv-x="403" d="M40 7V118L257 251V257L40 387V498L363 302V203L40 7Z" />
<glyph unicode="?" horiz-adv-x="387" d="M105 185Q105 240 119 277T154 341T197 394T232 448T247 520Q247 579 219 608T140 638H10V690Q33 698 75 704T167 710Q259 710 308 662T357 520Q357 469 342 434T303 371T257 317T217 260T198 185H105ZM97 -8V108H207V-8H97Z" />
<glyph unicode="@" horiz-adv-x="843" d="M437 -90Q247 -90 147 11T47 310Q47 508 144 609T417 710Q539 710 623 667T752 547T797 365Q797 266 770 206T681 118T515 90L503 120H498Q479 101 454 91T397 80Q355 80 319 103T260 174T237 297Q237 385 260 438T331
516T457 540Q494 540 534 534T597 520V155Q624 155 645 172T680 236T693 365Q693 499 621 571T417 643Q334 643 274 609T182 502T150 310Q150 195 183 122T285 16T457 -18H593V-70Q571 -77 529 -83T437 -90ZM427 147Q446 147 462 153T487 167V473H457Q422 473 397
458T360 404T347 297Q347 242 358 209T388 162T427 147Z" />
<glyph unicode="A" horiz-adv-x="530" d="M17 0L193 700H337L513 0H400L356 177H174L130 0H17ZM190 253H339L267 560H263L190 253Z" />
<glyph unicode="B" horiz-adv-x="520" d="M240 -10Q188 -10 148 -6T70 10V690Q108 701 148 705T240 710Q350 710 401 662T453 525Q453 480 431 440T363 377V373Q423 353 453 306T483 190Q483 90 428 40T240 -10ZM180 62H240Q308 62 339 93T370 193Q370 267 339
299T240 332H180V62ZM180 403H230Q283 403 311 433T340 522Q340 579 312 608T230 638H180V403Z" />
<glyph unicode="C" horiz-adv-x="448" d="M277 -10Q202 -10 151 21T73 131T47 350Q47 490 72 568T147 678T267 710Q317 710 359 704T423 690V638H300Q259 638 227 614T176 527T157 350Q157 236 176 174T229 87T310 62H433V10Q411 3 369 -3T277 -10Z" />
<glyph unicode="D" horiz-adv-x="537" d="M240 -10Q188 -10 148 -6T70 10V690Q108 701 148 705T240 710Q322 710 377 677T461 566T490 350Q490 213 462 135T378 23T240 -10ZM180 62H240Q282 62 313 86T362 173T380 350Q380 465 363 527T314 613T240 638H180V62Z" />
<glyph unicode="E" horiz-adv-x="467" d="M70 0V700H427V623H180V403H397V327H180V77H427V0H70Z" />
<glyph unicode="F" horiz-adv-x="447" d="M70 0V700H427V623H180V388H387V312H180V0H70Z" />
<glyph unicode="G" horiz-adv-x="517" d="M297 -10Q212 -10 157 21T74 131T47 350Q47 490 73 568T150 678T277 710Q327 710 369 704T433 690V638H303Q260 638 227 614T176 527T157 350Q157 236 176 174T231 87T317 62H347V380H457V10Q435 3 392 -3T297 -10Z" />
<glyph unicode="H" horiz-adv-x="550" d="M70 0V700H180V393H370V700H480V0H370V317H180V0H70Z" />
<glyph unicode="I" horiz-adv-x="250" d="M70 0V700H180V0H70Z" />
<glyph unicode="J" horiz-adv-x="367" d="M97 -10Q69 -10 44 -4T0 10V62H97Q127 62 149 77T184 132T197 240V700H307V240Q307 148 284 94T215 15T97 -10Z" />
<glyph unicode="K" horiz-adv-x="510" d="M70 0V700H180V373L355 700H480L288 355L500 0H375L180 337V0H70Z" />
<glyph unicode="L" horiz-adv-x="437" d="M70 0V700H180V77H427V0H70Z" />
<glyph unicode="M" horiz-adv-x="753" d="M52 0L92 700H215L375 223H379L538 700H662L702 0H595L567 489H563L428 87H325L191 489H186L158 0H52Z" />
<glyph unicode="N" horiz-adv-x="560" d="M70 0V700H183L379 228H383V700H490V0H377L181 472H177V0H70Z" />
<glyph unicode="O" horiz-adv-x="543" d="M272 -10Q203 -10 153 23T75 134T47 350Q47 487 74 565T152 677T272 710Q341 710 391 677T469 566T497 350Q497 213 470 135T392 23T272 -10ZM272 57Q294 57 314 70T351 116T377 205T387 350Q387 437 377 494T351 584T315
629T272 643Q250 643 230 630T193 584T167 495T157 350Q157 263 166 206T192 116T229 71T272 57Z" />
<glyph unicode="P" horiz-adv-x="507" d="M70 0V690Q108 701 148 705T240 710Q322 710 372 686T446 607T470 460Q470 364 448 308T382 227T270 202Q255 202 227 205T180 212V0H70ZM180 278H240Q280 278 307 294T347 349T360 460Q360 530 347 568T307 622T240 638H180V278Z"
/>
<glyph unicode="Q" horiz-adv-x="550" d="M272 -10Q203 -10 153 23T75 134T47 350Q47 487 74 565T152 677T272 710Q341 710 391 677T469 566T497 350Q497 237 476 167T423 57Q466 57 493 51T543 37V-10H272ZM272 57Q294 57 314 70T351 116T377 205T387 350Q387
437 377 494T351 584T315 629T272 643Q250 643 230 630T193 584T167 495T157 350Q157 260 167 203T194 114T231 70T272 57Z" />
<glyph unicode="R" horiz-adv-x="525" d="M70 0V690Q108 701 148 705T240 710Q322 710 372 686T446 610T470 470Q470 403 457 359T420 290T363 250L493 0H370L257 227H180V0H70ZM180 303H240Q300 303 330 339T360 470Q360 535 347 571T307 623T240 638H180V303Z" />
<glyph unicode="S" horiz-adv-x="458" d="M192 -10Q142 -10 100 -4T35 10V62H172Q250 62 283 91T317 180Q317 222 297 247T244 289T175 322T106 363T53 426T32 530Q32 615 82 662T232 710Q282 710 324 704T388 690V638H252Q199 638 171 610T142 530Q142 485 162
459T215 415T284 381T353 341T406 279T427 180Q427 88 373 39T192 -10Z" />
<glyph unicode="T" horiz-adv-x="443" d="M167 0V623H10V700H433V623H277V0H167Z" />
<glyph unicode="U" horiz-adv-x="540" d="M270 -10Q199 -10 152 14T83 93T60 240V700H170V240Q170 168 182 129T217 73T270 57Q300 57 322 73T357 128T370 240V700H480V240Q480 148 458 94T389 15T270 -10Z" />
<glyph unicode="V" horiz-adv-x="510" d="M183 0L17 700H130L253 135H257L380 700H493L327 0H183Z" />
<glyph unicode="W" horiz-adv-x="740" d="M138 0L17 700H130L217 183H221L322 570H418L519 183H523L610 700H723L602 0H478L372 400H368L262 0H138Z" />
<glyph unicode="X" horiz-adv-x="480" d="M12 0L158 360L27 700H140L240 433L340 700H453L322 360L468 0H355L240 290L125 0H12Z" />
<glyph unicode="Y" horiz-adv-x="470" d="M180 0V213L7 700H120L235 354L350 700H463L290 213V0H180Z" />
<glyph unicode="Z" horiz-adv-x="425" d="M20 0V72L280 623H25V700H405V628L145 77H400V0H20Z" />
<glyph unicode="[" horiz-adv-x="277" d="M70 -180V740H277V673H180V-113H277V-180H70Z" />
<glyph unicode="\" horiz-adv-x="410" d="M300 0L0 700H110L410 0H300Z" />
<glyph unicode="]" horiz-adv-x="277" d="M0 -180V-113H97V673H0V740H207V-180H0Z" />
<glyph unicode="^" horiz-adv-x="465" d="M108 400L30 450L183 700H282L435 450L357 400L235 600H230L108 400Z" />
<glyph unicode="_" horiz-adv-x="313" d="M0 -77V0H313V-77H0Z" />
<glyph unicode="`" horiz-adv-x="190" d="M94 560L23 690H132L164 560H94Z" />
<glyph unicode="a" horiz-adv-x="467" d="M195 -10Q152 -10 117 3T62 50T42 150Q42 214 62 248T119 295T202 308Q225 308 248 305T292 298V340Q292 403 264 423T185 443H85V490Q108 498 141 504T205 510Q270 510 314 497T380 447T402 340V0H320L308 30H303Q286
14 259 2T195 -10ZM232 57Q251 57 267 63T292 77V242H232Q212 242 194 234T164 206T152 150Q152 113 163 93T193 65T232 57Z" />
<glyph unicode="b" horiz-adv-x="487" d="M233 -10Q184 -10 146 -3T70 20V700H180V485Q198 496 220 503T270 510Q324 510 363 485T424 404T445 250Q445 153 423 97T353 15T233 -10ZM180 57H233Q264 57 287 73T322 131T335 250Q335 327 323 369T290 427T240 443Q221
443 205 437T180 423V57Z" />
<glyph unicode="c" horiz-adv-x="388" d="M247 -10Q178 -10 133 15T65 96T42 250Q42 347 64 403T129 485T237 510Q272 510 306 504T363 490V443H257Q224 443 201 427T165 369T152 250Q152 173 165 132T203 74T267 57H373V10Q351 3 317 -3T247 -10Z" />
<glyph unicode="d" horiz-adv-x="487" d="M210 -10Q159 -10 121 15T63 96T42 250Q42 347 63 403T123 485T217 510Q244 510 266 503T307 485V700H417V0H335L323 30H318Q301 14 274 2T210 -10ZM247 57Q266 57 281 63T307 77V423Q298 431 282 437T247 443Q219 443
198 427T164 369T152 250Q152 173 164 132T197 74T247 57Z" />
<glyph unicode="e" horiz-adv-x="453" d="M262 -10Q185 -10 137 15T65 96T42 250Q42 347 63 403T126 485T227 510Q286 510 327 485T390 404T412 250V217H152Q152 127 183 92T282 57H388V10Q366 3 332 -3T262 -10ZM152 283H302Q302 349 292 385T265 434T227 448Q206
448 189 435T162 385T152 283Z" />
<glyph unicode="f" horiz-adv-x="333" d="M77 0V418H20V490H77V530Q77 600 97 636T151 686T227 700Q245 700 267 697T310 690T343 680V633H260Q242 633 225 625T198 594T187 530V490H323V438Q301 431 267 425T197 418H187V0H77Z" />
<glyph unicode="g" horiz-adv-x="482" d="M207 -210Q172 -210 138 -204T80 -190V-143H187Q247 -143 277 -109T307 15Q289 4 267 -3T217 -10Q163 -10 124 15T63 96T42 250Q42 347 64 403T134 485T253 510Q304 510 342 503T417 480V40Q417 -52 394 -106T325 -185T207
-210ZM247 57Q266 57 282 63T307 77V443H253Q223 443 200 427T165 369T152 250Q152 173 164 132T197 74T247 57Z" />
<glyph unicode="h" horiz-adv-x="500" d="M70 0V700H180V482Q200 495 226 502T283 510Q326 510 360 497T415 451T435 353V0H325V353Q325 406 300 424T240 443Q221 443 205 437T180 423V0H70Z" />
<glyph unicode="i" horiz-adv-x="250" d="M70 0V500H180V0H70ZM70 563V680H180V563H70Z" />
<glyph unicode="j" horiz-adv-x="257" d="M37 -210Q9 -210 -16 -204T-60 -190V-143H10Q27 -143 42 -133T67 -101T77 -40V500H187V-40Q187 -110 167 -146T113 -196T37 -210ZM77 563V680H187V563H77Z" />
<glyph unicode="k" horiz-adv-x="452" d="M70 0V700H180V280L308 500H428L287 265L442 0H322L180 250V0H70Z" />
<glyph unicode="l" horiz-adv-x="250" d="M70 0V700H180V0H70Z" />
<glyph unicode="m" horiz-adv-x="723" d="M65 0V500H147L158 470H163Q180 486 206 498T273 510Q310 510 337 500T384 469Q408 489 440 499T512 510Q552 510 585 497T638 451T658 353V0H548V353Q548 388 537 407T508 435T472 443Q452 443 435 438T407 427Q411 416
414 396T417 353V0H307V353Q307 388 296 407T267 435T233 443Q214 443 199 437T175 423V0H65Z" />
<glyph unicode="n" horiz-adv-x="495" d="M65 0V500H147L158 470H163Q180 486 207 498T275 510Q320 510 354 497T409 451T430 353V0H320V353Q320 406 295 424T235 443Q216 443 200 437T175 423V0H65Z" />
<glyph unicode="o" horiz-adv-x="473" d="M237 -10Q173 -10 130 15T65 97T42 250Q42 346 64 403T130 485T237 510Q300 510 343 485T409 403T432 250Q432 154 410 97T344 15T237 -10ZM237 52Q260 52 279 69T310 129T322 250Q322 329 311 371T280 431T237 448Q214
448 195 431T164 372T152 250Q152 172 163 129T194 69T237 52Z" />
<glyph unicode="p" horiz-adv-x="482" d="M65 -200V500H147L158 470H163Q180 486 207 498T272 510Q323 510 360 485T419 404T440 250Q440 153 419 97T359 15T265 -10Q238 -10 216 -3T175 15V-200H65ZM235 57Q263 57 284 73T318 131T330 250Q330 327 318 369T285
427T235 443Q216 443 201 437T175 423V77Q184 70 200 64T235 57Z" />
<glyph unicode="q" horiz-adv-x="482" d="M307 -200V15Q289 4 267 -3T217 -10Q163 -10 124 15T63 96T42 250Q42 347 64 403T134 485T253 510Q304 510 342 503T417 480V-200H307ZM247 57Q266 57 282 63T307 77V443H253Q223 443 200 427T165 369T152 250Q152 173
164 132T197 74T247 57Z" />
<glyph unicode="r" horiz-adv-x="352" d="M65 0V500H147L159 460H164Q180 475 208 487T282 500H342V418H235Q216 418 201 413T175 398V0H65Z" />
<glyph unicode="s" horiz-adv-x="408" d="M167 -10Q132 -10 98 -4T40 10V57H147Q207 57 237 73T267 130Q267 157 250 174T207 203T150 228T93 257T49 302T32 373Q32 454 80 482T222 510Q257 510 291 504T348 490V443H242Q197 443 170 428T142 380Q142 353 159
336T202 307T259 282T316 253T360 208T377 137Q377 78 354 47T285 3T167 -10Z" />
<glyph unicode="t" horiz-adv-x="358" d="M227 -10Q185 -10 151 3T97 53T77 160V418H20V490H77V610H187V490H323V438Q301 431 267 425T197 418H187V160Q187 118 197 96T222 66T253 57H343V10Q331 5 311 1T268 -7T227 -10Z" />
<glyph unicode="u" horiz-adv-x="495" d="M220 -10Q176 -10 141 3T86 49T65 147V500H175V147Q175 95 200 76T260 57Q279 57 295 63T320 77V500H430V0H348L337 30H332Q315 14 288 2T220 -10Z" />
<glyph unicode="v" horiz-adv-x="457" d="M157 0L15 500H123L226 112H230L333 500H442L300 0H157Z" />
<glyph unicode="w" horiz-adv-x="637" d="M112 0L15 500H123L187 140H191L275 400H362L445 140H450L513 500H622L525 0H402L320 253H316L235 0H112Z" />
<glyph unicode="x" horiz-adv-x="420" d="M12 0L133 255L16 500H130L210 322L290 500H404L287 255L408 0H295L210 188L125 0H12Z" />
<glyph unicode="y" horiz-adv-x="495" d="M220 -210Q185 -210 151 -204T93 -190V-143H200Q260 -143 290 -108T320 18Q300 5 275 -2T220 -10Q176 -10 141 3T86 49T65 147V500H175V147Q175 95 200 76T260 57Q279 57 295 63T320 77V500H430V40Q430 -52 408 -106T339
-185T220 -210Z" />
<glyph unicode="z" horiz-adv-x="390" d="M20 0V67L242 428H30V500H370V433L149 72H365V0H20Z" />
<glyph unicode="{" horiz-adv-x="297" d="M297 -180Q230 -180 186 -167T119 -117T97 -10V120Q97 181 76 208T20 247V313Q55 324 76 351T97 440V570Q97 640 119 676T185 726T297 740V673Q259 673 233 653T207 570V460Q207 405 196 373T165 320T120 282V278Q145
261 164 241T195 188T207 100V-10Q207 -54 219 -76T251 -106T297 -113V-180Z" />
<glyph unicode="|" horiz-adv-x="250" d="M70 -200V700H180V-200H70Z" />
<glyph unicode="}" horiz-adv-x="297" d="M0 -180V-113Q25 -113 45 -106T78 -77T90 -10V100Q90 155 101 187T132 240T177 278V282Q152 300 132 320T101 372T90 460V570Q90 633 64 653T0 673V740Q67 740 111 727T178 677T200 570V440Q200 379 221 352T277 313V247Q242
236 221 209T200 120V-10Q200 -80 178 -116T112 -166T0 -180Z" />
<glyph unicode="~" horiz-adv-x="457" d="M30 192Q30 276 57 323T153 370Q187 370 208 358T245 330T273 302T303 290Q328 290 339 310T350 365H427Q427 282 400 235T303 187Q269 187 248 199T211 227T183 255T153 267Q130 267 119 247T107 192H30Z" />
<glyph unicode="&#xa0;" horiz-adv-x="250" />
<glyph unicode="&#xa1;" horiz-adv-x="250" d="M60 0L78 515H171L190 0H60ZM69 592V708H179V592H69Z" />
<glyph unicode="&#xa2;" horiz-adv-x="388" d="M218 -60V-9Q159 -4 120 22T61 104T42 250Q42 342 61 397T120 479T218 509V570H285V507Q307 504 328 500T363 490V443H285V57H373V10Q357 5 334 0T285 -8V-60H218ZM218 65V437Q187 425 170 383T152 250Q152 163 169
121T218 65Z" />
<glyph unicode="&#xa3;" horiz-adv-x="428" d="M45 0V57Q60 67 70 83T86 130T92 210V317H35V393H92V500Q92 590 114 635T183 695T302 710Q329 710 354 704T398 690V638H302Q272 638 250 628T215 589T202 500V393H348V317H202V234Q202 164 187 130T152 81V77H408V0H45Z" />
<glyph unicode="&#xa4;" horiz-adv-x="520" d="M80 128L23 185L93 255Q82 271 75 297T68 350Q68 376 75 402T93 445L23 515L80 572L150 507Q166 520 195 530T260 540Q295 540 324 530T370 507L440 572L497 515L427 445Q438 429 445 403T452 350Q452 324 445 298T427
255L497 185L440 128L370 193Q354 180 325 170T260 160Q225 160 196 170T150 193L80 128ZM260 232Q293 232 318 261T343 350Q343 409 318 438T260 468Q228 468 203 439T177 350Q177 291 202 262T260 232Z" />
<glyph unicode="&#xa5;" horiz-adv-x="470" d="M180 0V198H63V275H158L139 328H63V405H111L7 700H120L235 354L350 700H463L358 405H407V328H331L312 275H407V198H290V0H180Z" />
<glyph unicode="&#xa6;" horiz-adv-x="250" d="M70 313V680H180V313H70ZM70 -200V167H180V-200H70Z" />
<glyph unicode="&#xa7;" horiz-adv-x="455" d="M197 -210Q154 -210 116 -204T55 -190V-143H177Q243 -143 274 -117T305 -50Q305 -18 286 3T237 41T173 72T109 110T59 165T40 250Q40 307 69 345T139 404Q103 426 77 458T50 550Q50 620 100 665T255 710Q298 710
336 704T397 690V643H275Q219 643 190 617T160 550Q160 518 178 497T226 459T287 428T349 390T396 335T415 250Q415 193 387 156T320 100Q358 78 386 44T415 -50Q415 -120 363 -165T197 -210ZM250 133Q275 148 290 176T305 250Q305 280 291 301T254 339T205 367Q181
352 166 325T150 250Q150 221 164 200T201 162T250 133Z" />
<glyph unicode="&#xa8;" horiz-adv-x="303" d="M180 573V690H283V573H180ZM20 573V690H123V573H20Z" />
<glyph unicode="&#xa9;" horiz-adv-x="830" d="M415 -20Q304 -20 221 26T91 155T45 350Q45 462 91 545T220 674T415 720Q527 720 610 674T739 545T785 350Q785 238 739 155T610 26T415 -20ZM425 130Q383 130 349 139T292 171T257 238T245 350Q245 419 257 462T292
528T349 561T425 570Q464 570 494 564T547 550V503H445Q415 503 393 493T358 450T345 350Q345 283 357 251T392 208T445 197H557V150Q535 143 500 137T425 130ZM415 47Q497 47 558 82T654 185T688 350Q688 447 654 514T559 617T415 653Q334 653 272 618T176 515T142
350Q142 253 176 186T272 83T415 47Z" />
<glyph unicode="&#xaa;" horiz-adv-x="298" d="M122 395Q87 395 59 416T30 490Q30 545 59 566T132 588Q145 588 158 587T180 585T190 583V600Q190 625 175 636T132 648H55V693Q70 698 94 701T142 705Q203 705 235 685T268 600V400H202L193 420Q178 409 162 402T122
395ZM152 452Q165 452 175 455T190 460V532H152Q132 532 120 521T108 490Q108 473 120 463T152 452Z" />
<glyph unicode="&#xab;" horiz-adv-x="485" d="M377 28L208 250L377 472L455 422L328 253V247L455 78L377 28ZM188 28L20 250L188 472L267 422L140 253V247L267 78L188 28Z" />
<glyph unicode="&#xac;" horiz-adv-x="437" d="M328 240L316 337H30V413H407V240H328Z" />
<glyph unicode="&#xad;" horiz-adv-x="360" d="M30 260V340H330V260H30Z" />
<glyph unicode="&#xae;" horiz-adv-x="830" d="M415 -20Q304 -20 221 26T91 155T45 350Q45 462 91 545T220 674T415 720Q527 720 610 674T739 545T785 350Q785 238 739 155T610 26T415 -20ZM415 47Q497 47 558 82T654 185T688 350Q688 447 654 514T559 617T415
653Q334 653 272 618T176 515T142 350Q142 253 176 186T272 83T415 47ZM265 140V550Q291 558 324 564T407 570Q492 570 536 539T580 430Q580 389 568 365T539 328T507 307L590 140H485L415 287H365V140H265ZM365 353H407Q437 353 458 370T480 430Q480 470 459 486T407
503H365V353Z" />
<glyph unicode="&#xaf;" horiz-adv-x="277" d="M20 633V700H257V633H20Z" />
<glyph unicode="&#xb0;" horiz-adv-x="400" d="M200 390Q125 390 83 432T40 550Q40 625 82 667T200 710Q275 710 317 668T360 550Q360 475 318 433T200 390ZM200 457Q225 457 244 480T263 550Q263 598 244 620T200 643Q175 643 156 621T137 550Q137 503 156 480T200 457Z" />
<glyph unicode="&#xb1;" horiz-adv-x="443" d="M178 150V302H30V378H178V537H265V378H413V302H265V150H178ZM30 47V123H413V47H30Z" />
<glyph unicode="&#xb2;" horiz-adv-x="265" d="M30 400V462Q83 503 120 540T157 607Q157 623 145 635T108 648H40V694Q55 699 78 702T123 705Q181 705 208 680T235 607Q235 570 207 536T118 457H235V400H30Z" />
<glyph unicode="&#xb3;" horiz-adv-x="265" d="M108 395Q86 395 66 398T30 406V452H108Q132 452 144 462T157 488Q157 506 146 516T113 527H65V583H108Q130 583 138 593T147 617Q147 629 137 638T102 648H30V694Q44 699 66 702T113 705Q165 705 195 687T225 620Q225
595 210 580T181 560Q201 556 218 538T235 485Q235 433 203 414T108 395Z" />
<glyph unicode="&#xb4;" horiz-adv-x="183" d="M20 560L55 690H163L90 560H20Z" />
<glyph unicode="&#xb5;" horiz-adv-x="495" d="M65 -200V500H175V167Q175 115 200 86T260 57Q279 57 295 63T320 77V500H430V0H348L337 30H332Q313 11 292 1T240 -10Q215 -10 198 0T175 17V-200H65Z" />
<glyph unicode="&#xb6;" horiz-adv-x="553" d="M220 -200V330Q130 330 80 379T30 515Q30 563 52 605T117 673T220 700H533V623H470V-200H370V623H320V-200H220Z" />
<glyph unicode="&#xb7;" horiz-adv-x="270" d="M80 292V408H190V292H80Z" />
<glyph unicode="&#xb8;" horiz-adv-x="210" d="M95 -168Q59 -168 40 -161T20 -153V-121H85Q105 -121 111 -114T118 -98Q118 -89 112 -83T88 -76H33V15H87V-28H102Q145 -28 167 -48T190 -98Q190 -128 166 -148T95 -168Z" />
<glyph unicode="&#xb9;" horiz-adv-x="195" d="M87 400V643H30V688Q45 693 72 696T128 700H165V400H87Z" />
<glyph unicode="&#xba;" horiz-adv-x="313" d="M157 395Q102 395 66 433T30 550Q30 629 66 667T157 705Q212 705 247 667T283 550Q283 471 248 433T157 395ZM157 452Q177 452 191 473T205 550Q205 605 191 626T157 648Q137 648 123 627T108 550Q108 495 122 474T157 452Z" />
<glyph unicode="&#xbb;" horiz-adv-x="485" d="M297 28L218 78L345 247V253L218 422L297 472L465 250L297 28ZM108 28L30 78L157 247V253L30 422L108 472L277 250L108 28Z" />
<glyph unicode="&#xbc;" horiz-adv-x="580" d="M40 0L430 700H530L140 0H40ZM420 0V58H278V115L418 300H498V115H525V58H498V0H420ZM352 115H420V204L352 115ZM105 400V643H48V688Q63 693 90 696T147 700H185V400H105Z" />
<glyph unicode="&#xbd;" horiz-adv-x="610" d="M50 0L440 700H540L150 0H50ZM345 0V62Q398 103 435 140T472 207Q472 223 460 235T423 248H355V294Q370 299 393 302T438 305Q496 305 523 280T550 207Q550 170 522 136T433 57H550V0H345ZM118 400V643H62V688Q77
693 104 696T160 700H198V400H118Z" />
<glyph unicode="&#xbe;" horiz-adv-x="592" d="M52 0L442 700H542L152 0H52ZM432 0V58H290V115L430 300H510V115H537V58H510V0H432ZM363 115H432V204L363 115ZM118 395Q96 395 76 398T40 406V452H118Q142 452 154 462T167 488Q167 506 156 516T123 527H75V583H118Q140
583 148 593T157 617Q157 629 147 638T112 648H40V694Q54 699 76 702T123 705Q175 705 205 687T235 620Q235 595 220 580T191 560Q211 556 228 538T245 485Q245 433 213 414T118 395Z" />
<glyph unicode="&#xbf;" horiz-adv-x="387" d="M220 -10Q127 -10 79 39T30 180Q30 231 45 266T83 329T130 383T169 440T188 515H282Q282 460 268 423T232 359T190 306T154 252T140 180Q140 121 168 92T247 62H377V10Q355 3 313 -3T220 -10ZM180 592V708H290V592H180Z" />
<glyph unicode="&#xc0;" horiz-adv-x="530" d="M17 0L193 700H337L513 0H400L356 177H174L130 0H17ZM190 253H339L267 560H263L190 253ZM222 760L151 890H260L292 760H222Z" />
<glyph unicode="&#xc1;" horiz-adv-x="530" d="M17 0L193 700H337L513 0H400L356 177H174L130 0H17ZM190 253H339L267 560H263L190 253ZM233 760L268 890H376L303 760H233Z" />
<glyph unicode="&#xc2;" horiz-adv-x="530" d="M17 0L193 700H337L513 0H400L356 177H174L130 0H17ZM190 253H339L267 560H263L190 253ZM135 750L213 880H315L393 750H322L264 821L206 750H135Z" />
<glyph unicode="&#xc3;" horiz-adv-x="530" d="M17 0L193 700H337L513 0H400L356 177H174L130 0H17ZM190 253H339L267 560H263L190 253ZM312 762Q294 762 282 770T260 788T242 807T224 815Q199 815 199 773H142Q142 837 162 862T219 888Q236 888 248 880T271 862T289
843T307 835Q332 835 332 877H389Q389 813 369 788T312 762Z" />
<glyph unicode="&#xc4;" horiz-adv-x="530" d="M17 0L193 700H337L513 0H400L356 177H174L130 0H17ZM190 253H339L267 560H263L190 253ZM293 773V890H396V773H293ZM133 773V890H236V773H133Z" />
<glyph unicode="&#xc5;" horiz-adv-x="530" d="M17 0L193 700H337L513 0H400L356 177H174L130 0H17ZM190 253H339L267 560H263L190 253ZM265 737Q225 737 199 760T173 820Q173 858 199 880T265 903Q305 903 330 881T356 820Q356 783 331 760T265 737ZM265 788Q277
788 286 796T296 820Q296 836 287 844T265 852Q252 852 243 844T233 820Q233 804 242 796T265 788Z" />
<glyph unicode="&#xc6;" horiz-adv-x="747" d="M0 0L240 700H707V623H460V403H677V327H460V77H707V0H350V177H171L109 0H0ZM197 253H350V623H323L197 253Z" />
<glyph unicode="&#xc7;" horiz-adv-x="448" d="M277 -10Q202 -10 151 21T73 131T47 350Q47 490 72 568T147 678T267 710Q317 710 359 704T423 690V638H300Q259 638 227 614T176 527T157 350Q157 236 176 174T229 87T310 62H433V10Q411 3 369 -3T277 -10ZM281 -168Q245
-168 226 -161T206 -153V-121H271Q291 -121 297 -114T304 -98Q304 -89 298 -83T274 -76H219V15H273V-28H288Q331 -28 353 -48T376 -98Q376 -128 352 -148T281 -168Z" />
<glyph unicode="&#xc8;" horiz-adv-x="467" d="M70 0V700H427V623H180V403H397V327H180V77H427V0H70ZM214 760L143 890H252L284 760H214Z" />
<glyph unicode="&#xc9;" horiz-adv-x="467" d="M70 0V700H427V623H180V403H397V327H180V77H427V0H70ZM202 760L237 890H345L272 760H202Z" />
<glyph unicode="&#xca;" horiz-adv-x="467" d="M70 0V700H427V623H180V403H397V327H180V77H427V0H70ZM111 750L189 880H291L369 750H298L240 821L182 750H111Z" />
<glyph unicode="&#xcb;" horiz-adv-x="467" d="M70 0V700H427V623H180V403H397V327H180V77H427V0H70ZM271 773V890H374V773H271ZM111 773V890H214V773H111Z" />
<glyph unicode="&#xcc;" horiz-adv-x="250" d="M70 0V700H180V0H70ZM87 760L16 890H125L157 760H87Z" />
<glyph unicode="&#xcd;" horiz-adv-x="250" d="M70 0V700H180V0H70ZM93 760L128 890H236L163 760H93Z" />
<glyph unicode="&#xce;" horiz-adv-x="250" d="M70 0V700H180V0H70ZM-7 750L72 880H173L252 750H180L122 821L64 750H-7Z" />
<glyph unicode="&#xcf;" horiz-adv-x="250" d="M70 0V700H180V0H70ZM153 773V890H256V773H153ZM-7 773V890H96V773H-7Z" />
<glyph unicode="&#xd0;" horiz-adv-x="553" d="M257 -10Q204 -10 165 -6T87 10V317H10V393H87V690Q125 701 164 705T257 710Q339 710 394 677T478 566T507 350Q507 213 479 135T395 23T257 -10ZM197 62H257Q299 62 330 86T379 173T397 350Q397 465 379 527T330
613T257 638H197V393H303V317H197V62Z" />
<glyph unicode="&#xd1;" horiz-adv-x="560" d="M70 0V700H183L379 228H383V700H490V0H377L181 472H177V0H70ZM327 762Q309 762 297 770T275 788T257 807T239 815Q214 815 214 773H157Q157 837 177 862T234 888Q251 888 263 880T286 862T304 843T322 835Q347 835
347 877H404Q404 813 384 788T327 762Z" />
<glyph unicode="&#xd2;" horiz-adv-x="543" d="M272 -10Q203 -10 153 23T75 134T47 350Q47 487 74 565T152 677T272 710Q341 710 391 677T469 566T497 350Q497 213 470 135T392 23T272 -10ZM272 57Q294 57 314 70T351 116T377 205T387 350Q387 437 377 494T351
584T315 629T272 643Q250 643 230 630T193 584T167 495T157 350Q157 263 166 206T192 116T229 71T272 57ZM229 760L158 890H267L299 760H229Z" />
<glyph unicode="&#xd3;" horiz-adv-x="543" d="M272 -10Q203 -10 153 23T75 134T47 350Q47 487 74 565T152 677T272 710Q341 710 391 677T469 566T497 350Q497 213 470 135T392 23T272 -10ZM272 57Q294 57 314 70T351 116T377 205T387 350Q387 437 377 494T351
584T315 629T272 643Q250 643 230 630T193 584T167 495T157 350Q157 263 166 206T192 116T229 71T272 57ZM240 760L275 890H383L310 760H240Z" />
<glyph unicode="&#xd4;" horiz-adv-x="543" d="M272 -10Q203 -10 153 23T75 134T47 350Q47 487 74 565T152 677T272 710Q341 710 391 677T469 566T497 350Q497 213 470 135T392 23T272 -10ZM272 57Q294 57 314 70T351 116T377 205T387 350Q387 437 377 494T351
584T315 629T272 643Q250 643 230 630T193 584T167 495T157 350Q157 263 166 206T192 116T229 71T272 57ZM142 750L220 880H322L400 750H329L271 821L213 750H142Z" />
<glyph unicode="&#xd5;" horiz-adv-x="543" d="M272 -10Q203 -10 153 23T75 134T47 350Q47 487 74 565T152 677T272 710Q341 710 391 677T469 566T497 350Q497 213 470 135T392 23T272 -10ZM272 57Q294 57 314 70T351 116T377 205T387 350Q387 437 377 494T351
584T315 629T272 643Q250 643 230 630T193 584T167 495T157 350Q157 263 166 206T192 116T229 71T272 57ZM318 762Q300 762 288 770T266 788T248 807T230 815Q205 815 205 773H148Q148 837 168 862T225 888Q242 888 254 880T277 862T295 843T313 835Q338 835 338
877H395Q395 813 375 788T318 762Z" />
<glyph unicode="&#xd6;" horiz-adv-x="543" d="M272 -10Q203 -10 153 23T75 134T47 350Q47 487 74 565T152 677T272 710Q341 710 391 677T469 566T497 350Q497 213 470 135T392 23T272 -10ZM272 57Q294 57 314 70T351 116T377 205T387 350Q387 437 377 494T351
584T315 629T272 643Q250 643 230 630T193 584T167 495T157 350Q157 263 166 206T192 116T229 71T272 57ZM300 773V890H403V773H300ZM140 773V890H243V773H140Z" />
<glyph unicode="&#xd7;" horiz-adv-x="413" d="M98 163L40 222L148 330L40 438L98 497L207 388L315 497L373 438L265 330L373 222L315 163L207 272L98 163Z" />
<glyph unicode="&#xd8;" horiz-adv-x="547" d="M273 -10Q222 -10 181 7T110 66L73 13L27 50L80 125Q65 166 57 221T48 350Q48 487 75 565T153 677T273 710Q324 710 365 693T436 634L473 687L520 650L467 575Q482 534 490 479T498 350Q498 213 471 135T393 23T273
-10ZM273 57Q295 57 315 70T352 116T378 205T388 350Q388 380 387 406T383 455L177 161Q193 102 219 80T273 57ZM163 244L369 538Q353 598 327 620T273 643Q251 643 231 630T194 584T168 495T158 350Q158 320 159 294T163 244Z" />
<glyph unicode="&#xd9;" horiz-adv-x="540" d="M270 -10Q199 -10 152 14T83 93T60 240V700H170V240Q170 168 182 129T217 73T270 57Q300 57 322 73T357 128T370 240V700H480V240Q480 148 458 94T389 15T270 -10ZM231 760L160 890H269L301 760H231Z" />
<glyph unicode="&#xda;" horiz-adv-x="540" d="M270 -10Q199 -10 152 14T83 93T60 240V700H170V240Q170 168 182 129T217 73T270 57Q300 57 322 73T357 128T370 240V700H480V240Q480 148 458 94T389 15T270 -10ZM238 760L273 890H381L308 760H238Z" />
<glyph unicode="&#xdb;" horiz-adv-x="540" d="M270 -10Q199 -10 152 14T83 93T60 240V700H170V240Q170 168 182 129T217 73T270 57Q300 57 322 73T357 128T370 240V700H480V240Q480 148 458 94T389 15T270 -10ZM140 750L218 880H320L398 750H327L269 821L211 750H140Z" />
<glyph unicode="&#xdc;" horiz-adv-x="540" d="M270 -10Q199 -10 152 14T83 93T60 240V700H170V240Q170 168 182 129T217 73T270 57Q300 57 322 73T357 128T370 240V700H480V240Q480 148 458 94T389 15T270 -10ZM298 773V890H401V773H298ZM138 773V890H241V773H138Z" />
<glyph unicode="&#xdd;" horiz-adv-x="470" d="M180 0V213L7 700H120L235 354L350 700H463L290 213V0H180ZM203 760L238 890H346L273 760H203Z" />
<glyph unicode="&#xde;" horiz-adv-x="517" d="M70 -10V710H180V633Q337 626 408 554T480 350Q480 219 409 147T180 67V-10H70ZM180 138Q270 142 320 196T370 350Q370 450 320 504T180 562V138Z" />
<glyph unicode="&#xdf;" horiz-adv-x="543" d="M335 -10Q313 -10 284 -4T232 10V57H315Q353 57 379 74T405 135Q405 165 389 185T348 222T298 258T257 302T240 365Q240 399 256 422T292 463T329 502T345 550Q345 594 320 616T265 638Q227 638 201 606T175 495V0H65V495Q65
606 115 658T265 710Q358 710 406 665T455 550Q455 512 439 488T403 446T366 410T350 365Q350 343 366 326T407 293T457 256T498 206T515 135Q515 78 494 47T432 3T335 -10Z" />
<glyph unicode="&#xe0;" horiz-adv-x="467" d="M195 -10Q152 -10 117 3T62 50T42 150Q42 214 62 248T119 295T202 308Q225 308 248 305T292 298V340Q292 403 264 423T185 443H85V490Q108 498 141 504T205 510Q270 510 314 497T380 447T402 340V0H320L308 30H303Q286
14 259 2T195 -10ZM232 57Q251 57 267 63T292 77V242H232Q212 242 194 234T164 206T152 150Q152 113 163 93T193 65T232 57ZM191 560L120 690H229L261 560H191Z" />
<glyph unicode="&#xe1;" horiz-adv-x="467" d="M195 -10Q152 -10 117 3T62 50T42 150Q42 214 62 248T119 295T202 308Q225 308 248 305T292 298V340Q292 403 264 423T185 443H85V490Q108 498 141 504T205 510Q270 510 314 497T380 447T402 340V0H320L308 30H303Q286
14 259 2T195 -10ZM232 57Q251 57 267 63T292 77V242H232Q212 242 194 234T164 206T152 150Q152 113 163 93T193 65T232 57ZM202 560L237 690H345L272 560H202Z" />
<glyph unicode="&#xe2;" horiz-adv-x="467" d="M195 -10Q152 -10 117 3T62 50T42 150Q42 214 62 248T119 295T202 308Q225 308 248 305T292 298V340Q292 403 264 423T185 443H85V490Q108 498 141 504T205 510Q270 510 314 497T380 447T402 340V0H320L308 30H303Q286
14 259 2T195 -10ZM232 57Q251 57 267 63T292 77V242H232Q212 242 194 234T164 206T152 150Q152 113 163 93T193 65T232 57ZM104 550L182 680H284L362 550H291L233 621L175 550H104Z" />
<glyph unicode="&#xe3;" horiz-adv-x="467" d="M195 -10Q152 -10 117 3T62 50T42 150Q42 214 62 248T119 295T202 308Q225 308 248 305T292 298V340Q292 403 264 423T185 443H85V490Q108 498 141 504T205 510Q270 510 314 497T380 447T402 340V0H320L308 30H303Q286
14 259 2T195 -10ZM232 57Q251 57 267 63T292 77V242H232Q212 242 194 234T164 206T152 150Q152 113 163 93T193 65T232 57ZM280 562Q262 562 250 570T228 588T210 607T192 615Q167 615 167 573H110Q110 637 130 662T187 688Q204 688 216 680T239 662T257 643T275
635Q300 635 300 677H357Q357 613 337 588T280 562Z" />
<glyph unicode="&#xe4;" horiz-adv-x="467" d="M195 -10Q152 -10 117 3T62 50T42 150Q42 214 62 248T119 295T202 308Q225 308 248 305T292 298V340Q292 403 264 423T185 443H85V490Q108 498 141 504T205 510Q270 510 314 497T380 447T402 340V0H320L308 30H303Q286
14 259 2T195 -10ZM232 57Q251 57 267 63T292 77V242H232Q212 242 194 234T164 206T152 150Q152 113 163 93T193 65T232 57ZM262 573V690H365V573H262ZM102 573V690H205V573H102Z" />
<glyph unicode="&#xe5;" horiz-adv-x="467" d="M195 -10Q152 -10 117 3T62 50T42 150Q42 214 62 248T119 295T202 308Q225 308 248 305T292 298V340Q292 403 264 423T185 443H85V490Q108 498 141 504T205 510Q270 510 314 497T380 447T402 340V0H320L308 30H303Q286
14 259 2T195 -10ZM232 57Q251 57 267 63T292 77V242H232Q212 242 194 234T164 206T152 150Q152 113 163 93T193 65T232 57ZM234 537Q194 537 168 560T142 620Q142 658 168 680T234 703Q274 703 299 681T325 620Q325 583 300 560T234 537ZM234 588Q246 588 255
596T265 620Q265 636 256 644T234 652Q221 652 212 644T202 620Q202 604 211 596T234 588Z" />
<glyph unicode="&#xe6;" horiz-adv-x="703" d="M202 -10Q155 -10 119 2T63 47T42 140Q42 199 62 231T119 275T202 288Q225 288 248 285T292 278V340Q292 403 264 423T185 443H85V490Q108 498 141 504T205 510Q257 510 294 493T352 447Q373 475 404 492T477 510Q536
510 577 485T640 403T662 252V222H402V210Q402 124 434 91T532 57H638V10Q616 3 582 -3T512 -10Q449 -10 413 7T352 53Q330 25 295 8T202 -10ZM228 57Q245 57 258 61T279 71T292 80V222H232Q202 222 177 204T152 140Q152 93 176 75T228 57ZM402 288H552Q552 352
542 386T515 434T477 448Q456 448 439 435T412 387T402 288Z" />
<glyph unicode="&#xe7;" horiz-adv-x="388" d="M247 -10Q178 -10 133 15T65 96T42 250Q42 347 64 403T129 485T237 510Q272 510 306 504T363 490V443H257Q224 443 201 427T165 369T152 250Q152 173 165 132T203 74T267 57H373V10Q351 3 317 -3T247 -10ZM241 -168Q205
-168 186 -161T166 -153V-121H231Q251 -121 257 -114T264 -98Q264 -89 258 -83T234 -76H179V15H233V-28H248Q291 -28 313 -48T336 -98Q336 -128 312 -148T241 -168Z" />
<glyph unicode="&#xe8;" horiz-adv-x="453" d="M262 -10Q185 -10 137 15T65 96T42 250Q42 347 63 403T126 485T227 510Q286 510 327 485T390 404T412 250V217H152Q152 127 183 92T282 57H388V10Q366 3 332 -3T262 -10ZM152 283H302Q302 349 292 385T265 434T227
448Q206 448 189 435T162 385T152 283ZM184 560L113 690H222L254 560H184Z" />
<glyph unicode="&#xe9;" horiz-adv-x="453" d="M262 -10Q185 -10 137 15T65 96T42 250Q42 347 63 403T126 485T227 510Q286 510 327 485T390 404T412 250V217H152Q152 127 183 92T282 57H388V10Q366 3 332 -3T262 -10ZM152 283H302Q302 349 292 385T265 434T227
448Q206 448 189 435T162 385T152 283ZM195 560L230 690H338L265 560H195Z" />
<glyph unicode="&#xea;" horiz-adv-x="453" d="M262 -10Q185 -10 137 15T65 96T42 250Q42 347 63 403T126 485T227 510Q286 510 327 485T390 404T412 250V217H152Q152 127 183 92T282 57H388V10Q366 3 332 -3T262 -10ZM152 283H302Q302 349 292 385T265 434T227
448Q206 448 189 435T162 385T152 283ZM97 550L175 680H277L355 550H284L226 621L168 550H97Z" />
<glyph unicode="&#xeb;" horiz-adv-x="453" d="M262 -10Q185 -10 137 15T65 96T42 250Q42 347 63 403T126 485T227 510Q286 510 327 485T390 404T412 250V217H152Q152 127 183 92T282 57H388V10Q366 3 332 -3T262 -10ZM152 283H302Q302 349 292 385T265 434T227
448Q206 448 189 435T162 385T152 283ZM255 573V690H358V573H255ZM95 573V690H198V573H95Z" />
<glyph unicode="&#xec;" horiz-adv-x="250" d="M70 0V500H180V0H70ZM338 560L267 690H376L408 560H338Z" />
<glyph unicode="&#xed;" horiz-adv-x="250" d="M70 0V500H180V0H70ZM93 560L128 690H236L163 560H93Z" />
<glyph unicode="&#xee;" horiz-adv-x="250" d="M70 0V500H180V0H70ZM251 550L329 680H431L509 550H438L380 621L322 550H251Z" />
<glyph unicode="&#xef;" horiz-adv-x="250" d="M70 0V500H180V0H70ZM409 573V690H512V573H409ZM249 573V690H352V573H249Z" />
<glyph unicode="&#xf0;" horiz-adv-x="475" d="M235 -10Q139 -10 90 43T40 215Q40 334 88 387T225 440Q256 440 279 433T320 415Q320 453 314 485T292 541L242 481L193 520L249 590Q222 614 177 634T78 663L83 710Q151 705 206 690T300 647L355 713L403 674L348
608Q386 569 408 504T430 353V215Q430 96 381 43T235 -10ZM235 52Q258 52 277 67T308 117T320 215V353Q312 361 295 367T255 373Q206 373 178 339T150 215Q150 153 162 118T193 67T235 52Z" />
<glyph unicode="&#xf1;" horiz-adv-x="495" d="M65 0V500H147L158 470H163Q180 486 207 498T275 510Q320 510 354 497T409 451T430 353V0H320V353Q320 406 295 424T235 443Q216 443 200 437T175 423V0H65ZM286 562Q268 562 256 570T234 588T216 607T198 615Q173
615 173 573H116Q116 637 136 662T193 688Q210 688 222 680T245 662T263 643T281 635Q306 635 306 677H363Q363 613 343 588T286 562Z" />
<glyph unicode="&#xf2;" horiz-adv-x="473" d="M237 -10Q173 -10 130 15T65 97T42 250Q42 346 64 403T130 485T237 510Q300 510 343 485T409 403T432 250Q432 154 410 97T344 15T237 -10ZM237 52Q260 52 279 69T310 129T322 250Q322 329 311 371T280 431T237 448Q214
448 195 431T164 372T152 250Q152 172 163 129T194 69T237 52ZM194 560L123 690H232L264 560H194Z" />
<glyph unicode="&#xf3;" horiz-adv-x="473" d="M237 -10Q173 -10 130 15T65 97T42 250Q42 346 64 403T130 485T237 510Q300 510 343 485T409 403T432 250Q432 154 410 97T344 15T237 -10ZM237 52Q260 52 279 69T310 129T322 250Q322 329 311 371T280 431T237 448Q214
448 195 431T164 372T152 250Q152 172 163 129T194 69T237 52ZM205 560L240 690H348L275 560H205Z" />
<glyph unicode="&#xf4;" horiz-adv-x="473" d="M237 -10Q173 -10 130 15T65 97T42 250Q42 346 64 403T130 485T237 510Q300 510 343 485T409 403T432 250Q432 154 410 97T344 15T237 -10ZM237 52Q260 52 279 69T310 129T322 250Q322 329 311 371T280 431T237 448Q214
448 195 431T164 372T152 250Q152 172 163 129T194 69T237 52ZM107 550L185 680H287L365 550H294L236 621L178 550H107Z" />
<glyph unicode="&#xf5;" horiz-adv-x="473" d="M237 -10Q173 -10 130 15T65 97T42 250Q42 346 64 403T130 485T237 510Q300 510 343 485T409 403T432 250Q432 154 410 97T344 15T237 -10ZM237 52Q260 52 279 69T310 129T322 250Q322 329 311 371T280 431T237 448Q214
448 195 431T164 372T152 250Q152 172 163 129T194 69T237 52ZM283 562Q265 562 253 570T231 588T213 607T195 615Q170 615 170 573H113Q113 637 133 662T190 688Q207 688 219 680T242 662T260 643T278 635Q303 635 303 677H360Q360 613 340 588T283 562Z" />
<glyph unicode="&#xf6;" horiz-adv-x="473" d="M237 -10Q173 -10 130 15T65 97T42 250Q42 346 64 403T130 485T237 510Q300 510 343 485T409 403T432 250Q432 154 410 97T344 15T237 -10ZM237 52Q260 52 279 69T310 129T322 250Q322 329 311 371T280 431T237 448Q214
448 195 431T164 372T152 250Q152 172 163 129T194 69T237 52ZM265 573V690H368V573H265ZM105 573V690H208V573H105Z" />
<glyph unicode="&#xf7;" horiz-adv-x="443" d="M30 257V343H413V257H30ZM175 88V192H268V88H175ZM175 408V512H268V408H175Z" />
<glyph unicode="&#xf8;" horiz-adv-x="487" d="M243 -10Q196 -10 160 3T99 47L68 13L27 60L68 105Q58 134 53 169T48 250Q48 346 70 403T136 485T243 510Q290 510 326 497T387 452L418 487L460 440L418 394Q428 366 433 331T438 250Q438 154 416 97T351 15T243
-10ZM243 52Q267 52 286 69T316 129T328 250Q328 262 328 273T327 295L170 125Q182 84 201 68T243 52ZM159 205L315 375Q304 417 285 432T243 448Q220 448 201 431T170 372T158 250Q158 238 158 227T159 205Z" />
<glyph unicode="&#xf9;" horiz-adv-x="495" d="M220 -10Q176 -10 141 3T86 49T65 147V500H175V147Q175 95 200 76T260 57Q279 57 295 63T320 77V500H430V0H348L337 30H332Q315 14 288 2T220 -10ZM205 560L134 690H243L275 560H205Z" />
<glyph unicode="&#xfa;" horiz-adv-x="495" d="M220 -10Q176 -10 141 3T86 49T65 147V500H175V147Q175 95 200 76T260 57Q279 57 295 63T320 77V500H430V0H348L337 30H332Q315 14 288 2T220 -10ZM216 560L251 690H359L286 560H216Z" />
<glyph unicode="&#xfb;" horiz-adv-x="495" d="M220 -10Q176 -10 141 3T86 49T65 147V500H175V147Q175 95 200 76T260 57Q279 57 295 63T320 77V500H430V0H348L337 30H332Q315 14 288 2T220 -10ZM121 550L199 680H301L379 550H308L250 621L192 550H121Z" />
<glyph unicode="&#xfc;" horiz-adv-x="495" d="M220 -10Q176 -10 141 3T86 49T65 147V500H175V147Q175 95 200 76T260 57Q279 57 295 63T320 77V500H430V0H348L337 30H332Q315 14 288 2T220 -10ZM276 573V690H379V573H276ZM116 573V690H219V573H116Z" />
<glyph unicode="&#xfd;" horiz-adv-x="495" d="M220 -210Q185 -210 151 -204T93 -190V-143H200Q260 -143 290 -108T320 18Q300 5 275 -2T220 -10Q176 -10 141 3T86 49T65 147V500H175V147Q175 95 200 76T260 57Q279 57 295 63T320 77V500H430V40Q430 -52 408 -106T339
-185T220 -210ZM216 560L251 690H359L286 560H216Z" />
<glyph unicode="&#xfe;" horiz-adv-x="487" d="M70 -200V700H180V485Q198 496 220 503T270 510Q324 510 363 485T424 404T445 250Q445 153 424 97T364 15T270 -10Q243 -10 221 -3T180 15V-200H70ZM240 57Q268 57 289 73T323 131T335 250Q335 327 323 369T290 427T240
443Q221 443 205 437T180 423V77Q189 70 205 64T240 57Z" />
<glyph unicode="&#xff;" horiz-adv-x="495" d="M220 -210Q185 -210 151 -204T93 -190V-143H200Q260 -143 290 -108T320 18Q300 5 275 -2T220 -10Q176 -10 141 3T86 49T65 147V500H175V147Q175 95 200 76T260 57Q279 57 295 63T320 77V500H430V40Q430 -52 408 -106T339
-185T220 -210ZM276 573V690H379V573H276ZM116 573V690H219V573H116Z" />
<glyph unicode="&#x2013;" horiz-adv-x="473" d="M30 242V318H443V242H30Z" />
<glyph unicode="&#x2014;" horiz-adv-x="653" d="M30 242V318H623V242H30Z" />
<glyph unicode="&#x2018;" horiz-adv-x="187" d="M40 477L77 703H152V477H40Z" />
<glyph unicode="&#x2019;" horiz-adv-x="187" d="M40 477V703H152L115 477H40Z" />
<glyph unicode="&#x201a;" horiz-adv-x="187" d="M40 -118V108H152L115 -118H40Z" />
<glyph unicode="&#x201c;" horiz-adv-x="350" d="M198 477L235 703H310V477H198ZM35 477L72 703H147V477H35Z" />
<glyph unicode="&#x201d;" horiz-adv-x="350" d="M203 477V703H315L278 477H203ZM40 477V703H152L115 477H40Z" />
<glyph unicode="&#x201e;" horiz-adv-x="350" d="M203 -118V108H315L278 -118H203ZM40 -118V108H152L115 -118H40Z" />
<glyph unicode="&#x2022;" horiz-adv-x="263" d="M45 263V436H218V263H45Z" />
<glyph unicode="&#x2039;" horiz-adv-x="315" d="M207 3L20 250L207 497L285 447L140 253V247L285 53L207 3Z" />
<glyph unicode="&#x203a;" horiz-adv-x="315" d="M108 3L30 53L175 247V253L30 447L108 497L295 250L108 3Z" />
</font>
</defs>
</svg>
