<?xml version="1.0" standalone="no"?>
<!DOCTYPE svg PUBLIC "-//W3C//DTD SVG 1.1//EN" "http://www.w3.org/Graphics/SVG/1.1/DTD/svg11.dtd">
<svg xmlns="http://www.w3.org/2000/svg">
<defs >
<font id="Cuprum" horiz-adv-x="451" ><font-face
    font-family="Cuprum Medium"
    units-per-em="1000"
    panose-1="0 0 5 0 0 0 0 0 0 0"
    ascent="895"
    descent="-260"
    alphabetic="0" />
<glyph unicode=" " horiz-adv-x="250" />
<glyph unicode="!" horiz-adv-x="240" d="M75 185L60 700H180L162 185H75ZM69 -7V107H169V-7H69Z" />
<glyph unicode="&quot;" horiz-adv-x="343" d="M222 465L197 700H303L278 465H222ZM65 465L40 700H147L122 465H65Z" />
<glyph unicode="#" horiz-adv-x="577" d="M83 0L113 198H20V272H125L149 428H50V502H163L193 700H292L262 502H365L395 700H493L463 502H557V428H449L424 272H527V198H413L383 0H285L315 198H212L182 0H83ZM216 272H333L357 428H240L216 272Z" />
<glyph unicode="$" horiz-adv-x="452" d="M193 -90V-10H188Q141 -10 100 -4T35 10V58L193 59V315Q165 329 137 345T85 384T47 443T33 530Q33 609 73 654T193 708V790H257V709Q296 708 329 702T382 690V642H257V387Q286 374 314 358T366 320T404 264T418 180Q418
99 381 53T257 -5V-90H193ZM257 72Q290 86 304 113T318 180Q318 218 301 242T257 282V72ZM193 422V632Q133 608 133 530Q133 490 150 465T193 422Z" />
<glyph unicode="%" horiz-adv-x="693" d="M102 0L492 700H592L202 0H102ZM520 -10Q452 -10 414 29T375 140Q375 213 413 251T520 290Q589 290 627 252T665 140Q665 68 627 29T520 -10ZM520 53Q548 53 565 73T582 140Q582 186 565 206T520 227Q493 227 476 207T458
140Q458 94 475 74T520 53ZM173 410Q105 410 67 449T28 560Q28 633 66 671T173 710Q242 710 280 672T318 560Q318 488 280 449T173 410ZM173 473Q201 473 218 493T235 560Q235 606 218 626T173 647Q146 647 129 627T112 560Q112 514 129 494T173 473Z" />
<glyph unicode="&amp;" horiz-adv-x="525" d="M200 -10Q124 -10 80 37T35 180Q35 225 41 266T55 330H133V180Q133 130 144 104T171 68T202 58Q220 58 235 67T264 98T295 160Q242 235 208 289T155 385T128 460T120 530Q120 618 166 664T295 710Q343 710 384 704T448
690V642H315Q274 642 247 613T220 530Q220 506 223 481T238 425T272 355T333 262L385 390H485L395 170L515 0H405L353 76Q336 47 317 28T270 0T200 -10Z" />
<glyph unicode="&apos;" horiz-adv-x="187" d="M65 465L40 700H147L122 465H65Z" />
<glyph unicode="(" horiz-adv-x="253" d="M197 -190Q140 -105 108 -22T63 138T50 280Q50 345 63 421T108 581T197 750L253 720Q205 615 183 512T160 280Q160 153 182 49T253 -160L197 -190Z" />
<glyph unicode=")" horiz-adv-x="253" d="M56 -190L0 -160Q49 -55 71 49T93 280Q93 408 71 511T0 720L56 750Q113 665 145 582T190 422T203 280Q203 215 190 139T145 -21T56 -190Z" />
<glyph unicode="*" horiz-adv-x="437" d="M151 320L79 359L146 485L20 510L38 587L175 558V700H262V558L399 587L417 510L290 485L358 359L286 320L218 446L151 320Z" />
<glyph unicode="+" horiz-adv-x="437" d="M177 97V263H30V337H177V503H260V337H407V263H260V97H177Z" />
<glyph unicode="," horiz-adv-x="178" d="M40 -117V107H143L110 -117H40Z" />
<glyph unicode="-" horiz-adv-x="367" d="M30 263V337H337V263H30Z" />
<glyph unicode="." horiz-adv-x="180" d="M40 -7V107H140V-7H40Z" />
<glyph unicode="/" horiz-adv-x="400" d="M0 0L300 700H400L100 0H0Z" />
<glyph unicode="0" horiz-adv-x="517" d="M258 -10Q195 -10 148 22T74 133T48 350Q48 488 74 566T147 677T258 710Q322 710 369 678T442 567T468 350Q468 212 442 133T369 22T258 -10ZM258 53Q278 53 297 66T332 112T358 203T368 350Q368 439 359 497T333 587T297
633T258 647Q239 647 220 634T184 588T158 497T148 350Q148 261 158 203T184 113T219 67T258 53Z" />
<glyph unicode="1" horiz-adv-x="288" d="M118 0V627H10V680Q33 688 74 694T163 700H218V0H118Z" />
<glyph unicode="2" horiz-adv-x="400" d="M12 0V83Q84 172 133 233T213 338T257 420T270 500Q270 576 242 609T162 642H22V690Q45 698 86 704T175 710Q274 710 322 660T370 500Q370 452 353 407T304 314T224 207T115 73H368V0H12Z" />
<glyph unicode="3" horiz-adv-x="422" d="M168 -10Q121 -10 80 -4T15 10V58H148Q220 58 251 89T283 190Q283 264 252 296T148 329H75V402H138Q202 402 232 432T263 525Q263 583 235 612T155 642H25V690Q48 698 89 704T178 710Q270 710 316 663T363 525Q363 469
339 432T272 372V368Q310 358 334 331T371 267T383 190Q383 88 333 39T168 -10Z" />
<glyph unicode="4" horiz-adv-x="475" d="M288 0V177H28V260L278 700H388V250H447V177H388V0H288ZM122 250H288V543H284L122 250Z" />
<glyph unicode="5" horiz-adv-x="452" d="M198 -10Q151 -10 110 -4T45 10V58H178Q250 58 281 91T313 200Q313 278 282 310T178 343H58V700H392V632H158V412H198Q312 412 362 362T413 200Q413 90 363 40T198 -10Z" />
<glyph unicode="6" horiz-adv-x="462" d="M238 -10Q143 -10 96 40T48 200V420Q48 575 100 642T248 710Q296 710 338 704T402 690V642H272Q235 642 207 620T164 547T148 403Q171 411 202 416T260 422Q339 422 383 371T428 202Q428 91 381 41T238 -10ZM238 53Q277
53 302 87T328 202Q328 289 300 323T208 358H148V200Q148 120 174 87T238 53Z" />
<glyph unicode="7" horiz-adv-x="417" d="M108 0Q131 143 176 299T288 627H20V700H387V617Q320 449 276 296T208 0H108Z" />
<glyph unicode="8" horiz-adv-x="487" d="M243 -10Q137 -10 88 37T38 180Q38 229 56 265T102 325T162 363V367Q137 376 112 398T70 454T53 535Q53 619 100 664T243 710Q339 710 386 665T433 535Q433 489 417 455T376 398T325 367V363Q356 350 384 326T430 265T448
180Q448 85 399 38T243 -10ZM243 53Q292 53 320 84T348 180Q348 236 319 268T243 323Q197 301 168 269T138 180Q138 115 166 84T243 53ZM243 406Q282 420 307 451T333 535Q333 589 307 618T243 647Q206 647 180 618T153 535Q153 483 179 452T243 406Z" />
<glyph unicode="9" horiz-adv-x="462" d="M213 -10Q166 -10 125 -4T60 10V58H190Q227 58 254 80T297 154T313 297Q291 290 260 284T202 278Q123 278 78 329T33 498Q33 610 80 660T223 710Q319 710 366 660T413 500V280Q413 125 361 58T213 -10ZM253 342H313V500Q313
580 288 613T223 647Q185 647 159 614T133 498Q133 411 161 377T253 342Z" />
<glyph unicode=":" horiz-adv-x="180" d="M40 387V500H140V387H40ZM40 -7V107H140V-7H40Z" />
<glyph unicode=";" horiz-adv-x="173" d="M40 -117V107H143L110 -117H40ZM40 387V500H140V387H40Z" />
<glyph unicode="&lt;" horiz-adv-x="402" d="M362 8L40 207V298L362 497V393L138 256V250L362 112V8Z" />
<glyph unicode="=" horiz-adv-x="437" d="M30 348V427H407V348H30ZM30 173V252H407V173H30Z" />
<glyph unicode="&gt;" horiz-adv-x="402" d="M40 8V112L263 250V256L40 393V497L362 298V207L40 8Z" />
<glyph unicode="?" horiz-adv-x="378" d="M105 185Q105 239 119 275T155 339T198 392T234 448T248 520Q248 581 220 611T140 642H10V690Q33 698 74 704T163 710Q255 710 301 663T348 520Q348 469 333 434T295 371T249 317T209 260T192 185H105ZM98 -7V107H198V-7H98Z" />
<glyph unicode="@" horiz-adv-x="837" d="M433 -90Q245 -90 147 10T48 310Q48 510 144 610T413 710Q534 710 618 668T745 549T788 365Q788 265 762 204T675 117T510 90L502 120H497Q478 101 452 91T393 80Q353 80 318 102T260 171T238 293Q238 385 260 439T330
516T453 540Q487 540 526 534T588 520V155Q619 155 642 172T679 235T692 365Q692 501 620 574T413 647Q329 647 269 614T177 506T145 310Q145 191 179 118T281 12T453 -22H587V-70Q565 -77 523 -83T433 -90ZM423 143Q442 143 460 149T488 163V477H453Q416 477 391
461T352 405T338 293Q338 238 350 205T381 158T423 143Z" />
<glyph unicode="A" horiz-adv-x="520" d="M18 0L192 700H328L502 0H400L355 178H165L120 0H18ZM180 252H340L262 580H258L180 252Z" />
<glyph unicode="B" horiz-adv-x="510" d="M235 -10Q186 -10 147 -6T70 10V690Q108 701 147 705T235 710Q343 710 392 663T442 525Q442 480 422 441T357 377V373Q417 355 444 307T472 190Q472 88 419 39T235 -10ZM170 58H235Q306 58 338 89T370 192Q370 268 338
300T235 333H170V58ZM170 402H225Q281 402 310 432T340 523Q340 582 311 612T225 642H170V402Z" />
<glyph unicode="C" horiz-adv-x="442" d="M273 -10Q201 -10 151 21T75 131T48 350Q48 490 74 568T148 678T263 710Q311 710 353 704T417 690V642H290Q249 642 217 617T167 529T148 350Q148 235 167 172T220 83T300 58H427V10Q405 3 363 -3T273 -10Z" />
<glyph unicode="D" horiz-adv-x="528" d="M235 -10Q186 -10 147 -6T70 10V690Q108 701 147 705T235 710Q316 710 370 678T452 567T480 350Q480 212 453 133T371 22T235 -10ZM170 58H235Q278 58 310 83T361 171T380 350Q380 466 362 529T311 617T235 642H170V58Z" />
<glyph unicode="E" horiz-adv-x="458" d="M70 0V700H418V627H170V402H388V328H170V73H418V0H70Z" />
<glyph unicode="F" horiz-adv-x="438" d="M70 0V700H418V627H170V387H378V313H170V0H70Z" />
<glyph unicode="G" horiz-adv-x="508" d="M293 -10Q211 -10 157 21T75 131T48 350Q48 490 74 568T151 678T273 710Q321 710 363 704T427 690V642H297Q253 642 220 617T167 529T148 350Q148 235 167 172T224 83T313 58H348V380H448V10Q426 3 384 -3T293 -10Z" />
<glyph unicode="H" horiz-adv-x="540" d="M70 0V700H170V392H370V700H470V0H370V318H170V0H70Z" />
<glyph unicode="I" horiz-adv-x="240" d="M70 0V700H170V0H70Z" />
<glyph unicode="J" horiz-adv-x="358" d="M93 -10Q69 -10 44 -4T0 10V58H93Q126 58 149 74T185 130T198 240V700H298V240Q298 147 277 92T210 14T93 -10Z" />
<glyph unicode="K" horiz-adv-x="500" d="M70 0V700H170V367L355 700H470L272 355L490 0H375L170 343V0H70Z" />
<glyph unicode="L" horiz-adv-x="428" d="M70 0V700H170V73H418V0H70Z" />
<glyph unicode="M" horiz-adv-x="747" d="M53 0L93 700H210L371 222H375L537 700H653L693 0H595L566 505H561L422 88H325L185 505H181L152 0H53Z" />
<glyph unicode="N" horiz-adv-x="550" d="M70 0V700H177L377 217H382V700H480V0H373L173 483H168V0H70Z" />
<glyph unicode="O" horiz-adv-x="537" d="M268 -10Q200 -10 151 22T75 133T48 350Q48 488 74 566T150 677T268 710Q337 710 386 678T461 567T488 350Q488 212 462 133T386 22T268 -10ZM268 53Q291 53 312 66T351 113T378 203T388 350Q388 439 379 496T352 587T313
633T268 647Q245 647 224 634T185 587T158 497T148 350Q148 261 158 204T185 113T223 67T268 53Z" />
<glyph unicode="P" horiz-adv-x="498" d="M70 0V690Q108 701 147 705T235 710Q316 710 365 687T437 608T460 460Q460 364 439 308T374 227T265 203Q247 203 218 206T170 213V0H70ZM170 277H235Q278 277 305 293T346 349T360 460Q360 531 347 570T306 626T235 642H170V277Z"
/>
<glyph unicode="Q" horiz-adv-x="545" d="M268 -10Q200 -10 151 22T75 133T48 350Q48 488 74 566T150 677T268 710Q337 710 386 678T461 567T488 350Q488 235 469 164T417 53Q457 53 486 47T537 33V-10H268ZM268 53Q291 53 312 66T351 113T378 203T388 350Q388
439 379 496T352 587T313 633T268 647Q245 647 224 634T185 587T158 497T148 350Q148 260 158 202T185 112T224 66T268 53Z" />
<glyph unicode="R" horiz-adv-x="515" d="M70 0V690Q108 701 147 705T235 710Q316 710 365 687T437 611T460 470Q460 403 448 359T413 290T357 250L482 0H370L258 228H170V0H70ZM170 302H235Q299 302 329 338T360 470Q360 536 347 573T306 626T235 642H170V302Z" />
<glyph unicode="S" horiz-adv-x="452" d="M188 -10Q141 -10 100 -4T35 10V58H168Q251 58 284 88T318 180Q318 223 298 248T245 291T176 324T107 364T54 427T33 530Q33 618 81 664T228 710Q276 710 318 704T382 690V642H248Q192 642 163 613T133 530Q133 485 153
458T206 413T275 379T344 339T397 279T418 180Q418 85 366 38T188 -10Z" />
<glyph unicode="T" horiz-adv-x="437" d="M168 0V627H10V700H427V627H268V0H168Z" />
<glyph unicode="U" horiz-adv-x="530" d="M265 -10Q194 -10 149 13T82 92T60 240V700H160V240Q160 167 173 127T209 70T265 53Q298 53 321 69T357 126T370 240V700H470V240Q470 147 448 92T381 14T265 -10Z" />
<glyph unicode="V" horiz-adv-x="500" d="M182 0L18 700H120L248 115H252L380 700H482L318 0H182Z" />
<glyph unicode="W" horiz-adv-x="730" d="M137 0L18 700H120L208 172H213L318 570H412L517 172H522L610 700H712L593 0H477L367 410H363L253 0H137Z" />
<glyph unicode="X" horiz-adv-x="470" d="M13 0L162 360L28 700H130L235 427L340 700H442L308 360L457 0H355L235 295L115 0H13Z" />
<glyph unicode="Y" horiz-adv-x="460" d="M180 0V217L8 700H110L230 350L350 700H452L280 217V0H180Z" />
<glyph unicode="Z" horiz-adv-x="415" d="M20 0V68L280 627H25V700H395V632L135 73H390V0H20Z" />
<glyph unicode="[" horiz-adv-x="268" d="M70 -180V740H268V677H170V-117H268V-180H70Z" />
<glyph unicode="\" horiz-adv-x="400" d="M300 0L0 700H100L400 0H300Z" />
<glyph unicode="]" horiz-adv-x="268" d="M0 -180V-117H98V677H0V740H198V-180H0Z" />
<glyph unicode="^" horiz-adv-x="455" d="M102 405L30 450L182 700H273L425 450L353 405L230 605H225L102 405Z" />
<glyph unicode="_" horiz-adv-x="307" d="M0 -73V0H307V-73H0Z" />
<glyph unicode="`" horiz-adv-x="180" d="M90 560L23 690H124L155 560H90Z" />
<glyph unicode="a" horiz-adv-x="458" d="M195 -10Q151 -10 117 3T63 50T43 150Q43 214 63 247T118 294T198 307Q221 307 246 304T293 297V340Q293 405 265 426T185 447H85V490Q108 498 141 504T205 510Q268 510 309 497T372 447T393 340V0H315L307 30H302Q284
12 257 1T195 -10ZM228 53Q247 53 265 59T293 73V243H228Q206 243 187 235T155 207T143 150Q143 112 155 91T186 62T228 53Z" />
<glyph unicode="b" horiz-adv-x="478" d="M232 -10Q184 -10 146 -3T70 20V700H170V485Q191 496 213 503T265 510Q319 510 356 486T414 405T435 250Q435 152 414 95T347 14T232 -10ZM170 53H232Q264 53 287 69T322 129T335 250Q335 328 323 371T288 430T235 447Q216
447 198 441T170 427V53Z" />
<glyph unicode="c" horiz-adv-x="382" d="M243 -10Q175 -10 131 14T65 95T43 250Q43 348 64 405T127 486T233 510Q266 510 300 504T357 490V447H253Q219 447 194 431T156 371T143 250Q143 172 156 129T197 70T263 53H367V10Q345 3 311 -3T243 -10Z" />
<glyph unicode="d" horiz-adv-x="478" d="M210 -10Q159 -10 122 14T64 95T43 250Q43 348 63 405T122 486T213 510Q242 510 265 503T308 485V700H408V0H330L322 30H317Q299 12 272 1T210 -10ZM243 53Q262 53 279 59T308 73V427Q299 435 281 441T243 447Q214 447
191 431T156 371T143 250Q143 172 155 129T191 70T243 53Z" />
<glyph unicode="e" horiz-adv-x="447" d="M258 -10Q183 -10 136 14T66 95T43 250Q43 348 64 405T125 486T223 510Q282 510 322 486T382 405T403 250V218H143Q143 125 175 89T278 53H382V10Q360 3 326 -3T258 -10ZM143 282H303Q303 349 292 385T263 437T223 452Q202
452 184 437T154 386T143 282Z" />
<glyph unicode="f" horiz-adv-x="327" d="M78 0V422H20V490H78V530Q78 600 97 636T150 686T223 700Q240 700 261 697T304 690T337 680V637H250Q233 637 217 629T189 597T178 530V490H317V442Q295 435 261 429T193 422H178V0H78Z" />
<glyph unicode="g" horiz-adv-x="473" d="M203 -210Q171 -210 137 -204T80 -190V-147H183Q247 -147 277 -112T308 15Q289 4 266 -3T213 -10Q160 -10 122 14T64 95T43 250Q43 348 65 405T132 486T247 510Q294 510 332 503T408 480V40Q408 -53 387 -108T320 -186T203
-210ZM243 53Q262 53 280 59T308 73V447H247Q215 447 192 431T156 371T143 250Q143 172 155 129T191 70T243 53Z" />
<glyph unicode="h" horiz-adv-x="490" d="M70 0V700H170V483Q192 496 218 503T277 510Q320 510 353 498T405 452T425 357V0H325V357Q325 410 299 428T235 447Q216 447 198 441T170 427V0H70Z" />
<glyph unicode="i" horiz-adv-x="240" d="M70 0V500H170V0H70ZM70 567V680H170V567H70Z" />
<glyph unicode="j" horiz-adv-x="248" d="M33 -210Q9 -210 -16 -204T-60 -190V-147H10Q26 -147 42 -138T68 -105T78 -40V500H178V-40Q178 -110 159 -146T107 -196T33 -210ZM78 567V680H178V567H78Z" />
<glyph unicode="k" horiz-adv-x="443" d="M70 0V700H170V275L307 500H417L268 265L433 0H323L170 255V0H70Z" />
<glyph unicode="l" horiz-adv-x="240" d="M70 0V700H170V0H70Z" />
<glyph unicode="m" horiz-adv-x="707" d="M65 0V500H143L152 470H157Q175 488 199 499T262 510Q297 510 325 500T373 467Q397 488 431 499T498 510Q538 510 570 498T622 452T642 357V0H542V357Q542 392 531 411T501 439T463 447Q442 447 423 442T393 428Q397 417
400 399T403 357V0H303V357Q303 392 292 411T263 439T227 447Q208 447 192 441T165 427V0H65Z" />
<glyph unicode="n" horiz-adv-x="485" d="M65 0V500H143L152 470H157Q175 488 202 499T265 510Q311 510 346 498T400 452T420 357V0H320V357Q320 410 294 428T230 447Q211 447 193 441T165 427V0H65Z" />
<glyph unicode="o" horiz-adv-x="467" d="M233 -10Q172 -10 130 15T65 97T43 250Q43 347 65 403T129 485T233 510Q295 510 337 485T401 404T423 250Q423 154 402 97T338 15T233 -10ZM233 48Q258 48 278 65T310 127T323 250Q323 329 311 373T278 434T233 452Q209
452 189 435T156 373T143 250Q143 171 155 127T188 66T233 48Z" />
<glyph unicode="p" horiz-adv-x="473" d="M65 -200V500H143L152 470H157Q175 488 202 499T263 510Q315 510 352 486T410 405T430 250Q430 152 410 95T352 14T260 -10Q231 -10 209 -3T165 15V-200H65ZM230 53Q260 53 282 69T317 129T330 250Q330 328 318 371T283
430T230 447Q211 447 194 441T165 427V73Q175 66 193 60T230 53Z" />
<glyph unicode="q" horiz-adv-x="473" d="M308 -200V15Q288 4 265 -3T213 -10Q160 -10 122 14T64 95T43 250Q43 348 65 405T132 486T247 510Q294 510 332 503T408 480V-200H308ZM243 53Q262 53 280 59T308 73V447H247Q215 447 192 431T156 371T143 250Q143 172
155 129T191 70T243 53Z" />
<glyph unicode="r" horiz-adv-x="343" d="M65 0V500H144L152 460H157Q175 475 204 487T278 500H333V422H230Q211 422 195 417T165 402V0H65Z" />
<glyph unicode="s" horiz-adv-x="402" d="M163 -10Q131 -10 97 -4T40 10V53H143Q207 53 237 70T268 130Q268 159 251 176T208 206T151 230T94 259T50 305T33 377Q33 454 80 482T218 510Q251 510 285 504T342 490V447H238Q190 447 162 431T133 380Q133 351 150
334T193 304T250 280T307 251T351 206T368 133Q368 77 347 46T280 2T163 -10Z" />
<glyph unicode="t" horiz-adv-x="352" d="M223 -10Q183 -10 150 3T98 53T78 160V422H20V490H78V610H178V490H317V442Q295 435 261 429T193 422H178V160Q178 117 189 94T216 62T247 53H337V10Q325 5 304 1T262 -7T223 -10Z" />
<glyph unicode="u" horiz-adv-x="485" d="M220 -10Q175 -10 140 2T85 48T65 143V500H165V143Q165 91 191 72T255 53Q274 53 292 59T320 73V500H420V0H342L333 30H328Q310 12 283 1T220 -10Z" />
<glyph unicode="v" horiz-adv-x="443" d="M153 0L15 500H112L220 98H224L332 500H428L290 0H153Z" />
<glyph unicode="w" horiz-adv-x="623" d="M108 0L15 500H112L178 130H183L270 400H353L441 130H445L512 500H608L515 0H398L314 262H310L225 0H108Z" />
<glyph unicode="x" horiz-adv-x="410" d="M13 0L137 255L18 500H119L205 318L291 500H392L273 255L397 0H295L205 192L115 0H13Z" />
<glyph unicode="y" horiz-adv-x="485" d="M215 -210Q183 -210 149 -204T92 -190V-147H195Q259 -147 289 -112T320 17Q299 4 275 -3T220 -10Q175 -10 140 2T85 48T65 143V500H165V143Q165 91 191 72T255 53Q274 53 292 59T320 73V500H420V40Q420 -53 398 -108T331
-186T215 -210Z" />
<glyph unicode="z" horiz-adv-x="380" d="M20 0V63L243 432H30V500H360V437L137 68H355V0H20Z" />
<glyph unicode="{" horiz-adv-x="293" d="M293 -180Q228 -180 185 -167T120 -117T98 -10V120Q98 183 78 210T20 248V312Q57 323 77 350T98 440V570Q98 640 119 676T184 726T293 740V677Q252 677 225 656T198 570V460Q198 405 188 373T159 320T115 282V278Q140
260 159 240T188 188T198 100V-10Q198 -55 210 -77T244 -108T293 -117V-180Z" />
<glyph unicode="|" horiz-adv-x="240" d="M70 -200V700H170V-200H70Z" />
<glyph unicode="}" horiz-adv-x="293" d="M0 -180V-117Q28 -117 49 -109T82 -78T95 -10V100Q95 155 105 187T134 240T178 278V282Q153 300 135 320T106 372T95 460V570Q95 635 68 656T0 677V740Q66 740 109 727T173 677T195 570V440Q195 377 216 350T273 312V248Q237
237 216 210T195 120V-10Q195 -80 174 -116T109 -166T0 -180Z" />
<glyph unicode="~" horiz-adv-x="453" d="M30 194Q30 275 56 320T152 366Q186 366 207 354T244 326T272 298T302 286Q327 286 338 306T350 361H423Q423 279 397 234T302 189Q268 189 247 201T210 229T182 257T152 269Q127 269 115 249T103 194H30Z" />
<glyph unicode="&#xa0;" horiz-adv-x="250" />
<glyph unicode="&#xa1;" horiz-adv-x="240" d="M60 0L75 515H162L180 0H60ZM69 593V707H169V593H69Z" />
<glyph unicode="&#xa2;" horiz-adv-x="382" d="M212 -60V-8Q154 -4 117 22T62 104T43 250Q43 342 62 398T118 480T212 509V570H275V507Q298 504 319 500T357 490V447H275V53H367V10Q349 4 325 -1T275 -8V-60H212ZM212 61V440Q179 427 161 385T143 250Q143 161
160 118T212 61Z" />
<glyph unicode="&#xa3;" horiz-adv-x="422" d="M45 0V53Q60 63 70 81T87 129T93 210V318H35V392H93V500Q93 590 115 635T182 695T298 710Q324 710 348 704T392 690V642H298Q266 642 243 632T206 592T193 500V392H342V318H193V234Q193 162 179 128T143 77V73H402V0H45Z" />
<glyph unicode="&#xa4;" horiz-adv-x="520" d="M80 132L27 185L97 255Q86 273 79 298T72 350Q72 376 79 401T97 445L27 515L80 568L150 503Q168 520 198 530T259 540Q293 540 322 530T370 503L440 568L493 515L423 445Q434 427 441 402T448 350Q448 324 441 299T423
255L493 185L440 132L370 197Q352 180 323 170T259 160Q228 160 198 170T150 197L80 132ZM260 228Q295 228 321 258T347 350Q347 411 321 441T260 472Q225 472 199 442T173 350Q173 289 199 259T260 228Z" />
<glyph unicode="&#xa5;" horiz-adv-x="460" d="M180 0V202H62V275H159L139 332H62V405H113L8 700H110L230 350L350 700H452L346 405H398V332H320L300 275H398V202H280V0H180Z" />
<glyph unicode="&#xa6;" horiz-adv-x="240" d="M70 317V680H170V317H70ZM70 -200V163H170V-200H70Z" />
<glyph unicode="&#xa7;" horiz-adv-x="445" d="M188 -210Q149 -210 111 -204T50 -190V-147H168Q241 -147 273 -120T305 -50Q305 -16 286 5T237 43T173 75T109 112T59 167T40 250Q40 307 69 345T139 403Q102 425 76 458T50 550Q50 623 99 666T250 710Q290 710 328
704T388 690V647H270Q210 647 180 620T150 550Q150 516 168 495T216 457T277 425T339 388T386 333T405 250Q405 194 377 157T310 100Q348 78 376 45T405 -50Q405 -122 354 -166T188 -210ZM246 130Q272 146 288 174T305 250Q305 282 290 303T252 341T200 370Q174
355 157 327T140 250Q140 219 155 197T194 160T246 130Z" />
<glyph unicode="&#xa8;" horiz-adv-x="297" d="M180 577V690H277V577H180ZM20 577V690H117V577H20Z" />
<glyph unicode="&#xa9;" horiz-adv-x="820" d="M410 -20Q299 -20 217 25T90 153T45 350Q45 463 90 546T217 675T410 720Q521 720 603 675T730 547T775 350Q775 237 730 154T603 25T410 -20ZM420 130Q378 130 346 138T291 170T257 236T245 350Q245 420 256 463T290
530T345 561T420 570Q456 570 486 564T538 550V507H440Q408 507 385 496T348 452T335 350Q335 282 348 249T384 204T440 193H548V150Q526 143 491 137T420 130ZM410 43Q491 43 552 79T647 183T682 350Q682 448 648 516T552 621T410 657Q329 657 268 621T173 517T138
350Q138 252 172 184T268 79T410 43Z" />
<glyph unicode="&#xaa;" horiz-adv-x="292" d="M118 395Q86 395 58 416T30 490Q30 544 59 565T128 587Q141 587 155 586T180 584T190 582V600Q190 628 175 640T128 652H55V693Q70 698 93 701T138 705Q197 705 229 685T262 600V400H198L192 420Q177 409 159 402T118
395ZM148 448Q161 448 172 451T190 460V533H148Q127 533 115 523T102 490Q102 470 114 459T148 448Z" />
<glyph unicode="&#xab;" horiz-adv-x="460" d="M358 37L197 250L358 463L430 418L307 252V248L430 82L358 37ZM182 37L20 250L182 463L253 418L130 252V248L253 82L182 37Z" />
<glyph unicode="&#xac;" horiz-adv-x="428" d="M327 240L316 338H30V412H398V240H327Z" />
<glyph unicode="&#xad;" horiz-adv-x="360" d="M30 260V340H330V260H30Z" />
<glyph unicode="&#xae;" horiz-adv-x="820" d="M410 -20Q299 -20 217 25T90 153T45 350Q45 463 90 546T217 675T410 720Q521 720 603 675T730 547T775 350Q775 237 730 154T603 25T410 -20ZM410 43Q491 43 552 79T647 183T682 350Q682 448 648 516T552 621T410
657Q329 657 268 621T173 517T138 350Q138 252 172 184T268 79T410 43ZM265 140V550Q291 558 323 564T403 570Q483 570 526 540T570 430Q570 389 558 365T530 329T498 308L580 140H485L415 288H355V140H265ZM355 352H403Q433 352 456 369T480 430Q480 473 457 490T403
507H355V352Z" />
<glyph unicode="&#xaf;" horiz-adv-x="273" d="M20 637V700H253V637H20Z" />
<glyph unicode="&#xb0;" horiz-adv-x="390" d="M195 390Q124 390 82 432T40 550Q40 625 82 667T195 710Q267 710 308 668T350 550Q350 475 309 433T195 390ZM195 453Q223 453 242 476T262 550Q262 600 243 623T195 647Q168 647 148 624T128 550Q128 500 148 477T195 453Z" />
<glyph unicode="&#xb1;" horiz-adv-x="437" d="M177 150V303H30V377H177V533H260V377H407V303H260V150H177ZM30 48V122H407V48H30Z" />
<glyph unicode="&#xb2;" horiz-adv-x="260" d="M30 400V458Q83 499 120 537T158 608Q158 626 145 639T107 652H40V694Q55 699 77 702T122 705Q177 705 203 680T230 608Q230 570 201 534T112 453H230V400H30Z" />
<glyph unicode="&#xb3;" horiz-adv-x="260" d="M107 395Q85 395 65 398T30 406V448H107Q132 448 145 458T158 487Q158 507 146 517T112 528H65V582H107Q130 582 139 593T148 618Q148 632 137 642T101 652H30V694Q44 699 66 702T112 705Q162 705 191 687T220 620Q220
597 206 581T178 560Q197 556 213 538T230 485Q230 433 198 414T107 395Z" />
<glyph unicode="&#xb4;" horiz-adv-x="177" d="M20 560L55 690H157L85 560H20Z" />
<glyph unicode="&#xb5;" horiz-adv-x="485" d="M65 -200V500H165V163Q165 111 191 82T255 53Q274 53 292 59T320 73V500H420V0H342L333 30H328Q309 11 287 1T235 -10Q206 -10 188 2T165 18V-200H65Z" />
<glyph unicode="&#xb6;" horiz-adv-x="542" d="M215 -200V330Q129 330 80 379T30 515Q30 563 52 605T116 673T215 700H522V627H455V-200H365V627H305V-200H215Z" />
<glyph unicode="&#xb7;" horiz-adv-x="260" d="M80 293V407H180V293H80Z" />
<glyph unicode="&#xb8;" horiz-adv-x="205" d="M95 -167Q60 -167 40 -160T20 -152V-120H85Q103 -120 110 -114T117 -97Q117 -87 110 -80T87 -73H32V15H83V-27H98Q141 -27 163 -47T185 -97Q185 -127 162 -147T95 -167Z" />
<glyph unicode="&#xb9;" horiz-adv-x="190" d="M88 400V647H30V688Q45 693 72 696T127 700H160V400H88Z" />
<glyph unicode="&#xba;" horiz-adv-x="307" d="M153 395Q100 395 65 433T30 550Q30 629 65 667T153 705Q207 705 242 667T277 550Q277 471 242 433T153 395ZM153 448Q175 448 190 470T205 550Q205 608 190 630T153 652Q132 652 117 630T102 550Q102 493 117 471T153 448Z" />
<glyph unicode="&#xbb;" horiz-adv-x="460" d="M278 37L207 82L330 248V252L207 418L278 463L440 250L278 37ZM102 37L30 82L153 248V252L30 418L102 463L263 250L102 37Z" />
<glyph unicode="&#xbc;" horiz-adv-x="570" d="M40 0L430 700H520L130 0H40ZM415 0V62H272V115L412 300H487V115H515V62H487V0H415ZM343 115H415V209L343 115ZM105 400V647H47V688Q62 693 89 696T143 700H180V400H105Z" />
<glyph unicode="&#xbd;" horiz-adv-x="600" d="M50 0L440 700H530L140 0H50ZM340 0V58Q393 99 430 137T468 208Q468 226 455 239T417 252H350V294Q365 299 387 302T432 305Q487 305 513 280T540 208Q540 170 511 134T422 53H540V0H340ZM117 400V647H58V688Q73
693 100 696T155 700H192V400H117Z" />
<glyph unicode="&#xbe;" horiz-adv-x="578" d="M48 0L438 700H528L138 0H48ZM423 0V62H280V115L420 300H495V115H523V62H495V0H423ZM352 115H423V209L352 115ZM117 395Q95 395 75 398T40 406V448H117Q142 448 155 458T168 487Q168 507 156 517T122 528H75V582H117Q140
582 149 593T158 618Q158 632 147 642T111 652H40V694Q54 699 76 702T122 705Q172 705 201 687T230 620Q230 597 216 581T188 560Q207 556 223 538T240 485Q240 433 208 414T117 395Z" />
<glyph unicode="&#xbf;" horiz-adv-x="378" d="M215 -10Q124 -10 77 37T30 180Q30 231 45 266T84 329T130 383T170 440T187 515H273Q273 462 259 425T224 361T181 308T145 252T130 180Q130 119 158 89T238 58H368V10Q346 3 305 -3T215 -10ZM180 593V707H280V593H180Z" />
<glyph unicode="&#xc0;" horiz-adv-x="520" d="M18 0L192 700H328L502 0H400L355 178H165L120 0H18ZM180 252H340L262 580H258L180 252ZM221 760L154 890H255L286 760H221Z" />
<glyph unicode="&#xc1;" horiz-adv-x="520" d="M18 0L192 700H328L502 0H400L355 178H165L120 0H18ZM180 252H340L262 580H258L180 252ZM229 760L264 890H366L294 760H229Z" />
<glyph unicode="&#xc2;" horiz-adv-x="520" d="M18 0L192 700H328L502 0H400L355 178H165L120 0H18ZM180 252H340L262 580H258L180 252ZM134 750L211 880H309L386 750H320L259 823L199 750H134Z" />
<glyph unicode="&#xc3;" horiz-adv-x="520" d="M18 0L192 700H328L502 0H400L355 178H165L120 0H18ZM180 252H340L262 580H258L180 252ZM303 763Q285 763 273 771T251 791T234 811T216 820Q191 820 191 777H138Q138 837 158 862T216 887Q235 887 247 879T268 859T285
839T303 830Q328 830 328 873H381Q381 814 362 789T303 763Z" />
<glyph unicode="&#xc4;" horiz-adv-x="520" d="M18 0L192 700H328L502 0H400L355 178H165L120 0H18ZM180 252H340L262 580H258L180 252ZM292 777V890H389V777H292ZM132 777V890H229V777H132Z" />
<glyph unicode="&#xc5;" horiz-adv-x="520" d="M18 0L192 700H328L502 0H400L355 178H165L120 0H18ZM180 252H340L262 580H258L180 252ZM260 738Q222 738 197 760T172 820Q172 858 197 880T260 902Q299 902 324 880T349 820Q349 783 324 761T260 738ZM260 787Q274
787 284 794T294 820Q294 838 284 845T260 853Q247 853 237 846T227 820Q227 802 237 795T260 787Z" />
<glyph unicode="&#xc6;" horiz-adv-x="739" d="M0 0L240 700H699V627H451V402H669V328H451V73H699V0H351V178H161L100 0H0ZM186 252H351V627H314L186 252Z" />
<glyph unicode="&#xc7;" horiz-adv-x="442" d="M273 -10Q201 -10 151 21T75 131T48 350Q48 490 74 568T148 678T263 710Q311 710 353 704T417 690V642H290Q249 642 217 617T167 529T148 350Q148 235 167 172T220 83T300 58H427V10Q405 3 363 -3T273 -10ZM283 -167Q248
-167 228 -160T208 -152V-120H273Q291 -120 298 -114T305 -97Q305 -87 298 -80T275 -73H220V15H271V-27H286Q329 -27 351 -47T373 -97Q373 -127 350 -147T283 -167Z" />
<glyph unicode="&#xc8;" horiz-adv-x="458" d="M70 0V700H418V627H170V402H388V328H170V73H418V0H70ZM201 760L134 890H235L266 760H201Z" />
<glyph unicode="&#xc9;" horiz-adv-x="458" d="M70 0V700H418V627H170V402H388V328H170V73H418V0H70ZM198 760L233 890H335L263 760H198Z" />
<glyph unicode="&#xca;" horiz-adv-x="458" d="M70 0V700H418V627H170V402H388V328H170V73H418V0H70ZM106 750L183 880H281L358 750H292L231 823L171 750H106Z" />
<glyph unicode="&#xcb;" horiz-adv-x="458" d="M70 0V700H418V627H170V402H388V328H170V73H418V0H70ZM266 777V890H363V777H266ZM106 777V890H203V777H106Z" />
<glyph unicode="&#xcc;" horiz-adv-x="240" d="M70 0V700H170V0H70ZM83 760L16 890H117L148 760H83Z" />
<glyph unicode="&#xcd;" horiz-adv-x="240" d="M70 0V700H170V0H70ZM89 760L124 890H226L154 760H89Z" />
<glyph unicode="&#xce;" horiz-adv-x="240" d="M70 0V700H170V0H70ZM-8 750L68 880H167L243 750H178L117 823L57 750H-8Z" />
<glyph unicode="&#xcf;" horiz-adv-x="240" d="M70 0V700H170V0H70ZM152 777V890H249V777H152ZM-8 777V890H89V777H-8Z" />
<glyph unicode="&#xd0;" horiz-adv-x="547" d="M253 -10Q205 -10 166 -6T88 10V318H10V392H88V690Q126 701 165 705T253 710Q334 710 388 678T470 567T498 350Q498 212 471 133T389 22T253 -10ZM188 58H253Q297 58 329 83T380 171T398 350Q398 466 380 529T330
617T253 642H188V392H297V318H188V58Z" />
<glyph unicode="&#xd1;" horiz-adv-x="550" d="M70 0V700H177L377 217H382V700H480V0H373L173 483H168V0H70ZM321 763Q303 763 291 771T269 791T252 811T234 820Q209 820 209 777H156Q156 837 176 862T234 887Q253 887 265 879T286 859T303 839T321 830Q346 830
346 873H399Q399 814 380 789T321 763Z" />
<glyph unicode="&#xd2;" horiz-adv-x="537" d="M268 -10Q200 -10 151 22T75 133T48 350Q48 488 74 566T150 677T268 710Q337 710 386 678T461 567T488 350Q488 212 462 133T386 22T268 -10ZM268 53Q291 53 312 66T351 113T378 203T388 350Q388 439 379 496T352
587T313 633T268 647Q245 647 224 634T185 587T158 497T148 350Q148 261 158 204T185 113T223 67T268 53ZM229 760L162 890H263L294 760H229Z" />
<glyph unicode="&#xd3;" horiz-adv-x="537" d="M268 -10Q200 -10 151 22T75 133T48 350Q48 488 74 566T150 677T268 710Q337 710 386 678T461 567T488 350Q488 212 462 133T386 22T268 -10ZM268 53Q291 53 312 66T351 113T378 203T388 350Q388 439 379 496T352
587T313 633T268 647Q245 647 224 634T185 587T158 497T148 350Q148 261 158 204T185 113T223 67T268 53ZM237 760L272 890H374L302 760H237Z" />
<glyph unicode="&#xd4;" horiz-adv-x="537" d="M268 -10Q200 -10 151 22T75 133T48 350Q48 488 74 566T150 677T268 710Q337 710 386 678T461 567T488 350Q488 212 462 133T386 22T268 -10ZM268 53Q291 53 312 66T351 113T378 203T388 350Q388 439 379 496T352
587T313 633T268 647Q245 647 224 634T185 587T158 497T148 350Q148 261 158 204T185 113T223 67T268 53ZM142 750L219 880H317L394 750H328L267 823L207 750H142Z" />
<glyph unicode="&#xd5;" horiz-adv-x="537" d="M268 -10Q200 -10 151 22T75 133T48 350Q48 488 74 566T150 677T268 710Q337 710 386 678T461 567T488 350Q488 212 462 133T386 22T268 -10ZM268 53Q291 53 312 66T351 113T378 203T388 350Q388 439 379 496T352
587T313 633T268 647Q245 647 224 634T185 587T158 497T148 350Q148 261 158 204T185 113T223 67T268 53ZM312 763Q294 763 282 771T260 791T243 811T225 820Q200 820 200 777H147Q147 837 167 862T225 887Q244 887 256 879T277 859T294 839T312 830Q337 830 337
873H390Q390 814 371 789T312 763Z" />
<glyph unicode="&#xd6;" horiz-adv-x="537" d="M268 -10Q200 -10 151 22T75 133T48 350Q48 488 74 566T150 677T268 710Q337 710 386 678T461 567T488 350Q488 212 462 133T386 22T268 -10ZM268 53Q291 53 312 66T351 113T378 203T388 350Q388 439 379 496T352
587T313 633T268 647Q245 647 224 634T185 587T158 497T148 350Q148 261 158 204T185 113T223 67T268 53ZM300 777V890H397V777H300ZM140 777V890H237V777H140Z" />
<glyph unicode="&#xd7;" horiz-adv-x="407" d="M97 167L40 223L147 330L40 437L97 493L203 387L310 493L367 437L260 330L367 223L310 167L203 273L97 167Z" />
<glyph unicode="&#xd8;" horiz-adv-x="543" d="M272 -10Q219 -10 178 8T109 69L72 17L28 50L81 126Q67 167 60 222T52 350Q52 488 78 566T154 677T272 710Q324 710 365 692T435 630L472 683L515 650L462 574Q477 534 484 479T492 350Q492 212 466 133T390 22T272
-10ZM272 53Q295 53 316 66T355 113T382 203T392 350Q392 384 390 412T386 465L171 159Q188 98 215 76T272 53ZM158 235L371 540Q355 602 329 624T272 647Q249 647 228 634T189 587T162 497T152 350Q152 316 153 288T158 235Z" />
<glyph unicode="&#xd9;" horiz-adv-x="530" d="M265 -10Q194 -10 149 13T82 92T60 240V700H160V240Q160 167 173 127T209 70T265 53Q298 53 321 69T357 126T370 240V700H470V240Q470 147 448 92T381 14T265 -10ZM227 760L160 890H261L292 760H227Z" />
<glyph unicode="&#xda;" horiz-adv-x="530" d="M265 -10Q194 -10 149 13T82 92T60 240V700H160V240Q160 167 173 127T209 70T265 53Q298 53 321 69T357 126T370 240V700H470V240Q470 147 448 92T381 14T265 -10ZM234 760L269 890H371L299 760H234Z" />
<glyph unicode="&#xdb;" horiz-adv-x="530" d="M265 -10Q194 -10 149 13T82 92T60 240V700H160V240Q160 167 173 127T209 70T265 53Q298 53 321 69T357 126T370 240V700H470V240Q470 147 448 92T381 14T265 -10ZM139 750L216 880H314L391 750H325L264 823L204 750H139Z" />
<glyph unicode="&#xdc;" horiz-adv-x="530" d="M265 -10Q194 -10 149 13T82 92T60 240V700H160V240Q160 167 173 127T209 70T265 53Q298 53 321 69T357 126T370 240V700H470V240Q470 147 448 92T381 14T265 -10ZM297 777V890H394V777H297ZM137 777V890H234V777H137Z" />
<glyph unicode="&#xdd;" horiz-adv-x="460" d="M180 0V217L8 700H110L230 350L350 700H452L280 217V0H180ZM199 760L234 890H336L264 760H199Z" />
<glyph unicode="&#xde;" horiz-adv-x="508" d="M70 -10V710H170V632Q325 625 397 553T470 350Q470 219 398 148T170 68V-10H70ZM170 137Q268 141 319 194T370 350Q370 453 319 506T170 563V137Z" />
<glyph unicode="&#xdf;" horiz-adv-x="537" d="M330 -10Q308 -10 280 -4T228 10V53H310Q351 53 378 71T405 135Q405 165 389 185T348 223T298 259T257 303T240 365Q240 399 256 422T292 463T329 502T345 550Q345 592 320 617T260 642Q219 642 192 609T165 495V0H65V495Q65
609 113 659T260 710Q351 710 398 667T445 550Q445 513 429 489T393 447T356 410T340 365Q340 342 356 325T397 291T447 254T488 206T505 135Q505 78 485 47T425 3T330 -10Z" />
<glyph unicode="&#xe0;" horiz-adv-x="458" d="M195 -10Q151 -10 117 3T63 50T43 150Q43 214 63 247T118 294T198 307Q221 307 246 304T293 297V340Q293 405 265 426T185 447H85V490Q108 498 141 504T205 510Q268 510 309 497T372 447T393 340V0H315L307 30H302Q284
12 257 1T195 -10ZM228 53Q247 53 265 59T293 73V243H228Q206 243 187 235T155 207T143 150Q143 112 155 91T186 62T228 53ZM190 560L123 690H224L255 560H190Z" />
<glyph unicode="&#xe1;" horiz-adv-x="458" d="M195 -10Q151 -10 117 3T63 50T43 150Q43 214 63 247T118 294T198 307Q221 307 246 304T293 297V340Q293 405 265 426T185 447H85V490Q108 498 141 504T205 510Q268 510 309 497T372 447T393 340V0H315L307 30H302Q284
12 257 1T195 -10ZM228 53Q247 53 265 59T293 73V243H228Q206 243 187 235T155 207T143 150Q143 112 155 91T186 62T228 53ZM198 560L233 690H335L263 560H198Z" />
<glyph unicode="&#xe2;" horiz-adv-x="458" d="M195 -10Q151 -10 117 3T63 50T43 150Q43 214 63 247T118 294T198 307Q221 307 246 304T293 297V340Q293 405 265 426T185 447H85V490Q108 498 141 504T205 510Q268 510 309 497T372 447T393 340V0H315L307 30H302Q284
12 257 1T195 -10ZM228 53Q247 53 265 59T293 73V243H228Q206 243 187 235T155 207T143 150Q143 112 155 91T186 62T228 53ZM103 550L180 680H278L355 550H289L228 623L168 550H103Z" />
<glyph unicode="&#xe3;" horiz-adv-x="458" d="M195 -10Q151 -10 117 3T63 50T43 150Q43 214 63 247T118 294T198 307Q221 307 246 304T293 297V340Q293 405 265 426T185 447H85V490Q108 498 141 504T205 510Q268 510 309 497T372 447T393 340V0H315L307 30H302Q284
12 257 1T195 -10ZM228 53Q247 53 265 59T293 73V243H228Q206 243 187 235T155 207T143 150Q143 112 155 91T186 62T228 53ZM273 563Q255 563 243 571T221 591T204 611T186 620Q161 620 161 577H108Q108 637 128 662T186 687Q205 687 217 679T238 659T255 639T273
630Q298 630 298 673H351Q351 614 332 589T273 563Z" />
<glyph unicode="&#xe4;" horiz-adv-x="458" d="M195 -10Q151 -10 117 3T63 50T43 150Q43 214 63 247T118 294T198 307Q221 307 246 304T293 297V340Q293 405 265 426T185 447H85V490Q108 498 141 504T205 510Q268 510 309 497T372 447T393 340V0H315L307 30H302Q284
12 257 1T195 -10ZM228 53Q247 53 265 59T293 73V243H228Q206 243 187 235T155 207T143 150Q143 112 155 91T186 62T228 53ZM261 577V690H358V577H261ZM101 577V690H198V577H101Z" />
<glyph unicode="&#xe5;" horiz-adv-x="458" d="M195 -10Q151 -10 117 3T63 50T43 150Q43 214 63 247T118 294T198 307Q221 307 246 304T293 297V340Q293 405 265 426T185 447H85V490Q108 498 141 504T205 510Q268 510 309 497T372 447T393 340V0H315L307 30H302Q284
12 257 1T195 -10ZM228 53Q247 53 265 59T293 73V243H228Q206 243 187 235T155 207T143 150Q143 112 155 91T186 62T228 53ZM229 538Q191 538 166 560T141 620Q141 658 166 680T229 702Q268 702 293 680T318 620Q318 583 293 561T229 538ZM229 587Q243 587 253
594T263 620Q263 638 253 645T229 653Q216 653 206 646T196 620Q196 602 206 595T229 587Z" />
<glyph unicode="&#xe6;" horiz-adv-x="697" d="M198 -10Q153 -10 118 2T63 47T43 140Q43 199 63 230T118 274T198 287Q221 287 246 284T293 277V340Q293 405 265 426T185 447H85V490Q108 498 141 504T205 510Q254 510 291 493T348 443Q369 475 400 492T473 510Q532
510 572 486T632 406T653 253V223H393V210Q395 121 427 87T528 53H632V10Q610 3 576 -3T508 -10Q447 -10 410 6T348 57Q326 25 290 8T198 -10ZM222 53Q243 53 258 59T283 71T293 80V223H228Q195 223 169 206T143 140Q143 90 168 72T222 53ZM393 287H553Q553 351
542 387T513 437T473 452Q452 452 434 438T404 388T393 287Z" />
<glyph unicode="&#xe7;" horiz-adv-x="382" d="M243 -10Q175 -10 131 14T65 95T43 250Q43 348 64 405T127 486T233 510Q266 510 300 504T357 490V447H253Q219 447 194 431T156 371T143 250Q143 172 156 129T197 70T263 53H367V10Q345 3 311 -3T243 -10ZM243 -167Q208
-167 188 -160T168 -152V-120H233Q251 -120 258 -114T265 -97Q265 -87 258 -80T235 -73H180V15H231V-27H246Q289 -27 311 -47T333 -97Q333 -127 310 -147T243 -167Z" />
<glyph unicode="&#xe8;" horiz-adv-x="447" d="M258 -10Q183 -10 136 14T66 95T43 250Q43 348 64 405T125 486T223 510Q282 510 322 486T382 405T403 250V218H143Q143 125 175 89T278 53H382V10Q360 3 326 -3T258 -10ZM143 282H303Q303 349 292 385T263 437T223
452Q202 452 184 437T154 386T143 282ZM184 560L117 690H218L249 560H184Z" />
<glyph unicode="&#xe9;" horiz-adv-x="447" d="M258 -10Q183 -10 136 14T66 95T43 250Q43 348 64 405T125 486T223 510Q282 510 322 486T382 405T403 250V218H143Q143 125 175 89T278 53H382V10Q360 3 326 -3T258 -10ZM143 282H303Q303 349 292 385T263 437T223
452Q202 452 184 437T154 386T143 282ZM192 560L227 690H329L257 560H192Z" />
<glyph unicode="&#xea;" horiz-adv-x="447" d="M258 -10Q183 -10 136 14T66 95T43 250Q43 348 64 405T125 486T223 510Q282 510 322 486T382 405T403 250V218H143Q143 125 175 89T278 53H382V10Q360 3 326 -3T258 -10ZM143 282H303Q303 349 292 385T263 437T223
452Q202 452 184 437T154 386T143 282ZM97 550L174 680H272L349 550H283L222 623L162 550H97Z" />
<glyph unicode="&#xeb;" horiz-adv-x="447" d="M258 -10Q183 -10 136 14T66 95T43 250Q43 348 64 405T125 486T223 510Q282 510 322 486T382 405T403 250V218H143Q143 125 175 89T278 53H382V10Q360 3 326 -3T258 -10ZM143 282H303Q303 349 292 385T263 437T223
452Q202 452 184 437T154 386T143 282ZM255 577V690H352V577H255ZM95 577V690H192V577H95Z" />
<glyph unicode="&#xec;" horiz-adv-x="240" d="M70 0V500H170V0H70ZM337 560L270 690H371L402 560H337Z" />
<glyph unicode="&#xed;" horiz-adv-x="240" d="M70 0V500H170V0H70ZM89 560L124 690H226L154 560H89Z" />
<glyph unicode="&#xee;" horiz-adv-x="240" d="M70 0V500H170V0H70ZM250 550L327 680H425L502 550H436L375 623L315 550H250Z" />
<glyph unicode="&#xef;" horiz-adv-x="240" d="M70 0V500H170V0H70ZM408 577V690H505V577H408ZM248 577V690H345V577H248Z" />
<glyph unicode="&#xf0;" horiz-adv-x="465" d="M230 -10Q135 -10 88 42T40 215Q40 336 86 388T220 440Q253 440 276 433T320 415Q320 453 313 485T288 543L238 483L192 520L249 589Q219 615 175 635T76 667L82 710Q148 705 202 689T296 644L350 709L397 672L340
606Q378 564 399 502T420 357V215Q420 94 373 42T230 -10ZM230 48Q255 48 275 63T308 115T320 215V357Q310 365 292 371T250 377Q198 377 169 342T140 215Q140 152 152 116T184 64T230 48Z" />
<glyph unicode="&#xf1;" horiz-adv-x="485" d="M65 0V500H143L152 470H157Q175 488 202 499T265 510Q311 510 346 498T400 452T420 357V0H320V357Q320 410 294 428T230 447Q211 447 193 441T165 427V0H65ZM281 563Q263 563 251 571T229 591T212 611T194 620Q169
620 169 577H116Q116 637 136 662T194 687Q213 687 225 679T246 659T263 639T281 630Q306 630 306 673H359Q359 614 340 589T281 563Z" />
<glyph unicode="&#xf2;" horiz-adv-x="467" d="M233 -10Q172 -10 130 15T65 97T43 250Q43 347 65 403T129 485T233 510Q295 510 337 485T401 404T423 250Q423 154 402 97T338 15T233 -10ZM233 48Q258 48 278 65T310 127T323 250Q323 329 311 373T278 434T233 452Q209
452 189 435T156 373T143 250Q143 171 155 127T188 66T233 48ZM194 560L127 690H228L259 560H194Z" />
<glyph unicode="&#xf3;" horiz-adv-x="467" d="M233 -10Q172 -10 130 15T65 97T43 250Q43 347 65 403T129 485T233 510Q295 510 337 485T401 404T423 250Q423 154 402 97T338 15T233 -10ZM233 48Q258 48 278 65T310 127T323 250Q323 329 311 373T278 434T233 452Q209
452 189 435T156 373T143 250Q143 171 155 127T188 66T233 48ZM202 560L237 690H339L267 560H202Z" />
<glyph unicode="&#xf4;" horiz-adv-x="467" d="M233 -10Q172 -10 130 15T65 97T43 250Q43 347 65 403T129 485T233 510Q295 510 337 485T401 404T423 250Q423 154 402 97T338 15T233 -10ZM233 48Q258 48 278 65T310 127T323 250Q323 329 311 373T278 434T233 452Q209
452 189 435T156 373T143 250Q143 171 155 127T188 66T233 48ZM107 550L184 680H282L359 550H293L232 623L172 550H107Z" />
<glyph unicode="&#xf5;" horiz-adv-x="467" d="M233 -10Q172 -10 130 15T65 97T43 250Q43 347 65 403T129 485T233 510Q295 510 337 485T401 404T423 250Q423 154 402 97T338 15T233 -10ZM233 48Q258 48 278 65T310 127T323 250Q323 329 311 373T278 434T233 452Q209
452 189 435T156 373T143 250Q143 171 155 127T188 66T233 48ZM277 563Q259 563 247 571T225 591T208 611T190 620Q165 620 165 577H112Q112 637 132 662T190 687Q209 687 221 679T242 659T259 639T277 630Q302 630 302 673H355Q355 614 336 589T277 563Z" />
<glyph unicode="&#xf6;" horiz-adv-x="467" d="M233 -10Q172 -10 130 15T65 97T43 250Q43 347 65 403T129 485T233 510Q295 510 337 485T401 404T423 250Q423 154 402 97T338 15T233 -10ZM233 48Q258 48 278 65T310 127T323 250Q323 329 311 373T278 434T233 452Q209
452 189 435T156 373T143 250Q143 171 155 127T188 66T233 48ZM265 577V690H362V577H265ZM105 577V690H202V577H105Z" />
<glyph unicode="&#xf7;" horiz-adv-x="437" d="M30 258V342H407V258H30ZM175 92V188H262V92H175ZM175 412V508H262V412H175Z" />
<glyph unicode="&#xf8;" horiz-adv-x="483" d="M242 -10Q194 -10 158 4T98 51L67 17L28 60L70 106Q61 134 57 170T52 250Q52 347 74 403T138 485T242 510Q289 510 325 496T385 449L417 483L455 440L413 394Q422 366 427 330T432 250Q432 154 410 97T346 15T242
-10ZM242 48Q266 48 286 65T319 127T332 250Q332 265 332 278T329 303L165 124Q177 81 197 65T242 48ZM153 196L318 376Q306 419 286 435T242 452Q218 452 198 435T165 373T152 250Q152 236 152 223T153 196Z" />
<glyph unicode="&#xf9;" horiz-adv-x="485" d="M220 -10Q175 -10 140 2T85 48T65 143V500H165V143Q165 91 191 72T255 53Q274 53 292 59T320 73V500H420V0H342L333 30H328Q310 12 283 1T220 -10ZM204 560L137 690H238L269 560H204Z" />
<glyph unicode="&#xfa;" horiz-adv-x="485" d="M220 -10Q175 -10 140 2T85 48T65 143V500H165V143Q165 91 191 72T255 53Q274 53 292 59T320 73V500H420V0H342L333 30H328Q310 12 283 1T220 -10ZM212 560L247 690H349L277 560H212Z" />
<glyph unicode="&#xfb;" horiz-adv-x="485" d="M220 -10Q175 -10 140 2T85 48T65 143V500H165V143Q165 91 191 72T255 53Q274 53 292 59T320 73V500H420V0H342L333 30H328Q310 12 283 1T220 -10ZM119 550L196 680H294L371 550H305L244 623L184 550H119Z" />
<glyph unicode="&#xfc;" horiz-adv-x="485" d="M220 -10Q175 -10 140 2T85 48T65 143V500H165V143Q165 91 191 72T255 53Q274 53 292 59T320 73V500H420V0H342L333 30H328Q310 12 283 1T220 -10ZM275 577V690H372V577H275ZM115 577V690H212V577H115Z" />
<glyph unicode="&#xfd;" horiz-adv-x="485" d="M215 -210Q183 -210 149 -204T92 -190V-147H195Q259 -147 289 -112T320 17Q299 4 275 -3T220 -10Q175 -10 140 2T85 48T65 143V500H165V143Q165 91 191 72T255 53Q274 53 292 59T320 73V500H420V40Q420 -53 398 -108T331
-186T215 -210ZM212 560L247 690H349L277 560H212Z" />
<glyph unicode="&#xfe;" horiz-adv-x="478" d="M70 -200V700H170V485Q191 496 213 503T265 510Q319 510 356 486T414 405T435 250Q435 152 415 95T357 14T265 -10Q236 -10 214 -3T170 15V-200H70ZM235 53Q265 53 287 69T322 129T335 250Q335 328 323 371T288 430T235
447Q216 447 198 441T170 427V73Q180 66 198 60T235 53Z" />
<glyph unicode="&#xff;" horiz-adv-x="485" d="M215 -210Q183 -210 149 -204T92 -190V-147H195Q259 -147 289 -112T320 17Q299 4 275 -3T220 -10Q175 -10 140 2T85 48T65 143V500H165V143Q165 91 191 72T255 53Q274 53 292 59T320 73V500H420V40Q420 -53 398 -108T331
-186T215 -210ZM275 577V690H372V577H275ZM115 577V690H212V577H115Z" />
<glyph unicode="&#x2013;" horiz-adv-x="467" d="M30 243V317H437V243H30Z" />
<glyph unicode="&#x2014;" horiz-adv-x="647" d="M30 243V317H617V243H30Z" />
<glyph unicode="&#x2018;" horiz-adv-x="178" d="M40 478L73 702H143V478H40Z" />
<glyph unicode="&#x2019;" horiz-adv-x="178" d="M40 478V702H143L110 478H40Z" />
<glyph unicode="&#x201a;" horiz-adv-x="178" d="M40 -117V107H143L110 -117H40Z" />
<glyph unicode="&#x201c;" horiz-adv-x="335" d="M192 478L225 702H295V478H192ZM35 478L68 702H138V478H35Z" />
<glyph unicode="&#x201d;" horiz-adv-x="335" d="M197 478V702H300L267 478H197ZM40 478V702H143L110 478H40Z" />
<glyph unicode="&#x201e;" horiz-adv-x="335" d="M197 -117V107H300L267 -117H197ZM40 -117V107H143L110 -117H40Z" />
<glyph unicode="&#x2022;" horiz-adv-x="257" d="M45 267V432H212V267H45Z" />
<glyph unicode="&#x2039;" horiz-adv-x="305" d="M203 7L20 250L203 493L275 448L130 252V248L275 52L203 7Z" />
<glyph unicode="&#x203a;" horiz-adv-x="305" d="M102 7L30 52L175 248V252L30 448L102 493L285 250L102 7Z" />
</font>
</defs>
</svg>
