<?xml version="1.0" standalone="no"?>
<!DOCTYPE svg PUBLIC "-//W3C//DTD SVG 1.1//EN" "http://www.w3.org/Graphics/SVG/1.1/DTD/svg11.dtd">
<svg xmlns="http://www.w3.org/2000/svg">
<defs >
<font id="Creepster" horiz-adv-x="421" ><font-face
    font-family="Creepster"
    units-per-em="1024"
    panose-1="2 0 0 0 0 0 0 0 0 0"
    ascent="974"
    descent="-223"
    alphabetic="0" />
<glyph unicode=" " glyph-name="space" horiz-adv-x="241" />
<glyph unicode="!" glyph-name="exclam" horiz-adv-x="207" d="M160 308L158 237Q158 168 129 145Q110 132 96 134T73 145Q65 154 65 166T60 200T49 245T44 294Q46 320 46 343T38 377Q26 392 26 411Q26 423 30 432Q39 458 39 478T38 507T36 524T32 550T32 590T32
636Q30 659 30 673T36 706T47 732T63 743T78 751T89 753T104 744T123 730Q134 725 148 718T165 696T168 677T172 672Q174 668 176 646T173 601T167 563T161 533T157 501T158 476T156 462T154 448T157 427T161 400T161 375T162 348T160 308ZM31 25T32 33T49 54T86
79T146 86Q164 84 174 65Q195 29 155 0Q137 -12 123 -14T104 -23T86 -27Q74 -24 70 -15T58 -2T44 6T34 18Z" />
<glyph unicode="&quot;" glyph-name="quotedbl" horiz-adv-x="283" d="M83 729Q127 729 122 662Q119 628 111 578T103 515T105 489T103 464Q96 437 68 437Q48 437 36 467Q25 492 25 531T26 597T22 640T15 669T17 692Q22 716 29 722T43 733T63 733T83 729ZM172
508L167 582V600Q167 609 164 617T163 633T163 646Q161 651 164 656T165 668T166 676T166 686Q161 698 170 709T183 725T191 728T202 727T214 731Q232 737 238 733Q244 728 244 721Q251 722 256 718T264 694Q270 666 262 636T254 586T250 549T245 518T244 488Q241
426 196 444Q176 453 174 469Q172 483 172 508Z" />
<glyph unicode="#" glyph-name="numbersign" horiz-adv-x="600" d="M108 317T109 325T122 337T134 362T131 401Q112 401 92 401T56 404Q19 412 22 447Q24 493 75 489Q87 488 106 488T145 494Q181 591 177 637T190 714T236 745Q263 745 273 701Q284 664 272 622Q241
513 247 501Q249 498 274 499Q327 503 339 502Q382 495 388 502T399 528T407 570Q412 608 412 642Q410 659 411 671T421 689T434 702T450 720Q478 746 494 738Q502 734 503 725T508 708Q516 680 502 648Q493 628 490 605T484 569T479 537T479 512Q482 503 508 500Q541
510 545 520Q566 529 588 510Q596 500 600 496T605 478T597 457T576 438Q552 419 528 426Q523 428 513 428T492 427Q466 425 455 422Q444 393 441 369T431 328Q424 311 429 307T446 302T472 304T500 308Q535 311 545 304T556 276T545 245T517 230T475 225H438Q416
225 412 220T402 180T384 108T367 53T359 21T348 -2Q332 -24 312 -17Q265 -3 299 75Q339 164 334 219Q332 236 274 236Q222 236 204 231T178 209T172 183T169 148T155 111T142 84T133 56T124 28T112 2Q91 -27 63 -18Q38 -10 34 29Q32 50 39 63T49 91Q51 105 55
117T64 144Q72 178 77 191Q86 211 90 229Q66 224 45 221T14 224T1 241T2 263Q8 290 27 296Q61 309 104 303Q108 317 109 325ZM191 301Q219 316 246 301Q263 289 278 290T311 299T345 307L373 411Q357 423 340 423Q294 423 247 423Q226 422 214 407Q209 400 201
356T191 301Z" />
<glyph unicode="$" glyph-name="dollar" horiz-adv-x="370" d="M152 670Q154 686 154 696Q132 739 169 749Q191 753 212 743Q252 725 258 705Q260 697 258 685T254 659Q274 650 287 650T311 645T327 635T335 624T340 612T347 599T353 586T354 573V562Q354 556
357 548T359 524T353 504Q343 491 323 489T299 482T297 471Q288 462 276 452Q248 457 241 462Q226 473 224 501Q218 536 191 541Q155 549 132 508Q129 501 125 488T130 458T142 435T149 423Q154 414 166 409T183 399T193 390T202 381T222 370Q267 351 275 323Q299
311 306 300T318 275Q330 245 318 186Q315 168 310 141T297 100T263 92Q253 85 243 74T218 56Q220 44 220 30T210 6Q188 -16 172 -2Q164 5 163 11T160 35L159 48Q142 50 126 56T107 75T101 93T92 100T81 106T66 117T53 132T48 147T46 162T43 182T38 206T46 228Q70
252 88 247T114 230T126 202T132 176T136 158Q140 143 161 141T194 145T208 184Q209 216 205 239T172 275Q152 283 148 290T140 300T125 305T107 313T96 324Q80 344 70 350T55 362T47 372T40 382T31 393Q16 408 12 469Q11 485 10 500T14 536T20 569T24 587T32 596Q47
607 52 616T64 628T81 637T98 646T112 656Q129 670 152 670Z" />
<glyph unicode="%" glyph-name="percent" horiz-adv-x="563" d="M472 737Q487 733 500 718T514 682T509 649T492 630T473 617T462 605T460 591T461 576Q461 557 445 541L432 524Q426 517 422 511T410 496Q388 474 381 458T363 429T336 394T310 354T287 324T269
294T262 264Q256 234 232 212Q210 190 199 115Q188 36 148 -6Q132 -23 111 -24T77 -19T60 2Q50 30 76 69Q83 80 84 88T95 105T109 116T116 131T128 153T142 181T155 210T169 236T181 258T197 278T207 297T212 308Q218 321 230 337T250 367T265 393Q279 424 287
435T307 458T330 486Q359 524 370 554Q381 588 416 678Q400 694 373 683Q363 680 351 674T326 662Q294 648 289 648T275 647T256 649Q259 633 258 624T259 606T258 583T257 558T253 531T241 499T227 470T208 447T189 428T173 407T145 385T102 379T63 393T36 419Q10
452 10 480T12 530T28 575Q10 685 98 736Q128 754 149 752Q208 748 234 705Q255 695 280 701T327 716T370 733Q415 751 422 755T444 755T472 737ZM79 498T93 482T121 467T146 483T168 515Q199 571 178 588Q162 602 159 620T148 646Q134 659 128 648Q126 644 122
633T105 606T88 575Q83 561 77 548T74 517ZM493 346T497 346T511 345T534 327T547 287T550 252T553 230Q555 210 552 177T536 114T508 58Q472 0 438 -8Q386 -17 336 8Q325 13 321 23T309 41T297 61T292 86T289 112T287 135T288 155T295 172T305 187T315 207T336
237T364 269T380 294T392 313Q406 334 427 341Q462 354 477 350ZM454 243Q443 244 436 239T416 226T398 218T388 210Q385 202 378 201T366 187T361 153T367 116Q370 108 370 103T372 93Q376 85 390 80Q408 74 434 101Q459 128 459 146Q459 152 462 161T470 182Q483
225 454 243Z" />
<glyph unicode="&amp;" glyph-name="ampersand" horiz-adv-x="476" d="M247 386Q311 287 326 287Q337 287 353 308Q382 346 386 372Q394 428 426 430Q443 432 452 417T465 380T472 343T476 314Q477 282 467 271T439 255Q432 244 424 232T408 206Q391 179 385 162Q394
123 421 101Q443 82 448 69Q458 44 447 29T424 2T393 -4T363 3T344 13Q326 29 326 73Q313 59 298 49T276 29T261 8T243 -10Q220 -27 191 -16T143 4T112 14T90 19T74 32Q53 52 34 55T9 74T6 104Q17 143 13 175T12 229T22 272Q39 321 72 344Q88 356 98 362T114 373Q129
384 120 407Q115 418 109 430Q92 461 91 481Q89 508 86 514T79 534T75 564T75 591Q73 608 79 616L87 628Q90 633 90 650T99 678T115 701Q118 707 122 707Q130 707 138 718T157 733T183 740T216 742Q269 744 294 745Q349 747 351 707Q352 696 352 688V674Q378 652
379 628T371 592T361 575T357 563T352 546Q345 525 339 516T324 496T306 474Q275 434 247 386ZM231 540T223 542T195 546T172 537T174 513Q181 497 186 465Q194 474 202 481T218 496Q233 511 232 525ZM118 158T129 144T163 115Q186 100 196 103T212 113T224 122T236
126Q253 131 256 144Q262 172 226 198Q209 209 203 219T195 253Q187 301 168 302Q151 302 133 264Q114 225 116 192Z" />
<glyph unicode="&apos;" glyph-name="quotesingle" horiz-adv-x="145" d="M102 721Q119 723 122 697Q127 675 126 662T118 627T112 586T108 549T102 518T101 488Q101 425 54 444Q34 453 32 469Q31 476 31 486V508Q31 536 28 547Q25 558 25 575V600Q25 609 22 617T20
633T20 646Q19 651 22 656T24 668T25 676T25 686Q19 699 33 713Q38 720 41 725T49 728T59 727T72 731Q102 740 102 721Z" />
<glyph unicode="(" glyph-name="parenleft" horiz-adv-x="230" d="M199 773T205 775T216 774T223 762T224 744Q222 723 205 711T183 687T174 673T168 664Q161 647 158 630T152 606T146 592Q141 580 141 565T140 542T136 531T130 521Q121 509 117 487Q112 461 104
430Q96 400 116 358Q123 342 119 333T112 314Q106 288 116 259T129 218T132 201Q135 186 144 169T153 138T159 118T165 100T176 80T189 58T198 41T208 29T216 14T220 -2T214 -17Q201 -30 168 -1Q161 5 157 7T146 23T129 46T116 69T107 86T99 97T94 109Q89 125 83
128Q77 131 74 147Q67 176 62 183T56 203T52 224T48 243T46 262Q41 273 36 310Q34 324 34 334T31 355T27 388T27 419T27 438T32 459Q38 486 36 501Q33 527 53 564Q58 574 64 582Q77 603 84 625Q102 677 112 682Q115 699 130 715Q153 741 164 746T181 757T193 768Z"
/>
<glyph unicode=")" glyph-name="parenright" horiz-adv-x="232" d="M206 447Q207 443 207 421T206 368Q205 295 195 262Q180 213 170 175T152 124T143 99T130 80T116 62T103 41T86 23Q65 2 52 -4T29 -20T10 -18Q-8 2 44 56Q92 107 85 129Q81 137 86 142T96 153T100
164T105 171Q119 181 116 210Q115 221 118 233Q123 253 121 268T124 298T126 323T123 349T136 370Q138 392 139 413T135 445T128 461T126 472Q125 485 120 495T116 518Q119 537 106 560T90 591T86 610T81 632Q73 662 62 672T48 690T41 704T27 718T17 729Q17 734
13 741T10 757T18 768T32 770Q51 768 58 758T73 742T84 726Q86 715 98 705T115 683T128 667T140 647T151 625T160 603T164 569T179 543Q192 532 194 505Q195 499 197 497T201 488T203 474T204 459T206 447Z" />
<glyph unicode="*" glyph-name="asterisk" horiz-adv-x="422" d="M97 396T82 384T52 373T27 394Q23 401 23 413T28 438Q40 467 74 478Q102 488 132 510Q114 521 97 530T63 549Q26 570 17 583Q4 603 14 626Q24 651 53 648T95 634T116 612T128 590T138 575T150 571T165
571Q166 590 166 604T167 648T166 697T172 728Q189 753 222 733Q244 720 249 697T250 654Q243 618 247 589Q280 610 308 632T351 656T377 655T396 642Q414 622 399 598T370 566T341 556T315 554T297 551T288 540T276 521L303 503Q315 495 339 479T381 453T404 429Q411
416 402 404T381 387T357 382Q326 380 300 406Q282 424 253 440Q255 403 257 371T255 326T240 304T218 294Q191 291 176 322Q156 362 188 411Q194 421 194 427Q194 433 191 437T185 447Q171 439 160 432T125 413Q97 396 82 384Z" />
<glyph unicode="+" glyph-name="plus" horiz-adv-x="411" d="M238 389L361 396Q377 396 387 395Q404 393 406 367Q407 341 397 330T375 318Q367 312 353 313T327 315T310 316T302 314Q295 312 283 318T254 319Q250 288 253 266T256 239T254 230Q252 222 257 208Q270
174 250 155Q241 147 224 144T195 144T174 159Q157 179 159 207Q160 226 159 230Q156 235 162 247Q169 265 163 312Q135 299 130 302T121 305T114 302Q104 299 98 302T84 305L56 303Q47 303 34 309T13 316Q8 330 2 347T1 373T14 386T30 392Q46 396 56 396T73 393T88
388Q107 381 114 384T123 388T130 387T139 385T156 383Q160 412 160 437T158 483T154 517T152 537Q152 561 180 572Q189 575 206 573T237 557T250 521T248 484T245 452T241 419T238 389Z" />
<glyph unicode="," glyph-name="comma" horiz-adv-x="152" d="M138 0T135 -4T131 -19T128 -37T122 -51Q120 -59 117 -61T111 -73Q107 -81 101 -81T94 -90Q92 -105 67 -105Q41 -105 38 -88Q37 -82 46 -70T61 -54T75 -47T84 -34T79 -13Q71 -18 63 -16T46 -16T31
-12T15 -2Q3 3 5 27Q9 75 27 84Q37 88 42 91T50 97T55 99T64 97T80 99T90 100T97 96T106 94Q118 90 121 80T126 67T129 64Q130 62 132 49Q133 40 133 36T132 28V22Q132 18 135 9Z" />
<glyph unicode="-" glyph-name="hyphen" horiz-adv-x="399" d="M14 309Q-5 328 12 360Q32 400 80 389Q114 381 137 385T168 386T180 383T194 386Q218 392 246 392Q265 392 283 393T318 396Q357 398 371 392Q391 380 393 362Q397 328 375 315T339 303T313 311T293
324T279 331T269 328T260 321Q247 312 228 312T203 311T192 306Q181 301 164 301Q146 301 133 301Q115 301 87 302T43 302T14 309Z" />
<glyph unicode="." glyph-name="period" horiz-adv-x="169" d="M4 25T5 33T21 54T58 79T119 86Q137 84 148 65Q156 49 154 37T144 16T128 0Q110 -13 96 -15T77 -23T59 -27T43 -15T31 -2T17 6T8 18Z" />
<glyph unicode="/" glyph-name="slash" horiz-adv-x="345" d="M288 745Q306 758 319 752T338 719T329 658T305 616T290 598Q275 581 267 551T253 511T244 493Q232 473 222 429Q211 383 197 355T174 309T158 268T143 224T129 189Q114 149 114 129Q114 96 97 63Q65
1 43 -6Q36 -8 22 -6T0 16Q-15 62 15 115Q32 143 38 165T49 199T59 227T68 258Q78 296 87 314Q93 326 103 344T123 384Q146 435 154 472T168 518T181 525Q192 581 221 616Q233 631 236 648Q251 719 288 745Z" />
<glyph unicode="0" glyph-name="zero" horiz-adv-x="468" d="M178 736T196 738T236 748T276 759T315 757T347 743T366 727T379 710T396 696Q420 682 418 654Q418 648 421 640T429 622Q439 598 437 576T439 531T448 486Q458 428 446 387T426 314T419 260T418 215T407
170Q390 117 364 94Q355 87 345 69T320 30Q283 -19 232 -19T146 18T97 117Q92 138 82 154Q64 183 54 206Q37 249 48 320Q50 330 50 340Q50 361 32 393Q-1 454 29 528Q35 544 36 557T40 582Q43 611 53 624T64 644T72 660T87 679T106 704T131 724T161 733ZM247 515T247
512T243 506T235 503H228Q218 503 213 497Q202 481 191 463T176 418Q170 372 180 351Q189 332 187 308T185 272T187 251T192 235T198 219T205 199T216 176Q233 150 256 152Q278 154 280 211Q280 241 284 259L292 289Q301 329 295 354T289 390T292 412Q295 444 287
460T276 485T271 504Q267 522 258 524Q250 524 249 520Z" />
<glyph unicode="1" glyph-name="one" horiz-adv-x="318" d="M262 433Q270 425 270 390T270 339T253 307Q249 271 252 242Q252 230 251 220T250 200Q252 183 268 173Q299 156 283 77Q279 54 279 37T278 13T268 -2T252 -12T235 -11L214 -4Q202 0 184 1Q158 2 143
-7T119 -19T101 -22T82 -15T68 -2Q57 13 57 21T60 43T58 89T57 137T94 164Q113 205 103 271Q99 303 98 345T96 422T94 474T89 501Q81 522 53 527Q40 529 32 530T16 541Q4 558 18 584Q25 596 33 609T48 637T65 669T88 702Q120 737 156 737Q191 737 204 741Q227 748
233 748Q259 748 277 730Q286 721 284 699T280 656T274 614T269 575T267 544T266 518T263 495Q275 491 262 433Z" />
<glyph unicode="2" glyph-name="two" horiz-adv-x="446" d="M356 291T347 272T326 238T300 210T270 182Q233 147 215 115Q220 104 240 103Q247 102 252 104Q262 111 277 112T300 113T310 114Q319 112 330 112Q341 118 356 119T381 118T395 117T407 118T418 102T423
74Q425 37 418 27Q407 22 406 15T397 4T383 -1T372 2Q357 8 348 7T328 1T307 -3T285 1T260 4T234 6T200 1T162 -12T123 -19T90 -13T72 0T59 17T44 39T28 69T39 106T68 142T86 172T98 197T113 220T134 243T156 264Q178 284 190 309Q197 324 207 336T228 362Q250
393 252 427T250 476T238 496Q222 507 204 477T163 435T128 438T106 461T77 471T37 480T12 508Q5 548 22 591T70 671T139 730T211 754T268 745T308 710Q315 711 333 700T362 667Q369 665 377 655Q388 640 388 632Q393 629 400 616Q412 595 412 583Q419 580 424
536Q426 520 426 497T421 446Q425 435 425 412T417 362Q400 320 369 300Q356 291 347 272Z" />
<glyph unicode="3" glyph-name="three" horiz-adv-x="438" d="M336 370Q402 332 429 271Q438 251 438 231Q438 206 421 153T397 72T378 33T353 21T332 19H312Q290 19 275 8L250 -9Q231 -23 206 -23T173 -20T161 -12T151 -4T129 1T98 14T72 42Q47 77 51 108Q53
134 79 142Q111 153 141 118Q165 91 189 91Q204 91 224 106T256 134T273 174Q277 186 280 199T267 229Q250 245 240 245T215 237T188 227T163 228Q134 236 116 273Q97 307 117 334Q130 350 148 355T182 372T208 400Q237 440 221 469Q211 488 200 488T177 484T161
476T152 466Q142 454 131 453T114 454T104 464Q92 478 71 478T32 486T8 519T10 575T35 636Q75 706 130 729Q164 766 221 754Q263 774 302 738Q335 710 340 673Q366 657 382 632T404 568T407 507T396 466Q387 443 373 422T351 393T336 370Z" />
<glyph unicode="4" glyph-name="four" horiz-adv-x="432" d="M382 720L383 682Q383 663 376 642T372 597T381 556Q388 525 382 492Q375 453 369 399Q358 315 370 300Q374 295 387 293Q411 288 420 276T431 245T430 210Q423 171 409 161Q403 158 391 160T373 158T364
140T358 111Q356 87 359 56Q362 11 349 -10Q342 -20 315 -21Q264 -24 251 -2Q247 4 247 12T248 29T249 46T246 62Q243 69 239 71T232 77Q225 84 225 106Q225 139 220 150Q209 169 175 169Q146 169 132 161Q104 145 89 143T59 141T33 146Q8 157 11 191T13 250T7
296T1 330T3 353T10 367T14 379Q18 393 27 401Q56 437 74 469Q67 484 68 499T91 538Q126 576 146 634Q169 704 186 738Q198 759 221 749T275 737T327 745T366 750T382 720ZM225 295Q224 312 227 323T229 346T229 369T230 393Q232 422 220 442Q218 437 217 433T212
416T196 383T179 346T170 323T162 310Q154 299 158 291T184 286T225 295Z" />
<glyph unicode="5" glyph-name="five" horiz-adv-x="438" d="M27 614T30 637T34 689T51 729T85 740T123 736Q183 726 224 733T292 747T340 755Q384 759 398 742T414 700T414 648T408 596T408 546Q414 499 408 467Q404 453 397 441T375 429T353 435T339 445Q322
458 303 452Q261 440 242 465Q223 484 194 473Q187 470 183 466Q169 442 170 376Q171 360 175 355T189 348T210 348Q248 353 262 353T296 348T338 335T373 314T384 288T383 268T392 252Q410 228 417 207T422 157T404 110T381 78T366 52Q349 23 336 10T300 -11T251
-18Q211 -19 186 -12T154 -6T140 -8Q123 -8 114 15Q104 37 84 42Q75 44 66 46Q42 50 36 76Q28 111 46 142Q56 157 72 164Q88 171 100 171T120 166Q135 158 146 135Q168 130 179 115Q187 104 203 103Q233 100 253 118Q277 140 280 145Q285 153 285 164T280 187T264
212Q221 265 148 233Q136 228 127 224T110 221T94 231T70 250T46 266T35 282T39 306T47 328T46 351T46 379Q44 418 34 432T21 459T22 487T29 516T36 540T39 565T33 596Z" />
<glyph unicode="6" glyph-name="six" horiz-adv-x="424" d="M159 337Q160 317 164 313T175 313T194 326Q225 348 241 352Q259 356 266 362Q278 371 294 371T327 365T357 332Q366 316 376 307Q393 292 399 272Q403 259 407 248T412 224Q419 172 383 92Q370 62 358
52T341 31T328 10Q313 -15 300 -17T280 -19T268 -16Q254 -13 236 -15Q179 -22 160 4Q152 17 147 21T128 28Q90 37 62 134Q52 172 47 177Q44 180 38 184T27 198Q9 228 22 278Q28 298 27 309T22 338Q18 355 18 368T20 394Q23 420 20 430T14 448T10 466Q9 485 24 512T44
559T53 596T65 632T86 670Q116 716 151 730Q170 738 183 744T208 754Q230 762 258 751Q284 749 292 740T301 726Q308 735 317 726T331 711T338 702T344 698Q352 694 357 681Q360 672 373 655Q393 626 397 611T402 586Q404 568 396 554Q408 541 408 529T406 508Q398
478 381 478Q361 478 345 477T319 463T297 447T272 442T250 448T239 466Q237 492 220 494T183 467Q155 423 159 337ZM208 176Q215 155 237 147Q254 139 271 162Q286 177 290 192Q295 219 275 237Q267 245 259 253T238 257Q186 239 208 176Z" />
<glyph unicode="7" glyph-name="seven" horiz-adv-x="407" d="M28 609Q4 616 12 641Q16 652 22 666Q36 700 34 728Q42 733 46 738T61 744T78 742T91 736Q110 728 132 728Q190 728 236 737T301 747T337 744Q376 737 387 712Q394 698 391 683T388 651T391 615T392
572Q390 520 386 503T371 465T350 420Q320 353 316 327T312 277T304 241T284 211T268 173T259 135T252 102T250 72T243 45T226 27T214 18T209 8T202 -4Q179 -39 120 3Q106 12 102 24T96 44Q90 63 90 71T95 96T100 129T105 162T114 196Q119 237 133 260T159 306T182
353Q228 453 221 472Q218 480 203 477T175 473H152Q128 473 125 471T117 463T106 451Q90 435 69 437Q39 439 33 467Q9 481 27 537Q22 551 24 571T28 609Z" />
<glyph unicode="8" glyph-name="eight" horiz-adv-x="439" d="M418 540Q429 519 420 488Q423 481 423 471T420 450Q414 424 404 421T389 405T375 376T361 354T355 345T363 338T380 324T390 307T391 295Q391 280 396 272T403 251T403 225Q400 188 406 164T405 120T372
82Q356 70 351 62Q344 48 330 38Q321 32 309 21T284 0Q251 -26 226 -26T179 -24T147 -7Q142 -1 136 3T124 11Q78 42 78 90Q78 96 73 106T61 115Q40 112 34 134Q29 149 31 157T37 179T44 212Q50 255 69 281T91 332T77 369Q65 378 64 386L61 400Q60 405 53 411T42
426T36 441T33 456T26 473T20 493T17 523Q12 542 17 561T28 603Q33 625 32 633T31 652Q33 671 63 705Q79 719 89 720T106 721T123 722T145 730T172 728Q202 735 219 748Q223 750 236 752T256 755T270 754T288 749Q324 730 331 720T345 704T358 694Q373 681 375
669Q378 669 385 661T398 642Q414 613 410 604Q414 597 417 578T418 540ZM248 435T251 448T258 479T255 509T240 521T226 517T213 510T202 507T195 506Q176 502 170 476Q165 451 172 437T186 414Q199 398 211 398T230 405T243 423ZM254 190T254 207T249 232T235
245T218 259Q199 262 199 237Q199 229 194 224Q184 214 185 204T181 182T180 158T192 145T206 140Q216 155 231 157Q234 169 244 179Z" />
<glyph unicode="9" glyph-name="nine" horiz-adv-x="446" d="M416 570L411 519Q411 510 416 501L425 488Q436 472 431 418T416 324Q397 242 370 196T328 114T309 70T290 49T269 38T257 39T247 40Q234 37 224 21T202 -8T176 -22T156 -19T146 -12Q134 -3 119 -3T97
6T89 26Q87 54 110 68T149 92T165 121T173 152T196 179T221 213T243 253Q268 303 255 312Q248 317 238 312T215 298Q162 264 123 283Q98 295 84 333Q77 349 70 368T51 392Q30 405 16 443Q0 488 22 542Q38 578 39 610T58 670T91 712T128 734T172 748Q253 766 288
744Q299 736 306 728Q331 728 344 722T371 697T394 656Q416 606 416 570ZM193 516T191 505T191 482T198 456T219 434Q236 427 243 431T261 440Q272 447 278 466Q288 503 266 532Q253 548 237 548T212 542T198 526Z" />
<glyph unicode=":" glyph-name="colon" horiz-adv-x="169" d="M57 353T68 349T86 348T98 352T112 352Q128 350 132 343T141 326T144 306Q141 295 140 288T134 275T121 261T104 247Q82 231 64 232T39 241T25 256Q7 269 15 297T27 334T44 347ZM4 25T5 33T21 54T58
79T119 86Q137 84 148 65Q156 49 154 37T144 16T128 0Q110 -13 96 -15T77 -23T59 -27T43 -15T31 -2T17 6T8 18Z" />
<glyph unicode=";" glyph-name="semicolon" horiz-adv-x="155" d="M141 0T138 -4T134 -19T131 -37T125 -51T119 -61T114 -72T105 -81T97 -90Q95 -105 70 -105Q44 -105 41 -88Q40 -82 49 -70T64 -54T78 -47T87 -34T82 -13Q74 -18 66 -16T48 -16T34 -12T18 -2Q6
3 8 27Q12 75 30 84Q40 88 45 91T53 97T58 99T68 97T83 99T93 100T100 96T110 94Q122 89 125 77Q129 67 131 65Q134 62 135 49Q136 40 136 36T135 28V22Q135 18 138 9ZM49 355T60 352T78 351T91 354T105 354Q121 353 125 345T136 328T139 308T134 289T128 275T115
261T97 247Q73 230 55 231T31 241T15 256Q-1 270 9 308Q14 329 18 336T35 349Z" />
<glyph unicode="&lt;" glyph-name="less" horiz-adv-x="439" d="M27 287T17 298T5 322T17 356T52 391T84 409T99 414T113 417T133 423T159 437T182 454T203 470T224 483Q322 528 348 547T385 568T406 564Q426 552 418 510Q411 473 378 448Q358 432 342 429T310
421T278 398Q240 361 200 359Q164 359 136 342Q118 332 132 314Q144 298 162 290T196 282Q221 282 284 249Q295 242 308 240L329 237Q336 236 345 231Q361 235 375 227Q400 213 400 203Q422 184 423 167T422 144T416 136T407 130T392 121T372 121T343 130T311 148T289
168T280 178T258 186T216 200Q147 224 124 236T81 257T44 277Z" />
<glyph unicode="=" glyph-name="equal" horiz-adv-x="413" d="M350 388L306 390Q296 390 281 384Q253 374 136 379Q101 381 80 378Q5 368 5 413Q5 428 15 441T54 456T108 456T149 457T172 460T184 460Q200 459 213 461T251 461T292 459T322 463T352 466Q386 464
393 444Q403 421 394 408Q379 388 350 388ZM320 214L203 219Q116 219 72 213T19 212T8 233T23 266T83 289T152 293T194 292T223 291T252 290Q295 288 323 297Q373 312 393 299Q406 288 407 270Q409 235 387 224Q363 214 320 214Z" />
<glyph unicode="&gt;" glyph-name="greater" horiz-adv-x="439" d="M408 377T421 356T434 323T422 299T396 277T359 258T319 238T272 218T223 200T181 187T160 179T151 169T128 148Q109 135 68 121Q55 117 47 121T33 129T24 135T18 143T16 167T39 203Q39 213 52
220Q78 235 93 231Q102 236 109 237T124 239Q144 242 159 250Q214 282 249 282Q267 282 284 294Q329 326 303 342Q276 359 249 360Q200 360 162 398Q144 416 130 420T106 427T85 433T60 448Q29 470 22 510Q13 551 34 564Q52 575 76 558Q102 537 152 513T214 483T235
470T256 454Q299 421 326 417Q350 413 379 395Z" />
<glyph unicode="?" glyph-name="question" horiz-adv-x="394" d="M235 728T242 730T266 732T294 721T318 707T335 694T343 681T350 674Q358 665 361 652T367 633T372 622Q377 609 376 597T378 577T379 556T378 529T372 501T354 471T341 436Q337 402 305 388Q289
380 281 368T268 339T260 305T254 269Q249 228 250 216T249 192T240 169Q225 142 210 144Q197 144 188 142Q174 139 166 145Q149 158 144 168Q134 188 138 213T141 255T134 288Q116 346 143 388Q151 400 159 403Q167 408 172 417T184 426T203 436T226 462Q253 502
243 527Q234 549 218 544Q212 543 207 543T199 551Q191 569 170 570Q148 572 137 547Q131 534 128 526T122 512Q117 503 104 501T84 500T75 504T69 508T62 510T49 513T33 525Q13 545 7 573T-4 612T-1 633Q7 642 14 652Q31 681 38 684T50 689Q62 694 70 706T83 722T93
729T104 731T118 731T132 734T141 738Q151 741 161 738T175 733T180 728Q186 722 199 721Q209 720 215 722T228 726ZM163 85T173 81T192 81T215 85T233 75T244 58T247 40T243 22T237 9T224 -4T207 -18Q185 -34 168 -33T144 -23T130 -8Q116 2 125 40Q130 60 134
67T150 79Z" />
<glyph unicode="@" glyph-name="at" horiz-adv-x="703" d="M690 438L689 414Q689 408 692 396Q697 377 681 354Q681 317 670 303Q653 281 649 266T640 246T630 236Q612 222 607 213T595 199T575 184Q538 154 524 168Q512 183 503 187Q486 198 488 241Q465 233
454 222T427 191T391 163T345 150T304 149Q283 155 267 196Q260 212 251 216T230 224Q203 231 180 288Q175 302 171 312Q155 345 195 458Q206 486 218 501T241 528T258 548T272 564Q289 581 310 583T342 586T358 588Q368 588 374 580T384 570T393 567T402 565Q410
563 415 554T424 540Q430 530 438 533T448 543T452 558Q462 597 494 589Q510 585 514 572T522 556T528 552Q540 547 533 526T519 488Q506 374 510 348T521 311T540 299T559 302Q566 307 574 323L588 351Q608 395 602 415T597 452T601 486Q606 529 593 550T575 582T567
599Q562 610 555 613Q550 615 546 622T534 638Q515 661 491 664T452 669T422 671Q393 673 376 681T341 690T308 688Q273 682 259 671T238 655T224 644Q217 639 188 622Q168 610 159 595T144 570T131 549T122 524T110 495Q100 481 97 465T87 430T77 393T74 356T73
317T74 279Q80 268 85 248T104 213Q112 206 123 197T151 172T177 149T198 131Q214 116 244 90T291 57T327 50T366 49T405 49T432 51T460 62T489 70T510 74Q528 81 533 73T530 57T499 38T465 17T436 5T415 -2T400 -12Q381 -23 356 -23T317 -19T295 -10T278 1T255
11T229 16T210 20Q165 28 142 52Q132 64 124 75T107 96T80 111T53 128T38 155T30 186T18 225T9 276T6 329T5 363T8 384T12 406T17 436Q22 469 28 480Q40 504 46 524Q55 548 105 617Q163 688 205 701Q218 705 227 711T247 723Q271 737 297 742Q314 745 327 749T352
756Q380 763 398 761T427 758T446 756Q464 755 477 750T502 740T529 728Q576 707 611 654Q618 644 622 636Q633 616 642 607T654 591T659 578L664 564Q666 557 674 539T684 502T687 464T690 438ZM409 318T416 326T423 346T426 363T432 375Q439 391 439 411T435
441T424 461T412 481T401 505Q396 519 384 519T364 517T354 512T348 506Q340 492 330 483Q313 468 309 457T302 437T295 408T284 363T284 324T299 302T316 287Q335 272 348 272T371 278T391 292Q400 301 404 309Z" />
<glyph unicode="A" glyph-name="A" horiz-adv-x="456" d="M407 -6Q401 -17 391 -22T371 -21T357 -14T348 -16Q339 -17 330 -3T320 19T320 36Q324 54 315 68T302 89T298 109T297 126T294 132Q289 141 290 160T285 186T267 198T249 196T237 180T223 165T203 161T175
155T157 134T150 108T147 84T148 63T142 42Q134 17 123 15Q114 14 104 15Q93 -5 78 -9Q37 -18 29 4Q24 17 23 38Q21 80 14 95T10 131T13 173T13 205T15 225T19 242T21 262T25 289T31 320Q39 360 37 380T40 414T53 439Q71 468 70 486T69 515T69 537Q74 591 120 706Q123
717 139 723T171 725T198 720T216 728T232 743T253 754T280 759T312 750Q340 735 349 722T361 701T371 679T378 654T381 628Q385 613 381 593T381 554T385 527T386 514Q387 497 393 484Q399 470 397 450T395 416T406 388Q423 361 418 328Q417 319 418 309T420 290T418
268Q415 249 419 222Q425 172 425 155T426 127T428 102Q431 68 429 34T407 -6ZM256 416T253 444T249 485T247 509Q244 525 230 513Q214 529 204 514Q197 503 197 478Q195 461 190 447T182 416Q179 396 172 367T173 324T197 314T218 318T230 320Q242 321 248 329T255
344T255 358Q252 378 254 397Z" />
<glyph unicode="B" glyph-name="B" horiz-adv-x="479" d="M63 132L57 169Q57 179 53 182T40 194T29 219T28 260Q30 289 39 358Q32 444 30 469Q19 601 36 632Q40 640 44 644Q52 652 51 670Q47 707 90 721Q103 725 115 731T140 742Q169 752 189 742T232 733T277
739T321 744T358 734T391 710T423 681Q454 645 449 611Q465 573 456 539Q453 530 455 521Q459 503 455 489T453 460T449 428T440 398T430 375T416 364T404 358T396 348T388 337Q377 322 357 312Q368 293 383 283T408 260T419 236T424 214T427 197T425 183T421 167T419
148T418 130T411 115T400 98T389 76Q383 60 370 48T349 28T334 7Q321 -17 298 -24Q277 -30 266 -13Q260 -2 245 -9T220 -20T199 -24T174 -20T148 -21T124 -24T104 -17Q84 -7 78 11T70 48T64 84T60 108L63 132ZM205 404Q205 351 224 351Q234 351 242 365T252 393Q253
406 253 419T266 453T275 491T259 512T240 523T221 536T203 529T202 500T208 457T205 404ZM233 260Q210 267 208 237Q206 216 203 194T202 161T208 137Q214 132 220 128T231 120Q237 132 242 138T252 151Q262 167 263 190T260 228Q252 254 233 260Z" />
<glyph unicode="C" glyph-name="C" horiz-adv-x="441" d="M346 706Q375 704 398 676Q402 670 406 665T412 652Q418 637 416 609T419 564T429 530Q438 502 418 455Q403 412 381 404L363 398Q337 389 319 391T293 402Q273 428 283 462Q285 469 283 484T266 503Q258
505 256 510T252 518T249 523T239 519T230 513T224 514T213 513T203 502Q185 471 196 401Q200 380 204 362Q212 317 212 302T206 271T196 238Q184 197 199 168Q217 132 222 126Q231 117 244 118T264 131T277 156T290 182T306 196T331 197T351 195T365 189T373 160T375
124T368 100T358 81T354 64Q353 43 347 33T335 17T306 10T263 -12T227 -32T203 -11Q196 5 172 6Q165 7 159 9T145 13T129 20Q109 31 96 55Q88 70 81 80T68 99Q55 119 58 137Q64 185 45 200Q34 207 34 211T30 228Q24 246 30 270T35 309T30 342Q24 386 29 400T32
440T29 482T27 526T26 584Q33 662 79 691Q148 732 167 730Q173 730 181 729T198 729T212 735T224 744Q248 766 267 749Q285 728 295 721Q312 708 346 706Z" />
<glyph unicode="D" glyph-name="D" horiz-adv-x="465" d="M436 628T439 609T452 548T448 460Q440 433 438 416Q432 384 425 362T410 307T392 251T375 216T363 196Q351 173 349 161T342 135T330 106Q311 74 284 82Q250 55 240 40T222 17T207 7T192 2T178 -5T159
-13T133 -14Q101 -8 99 38Q73 48 66 57Q50 75 50 103T53 149T60 183Q69 222 63 244T59 286T61 329T60 371T63 405T65 436T59 462T50 488T44 512Q41 539 35 551T29 579T27 612T23 638T22 658T23 671Q29 674 34 696T46 723T61 733T79 740Q102 743 121 732T150 722T170
728Q202 741 232 741T274 738T293 731T306 724T325 720T344 714T355 700T368 684T386 674T401 669T407 663T411 654T425 639ZM204 473T206 449T213 394T217 343T214 304T209 266T206 229T211 202T222 194T234 202T242 227T255 261T272 295T279 320T282 334T283
348T289 372T291 400T285 429T279 458T258 477Q251 479 246 483T235 490Q224 495 214 484Z" />
<glyph unicode="E" glyph-name="E" horiz-adv-x="430" d="M27 595L29 652Q29 666 27 680T33 709T62 737T105 749T143 741T169 728T196 720Q228 715 258 729Q291 745 311 727Q332 726 355 731Q393 739 407 732Q438 714 417 660Q414 652 414 646T414 634Q414 616
411 607T408 592T408 578Q410 562 403 547Q399 538 399 533T399 522Q399 509 385 497Q362 473 347 473Q344 473 341 475T332 479Q308 487 282 489T243 488Q213 482 206 459Q198 435 210 422Q215 416 221 414T232 413T247 413T267 408Q294 402 303 406T316 410T322
407Q329 400 335 400Q351 401 357 387T355 351Q355 348 352 336Q345 312 345 303T342 285T331 268Q314 253 294 259Q285 263 278 270Q227 285 209 263Q199 251 198 242T197 210V173Q210 164 221 153T248 140T276 142T300 150Q324 160 344 154T369 136T371 107T368
81T369 65Q369 48 356 32Q342 11 330 7T299 4T268 3T247 -9T228 -22Q213 -32 194 -22Q187 -18 180 -14Q162 -5 136 -6T90 8T70 49T72 83T78 100Q82 113 74 120Q50 139 57 170Q60 186 63 195T64 214T62 233T62 250Q60 266 48 268Q33 270 28 300Q22 329 32 358T41
403T38 434L39 473Q39 502 34 512T31 541T30 571T27 595Z" />
<glyph unicode="F" glyph-name="F" horiz-adv-x="434" d="M171 -3T165 -8T146 -10T130 3T123 20T118 39T108 54Q93 65 89 84Q83 120 83 170T81 239T78 267T72 278T62 283Q51 288 46 318T43 390Q47 467 34 522Q22 574 25 620T34 686Q46 730 77 724T127 719T158
724T180 732T206 736T236 731T264 722Q301 710 322 711T355 713T376 715Q395 715 407 705T422 683T423 658Q421 633 414 617T407 589T407 568T409 547T408 526T395 503T372 482Q343 464 325 469T299 477T282 483Q265 488 249 484T227 469T222 446T234 425T261 414T290
414T308 415Q323 415 335 402Q353 381 332 339Q327 328 324 310T315 275T303 246T285 236T272 242T264 249Q256 257 246 254Q230 250 228 226T226 177T228 136T228 102Q225 63 198 43Q189 37 185 27T176 7Z" />
<glyph unicode="G" glyph-name="G" horiz-adv-x="471" d="M268 241Q240 241 242 267Q244 288 241 301Q236 323 239 333Q247 363 304 347Q314 344 320 344T332 345Q350 348 364 346T390 344T410 347T428 351T443 353Q453 353 457 337T461 300Q458 249 437 241Q422
235 409 222T398 184T402 144T403 119T402 101T402 82T402 51T392 17Q375 -19 349 -10Q330 -4 312 22Q306 31 301 37T286 42T271 32T257 16Q215 -36 150 1Q117 19 104 46Q99 58 94 73T81 102Q65 135 50 146Q36 157 34 254Q33 275 35 290T37 330V376Q37 398 36 418Q36
450 41 474Q9 495 16 555Q21 593 30 610T45 645T57 682T74 708T88 718T94 726Q113 754 176 764Q204 769 231 759T276 747T310 744Q379 740 400 715Q415 698 419 681T429 653T434 631T433 612T432 596T426 580Q420 559 427 550T441 534T450 518Q459 498 452 484T437
457T415 443Q380 440 368 432T348 420Q328 411 311 422Q283 435 287 470Q289 512 256 516Q241 518 225 507T200 478Q179 431 195 391Q199 381 199 366V340Q199 317 194 306T187 281T186 247T189 207T196 167Q207 125 227 127Q243 127 252 142Q255 148 259 154T271
163T282 175T286 194Q287 206 284 243Q276 241 268 241Z" />
<glyph unicode="H" glyph-name="H" horiz-adv-x="468" d="M123 744Q194 765 205 718Q209 701 207 690T205 666V636Q205 595 202 579T201 540T200 498T200 471T210 460Q218 454 231 454Q253 454 260 474Q263 483 261 504T260 547T260 585T256 623T254 664Q254 713
265 726T299 745T350 752Q413 752 433 724Q442 712 442 700T441 682T441 666Q444 642 438 618T430 571T426 521Q423 476 423 425Q423 334 416 310Q399 259 410 233Q413 226 413 217T412 197T411 176T416 153Q425 126 399 96Q390 86 391 62T392 26T387 9T364 -3T325
-11Q272 -16 258 10Q246 32 252 97T261 196T260 242T247 258T228 260Q206 258 198 247Q199 224 199 184T198 102Q195 1 191 -5T174 -15T148 -18Q116 -20 106 -8T90 12T74 22T61 34T57 54Q52 82 57 89T62 110T59 126T52 155T46 211T44 270T50 313Q64 345 53 375T39
422T36 454Q35 491 32 501T28 528T27 566T27 607T27 654T27 706T45 746T83 763T123 744Z" />
<glyph unicode="I" glyph-name="I" horiz-adv-x="315" d="M230 155Q237 138 251 138Q264 138 268 133Q275 122 268 91Q264 73 264 63T262 46Q260 34 248 20Q235 9 220 5T194 -2T172 -11Q154 -20 142 -19T123 -18T108 -20T94 -23T84 -20Q69 -14 56 -14Q38 -14 32
46Q29 70 31 92T38 120T50 129T63 133T74 136Q80 139 80 157T82 192Q83 236 89 254Q99 281 86 300Q73 323 76 386Q78 424 75 448Q71 495 72 514Q73 528 73 536T72 548Q69 556 54 556T26 570T15 611Q18 639 15 662T18 698T25 720T28 736Q34 752 55 754T95 754T130
747Q172 737 185 737Q195 737 207 739T232 744Q260 749 274 741T292 722T296 699T295 672T296 642Q305 606 297 584T282 557T269 551T256 550T244 542Q236 529 236 442L238 275Q238 211 230 155Z" />
<glyph unicode="J" glyph-name="J" horiz-adv-x="383" d="M175 461Q172 482 172 507Q172 550 165 565T159 589T156 606Q153 613 153 627T144 655T131 686T138 716Q148 727 157 728T174 729T191 736Q201 742 212 742T234 740Q265 739 280 749Q314 771 336 765Q382
751 362 654Q350 600 350 497T350 359T340 310Q327 290 327 250L328 175Q326 136 317 101T279 46Q263 35 245 10T217 -23T194 -31T176 -24T167 -14Q157 -2 125 -6T72 -10T36 10Q25 22 22 33Q17 53 8 63T-6 82T-11 101T-14 120T-24 149T-31 190T-19 224Q2 251 38
255Q67 274 83 264Q89 260 94 259T104 254Q111 250 109 224Q104 194 107 180T120 158Q139 144 160 157Q165 180 180 200V245Q180 322 177 335T175 354T180 366Q193 401 176 426Q165 441 175 461Z" />
<glyph unicode="K" glyph-name="K" horiz-adv-x="504" d="M40 573L41 592Q41 595 38 607T34 631T33 649T34 663T32 681T34 703T41 722T47 741T67 757T91 758T110 746Q138 726 164 728T201 725T216 710T223 691T228 671T233 645T226 613T216 584T220 558Q226 520
216 488Q214 484 214 481T211 474Q254 503 264 517Q276 531 283 551T293 577T298 585Q303 590 306 606Q314 648 328 659Q325 689 336 716T379 748T425 741Q450 746 462 744T486 728Q508 706 495 648Q492 637 492 625T489 600Q484 572 464 555Q426 523 426 463Q426
437 417 428T395 419T373 413T353 396Q331 370 331 356T339 327T360 290L383 249Q426 172 426 82Q426 67 435 47T436 7T412 -15Q360 -30 343 46Q330 100 281 139Q268 150 263 167L255 192Q252 202 247 209T235 225T220 233Q206 231 205 203V176Q205 95 184 83Q175
78 170 64L161 36Q156 21 149 9T125 -6Q94 -10 83 23T70 98T67 151T62 169T55 183T47 201Q38 227 37 260T36 305T35 333Q31 350 34 363T36 388T37 410T41 432Q46 459 44 481T42 513T43 528T44 540L40 573Z" />
<glyph unicode="L" glyph-name="L" horiz-adv-x="366" d="M204 143Q216 148 230 148T252 144T268 135Q287 122 309 122T346 124T375 116Q392 101 390 66Q388 33 375 24T351 14T329 15T308 18T291 13Q255 -12 234 8Q224 19 208 18T180 12T154 2Q95 -20 74 34Q70
45 68 54T62 70Q55 84 58 118Q61 165 57 187T50 222Q43 256 44 275Q47 308 41 346Q40 357 48 376Q74 436 48 468Q43 474 39 479T35 493Q26 574 26 701Q26 712 36 722Q55 741 66 739Q103 729 132 736T184 744T222 724Q258 674 240 605Q235 589 236 575T231 544T225
513T228 474Q233 409 210 373Q198 354 199 327T202 283T203 245T201 197T204 143Z" />
<glyph unicode="M" glyph-name="M" horiz-adv-x="672" d="M481 744Q513 744 540 727Q556 732 570 732T606 728T637 708T646 681Q644 661 639 652Q648 628 630 593Q654 535 629 420Q623 392 617 366Q603 305 603 280Q603 264 605 233T610 170T612 111T607 77T599
54T592 23T581 -2T564 -12T551 -7T546 0Q543 10 534 13Q520 17 520 31T523 52T528 66T525 82Q518 98 507 100T489 112T477 134Q465 163 468 178T467 214Q451 278 465 311Q470 325 466 335Q460 356 463 371Q469 401 469 426T456 452Q444 452 440 388Q436 317 428
304T413 283T402 263Q392 241 392 215T391 183T388 172Q383 154 383 128Q383 92 368 70Q366 67 364 58T358 38Q348 14 332 14T308 24T294 47T286 73T276 98Q266 115 281 168Q287 189 286 202T272 224Q266 228 260 267T249 333T240 382Q229 433 223 434T215 430T214
416T216 400T218 385T213 359T211 314T216 276T213 248T211 220T214 198Q216 173 203 165T190 139T202 110T210 88T203 72T200 62T200 52Q198 28 162 8Q133 -8 114 -5T86 9T79 31T80 54T78 76T76 98Q75 128 70 138T64 160T63 180T65 198T63 215T62 238T63 265T63
288T68 310Q71 336 57 345Q41 358 36 372T31 410Q32 433 31 447T36 482T43 525T42 563T38 593T34 622Q31 653 37 674Q45 694 57 707T98 720Q152 718 163 725Q186 739 215 726Q223 723 229 718Q285 704 292 673Q312 589 312 562T313 529T316 522T318 516T316 500Q314
487 319 480T330 473T343 480Q350 488 352 511T355 540Q355 549 358 556T363 573T366 592Q369 618 379 628T400 645T414 667T420 693T431 716Q448 744 481 744Z" />
<glyph unicode="N" glyph-name="N" horiz-adv-x="529" d="M391 746Q422 755 436 739Q462 744 484 727T495 662Q488 638 491 628T499 608T503 585T498 555Q488 510 494 482Q509 416 482 344Q453 265 464 154Q473 74 471 50T459 10T429 -5Q393 -5 379 16Q371 28
371 47T366 81T352 109Q333 137 316 148Q288 167 273 239Q264 292 250 326Q246 336 244 347T240 370Q234 394 219 394Q196 394 201 328Q202 314 205 303T206 275T198 242Q186 198 193 177Q200 153 198 127T190 86T169 65Q160 49 154 29T146 1T139 -7Q122 -13 105
-5T82 17T77 45T75 68T71 86T72 100Q74 116 67 124Q58 134 58 151T57 180T59 200Q66 219 65 258Q62 331 47 346Q28 365 26 416Q25 428 27 438T29 460T32 482Q40 503 37 541T34 596T32 631T34 664T50 690Q75 717 120 717Q140 731 166 739T211 740T236 718T247 686T256
652T272 623Q283 612 288 597T297 567T305 544T318 534Q327 534 328 559T330 618T329 682T334 728T355 750T391 746Z" />
<glyph unicode="O" glyph-name="O" horiz-adv-x="467" d="M36 572T36 585T40 615T60 647T89 676T110 706T132 730Q177 761 258 754Q291 751 328 730Q346 720 359 694T377 657Q382 647 390 643T404 630T418 605T432 564Q448 511 446 475T443 402Q441 336 430 307T414
259T407 223T406 192Q404 152 401 144T389 128T372 113T353 98T340 87T331 74T320 57T310 41T303 30T296 17T284 -2Q245 -50 210 -6Q207 -1 201 -1T186 -5T162 -5Q147 0 139 11T123 30T108 41T94 48Q75 58 74 64T73 77T70 92Q62 140 31 228Q7 294 18 365Q26 417
33 452Q44 505 42 526T38 559ZM213 501T207 489T198 465T191 446T182 432Q165 407 178 380Q197 341 198 329T200 293T204 244Q213 181 231 181Q241 181 250 204Q252 209 252 221T256 249Q267 306 265 328T262 367T261 402V463Q261 485 256 494T232 503Z" />
<glyph unicode="P" glyph-name="P" horiz-adv-x="454" d="M28 523L23 606Q23 627 22 651Q18 711 30 718Q41 724 45 731T55 738T72 738T97 738Q128 736 138 729T162 720T188 718T214 717T235 718T248 716Q260 711 268 712T285 705T296 692T315 685T343 682T365
672T383 662T398 649T410 633T414 616Q415 588 428 575T442 550T445 522T448 483T439 431T414 391T393 365T382 330T360 290Q349 276 343 273T330 267T316 258T298 248Q273 236 255 243Q244 238 234 237T212 232Q189 224 187 205T190 166T198 132Q203 87 176 54Q159
34 154 12T136 -19Q114 -39 94 -10Q91 -7 81 -2Q67 6 64 23T60 59T57 93T50 127Q41 176 41 194T41 231T45 265T50 285T52 296T59 312T65 332Q69 353 53 368Q35 385 35 404V410Q38 444 36 456Q28 490 28 523ZM190 473T191 466T194 444T195 415T192 386Q190 353 200
349Q211 344 236 376Q263 409 281 456Q290 481 282 493Q265 513 268 529Q269 530 268 534Q266 536 263 539T254 546Q231 555 213 547T189 522T183 498T185 486T188 478Z" />
<glyph unicode="Q" glyph-name="Q" horiz-adv-x="489" d="M426 240Q402 176 401 162T398 145Q406 113 421 99T443 76T450 54T443 29T424 4Q395 -35 379 -32Q368 -29 352 -10T327 17T313 26T301 22T286 8Q256 -19 208 -11Q187 -8 179 -1T161 10T142 17T122 34Q110
54 95 109T77 176T71 198Q55 207 50 223Q38 257 40 282T40 317T26 340Q3 374 23 413Q38 446 38 486Q37 541 57 614Q69 656 88 685T121 720T142 727T158 730T178 734T199 737T217 741T236 751T264 758T290 748Q302 739 319 735T343 731Q381 713 390 695Q396 681
409 669T428 646Q445 611 453 564Q454 549 455 540T456 524T457 508T460 480Q465 406 463 388T453 356T441 326T436 290T426 240ZM236 234L234 276Q234 284 242 292T256 308Q265 316 285 309Q310 354 295 380Q287 395 291 412T296 446T296 469T292 479T286 487T279
501T259 517T232 515T216 495T207 471T201 448T196 430T192 408T188 374Q184 328 192 311T199 281T202 257T208 237T212 220Q215 201 225 201T236 234Z" />
<glyph unicode="R" glyph-name="R" horiz-adv-x="474" d="M196 180L199 132Q201 93 179 81Q173 41 173 10Q166 -4 150 -7Q120 -11 111 9Q98 34 90 36Q88 37 84 37T73 40T68 56T68 77T63 94Q55 120 55 144Q55 161 55 175T56 203Q54 248 45 280T32 322Q26 344 26
364Q26 376 29 381T35 393Q43 408 42 428T39 468T36 514T33 569T31 625Q31 713 53 724Q57 726 62 728T76 736T90 746T104 754Q117 760 135 753T162 743T178 739T196 737T226 738T268 738T312 732Q380 718 417 657Q433 630 434 609T436 569T444 525T448 478T444
448T438 432Q433 417 434 401Q436 375 430 361T418 331Q401 294 381 289Q370 287 363 285T355 276Q353 271 361 265T377 245T392 228T403 223Q418 220 422 216Q431 205 435 198T438 177Q436 163 438 148T442 117T443 89T441 73L445 47Q445 23 431 8T409 -9T394
-8T382 -1T374 5T367 7T357 10Q339 15 326 80Q319 112 302 121Q276 134 274 157Q273 168 272 187Q268 225 246 234Q235 238 226 238T208 228Q196 213 196 180ZM259 382T271 391T292 416T306 448Q314 478 312 503T306 537T286 546T253 554T234 573Q232 597 219 590Q212
586 209 583T204 562Q201 527 204 507T209 481T210 467T211 450T213 420T214 385T217 356Q233 358 246 370Z" />
<glyph unicode="S" glyph-name="S" d="M49 684Q73 713 107 720Q122 724 137 727T168 739Q198 756 209 756T227 754T242 751T260 750T282 748Q320 743 362 698Q389 669 395 638T401 577Q400 534 407 513T416 481T414 451T399 423T377 413T354 412T336 413Q329 413
327 410T321 402Q314 395 294 401T261 426T258 477Q261 487 264 495T265 510Q261 524 246 525T220 517Q205 503 201 483T197 453T199 434T200 413Q204 387 212 378T227 368T238 367T250 368T267 363T289 353T310 337T325 323T337 318T346 313T354 303Q367 268 360
222Q358 205 357 195T354 178T352 165T351 148Q351 107 338 85T310 55T292 43T286 33T278 20Q266 3 243 -4Q217 -12 188 -12T142 -8T113 7T91 33T77 49T66 51H54Q38 51 33 60T28 78T29 103Q29 119 29 133T41 157Q65 176 83 177T107 184T116 195T126 201T140 200Q157
195 157 180T157 153T161 130Q168 104 187 106Q208 108 210 148Q210 159 210 169V191Q210 238 165 263Q147 273 130 282T98 304Q64 334 55 373T42 423T35 439T27 445T16 457Q5 472 11 492T21 525T25 555Q25 571 24 586T22 618Q24 654 49 684Z" />
<glyph unicode="T" glyph-name="T" horiz-adv-x="418" d="M409 661Q414 616 411 585Q411 585 405 536Q403 519 404 492T399 454T376 439T350 440T332 450Q312 461 300 453T282 429T276 392Q273 361 276 311Q277 293 277 283T276 264Q276 245 282 227T288 200T286
186T278 177T269 170T261 163T251 155Q256 106 253 78T249 29T239 -2Q227 -16 191 -22Q170 -23 160 -1T151 54T150 103T143 133T134 154T127 181T131 218Q117 234 112 252T113 299T122 353T124 397Q122 443 103 450Q89 454 73 443T47 429T30 433T21 450T25 471T30
494T29 515Q25 525 19 528T8 538Q-5 554 1 594T10 661T14 699T21 722T36 740Q61 758 101 753Q285 728 310 736Q320 739 328 742Q397 770 409 661Z" />
<glyph unicode="U" glyph-name="U" horiz-adv-x="497" d="M230 632L226 524Q226 506 227 495T230 475Q234 446 224 403T220 324Q221 316 223 313T226 307Q231 298 231 284T242 254T266 239T290 269T296 345T290 418T288 463Q287 498 291 533Q300 607 294 657Q292
675 290 697T300 731Q312 742 325 741T357 737T388 736T410 740Q436 743 444 737T456 725T463 708Q469 684 467 629Q465 538 469 472T469 372T466 309T461 254T449 204T438 167T428 142Q417 112 413 85Q406 43 384 29Q374 21 362 21T344 17T332 8T319 -4Q301 -18
294 -16T281 -8T272 5Q261 24 256 25T241 23T216 17Q148 3 112 50Q83 88 70 146Q65 171 60 201T45 253T32 291T31 320T37 351Q46 400 42 429T34 476T28 513Q23 549 30 599Q34 626 35 647T39 685Q45 735 80 738Q98 740 118 738T147 737L178 740Q202 740 211 726Q230
702 230 632Z" />
<glyph unicode="V" glyph-name="V" horiz-adv-x="440" d="M0 703Q-4 745 42 740Q52 739 63 737T87 735T108 737T126 742Q145 745 162 733Q173 725 175 710T178 674T179 629T187 579T196 540T196 514Q195 482 200 461T206 432T208 417T213 405T222 403Q228 407
227 416Q225 441 242 461Q262 482 253 510T247 566T256 617T260 655T258 686T257 712T266 735T299 749T349 741Q354 745 364 743T379 734Q392 742 411 739T435 726T439 709T434 685Q418 619 418 561T412 480T400 441T387 409Q371 373 366 348Q363 334 356 325T343
304Q327 273 329 224Q334 131 317 121Q309 114 305 116T296 113T289 89T278 48Q258 -9 217 -19Q192 -25 182 -17T167 6T159 36T147 58Q112 93 120 150Q122 168 118 175T113 191T109 208Q104 230 98 236T88 247T80 263Q71 288 69 322T64 373T57 406Q47 444 45 472T37
519T25 558Q9 610 7 637T3 679T0 703Z" />
<glyph unicode="W" glyph-name="W" horiz-adv-x="596" d="M589 697T592 692T601 681T606 670T605 659T603 648T603 635T599 617T582 581T568 527T560 468T555 411T545 361T533 313T524 258Q514 187 507 166T500 138T498 121Q493 95 476 73T454 37T447 13T438 -6T424
-13T411 -10T404 -6Q394 5 379 4T356 4Q340 5 336 17T328 55T320 108Q308 175 292 175Q283 175 282 161T281 138T278 117T270 81T256 35Q235 -18 206 -18Q183 -18 173 -1Q169 6 165 13T151 26T133 38T122 54Q116 67 113 100T103 153T90 190Q74 237 74 259T73 297T66
328T57 359T47 393T37 428T26 460Q16 495 25 521T28 574T11 627T-7 676T-6 713T19 731T53 732T86 725Q111 719 120 724T136 732T150 735T170 728T187 712T193 691T195 665T202 622Q224 539 209 474Q200 436 206 412T223 389Q233 391 236 404T239 438T240 482T244
526T250 557T254 574Q259 586 267 589Q263 698 300 733Q307 739 316 739T335 726T345 680Q347 627 355 577T366 504T374 462Q387 384 403 438Q416 484 416 520T411 561Q389 581 411 617Q420 633 421 657Q425 705 428 713T441 729T462 741Q490 752 508 731Q518 718
540 717T565 712T579 703Z" />
<glyph unicode="X" glyph-name="X" horiz-adv-x="463" d="M226 247L183 168Q183 134 163 114Q155 106 142 105Q138 98 134 86T125 60Q113 27 96 8Q60 -32 41 -6Q35 2 31 15Q24 38 17 41Q9 46 11 63T25 99T43 143T57 178T67 195T70 209Q74 226 84 241Q95 257 100
281Q111 330 120 347Q136 378 143 389Q135 401 129 409T118 426Q111 439 107 459T96 491T82 514Q55 556 31 620Q24 639 6 654Q-40 692 -19 722Q-8 739 8 739T38 734T56 728T65 730Q76 735 91 733T115 732T133 737Q153 745 168 738T184 716T185 679T187 646T197
626Q216 592 220 577T229 555Q246 587 260 612T278 653T282 681T285 706Q289 733 307 743Q342 764 387 731Q403 733 420 733T452 730Q485 723 487 701Q490 684 481 673T467 656T462 634Q462 604 432 590Q416 582 415 575T415 566Q421 560 404 543T378 512T360 484Q340
451 331 443Q317 433 316 414T327 374Q338 351 347 330T352 300T349 287T356 276Q374 255 384 227Q391 208 400 192T417 160Q447 99 457 26Q460 3 438 -7Q422 -16 402 -9T373 19T356 49T337 65T318 81T305 105T293 138T276 176Q253 220 226 247Z" />
<glyph unicode="Y" glyph-name="Y" horiz-adv-x="412" d="M271 151Q276 106 276 88T276 57T271 35Q264 12 251 10Q242 10 234 2T220 -11T206 -15T185 -12T164 4Q144 33 151 118Q137 128 132 147T132 203T140 257T141 285T135 304T124 326T115 354T106 374T98 391T91
412Q86 422 85 441T76 472T61 493T46 510Q26 532 18 547T10 574T10 595Q13 621 8 630L-3 652Q-20 686 -20 706T-10 736T13 742T46 734T78 731T100 738Q125 746 140 741T160 723T167 695T168 665T175 639T186 620T192 604T196 586T198 564T204 546T213 540Q225 542
229 564T238 602T247 630Q256 654 255 663T253 683T256 703Q266 725 298 721T351 716T382 724T404 732T423 723Q442 704 421 669T392 613T388 578T391 556T386 542T376 524Q333 448 299 334Q282 278 276 196Q274 165 271 151Z" />
<glyph unicode="Z" glyph-name="Z" horiz-adv-x="391" d="M309 -6T298 -6T275 -10T253 -11T233 -5Q183 10 156 -6Q151 -8 146 -8T129 -3Q118 2 109 1T90 0Q69 -2 58 14Q52 23 51 50T46 89Q39 107 43 118T51 135T55 147T59 159T64 175Q72 195 88 225T109 269T117
293T121 309T126 322T140 333T152 344T155 355T153 362T149 370T148 379T158 400T176 434Q200 482 197 491T188 500T177 498Q157 489 146 495Q124 506 89 487Q48 466 20 486Q10 493 5 510T0 547T4 585Q12 634 8 646T2 669T0 692Q2 719 20 734Q36 747 55 744T86
737T117 731T160 732T203 737T233 734T254 731Q278 729 297 735T330 745T358 741Q392 721 375 663Q349 575 367 532Q375 509 374 488T356 448T333 417T321 392T309 365T294 336Q280 313 281 309T283 304T280 295Q275 287 270 287T262 283T253 264Q238 219 224 198T199
162Q193 156 189 150T181 138Q207 146 227 144T256 142T279 150T313 162T344 158T356 144T357 131T355 114T354 86T360 46T357 14T341 1T320 -4Z" />
<glyph unicode="[" glyph-name="bracketleft" horiz-adv-x="231" d="M161 43T185 38T220 29T230 15T223 -3Q206 -14 150 -12Q139 -12 129 -14T108 -19Q86 -24 75 -13Q57 0 68 53Q76 98 61 102Q54 103 60 136T65 206T64 260T63 299V336Q40 405 54 450Q58 465 60
480Q48 496 49 507T49 537T44 580T45 618Q52 639 47 651Q38 673 43 700Q45 710 43 721T42 737Q43 742 53 753T75 768T93 773T112 771T132 765T146 762Q159 760 185 764Q213 768 220 750Q222 743 218 737T197 730T171 724T151 719T131 706T121 674T122 644T122 622Q119
566 124 518T123 423Q115 361 124 315Q125 311 128 308T138 282Q145 254 138 220Q137 206 133 174T132 116Q136 82 141 54Q161 43 185 38Z" />
<glyph unicode="\" glyph-name="backslash" horiz-adv-x="345" d="M13 732T19 741T34 754T62 745T92 711T106 678T111 656Q116 632 129 616Q159 579 168 525Q183 532 195 476Q205 420 247 344Q273 298 280 270Q294 213 300 200T308 178T314 160Q322 138 337 111Q365
62 349 15Q343 -3 329 -5T304 -5T282 14T260 50Q237 98 237 129Q237 151 226 178T207 224T192 267T176 309T159 342Q138 386 128 429Q118 473 110 487Q93 517 86 543T72 580T60 598T45 615T26 647T12 687T11 718Z" />
<glyph unicode="]" glyph-name="bracketright" horiz-adv-x="227" d="M81 42Q108 74 108 101Q108 113 107 126T105 154Q103 189 104 199T104 217T101 232Q94 260 99 280T108 308Q122 357 114 389T109 440T112 467T107 483T101 498T98 515Q98 524 104 547Q114 589
113 614T111 659T106 693Q99 725 72 729Q60 730 48 730T26 732Q5 736 5 750Q5 770 37 765Q43 764 54 765T77 767Q101 769 123 769Q140 767 156 763T178 745Q184 731 185 703T183 655T177 617T176 581Q178 537 181 524Q184 513 182 491L179 457Q178 445 179 432T177
392T176 339T180 287T178 233T175 186T173 145T180 44Q170 14 147 0Q137 -6 116 -7T68 -9T21 -7T0 9T17 28Q33 33 46 38T81 42Z" />
<glyph unicode="^" glyph-name="asciicircum" horiz-adv-x="380" d="M30 304Q9 304 10 342Q11 365 32 416T69 502Q120 623 124 655T134 706T147 737T172 753Q205 759 219 719Q221 712 224 709T232 702Q241 691 244 663Q250 620 264 596T294 546T318 485T335 429T348
402T354 390T361 378Q370 361 370 351T368 337T365 330T364 321T360 313Q332 290 303 320Q280 344 270 373T254 410T247 433T238 458T221 477T208 498T200 520Q195 538 195 554T187 570T175 554T169 525T163 498Q159 482 153 464Q132 443 128 426T123 405T120 396Q115
386 113 379Q101 339 83 319T30 304Z" />
<glyph unicode="_" glyph-name="underscore" horiz-adv-x="577" d="M0 40Q0 102 67 96Q105 93 123 89Q158 83 171 83T198 83T225 83T251 85T277 86Q312 87 322 89T348 91T379 87T409 83T432 83Q448 81 471 84T511 84T540 78Q569 74 574 53Q580 33 568 23Q563 18
560 11T548 1T530 -2T512 -4T482 -7T432 -3Q420 -8 399 -5T359 -2T330 -5T308 -6Q287 -6 257 1Q230 7 218 6T197 3T170 3T141 3T124 3Q118 7 110 3T92 1T80 2T72 0Q51 -8 16 14Q1 23 0 40Z" />
<glyph unicode="`" glyph-name="grave" horiz-adv-x="466" d="M307 687T313 669T311 639T288 626T261 637T238 653T227 660Q225 669 218 676T208 682Q202 678 193 685Q193 685 179 696Q174 700 170 701T157 714T151 741T163 760T178 766T194 765T216 755Q242 741
249 730Q258 715 295 694Q307 687 313 669Z" />
<glyph unicode="a" glyph-name="a" horiz-adv-x="442" d="M97 -12Q87 -15 75 -11T57 6T51 35T50 71T51 108Q51 148 38 159Q11 179 16 261Q21 308 27 336Q37 382 37 414T38 464T44 494T53 519T62 562Q72 637 80 655Q91 680 106 706T132 742Q155 759 198 745Q230
734 257 738T299 742T332 731T360 706T374 674Q381 645 375 601T370 529T382 477T396 438T402 409T406 378T412 340T417 307T417 286T415 272T415 252T416 222T410 191Q399 145 401 126Q405 92 401 78T394 54T386 29T367 0T341 -8T325 6T319 26T313 44T300 53Q284
55 283 71T283 100T282 126T272 151Q254 182 230 185Q194 190 180 150Q177 140 176 124T168 94T154 72T140 56T131 37Q123 -6 97 -12ZM186 407Q166 353 181 321Q191 303 207 302Q236 299 241 306T254 322T260 348T257 379T248 410T236 446T232 484Q228 524 214
524Q204 524 202 514T198 486Q197 434 186 407Z" />
<glyph unicode="b" glyph-name="b" horiz-adv-x="460" d="M384 361Q356 330 327 311Q352 307 370 299T389 273T393 247T401 231Q411 212 406 187T399 138T393 92Q383 38 351 28Q325 20 305 16Q275 -26 253 -23Q245 -22 240 -12T227 -1T210 -3L190 -10Q171 -16
130 -2Q115 4 108 26T96 57T85 73T75 84Q56 101 56 113Q55 133 59 165T64 221T62 266Q57 311 35 325Q24 332 20 336T15 350T19 376T26 412T34 439T39 469T38 509T34 540Q31 569 34 587T36 620T35 650Q38 688 91 722Q135 750 166 735Q186 727 195 729T210 731T222
727T238 723T256 728Q282 734 295 730Q308 726 317 728T332 731T347 726Q356 721 362 720T374 718Q383 716 389 700Q393 690 394 682T396 665Q400 648 410 639Q418 632 418 623Q418 607 425 603T438 584T447 549Q455 498 437 456Q431 384 401 369Q396 367 384 361ZM224
551T222 556T214 559T207 552T205 540T205 525T205 508T203 491T206 474Q210 449 210 429T211 397T210 376Q211 360 225 355Q239 349 256 380Q282 425 286 472Q288 489 280 503T265 519T248 522T234 529T227 543ZM241 136T243 144T253 158T262 185Q265 219 256
233T243 269Q232 276 228 280T220 282T216 274T215 261T211 247T210 228T212 206T208 180T205 155T213 135T231 129Z" />
<glyph unicode="c" glyph-name="c" horiz-adv-x="444" d="M424 591T424 578T416 540T411 496T417 470T421 454T421 435Q416 412 392 399Q369 389 353 378T318 360Q314 348 311 338T299 323T281 320T273 341T268 365T256 376T247 384T241 394Q236 412 243 426T251
447T251 462Q248 482 250 496T244 520T223 529T204 498T192 424T188 327T192 230Q202 127 228 125T268 132T290 154T302 176T313 189Q355 203 372 172Q379 159 379 135T376 100T368 81T359 67T353 52T344 34T327 20Q306 9 292 9Q237 9 210 -11Q193 -25 176 -24Q151
-23 142 -14T118 4T101 26T91 48T76 68Q55 95 55 132Q55 155 56 170T56 196Q56 217 38 239T17 278T12 309T11 338T15 367Q17 382 22 393T27 415T28 433T35 448Q43 470 33 491T23 526T25 549T31 569T35 594T40 629T68 654T94 670T101 691Q104 702 120 715T166 733T210
734T235 718T256 704T277 704Q329 711 381 682Q399 672 405 651T415 621T421 602Z" />
<glyph unicode="d" glyph-name="d" horiz-adv-x="440" d="M193 4Q153 -27 125 -27Q112 -27 98 -19T79 0T74 24T74 54Q75 81 66 103T54 135Q49 156 51 196Q52 227 49 233T46 246T50 288Q61 374 40 376Q29 378 29 381T24 394T17 411T15 430T18 454T25 476Q53 552
45 604Q34 661 37 684T48 718T66 736T90 750Q120 760 142 745T184 726T220 721Q264 718 274 710T293 698T310 690Q330 680 334 671T345 655T360 638Q378 615 383 589Q386 572 388 559T393 534Q402 495 414 465Q438 404 426 371L424 367Q432 347 427 325T419 293T412
271T403 241T393 209T382 184Q370 162 320 110Q304 94 298 78T279 53Q263 23 252 16Q230 -1 193 4ZM179 445L182 388Q184 364 179 344T177 300T179 261T181 235T184 215T181 194Q179 168 191 166Q199 165 206 173T218 195Q227 216 233 250Q235 264 243 280Q257
310 257 323T258 340T260 348T264 357T268 375T265 409T244 443T222 465T211 481Q201 495 192 489Q179 479 179 445Z" />
<glyph unicode="e" glyph-name="e" horiz-adv-x="413" d="M50 188L49 239Q49 253 50 265Q51 278 48 297Q43 330 43 345T44 370T41 388Q38 400 27 426T15 482T28 530Q40 548 37 567T33 607T32 651T42 695Q64 746 130 744Q171 743 201 736T245 730T288 740Q330 756
355 738Q362 733 368 731T380 723Q397 704 390 640Q388 621 386 602Q381 557 386 535T391 497T390 467Q384 438 367 438Q352 439 346 447T335 466T327 485T307 494Q263 494 249 503T223 514T202 512Q181 503 178 479T173 437T173 404Q175 369 186 365T206 363T222
372Q246 388 271 388T309 367T320 329T317 292T312 258Q298 196 254 234Q197 238 183 220Q180 215 177 199T176 165Q181 118 221 115Q247 113 268 122T297 142Q303 154 312 155T328 158T342 160T356 158Q374 152 377 130T373 90T363 58T358 36T347 19T332 1T314
4Q292 21 261 -16Q253 -27 244 -32T216 -36Q197 -35 186 -26T166 -8Q151 11 114 6Q92 3 78 25Q75 28 74 36T70 54Q63 80 58 87T52 107T49 132T46 152T47 168T50 188Z" />
<glyph unicode="f" glyph-name="f" horiz-adv-x="407" d="M202 403Q202 375 231 375Q238 375 244 376T264 381T291 376T310 363T321 354Q328 345 328 321T317 276T272 250Q237 245 220 235T199 202T190 170T184 150Q183 139 179 127T175 103T177 74T171 37Q159
-7 128 -7Q116 -7 110 5T99 35T90 71T73 110T60 157T58 208V256Q58 344 38 366Q25 379 27 416V444Q27 459 32 468Q44 494 39 541T28 613T27 662T33 698T43 723T58 736T74 737Q86 736 95 745Q128 778 157 760Q169 752 181 743T209 727T243 722T282 728T320 730Q368
727 390 686Q405 658 402 628T395 578T392 547T391 531T389 526Q385 515 384 496T380 468Q371 445 345 445Q328 445 316 451Q292 463 282 464Q268 466 263 480Q261 485 259 490T253 500T245 512T226 518Q198 514 200 486L202 428V403Z" />
<glyph unicode="g" glyph-name="g" horiz-adv-x="444" d="M328 3T330 14T332 48T322 70Q313 70 307 51T289 26T268 18T247 13T229 3Q222 -4 207 -11T172 -8T145 13T135 30T127 44T114 52Q94 57 87 84T73 143T64 199T58 245Q51 298 39 308T25 338Q20 386 20 406T31
450T43 497T40 533T34 553T32 570Q31 586 40 618Q45 635 48 649T54 675Q65 715 110 715H124Q151 715 172 732Q182 739 194 743T214 743T236 739T265 750T302 763T346 762T378 743T392 727T403 720Q422 706 426 660Q429 621 416 586Q414 579 409 564T397 533T389
502T388 474T379 450Q362 423 312 425Q269 425 259 439Q254 446 254 457T252 487T240 522T213 530Q202 524 197 490T198 420T204 378T201 363Q188 316 197 230Q204 167 228 162Q250 158 264 185Q276 210 262 288Q250 349 282 352Q296 354 317 353T355 356T390 357T421
339T421 289Q397 215 412 160Q414 151 418 135T425 100T429 60T426 24Q419 -13 389 -13T346 -11T331 -3Z" />
<glyph unicode="h" glyph-name="h" horiz-adv-x="497" d="M289 126L290 202V227Q290 257 284 265Q275 279 256 279T229 267T219 240T217 205T216 164Q214 120 216 96T217 66T206 53T193 36T184 14Q172 -12 159 -13Q120 -17 92 29Q86 40 76 50Q55 73 68 124Q73
148 73 173T71 210Q69 221 71 234T68 258T64 286T63 315T61 338T59 354T55 371T58 396Q61 432 49 451T29 495T31 555Q48 608 41 672Q39 688 48 709Q61 742 133 746Q156 747 174 752T211 753T233 729T238 703T242 689Q244 676 238 648T231 600T230 562Q232 518 227
500T223 472T231 456Q251 438 286 460Q291 463 295 470Q290 498 289 539Q288 600 285 634T286 692T307 735Q324 755 338 753T362 741T380 732T402 742Q439 764 471 715Q461 705 465 679T467 641T463 609T462 569T456 519Q449 476 455 420T457 319T455 244T454 204T446
184Q431 155 429 125Q427 100 426 76T421 32Q412 -11 380 -11Q344 -11 339 44Q316 51 302 68T289 126Z" />
<glyph unicode="i" glyph-name="i" horiz-adv-x="336" d="M272 553Q238 544 259 437Q266 408 266 389T261 346T255 309T251 276Q252 255 251 234T248 192Q245 143 247 134T253 123T264 118Q278 113 281 105T284 83T280 52Q271 14 255 3Q246 -3 237 -1T216 3Q182
9 158 -3Q99 -35 67 -3Q54 10 51 37Q47 86 56 100T72 117T84 124Q95 129 95 141Q95 150 97 160T102 183Q107 212 97 231Q86 253 87 267T90 292L94 316Q96 345 93 365T89 408T87 451T88 489Q88 531 80 539T64 547T50 548Q31 546 26 554Q15 565 15 582T21 608T30
628T32 653Q34 683 30 692T25 709T23 724Q23 753 64 754Q89 755 115 754T156 755Q208 765 239 763T280 758Q305 748 307 703Q308 682 308 659T310 612Q314 562 272 553Z" />
<glyph unicode="j" glyph-name="j" horiz-adv-x="376" d="M329 453Q336 440 341 406Q351 338 324 305Q296 275 322 236Q336 208 317 120Q307 69 297 48T266 24Q257 22 250 16T233 2Q192 -33 124 -7Q114 -3 104 1T76 7Q46 10 31 39Q24 52 18 68L7 103Q-2 130 -2
154T-2 190T-3 212Q-5 222 -5 233T0 252Q11 272 45 263Q64 258 76 257T98 255Q126 252 124 220Q124 205 124 190Q124 153 144 150Q164 145 170 174Q173 185 173 197T172 222T172 244T186 267T195 297T187 317T179 330T176 349T175 369T176 391T171 427T165 474T163
514T154 550Q144 598 147 644Q138 667 136 690T139 723T149 734T160 738Q175 744 187 757T216 776Q237 783 267 753Q287 755 299 755T317 750T324 741Q331 736 335 737Q332 724 338 703T344 660T343 621T344 598T340 586Q333 573 337 551T336 520T324 505T319 481T329
453Z" />
<glyph unicode="k" glyph-name="k" horiz-adv-x="465" d="M348 386T341 367T333 339T339 313T356 276T378 230T400 184T412 151T418 128Q420 109 417 85T414 47T416 20T411 1T388 -8T352 5T324 40T305 81T285 114T265 152T250 200T237 240T218 259T202 253T198
232T201 202T203 166T202 129T186 97T168 65T160 34T152 8T135 -3Q111 -4 91 24T68 97Q65 123 53 131Q42 138 46 186Q47 199 50 209Q56 240 50 297T41 365T37 390T33 421T31 455T35 492T40 525T40 548Q35 580 36 599T35 641T31 684T34 722T52 748T76 755T97 750Q130
741 143 743Q219 762 204 646Q201 627 198 612Q191 576 194 558Q196 546 196 532T198 506Q200 478 211 478Q228 478 254 536Q260 549 262 557T269 576T280 598Q296 625 314 632Q301 660 309 680T323 711T334 727Q345 738 366 732T404 731T435 741T466 749T491 743T504
723T504 698Q498 671 474 645Q460 590 428 558Q424 511 398 479Q388 468 368 427Z" />
<glyph unicode="l" glyph-name="l" horiz-adv-x="325" d="M342 144T342 134T340 112T340 88T343 62T345 38T339 20T319 7T290 0Q253 -3 226 11Q201 24 179 19T144 10T115 1T82 -3T55 15T43 56T50 103T56 157T52 209T52 247Q57 285 43 300Q32 313 32 330T33 359T40
378T47 391T47 411Q39 468 41 499T41 552T39 589T37 614T34 628T34 641T30 660Q24 690 26 701T36 726T55 744T68 749T78 754Q99 760 109 755T127 750T143 749T160 752L172 754Q193 760 204 752Q211 745 214 741T215 729Q213 721 217 716T220 702T219 688T221 678Q223
668 219 654T214 636T213 627Q213 614 210 603T206 584T205 566V544Q205 532 204 514T201 472T198 422Q194 356 188 338Q172 329 183 296L190 275Q200 245 200 216T195 160Q224 144 236 143Q265 139 288 151T322 161T337 152Z" />
<glyph unicode="m" glyph-name="m" horiz-adv-x="671" d="M506 7Q473 7 476 63Q478 101 477 130T464 191Q453 223 449 249T455 306Q469 350 457 404Q455 413 455 422T454 440Q453 459 444 459Q436 459 433 445Q427 409 419 389Q397 337 402 303Q415 253 400 226Q393
213 383 207T370 197T367 181T362 162T355 147T351 132Q346 114 329 116T306 137T296 181T289 231T276 269T263 295T257 322Q252 356 244 369Q237 381 233 414T226 459T213 471Q203 470 202 456T205 433Q209 424 206 401T207 361T215 331T222 302Q232 261 227 233T220
189T208 166T194 152T190 135T188 115T181 89Q168 57 172 42T168 10T141 -8T113 -2T94 18Q61 72 68 140Q69 155 70 170T70 207Q67 261 45 292Q30 313 28 343Q23 395 34 417Q39 427 39 448T39 479T39 493T41 509T42 536Q41 563 35 585T28 624T28 657Q31 693 40 708T58
725T76 728T93 731T108 738Q125 745 141 739T168 735T190 740Q216 750 229 745T254 728T266 709T271 698T278 692Q286 685 286 670Q286 648 298 611Q319 541 338 535Q342 534 352 541T366 562Q372 586 370 598T373 618T379 631T381 647T385 670Q393 703 408 720T439
740T471 742T504 739T538 744Q583 764 600 745Q605 740 609 738T618 734Q626 728 627 716T631 699T635 690Q646 664 649 600Q652 495 645 480Q652 439 638 422Q635 419 632 416Q614 398 610 368Q608 356 610 348T613 331Q613 322 613 315T612 300Q610 271 611 258T612
239T608 228Q603 213 605 203T605 186T600 174Q592 157 593 131T592 86T588 49Q586 -4 574 0Q569 2 566 -5T560 -23T546 -31T532 -14T523 3T506 7Z" />
<glyph unicode="n" glyph-name="n" horiz-adv-x="521" d="M121 730Q171 750 175 734Q200 740 212 719Q216 712 227 690T252 643T278 596T294 567T304 558T316 561Q329 571 324 591T318 622T321 644Q327 672 323 689T319 721Q319 751 368 751Q378 751 391 751T430
752T475 739T488 680Q479 623 480 604T481 567Q481 549 475 514Q464 452 469 426Q473 403 473 392V376Q473 373 475 363T474 343T473 320T468 293T461 259T459 225T462 190Q471 159 447 81Q443 62 435 57T422 48T416 35Q411 15 395 17Q374 20 361 59Q343 113 332
122T316 147T306 180Q298 222 290 228T277 254T267 281T258 299T248 319Q235 344 223 341Q216 339 214 324T209 286Q203 222 189 194Q198 168 202 147T201 96T190 48T182 17T171 -4T156 -10T144 -4T138 4Q131 17 114 23T90 38T81 59T79 85T72 115T65 143T67 162T71
179T67 206Q55 243 74 267Q88 287 86 301Q80 330 63 339Q55 344 55 351Q55 366 51 373T50 393T49 413Q49 414 47 433T42 483T36 549T32 618Q28 694 33 707T50 726T75 734Q103 737 121 730Z" />
<glyph unicode="o" glyph-name="o" horiz-adv-x="481" d="M120 690Q131 700 139 711T160 733Q195 762 230 750Q273 734 309 730T361 712T390 682Q419 644 425 599Q426 582 431 575Q444 553 440 516T436 465T441 443T448 429Q456 410 456 391Q456 367 440 343Q433
334 435 308T438 256Q439 191 431 176T420 157T413 152Q398 145 387 111T356 55T317 20T285 -1T268 -16T258 -30Q245 -46 225 -46Q191 -46 175 -30Q168 -21 160 -4Q145 23 120 40Q92 59 86 97Q83 110 84 123T83 156Q81 176 75 192T68 222Q63 264 40 267Q23 269
20 318Q19 343 22 365T30 404Q38 433 35 471T35 540Q40 596 59 631Q68 646 85 661T120 690ZM186 390T193 382T204 355T207 316T206 275T208 240T214 211Q225 180 245 180Q276 180 288 300Q292 333 292 384T276 473T237 511Q215 511 197 462Q181 418 183 404Z" />
<glyph unicode="p" glyph-name="p" horiz-adv-x="474" d="M134 -15Q120 -14 106 15T86 89T78 150T74 174Q71 189 63 200T52 218Q50 227 51 263Q53 340 44 365Q40 376 41 383T42 398T36 415T26 436Q10 468 10 480Q10 495 20 514Q42 551 45 565T49 602T48 648Q46
707 58 722Q66 730 77 733T105 742Q139 754 156 754T184 745T209 734T228 733T238 736Q250 741 258 741Q271 741 277 731T288 715T304 711T322 714T332 714Q347 712 358 715Q380 722 392 708Q395 701 406 698T425 690Q444 680 451 655Q465 609 455 560Q451 543
449 533T445 516T443 501T442 484T441 462V435Q441 404 443 386Q449 336 398 314Q381 307 374 301Q367 295 362 283T344 253T303 225T255 207T230 190Q223 177 226 129T229 67T226 46T216 32Q208 27 202 27T190 21T178 9T167 -2Q153 -15 134 -15ZM202 545Q196 539
190 510T184 464T191 434T198 412T196 394T194 374Q192 350 198 344T211 339T227 345T241 353T254 360T264 369T273 381Q280 386 282 394T287 412T287 430T276 456Q270 473 272 483Q280 525 262 541Q239 555 224 553T202 545Z" />
<glyph unicode="q" glyph-name="q" horiz-adv-x="492" d="M453 359Q457 279 432 198Q423 166 406 137Q401 125 402 115T417 89T435 63T440 41T438 20T434 -7T432 -39T420 -60Q416 -62 413 -64T406 -65Q401 -62 394 -49T382 -34T374 -31T366 -33Q355 -36 347 -17Q330
22 310 20Q301 18 291 12T266 1Q203 -23 158 25Q140 45 133 60T122 77T113 81T103 85Q91 90 70 171Q64 190 55 215T38 264Q17 333 16 364T15 412T19 440T24 461T25 486T30 517T42 550T57 597T81 645T104 674T118 691Q133 707 150 716T182 732T212 743Q248 752 268
736Q297 717 315 720Q321 721 334 721Q367 721 398 682Q418 657 427 643T441 612T450 584T454 558Q453 542 453 523T458 481T467 441T470 410Q472 374 453 359ZM298 339Q296 369 300 388Q321 469 275 515Q258 532 247 521Q242 516 236 510Q223 493 213 493T198
487T187 473T176 444Q165 397 171 339T188 253T209 208T230 184T246 177H248Q215 249 219 276Q225 305 275 330Q288 336 298 339Z" />
<glyph unicode="r" glyph-name="r" horiz-adv-x="470" d="M292 719L324 721Q358 721 372 710T394 690T408 672T424 652T435 629T442 607T450 581T450 547T446 520T443 499T447 480T449 439T438 373T418 316Q394 271 340 245Q345 233 351 219T364 189Q377 152 377
136T378 112T382 100T387 94T398 87T409 68T413 41Q413 9 406 2T390 -8T372 -12Q349 -15 343 -6Q335 2 335 10T331 25T322 33T314 46T307 60T288 62Q263 57 251 92Q248 100 245 113T238 138Q230 167 220 169T204 167T197 154T194 135T196 112T197 92T192 79T184
70Q176 65 175 50T170 24Q164 -3 154 -10T134 -18T114 -18Q89 -13 83 -1T76 18T75 31T77 44T78 60T73 86T68 124L67 150Q67 154 74 163T79 185T67 201T58 210T60 235T59 285T54 338Q50 388 37 394T21 410T21 432T25 462T31 498T36 533T40 555T41 566T40 577Q38
593 40 605Q44 628 42 637T45 666T55 694T70 706T91 717T111 732T127 746T144 756Q173 762 186 758T206 748T220 738T238 731T256 728Q277 726 281 723T292 719ZM209 440L215 349Q215 340 214 332T212 316Q211 301 223 298Q233 296 239 303T250 324Q262 349 258
356Q250 366 253 373T268 403T285 441T288 475T285 501V512Q285 520 278 526T267 533T262 534Q253 532 245 535T230 539T214 529T204 511T204 489Q209 453 209 440Z" />
<glyph unicode="s" glyph-name="s" horiz-adv-x="408" d="M398 577T397 570T383 546T368 510T366 478T366 456Q365 434 342 426Q322 418 311 427T293 450T283 475T271 487Q257 490 250 484T238 474Q230 466 222 463T208 457Q198 450 200 434Q204 403 269 340Q281
328 297 314T330 282Q366 239 370 185Q374 130 354 89Q338 56 316 46Q299 37 293 23T284 2T272 -9T250 -13T228 -9T209 -1T195 5T184 2T174 -8Q159 -23 147 -20T119 -8T88 12Q34 54 51 98Q62 127 75 139T97 151Q110 151 114 142T122 126T129 115T141 107T160 102Q185
100 198 122Q211 144 208 170Q201 217 188 210Q177 203 161 209T144 226T140 247T133 266Q124 289 117 291Q109 293 96 293T66 310T43 354T31 400T22 431T15 454Q5 492 14 552Q20 587 36 613T72 666Q110 717 142 737T191 741Q206 728 223 730T251 736L269 740Q286
744 303 739T335 705Q342 690 349 679T364 658Q379 634 381 619T388 596T395 583Z" />
<glyph unicode="t" glyph-name="t" horiz-adv-x="461" d="M76 732T93 732T146 732Q204 729 228 740Q277 765 307 746Q321 738 334 736T371 748Q397 759 414 753T439 738T449 707T451 662T446 621Q440 570 441 554T445 521T447 488Q445 449 415 444Q393 441 383
454T367 484T354 514T335 524T320 498T318 445T322 382T326 327T328 281T330 238Q330 195 318 179Q312 171 312 160T314 137T320 113T323 84Q323 44 287 28Q274 22 263 8T247 -10T234 -14T223 -7T216 5Q210 21 199 26Q186 29 184 48T181 81T178 117T165 151T147
167T138 184T138 212T145 243Q157 292 158 335Q161 415 158 441Q154 493 130 493Q118 492 113 483T102 460Q88 427 51 442Q38 448 35 461T31 491T30 528T23 565T10 599T5 631T12 662T17 692T22 721T53 734Z" />
<glyph unicode="u" glyph-name="u" horiz-adv-x="501" d="M210 587L205 360Q205 209 247 217Q283 223 280 344Q280 380 285 390T293 408Q298 428 295 461Q293 482 288 524T279 610T275 691T282 736T301 746T325 747T349 742T368 739T386 741T407 745T427 747T445
740T458 705T466 639T469 558T468 475Q464 389 461 371T452 345T442 330Q432 316 439 290T450 250Q457 225 451 205T447 166Q452 115 435 93Q427 82 410 72Q376 53 360 26Q352 10 341 7Q335 5 323 6T297 9T270 12T252 13T243 7T234 -3Q207 -30 178 3Q172 10 167
16T156 26T143 33T124 44Q81 70 70 128Q64 156 60 200T54 257T41 283T28 310T27 337T32 369Q40 417 36 453T34 509T35 534T29 545T26 566T28 597T28 628Q31 696 49 710Q64 721 80 722Q105 723 117 731T138 744Q188 772 200 704Q208 662 210 587Z" />
<glyph unicode="v" glyph-name="v" horiz-adv-x="464" d="M189 660Q208 637 206 585Q206 558 212 542L222 516Q229 498 234 446Q235 426 246 426Q253 426 254 452Q256 504 264 533T275 583T281 625T284 663T289 699T304 732T341 745T375 743T389 740T398 737T409
735T424 736T437 736T447 730T456 716Q467 692 464 659T456 616T447 599T437 589T428 574T422 546T418 507Q411 432 396 407Q393 401 388 395Q365 364 360 342T352 305Q337 225 322 176Q304 120 302 108Q296 66 272 48Q260 39 250 13T233 -23T216 -32Q205 -30 201
-18Q191 15 179 28T158 66T146 110T140 152Q133 209 128 230Q116 280 103 292Q95 301 88 306T76 317Q65 328 65 346T69 396T63 458T51 504T44 538Q36 575 16 612Q-20 677 5 715Q19 737 52 737H75Q86 737 96 746Q110 758 138 744Q142 743 147 743T159 742Q189 732
189 660Z" />
<glyph unicode="w" glyph-name="w" horiz-adv-x="650" d="M424 411L423 478Q424 502 428 513T433 535T436 559T440 584Q445 612 454 614Q463 616 465 636Q470 669 463 689Q455 713 464 726Q481 752 520 734Q548 722 560 722T581 724T608 731T636 719T646 684T642
653T638 622Q631 582 627 570T620 544T616 515Q612 471 607 452Q581 354 581 333T579 307T574 297T566 285T555 261Q547 240 548 223Q550 188 543 169T529 131T514 92Q497 50 493 26T478 -10T454 -18T438 -6T431 8Q422 28 409 32Q389 40 380 60T369 110T365 162T360
204Q351 251 341 251Q335 251 332 241T326 214Q317 169 307 152T293 122T289 97T286 74T281 50T270 26T255 4Q234 -15 207 2Q190 13 169 19T141 30T129 47T121 80T114 130Q102 210 86 259Q73 299 60 368T43 459T34 482Q27 483 22 502Q15 535 18 552T20 583T15 613T9
642T2 672Q-7 710 18 727Q54 749 78 731Q89 739 108 729Q119 740 135 747T165 750T185 735T196 709Q202 688 205 653T209 602T209 572Q209 536 215 494T222 429T223 396T227 379T232 366Q239 355 249 358Q255 361 255 367T254 384T250 406T249 430T251 461T254
500Q259 557 263 581T269 619T274 649Q291 662 300 685Q296 690 296 694L303 723Q304 734 313 742T330 749T342 744T350 733Q356 718 357 684T360 636T363 612T365 592T366 563T365 524T373 486T383 461T383 448T381 433T379 407Q379 376 394 362Q417 341 422 378Q424
393 424 411Z" />
<glyph unicode="x" glyph-name="x" horiz-adv-x="473" d="M484 674T473 649T448 595T426 534T414 489Q407 471 388 443T361 400Q344 371 340 347Q343 335 350 316T364 272Q381 215 381 175Q402 134 401 115T397 81Q408 55 411 37T398 1T369 -14T353 8Q349 25 341
25T326 26T306 32T288 60T278 104T266 150Q251 205 241 205Q235 206 233 199T229 181Q221 134 194 102Q177 79 174 71T169 47T152 19T122 4T102 2T94 2Q89 1 80 -4T62 -9T42 4T29 22T27 33T32 46Q62 99 76 165T105 262T120 310T124 343Q128 368 117 397T95 434T81
446T76 459T73 474Q71 493 56 531Q39 574 17 618Q-10 672 -10 702Q-10 727 12 730Q23 732 34 732T57 731T77 734T96 742T118 748Q143 753 154 743T172 712T184 668T195 618T208 570Q224 522 248 524Q260 525 264 540T270 578Q276 638 298 664Q320 689 323 705T328
728T338 741T356 748T374 745T390 737T402 729Q479 747 490 728Q497 716 491 695Z" />
<glyph unicode="y" glyph-name="y" horiz-adv-x="442" d="M435 740Q448 740 465 719Q473 707 473 690Q473 657 450 633T419 592T411 560T407 533T398 512Q385 489 361 483Q356 460 343 443T326 419T320 406Q315 393 308 383Q302 262 304 210Q306 128 275 93Q264
78 260 46T252 1T236 -13T216 -10T202 3T192 20T177 39T166 71T168 111T166 140T155 161T143 180Q131 199 133 221T138 260Q145 301 144 313Q140 341 146 375Q138 389 134 404Q127 430 112 435Q82 444 70 484Q61 515 65 524T71 536Q74 544 38 575Q20 590 13 612T-3
648T-20 676Q-36 704 -28 724Q-20 738 2 741T46 738T83 729T111 728T135 729T152 729Q156 720 164 712T176 690T180 653T190 614T202 585T206 560T210 540T219 530Q226 528 229 538T235 563Q244 608 255 623Q268 640 272 669T280 711T293 732T324 738T370 732T411
734T435 740Z" />
<glyph unicode="z" glyph-name="z" horiz-adv-x="401" d="M38 67T39 87T40 119T33 146Q67 188 85 222T104 263Q105 269 104 276T104 293Q105 317 114 329T132 350T150 370Q171 396 185 427Q205 466 217 486T224 513T213 519T200 516Q175 512 157 517T131 517T114
505Q93 487 68 492T38 510T32 539T34 572Q38 598 30 620T19 656T15 683T23 711Q45 756 130 736Q143 733 152 730T169 726Q188 722 203 728T224 735T235 736Q251 734 262 736T282 738T298 736Q314 732 329 733Q349 734 370 716Q379 704 378 686T379 650T381 624T378
608Q374 582 374 565T375 539T378 522Q382 506 380 486Q372 448 314 362Q323 325 298 308Q288 300 268 294Q268 277 244 243T215 189T209 153Q221 153 226 150T249 145T286 145T325 157T358 160T364 131Q357 111 357 87T360 44Q370 8 345 1Q338 -2 329 -1T309 2Q281
7 268 2T241 -3T217 0Q183 6 170 3Q157 0 146 -5T122 -14Q92 -22 72 -14T46 11T39 47Z" />
<glyph unicode="{" glyph-name="braceleft" horiz-adv-x="266" d="M193 72Q219 33 241 33Q247 33 251 26T250 3Q243 -18 218 -22Q190 -27 174 -24T150 -12T143 3T136 14T123 25T112 42Q98 65 99 82T101 106T103 118T104 128Q104 128 106 143Q109 163 110 181T116
217Q121 234 120 240T116 257T108 278T99 297T89 308T73 318Q63 326 53 327T35 332T24 343T20 359Q19 379 27 390T38 400T49 404T58 412T60 418Q61 424 70 427Q83 431 98 472Q107 495 103 524Q96 573 87 579Q91 595 92 614T99 644T106 662T107 678Q107 696 116
702Q122 706 126 714T136 732Q148 754 164 760T185 771T196 779Q205 785 226 779Q240 790 246 784T254 770T256 756T253 742Q246 731 227 717T198 694T192 670T192 650T181 633T172 616T170 603T170 591T168 579T166 552T168 508Q173 443 171 436T165 427T157 414Q145
388 123 366L136 352Q143 346 151 341Q167 331 172 319T179 303T184 294Q197 262 188 194Q200 155 188 121Q180 91 193 72Z" />
<glyph unicode="|" glyph-name="bar" horiz-adv-x="163" d="M56 747T59 750T74 756Q94 760 102 752T117 741T128 727Q132 717 131 708T134 686Q140 668 135 624T129 554T127 516T125 482T131 447T134 412T131 372T134 342T135 320Q135 299 127 263Q123 245 123
234T124 215Q127 191 125 171T126 139T126 121T125 105T128 86T126 73T130 64Q138 40 115 4Q105 -11 91 -11T65 -10T44 -1Q22 16 26 58Q28 88 33 114L38 148Q40 157 40 171T40 199T40 228T38 256T38 284Q36 318 33 331T32 356T37 379Q45 410 43 424T40 448T44 468Q50
490 49 503T46 542T43 580T40 599T37 608Q34 620 36 630T38 647T36 660Q35 672 39 689T45 719T51 739Z" />
<glyph unicode="}" glyph-name="braceright" horiz-adv-x="266" d="M84 688Q59 727 36 727Q29 727 27 733Q22 741 27 756T39 775T57 781T78 784Q105 786 114 775T123 757T128 746T141 735T154 718Q168 694 167 677T165 654T163 642T162 632T160 611T162 578T162
543T158 520T161 503T169 482T177 463T187 452T204 441Q214 433 224 433T242 428T253 417T256 401Q258 378 250 368T239 359T227 356T218 348T216 342Q215 335 208 333Q191 327 178 288Q171 264 171 239T175 206V182Q175 128 165 113Q161 106 161 98T160 82Q158
62 151 57Q145 53 142 45T136 28Q126 4 109 -2Q97 -7 92 -11T82 -19Q72 -26 50 -19Q24 -39 20 4Q20 17 31 27T56 47Q89 68 84 90Q82 104 85 110T96 127T104 148T104 170T102 192T103 208T106 231T106 266Q104 325 112 334Q115 336 120 346Q136 377 154 394Q146
400 140 407T126 419Q112 428 106 440T98 456T92 466Q78 494 88 566Q83 582 83 600T89 644T84 688Z" />
<glyph unicode="~" glyph-name="asciitilde" horiz-adv-x="414" d="M276 379Q288 392 306 390Q332 420 378 407Q398 401 402 387T400 364T390 349T375 337T346 327T316 317T301 308T292 304Q280 299 259 304Q245 307 237 307T224 309Q213 311 199 325Q147 374
104 330Q100 327 95 326Q88 324 79 316Q64 301 57 303Q53 304 47 305T34 308Q19 313 17 321T11 338T12 357T22 370T35 380T54 393T72 404T86 413T102 422Q121 431 126 430T140 423Q153 433 168 427T191 419T208 410Q242 385 251 385T276 379Z" />
<glyph unicode="&#xa0;" glyph-name="uni00A0" horiz-adv-x="241" />
<glyph unicode="&#xa1;" glyph-name="exclamdown" horiz-adv-x="207" d="M47 418L49 489Q49 558 78 581Q96 594 111 592T134 581Q141 572 141 560T147 526T158 481T163 432Q161 406 161 383T169 349Q181 334 181 315Q181 303 178 294Q168 268 168 248T169 219Q172
195 174 177T175 136T175 90Q177 67 177 53T173 24T165 4T159 -6Q155 -11 144 -17T129 -26T118 -28T103 -18T84 -4Q73 1 59 8T42 30T38 49T36 54Q33 58 31 80T34 125T40 163T46 193T50 225T49 250T51 264T53 278T50 300T46 326T46 351T45 378T47 418ZM175 701T174
693T163 677T143 661T121 648Q96 636 74 638T44 647T32 661Q23 679 26 690T36 710T52 726Q70 738 85 741Q92 742 99 747Q110 755 121 753T137 741T149 728T163 720T172 708Z" />
<glyph unicode="&#xa2;" glyph-name="cent" horiz-adv-x="375" d="M262 580Q288 583 306 574T329 556Q334 548 346 531T362 499T362 475T351 455T340 437T317 428Q300 426 294 435T287 450Q284 464 270 468Q262 470 260 472T252 476H248Q234 390 240 355Q245 322
235 291Q220 244 213 205Q219 207 229 210T242 216T248 221T256 227T266 236Q278 248 291 247T309 239T317 224Q324 205 321 197Q316 192 311 183T300 171T291 163T282 157T271 152T261 147Q254 148 198 136Q195 126 193 106T187 64Q179 9 171 0T156 -9T140 -6Q122
3 120 14Q116 32 119 43Q128 47 130 56T132 82T131 116T132 144Q130 146 129 148T122 156T109 167T96 181Q73 184 54 212Q41 231 39 246T33 270T27 289T21 308T15 326Q4 360 14 421Q21 466 42 493Q54 505 67 515T84 530T89 542T93 553T102 558Q114 564 118 572Q126
590 173 588Q184 587 189 586Q200 618 200 655T207 710T222 738T240 747T253 741T263 734T277 719T279 686T273 642T267 608Q262 598 262 580ZM91 318Q103 256 118 249Q124 246 128 242L131 237Q132 244 132 251T135 268T139 282T144 291Q150 301 155 357T164 437T169
470T172 488Q156 482 136 461T110 436T101 425T104 412T110 394T100 370Q88 353 91 318Z" />
<glyph unicode="&#xa3;" glyph-name="sterling" horiz-adv-x="381" d="M73 541Q68 544 68 552Q66 580 75 594T90 622T105 641Q111 644 114 647Q119 654 127 655T142 664T160 674T182 684T208 687Q214 691 224 691T237 685Q240 694 254 688T275 681T289 674Q300
674 302 666Q319 660 334 628Q348 600 346 587T347 572T356 562Q377 536 368 524Q365 519 366 516T366 507T360 497Q348 484 337 486Q332 478 316 473T284 472T265 481T261 491T259 501T251 510T241 519T236 526Q233 533 224 535T208 535T194 528Q190 518 185 511T179
498T181 482T180 463T180 434T186 400T189 385Q219 383 242 385T276 387Q306 384 303 347Q300 317 264 322Q254 324 244 328Q227 334 195 325Q195 304 191 288T187 268T186 259T181 243T171 228Q170 216 163 202T146 185Q145 180 145 170T155 160Q179 160 197 167T220
178Q226 186 249 191T298 191T336 177T342 157Q344 146 349 128T352 103T344 87T331 70Q311 48 288 53Q275 56 265 68T249 85T231 90T207 83T184 69Q156 51 148 52Q141 53 136 56T123 60Q107 61 80 49Q63 50 51 68T37 108T32 137T27 152Q19 178 36 194Q44 201 53
208Q89 238 89 266Q89 269 89 273T89 286T93 301T94 314T92 324Q38 312 15 318Q-4 326 -9 348Q-13 369 1 381Q7 387 13 387T27 385T49 383T85 390Q80 410 80 423T78 443T73 456Q46 511 73 541Z" />
<glyph unicode="&#xa4;" glyph-name="currency" horiz-adv-x="348" d="M287 500Q305 518 316 517Q344 513 336 489Q334 483 330 480T322 474Q310 465 305 451T295 429Q309 402 305 383T302 356T296 341Q293 328 293 323T287 305Q310 277 321 269T337 253T335 236T315
222Q293 217 276 249Q273 254 271 254T262 257Q226 229 191 226Q128 221 106 236Q99 242 93 247Q69 228 62 215T47 201T27 201T12 210T11 231T18 248Q43 265 53 284Q48 291 47 292T47 303T45 317T42 331T42 345T36 357Q30 373 34 389Q44 431 52 440T57 460Q52 465
46 470T32 488T25 508T31 523T43 529T56 525Q72 525 82 506Q85 499 92 495T104 488Q122 494 141 505T178 517T205 517T222 508Q231 500 235 500T245 495T251 488T254 484Q257 482 262 472L275 485Q282 492 287 500ZM200 431Q195 446 179 444T151 432T136 419T133
413T130 406T123 393Q116 382 114 362T115 337T123 324T133 314T144 308T152 303T162 299T177 295T189 296T197 299T205 305Q210 307 210 310T216 316T223 325T226 338Q236 357 230 373T222 396T214 409T205 419T200 431Z" />
<glyph unicode="&#xa5;" glyph-name="yen" horiz-adv-x="395" d="M200 482Q222 504 222 521Q224 561 237 578T252 603T254 619T261 639T267 660T269 676T274 691Q277 699 288 702T310 701Q322 695 340 699T372 700Q395 694 388 660Q385 644 371 622T351 575T336
537T321 506T308 468Q290 413 266 388Q350 412 364 398Q368 395 367 389T367 381T375 378Q372 373 372 367T374 358Q361 350 344 349T305 349T259 342Q259 306 257 266Q265 265 274 263T304 262T338 263T360 255T364 232T347 213T328 210T312 211Q304 210 299 211T289
212T280 212T270 215Q260 217 253 206Q253 190 256 170Q261 125 250 110Q245 101 245 94T243 80T239 66T232 51Q222 34 204 34T179 40T169 51T164 62T160 70T156 79T155 94T157 112T157 128Q157 135 153 141T146 152Q135 168 137 178Q140 192 140 202Q133 214 120
212T103 211T94 205T74 193T49 194T32 205T26 225T40 251T72 263T100 263T115 262Q129 260 145 264Q147 286 147 305T145 342Q91 358 72 344Q36 319 22 340Q3 368 20 387Q30 398 47 403T83 396Q93 404 122 402H126Q118 415 112 425T104 444Q99 469 89 469Q89 477
86 480T81 495Q80 506 72 512T61 534Q57 557 46 574T29 602T18 625Q6 654 13 671Q19 687 44 690Q54 692 63 693T82 699T97 700T120 692Q161 682 159 624Q157 582 167 564Q180 539 183 527Q189 503 193 497Q198 489 200 482Z" />
<glyph unicode="&#xa6;" glyph-name="brokenbar" horiz-adv-x="160" d="M43 736Q44 741 53 748T83 755T111 745T122 733T128 727Q133 720 128 703Q124 690 128 684Q134 672 132 648T130 607T132 575T133 546T122 516T112 489T114 471T120 454Q132 426 106 416Q71
401 42 423Q27 434 27 456Q27 478 31 502T39 552Q51 628 38 684Q35 697 43 736ZM36 194Q35 206 33 222T31 255Q31 293 45 305Q65 320 79 321T98 318Q120 304 123 290T125 263T121 235Q115 192 119 163T127 112T131 77T127 51T118 24Q104 -8 82 -11T48 -4T30 24Q19
63 35 109Q47 146 45 157T40 175T36 194Z" />
<glyph unicode="&#xa7;" glyph-name="section" horiz-adv-x="366" d="M270 230Q286 195 306 167Q345 113 299 64Q293 57 288 52Q286 20 263 -6Q253 -18 245 -29T226 -46Q203 -61 164 -51Q150 -59 143 -59T129 -64T111 -72T97 -77T79 -76T54 -70Q43 -67 37 -47T31
-2T37 44T60 67Q105 74 123 83Q163 105 160 142Q155 186 120 193Q111 195 101 196T83 204T70 222T61 241T47 258T28 281T23 315T28 352T34 382T43 410T58 432T72 449T76 466Q60 492 47 497Q38 501 34 517T27 543T20 559Q7 582 26 635Q29 644 29 652V666Q29 682
35 689Q39 694 43 702T52 718Q62 735 77 733T113 742T147 762T176 778T204 785T224 785T238 788T251 790T264 786Q269 784 272 776T288 749T311 708T307 668Q283 641 264 648Q256 651 250 655T237 657T228 649L223 638Q216 623 209 623Q204 623 196 624T180 624Q158
622 149 601T149 560T191 523T229 501T237 493Q240 489 260 485Q285 480 292 475T303 465T314 458Q334 447 347 419T360 356Q359 321 346 303T325 279Q320 265 305 251T270 230ZM227 325T225 337T206 355Q181 364 160 385Q149 380 142 368T135 343T146 317T166
294Q191 271 202 271T215 281T222 308Q227 325 225 337Z" />
<glyph unicode="&#xa8;" glyph-name="dieresis" horiz-adv-x="466" d="M85 720T100 736T127 752T150 750T170 739Q193 721 191 695Q191 668 168 651Q149 636 129 641T95 660T83 697Q85 720 100 736ZM363 662T349 652T315 640T287 649T278 661T272 666T267 681T264
696T267 713T279 729T288 737T300 746Q342 768 368 723Q372 717 377 711T384 691T374 670Z" />
<glyph unicode="&#xa9;" glyph-name="copyright" horiz-adv-x="513" d="M497 500L493 452Q493 439 489 424T484 395T470 370Q461 361 458 356Q453 348 447 346T437 337T421 328Q410 325 406 315T398 301T393 290T386 275Q377 254 370 252T359 245T348 236Q336
229 314 235T278 240T252 240T233 240T222 234Q196 217 166 247Q145 249 132 256Q116 264 86 294Q72 305 69 313Q63 326 55 334T44 356Q37 389 28 403T18 437T13 472T9 499T12 522T17 544Q24 571 37 584Q59 605 66 616Q84 657 96 669T121 693T150 714Q188 740 224
736Q236 748 256 748T287 739T304 728T319 728T334 730T353 729T380 717T402 693T414 673T426 660Q445 638 450 624T459 605T466 595Q474 584 479 567Q483 552 488 546Q495 537 495 524L497 500ZM133 631T131 629T121 618T108 596T100 572T93 553T86 536Q77 515
78 506T77 481T79 452T81 427T86 404T98 388T103 372Q108 353 118 344T133 322T150 305Q161 302 170 295T200 286T234 286T265 285T296 282T319 294T341 313T364 332Q397 358 404 367Q418 381 422 400T428 432T432 450T436 462Q439 473 437 492Q436 503 436 508T437
517T440 528Q446 550 438 564T418 589T396 610T374 633T348 651T318 663T295 676T272 685T247 686T217 677T187 667T168 660T151 652T139 645T136 638T134 633ZM270 618L292 612H299Q305 612 317 609Q348 601 354 574Q357 566 355 560Q351 547 352 538T349 518T339
505T327 503T312 502Q290 502 280 508T270 519Q265 545 249 548Q238 549 229 536T221 509T221 490T217 478Q211 463 214 445Q220 409 240 398Q271 383 300 402Q308 408 316 414Q335 428 342 428Q357 428 361 420T366 403T367 386Q365 365 348 365Q330 366 324 360T311
350T301 344T288 338Q270 333 246 338T208 352T182 373Q160 368 146 390Q138 405 134 420T136 454T144 480T145 496T145 510T148 525T151 542T154 556Q157 573 166 576T175 583T181 590T192 597T203 606Q218 618 247 616L270 618Z" />
<glyph unicode="&#xaa;" glyph-name="ordfeminine" horiz-adv-x="304" d="M283 313T279 307T264 294T247 293T227 317Q139 259 90 272T20 320T19 396Q35 429 93 442Q115 447 134 448T163 452T177 465T182 487T174 507T154 516T138 513T131 502T125 490T116 481T95
476T64 475Q6 482 13 536Q17 570 48 600Q64 615 90 623T135 638T170 648Q222 656 258 604Q273 583 275 568T278 538T279 503V461Q279 438 280 407T283 356T284 325ZM156 419T139 415T117 402T113 386T120 370Q131 351 143 351Q159 351 173 360Q201 376 199 387T186
408T166 418Z" />
<glyph unicode="&#xab;" glyph-name="guillemotleft" horiz-adv-x="390" d="M368 422Q390 424 390 400Q391 395 383 384T376 364Q360 344 349 330T330 306L315 288Q308 279 298 267T278 242Q255 213 255 201T261 176T274 150Q290 126 302 113T315 93T323 80T345
59T360 27T362 7T360 -2T351 -12T335 -7T320 10L305 25Q280 43 253 88Q245 100 225 119T192 156T172 184T165 209T183 239T212 265T236 293T263 326Q280 340 301 357T339 398Q356 421 368 422ZM227 377Q220 373 218 366T208 354T199 345T189 333Q163 312 160 302Q158
294 149 288T130 272Q114 259 104 240T89 212T91 194T101 173T114 154T127 143T133 135Q140 126 152 116T170 100T179 89T184 79T191 66T204 49T222 30Q244 7 237 -2T221 -13T200 -10Q175 -3 165 12T147 35T130 49Q109 65 108 70Q103 79 101 86T84 100T51 124T23
157T10 179T5 191Q4 200 11 222Q13 228 20 236T36 259T48 278T55 286T63 291T78 306T106 333T135 359Q146 370 155 376T172 395Q181 413 205 422Q207 422 211 424T220 428Q231 432 236 424Q245 408 240 395T227 377Z" />
<glyph unicode="&#xac;" glyph-name="logicalnot" horiz-adv-x="677" d="M372 409L438 415Q460 415 473 414T515 413T558 406T577 397T588 398T599 401T611 403Q622 403 630 386Q632 382 640 380T650 371T658 360T666 341T665 323T660 315T661 310Q661 302 654
292T645 276T643 267T643 259T641 249T639 237T639 227T642 214L645 196Q649 175 644 168T631 151T612 141T589 143Q560 146 548 206Q542 233 549 258T558 293T557 310Q549 325 533 325T504 322T486 318T474 320Q457 323 440 321T414 322T393 324T374 324T358 324T342
321Q325 321 312 321T290 319T275 316T266 318Q256 322 243 319T225 317T215 320Q206 325 193 323T171 322T156 326T142 328T126 323T111 317T100 318Q87 322 70 317Q38 309 28 329Q15 331 12 364Q12 371 10 374Q12 376 20 386T33 401T47 408T64 410T81 408T97
409T112 413T125 414T137 412T151 407T166 404T182 406Q204 408 221 403T241 399T248 403Q255 410 268 411T285 411T292 408Q299 404 309 407T328 410L372 409Z" />
<glyph unicode="&#xad;" glyph-name="sfthyphen" horiz-adv-x="399" d="M14 309Q-5 328 12 360Q32 400 80 389Q114 381 137 385T168 386T180 383T194 386Q218 392 246 392Q265 392 283 393T318 396Q357 398 371 392Q391 380 393 362Q397 328 375 315T339 303T313
311T293 324T279 331T269 328T260 321Q247 312 228 312T203 311T192 306Q181 301 164 301Q146 301 133 301Q115 301 87 302T43 302T14 309Z" />
<glyph unicode="&#xae;" glyph-name="registered" horiz-adv-x="513" d="M497 500L493 452Q493 439 489 424T484 395T470 370Q461 361 458 356Q453 348 447 346T437 337T421 328Q410 325 406 315T398 301T393 290T386 275Q377 254 370 252T359 245T348 236Q336
229 314 235T278 240T252 240T233 240T222 234Q196 217 166 247Q145 249 132 256Q116 264 86 294Q72 305 69 313Q63 326 55 334T44 356Q37 389 28 403T18 437T13 472T9 499T12 522T17 544Q24 571 37 584Q59 605 66 616Q84 657 96 669T121 693T150 714Q188 740 224
736Q236 748 256 748T287 739T304 728T319 728T334 730T353 729T380 717T402 693T414 673T426 660Q445 638 450 624T459 605T466 595Q474 584 479 567Q483 552 488 546Q495 537 495 524L497 500ZM133 631T131 629T121 618T108 596T100 572T93 553T86 536Q77 515
78 506T77 481T79 452T81 427T86 404T98 388T103 372Q108 353 118 344T133 322T150 305Q161 302 170 295T200 286T234 286T265 285T296 282T319 294T341 313T364 332Q397 358 404 367Q418 381 422 400T428 432T432 450T436 462Q439 473 437 492Q436 503 436 508T437
517T440 528Q446 550 438 564T418 589T396 610T374 633T348 651T318 663T295 676T272 685T247 686T217 677T187 667T168 660T151 652T139 645T136 638T134 633ZM168 605Q187 637 226 621Q240 616 253 620Q286 631 316 610Q321 607 324 603T333 598T340 595T342
590Q344 582 350 575Q365 558 356 532Q354 524 355 518Q358 502 342 490Q340 488 338 488Q331 485 322 456Q320 448 324 439T330 428T336 424Q342 420 343 411T348 395T349 380T348 361T344 346T330 342T318 345Q304 350 306 361Q295 377 294 388T288 407T272 420T251
417T238 398T236 380T235 363T231 348T218 338T198 334Q173 334 170 355T167 399T170 444Q178 533 166 543Q156 552 157 571T168 605ZM240 463T257 465T283 482T292 506Q292 534 282 541T255 550T233 542T226 523T224 506Q226 487 233 475Z" />
<glyph unicode="&#xaf;" glyph-name="overscore" horiz-adv-x="466" d="M146 666Q113 668 110 690Q109 703 111 706T116 715Q117 721 121 721T128 727Q130 732 134 731T142 732T149 732T158 729T167 730T172 726Q177 723 189 727Q208 734 216 729Q221 726 230
729T247 730Q254 728 264 731T280 730Q294 720 298 724T306 728Q310 727 318 730T337 732T349 720Q351 714 354 711T355 701Q353 694 355 689T347 673T322 660T298 663T276 665T257 663T246 666T237 662Q222 658 207 662T178 666T146 666Z" />
<glyph unicode="&#xb0;" glyph-name="degree" horiz-adv-x="205" d="M41 745Q45 756 53 758T67 765Q72 770 77 769T87 771T104 775T121 775T134 774T147 769T156 765T166 751T175 736T182 726Q185 709 185 697T184 672T176 654T163 637T147 625T128 621T110 620T93
618T80 617T62 623T47 630Q43 635 39 642T30 654T24 665T21 682Q19 703 24 711T28 727T31 738Q39 742 41 745ZM92 731T92 728T85 723T78 720T75 713T72 705T71 701V696Q71 694 69 686Q65 670 80 667Q85 665 91 665T102 670T113 675T121 680T125 684T129 686Q134
688 134 699Q134 718 106 728Q99 731 96 731Z" />
<glyph unicode="&#xb2;" glyph-name="twosuperior" horiz-adv-x="238" d="M104 460Q117 463 130 467T160 470Q197 469 202 461T207 441T207 418Q204 379 183 379Q176 379 168 380Q128 387 90 370Q67 360 40 375Q36 378 33 382T22 389T15 405T14 433T16 455T28
466T39 475T49 480T61 487T68 499T73 511T81 519Q87 521 90 529T96 541T103 545T113 554T124 574Q135 601 133 610Q128 631 109 623Q102 619 100 612T97 602T86 596T72 590T58 591T43 596H30Q5 596 12 616Q14 624 12 632Q10 640 18 651T29 673T40 698T60 716T81
724T100 732Q123 740 133 733Q142 727 148 728Q159 730 166 725T179 717T187 708T192 700T199 693T207 684T213 673T219 653T222 629T217 598T197 559Q180 542 172 530T151 516Q131 496 125 483Q117 467 104 460Z" />
<glyph unicode="&#xb3;" glyph-name="threesuperior" horiz-adv-x="229" d="M197 588Q183 574 174 561L188 546Q195 540 196 533T203 522T209 506T206 488T203 472T201 454T191 437T177 422T160 407T135 385T108 374T90 382T70 388Q42 388 26 411Q3 440 22 461T54
466Q56 463 63 458T76 455T89 455T101 457T114 472T116 488T110 498T101 504Q93 506 91 505T86 505Q84 507 84 511T83 522T79 533T78 542T91 557T112 574T130 590T137 615Q135 631 127 634T109 634T97 620T89 609Q85 608 74 608H52Q9 608 6 616Q4 621 6 627T6 636T6
644T12 659T23 675T35 695Q39 708 42 713T54 722T72 730T90 738Q111 746 119 742T137 740T153 739T167 730T181 720Q198 706 199 695T204 677T210 664Q216 647 212 633T206 604T197 588Z" />
<glyph unicode="&#xb4;" glyph-name="acute" horiz-adv-x="466" d="M192 623T178 625T156 639T153 668T171 694Q207 715 213 724T229 741T250 755Q278 770 286 767T303 761T314 742T309 714T297 702T287 696T277 688Q264 678 258 682Q255 684 248 677T239 660Q237
655 228 653T206 637Z" />
<glyph unicode="&#xb5;" glyph-name="mu" horiz-adv-x="493" d="M441 162L439 121Q439 90 446 85T458 81T470 85Q486 90 493 83T498 67T495 46T495 25T482 7Q473 -3 471 -8T461 -15T450 -20T442 -26Q430 -32 410 -27T379 -7T365 18T365 48T368 86L369 142Q369
150 369 160T369 184Q361 168 358 151Q355 132 346 122T331 101T318 84T303 72Q286 61 282 54Q274 43 266 30T246 8Q233 0 227 -5T203 -12Q173 -14 158 -8T128 5T108 25Q104 34 99 43T90 63Q83 22 77 6Q61 -40 61 -60T60 -92Q58 -116 47 -127Q43 -151 30 -162Q16
-171 10 -180T0 -196T-10 -209Q-18 -219 -41 -221T-76 -222Q-102 -219 -102 -200Q-102 -192 -96 -188T-82 -180Q-62 -167 -56 -146Q-50 -123 -42 -109Q-30 -86 -27 -67T-17 -34T-9 0Q-9 24 4 63T20 121T26 152T30 177Q30 194 33 220T39 255T40 286T44 330T50 376Q51
400 51 413T61 434T76 441T86 440Q103 436 121 441Q173 458 176 417Q178 383 173 361T166 318Q164 298 158 277Q143 223 142 193T133 140T131 108T146 92Q165 78 186 80T217 91T231 115T242 136T252 156T267 179T287 210T298 248T305 273Q318 302 320 318T328 348T335
388Q335 413 338 422Q344 441 359 455Q381 475 398 456Q405 448 415 447T434 441T448 430Q463 414 459 393T452 362T449 343T447 326T443 308T441 285T444 258T453 229T458 204T454 189T448 179Q441 170 441 162Z" />
<glyph unicode="&#xb6;" glyph-name="paragraph" horiz-adv-x="495" d="M346 95L342 70V60Q342 49 334 41T327 26Q334 3 310 -25Q306 -29 298 -28T284 -22T276 -10T269 4T261 16T256 32T256 53Q258 75 264 100T268 148T265 181T266 203T266 225T266 248T264 270T261
296T261 322T264 340Q238 331 221 330T188 343T157 357T127 354T96 352Q76 352 48 388Q42 397 39 402Q34 412 28 417T21 427T18 436Q17 452 9 472Q-12 522 15 551Q30 568 37 590Q49 633 62 648Q87 675 122 690Q138 698 154 708T194 722T226 728T244 732Q258 736
279 738T313 743T336 746T359 748T387 746Q403 744 419 743T448 736Q476 723 474 692Q473 670 465 622T454 558T452 503T448 432T444 387T446 363T449 342T452 315T456 287T460 264Q465 244 466 220T468 177T470 139T471 105T471 81Q470 73 470 62V39Q470 12 460
6T440 -10T414 -20Q385 -17 389 16L388 37Q388 45 393 60Q391 85 395 126T399 176L395 243Q398 288 390 327T380 375T378 394Q377 408 381 439T386 490T388 536T389 579T392 618Q395 639 407 674Q350 685 347 650Q345 635 345 625T344 605T343 586T342 557T338
514T334 466Q329 404 330 373Q334 295 334 272T334 238T338 220Q341 197 340 182Q339 170 341 161Q345 144 344 133T344 116Q346 104 346 95Z" />
<glyph unicode="&#xb7;" glyph-name="middot" horiz-adv-x="174" d="M10 357T11 365T27 386T63 411T124 419Q142 417 152 398Q162 382 158 365T134 333T103 318T89 314T82 309Q72 303 62 306T48 318T36 330T22 339T13 350Z" />
<glyph unicode="&#xb8;" glyph-name="cedilla" horiz-adv-x="466" d="M133 -146Q141 -147 151 -142T171 -140T198 -149T235 -148Q266 -135 264 -117Q262 -110 264 -107T259 -100T243 -85T214 -76T174 -67Q157 -58 160 -23Q160 -16 157 -13T158 -7T158 3T157 13T161
24Q157 36 164 43Q172 49 179 48Q192 44 196 47Q199 49 201 46Q205 41 213 45T229 48T238 35T240 22T237 9Q232 -2 232 -5T240 -14Q248 -27 266 -22Q272 -18 282 -22Q302 -28 304 -40Q304 -42 312 -45Q325 -50 327 -58Q327 -65 330 -68Q337 -75 338 -90T341 -111T342
-120T340 -126T337 -137T331 -156Q325 -181 306 -188Q297 -191 289 -202Q237 -217 216 -214T181 -210T157 -204T136 -196T124 -171T133 -146Z" />
<glyph unicode="&#xb9;" glyph-name="onesuperior" horiz-adv-x="168" d="M128 512T131 504T133 478T136 451T135 427T125 403T112 391T94 388T80 385T69 382T56 386Q40 391 36 408T35 434T38 451T38 465T42 479Q49 496 48 503T47 526T49 561T51 601T48 638Q17
644 16 656T18 674T30 687T39 699T42 711Q46 725 55 728Q61 730 63 734T67 741Q72 749 88 739Q98 733 105 731T116 726Q128 719 128 685V671Q128 663 128 656T129 641Q131 633 129 624T126 603Q126 592 129 584T129 562T125 544T127 534T129 527T129 518Z" />
<glyph unicode="&#xba;" glyph-name="ordmasculine" horiz-adv-x="307" d="M34 570T37 573T43 585T52 601T64 612T77 620T87 630Q92 637 101 638Q120 640 123 646T135 653T151 654T168 653T181 657Q191 665 218 646Q224 641 230 639T244 632T258 604T268 574T276
558Q286 543 287 530Q292 493 292 470T290 430T284 398Q275 360 262 351Q255 345 247 325T232 296T213 286T188 279T164 274T145 275T134 271Q121 266 112 273T87 284T65 299Q59 310 52 326T38 351T27 379T16 422Q5 478 11 493T18 519T20 538Q20 560 27 565ZM109
472L111 455Q111 446 114 440L120 429Q122 424 126 409T142 390Q159 385 173 395T188 415T193 428T199 438Q207 450 206 455T207 464T212 471Q217 480 207 498Q196 517 164 518Q135 520 123 510Q118 507 120 502T116 488Q109 477 109 472Z" />
<glyph unicode="&#xbb;" glyph-name="guillemotright" horiz-adv-x="390" d="M15 372T8 383T0 404T6 418Q26 434 51 398Q68 375 89 358T127 326Q143 310 154 293T178 265T207 240T224 209T218 184T199 157T166 119T135 84Q108 41 86 25L70 10Q63 2 57 -6T40 -12T30
-1Q30 4 29 7T30 26T45 58T64 78T72 86T75 92Q78 103 84 109T99 127T116 150Q135 180 135 193T129 218T113 242T94 267T76 287T60 305Q41 328 14 364Q15 372 8 383ZM174 358T173 365T166 376T157 383T151 394Q147 409 153 419T163 429T171 429T179 425T187 421Q207
416 218 394Q225 382 235 376T256 359Q267 348 284 333T311 306T326 292T334 286Q341 280 352 262T370 236Q380 226 383 212T386 191T381 179T368 157T340 124T307 101T290 87T285 72T276 60T261 49Q237 31 229 18Q217 -2 199 -8Q165 -19 156 -4Q145 9 186 49Q196
58 202 71T212 89Q218 99 231 110T249 126T257 135Q262 142 274 151T288 173T298 194T301 212Q273 262 262 271T241 287T230 302Q228 310 219 318T202 333T193 345T184 353Q174 358 173 365Z" />
<glyph unicode="&#xbc;" glyph-name="onequarter" horiz-adv-x="486" d="M155 544L159 520Q157 512 160 504T163 482T163 462T166 451T167 440T163 423T154 403T141 391T123 388T107 384T85 385T65 407T64 434T68 451T68 465T72 479Q77 498 76 504T76 526T79 561T80
601T77 638Q46 643 45 655T48 674T59 687T68 699T72 711Q75 725 84 728Q90 730 92 734T96 741Q101 748 114 741T134 731T145 726Q157 719 157 685V656Q157 649 159 641Q161 633 159 624T156 603Q156 592 159 584T159 562T155 544ZM96 23T91 11T72 -6Q43 -15 25
-1Q14 7 9 11T5 28T8 50T18 68Q30 79 35 102Q36 105 41 111T52 124Q68 144 70 159T79 185T86 202T93 214T106 227Q124 245 129 260T144 284T158 304T170 324T183 343T199 362T221 386Q251 419 254 432T263 452T272 472Q277 484 283 492T292 511Q294 522 297 528T306
544T319 567T331 588T344 611T354 631T360 644T369 658Q382 676 382 687T390 703T399 717T408 730T425 742T446 748T457 738T462 728T468 718Q474 704 464 689T448 663T439 641Q428 606 415 585T396 553Q390 542 384 534T374 521T366 510T356 497Q346 480 344 474Q340
460 327 443T309 416T298 396Q284 372 280 366T266 344T245 311T224 279L210 258Q172 202 148 151T122 88T114 68T102 41ZM421 286L416 213Q416 193 419 183Q432 185 440 186T453 180Q457 172 460 170T463 156Q462 145 462 133T456 119Q451 117 446 111T432 105T420
96T418 75T416 55T411 34T408 8T399 -9Q391 -11 381 -16T364 -14T348 -1T338 18T338 38T338 58T338 87T332 103L279 100Q246 100 240 106T231 123T231 156T241 190Q248 207 257 217T273 235T286 250T299 268Q312 289 316 305Q324 339 350 354Q359 360 374 360T400
361T414 357Q422 347 422 320L421 286ZM323 192T320 186T316 174T328 170Q349 172 353 174Q356 176 356 182T355 195T356 209T348 214Q342 214 333 203Z" />
<glyph unicode="&#xbd;" glyph-name="onehalf" horiz-adv-x="500" d="M133 698L135 666Q135 661 136 659T139 653Q142 644 139 635T136 612T135 584T140 550T149 505Q153 455 155 450Q168 422 159 399Q144 362 119 369Q112 371 100 369T76 374Q53 388 58 419Q60
432 65 453T70 488T69 524T70 570Q68 629 63 636T53 643T43 642T33 647T33 666T37 684T41 693T48 701T52 715Q55 733 67 736Q82 738 98 741T124 738Q136 730 133 698ZM74 6T68 1T53 -6T31 -2T16 24Q12 58 27 84Q35 98 41 110T57 135T78 161T98 190Q121 223 127
237T142 266T162 297Q188 338 192 361Q199 399 263 485Q292 525 306 559T329 604T344 623T358 636Q372 650 373 663T380 687T395 707Q415 729 429 730T455 720T466 690Q461 659 428 629Q398 599 375 562T347 512Q342 498 330 481Q309 451 305 435T294 408T280 386Q264
361 263 349T256 322T248 298Q240 267 225 247T201 209T186 184Q166 156 162 146T147 123T132 102Q127 94 115 78T97 50T87 30T79 14ZM381 91T375 86T367 81Q379 84 392 88T422 92Q459 90 466 79Q477 61 464 18Q459 0 444 0Q437 0 428 2Q391 8 352 -8Q336 -15 321
-11T302 -4T296 0Q291 7 284 10T277 26T277 54T278 76T291 87Q299 92 300 96T311 101T323 108T330 120Q336 137 343 140Q349 142 352 150T358 162T365 166T375 175T386 195Q397 222 395 231Q390 252 371 244Q364 242 362 235T359 224T348 217T334 211T320 212T305
217H292Q264 217 274 238Q277 245 274 253Q272 261 280 273T291 295Q293 305 302 319T322 337T342 345T362 354Q384 361 395 354Q404 348 410 349Q421 351 428 346T441 338T450 329T455 321T461 314T469 305T475 294T481 274T484 250T479 219T459 180Q442 163 434
151T412 137Q389 108 385 100Z" />
<glyph unicode="&#xbe;" glyph-name="threequarters" horiz-adv-x="511" d="M207 588Q200 581 184 561L198 546Q205 540 206 533T213 522T219 506T216 488T213 472T211 454T201 437T188 422T170 407T146 385T121 374T107 378T100 382Q91 388 78 388Q52 388 40
406Q15 442 33 462Q51 482 65 466Q67 463 73 458T86 455T99 455T112 457Q134 479 124 490Q121 495 120 498T111 504T101 505T96 505Q94 507 94 511T93 522T89 533T88 542Q93 553 127 577Q132 581 141 590T147 615Q145 631 137 634T120 634T108 620T99 609Q95 608
84 608H62Q20 608 17 616Q16 619 17 626T16 636T16 644T23 659T33 675T45 695Q49 708 53 713T65 722T82 730T100 738Q121 746 129 742T148 740T164 739T177 730T191 720Q208 706 209 695T214 677T220 664Q226 647 222 633T216 604T207 588ZM483 716Q489 690 464
657Q443 632 435 622T424 603T413 585T399 566T389 545T380 526Q370 505 368 495T356 467T343 439T334 415T320 381Q302 336 282 327Q263 318 258 303T252 278T249 258T232 232T206 194Q195 172 183 156T164 123T153 90T143 59Q132 25 122 17Q112 11 101 6T81 9Q54
2 47 13T42 27T44 41T50 58Q67 74 73 91T87 118T100 136T112 156Q123 178 130 188Q155 220 157 228T162 243L170 258Q181 279 182 286Q184 297 195 314L212 343Q218 354 224 365T240 397T263 436Q278 453 282 473T295 504Q313 529 316 538T324 556T336 578Q350
605 357 621Q365 635 370 643T385 657T399 670T407 684T414 698T424 711T438 727T451 737T458 735Q465 745 477 738T483 716ZM449 309Q457 284 452 250Q463 239 458 222Q451 202 461 187Q463 184 470 188T486 191H500Q506 191 506 184T505 165T502 146Q502 134
494 126T481 110T470 101Q449 98 439 99Q436 86 434 53T434 10T433 -5T424 -9T415 -10T402 -12Q386 -12 382 3Q380 8 375 10Q370 12 370 28T364 59T361 80T360 90T351 101T341 104T329 99T317 100T308 101T297 100Q259 100 275 171Q278 184 284 201T307 238T333
279T353 320T372 346Q382 351 399 357T434 356Q455 348 449 309ZM338 166Q344 157 362 164T380 176T378 190T378 209T378 221T372 220T365 215T360 210Q360 206 349 196Q328 176 338 166Z" />
<glyph unicode="&#xbf;" glyph-name="questiondown" horiz-adv-x="358" d="M78 -12Q69 -3 56 0T39 14T31 27T24 34Q15 44 12 58Q9 73 4 82Q-2 95 -2 109T-3 131T-4 152T-3 178T2 206T20 237T33 272Q36 305 69 319Q85 327 92 340T105 369T114 402T120 438Q125 479
123 496Q121 514 130 531Q148 564 165 564Q174 563 179 564T190 566Q201 568 208 562Q225 548 230 539Q241 519 236 494T233 452T240 420Q252 379 246 356Q233 311 215 304Q207 300 202 291T189 282T170 272T148 246Q120 207 131 180Q140 158 156 162Q162 164 167
165T176 157Q183 137 204 137Q226 137 237 161Q243 174 246 182T252 196Q261 212 289 207Q300 205 303 202T311 198T324 195T340 182Q360 163 369 129Q373 106 378 95T375 75T360 55T346 35T334 23T324 18Q309 11 302 -1Q288 -24 270 -24Q250 -24 244 -26T232 -30Q221
-34 211 -31T199 -26T194 -20Q189 -14 175 -13Q161 -12 150 -16Q104 -36 78 -12ZM212 624T201 627T182 627T159 624T140 633Q135 641 130 649T127 668T131 685T137 698T149 711T166 724Q189 741 206 740T229 731T243 717Q259 704 252 676T241 641T225 629Z" />
<glyph unicode="&#xc0;" glyph-name="Agrave" horiz-adv-x="456" d="M407 -6Q401 -17 391 -22T371 -21T357 -14T348 -16Q339 -17 330 -3T320 19T320 36Q324 54 315 68T302 89T298 109T297 126T294 132Q289 141 290 160T285 186T267 198T249 196T237 180T223 165T203
161T175 155T157 134T150 108T147 84T148 63T142 42Q134 17 123 15Q114 14 104 15Q93 -5 78 -9Q37 -18 29 4Q24 17 23 38Q21 80 14 95T10 131T13 173T13 205T15 225T19 242T21 262T25 289T31 320Q39 360 37 380T40 414T53 439Q71 468 70 486T69 515T69 537Q74 591
120 706Q123 717 139 723T171 725T198 720T216 728T232 743T253 754T280 759T312 750Q340 735 349 722T361 701T371 679T378 654T381 628Q385 613 381 593T381 554T385 527T386 514Q387 497 393 484Q399 470 397 450T395 416T406 388Q423 361 418 328Q417 319 418
309T420 290T418 268Q415 249 419 222Q425 172 425 155T426 127T428 102Q431 68 429 34T407 -6ZM256 416T253 444T249 485T247 509Q244 525 230 513Q214 529 204 514Q197 503 197 478Q195 461 190 447T182 416Q179 396 172 367T173 324T197 314T218 318T230 320Q242
321 248 329T255 344T255 358Q252 378 254 397ZM307 871T313 853T311 823T288 810T261 821T238 837T227 844Q225 853 218 860T208 866Q202 862 193 869Q193 869 179 880Q174 884 170 885T157 898T151 925T163 944T178 950T194 949T216 939Q242 925 249 914Q258
899 295 878Q307 871 313 853Z" />
<glyph unicode="&#xc1;" glyph-name="Aacute" horiz-adv-x="456" d="M407 -6Q401 -17 391 -22T371 -21T357 -14T348 -16Q339 -17 330 -3T320 19T320 36Q324 54 315 68T302 89T298 109T297 126T294 132Q289 141 290 160T285 186T267 198T249 196T237 180T223 165T203
161T175 155T157 134T150 108T147 84T148 63T142 42Q134 17 123 15Q114 14 104 15Q93 -5 78 -9Q37 -18 29 4Q24 17 23 38Q21 80 14 95T10 131T13 173T13 205T15 225T19 242T21 262T25 289T31 320Q39 360 37 380T40 414T53 439Q71 468 70 486T69 515T69 537Q74 591
120 706Q123 717 139 723T171 725T198 720T216 728T232 743T253 754T280 759T312 750Q340 735 349 722T361 701T371 679T378 654T381 628Q385 613 381 593T381 554T385 527T386 514Q387 497 393 484Q399 470 397 450T395 416T406 388Q423 361 418 328Q417 319 418
309T420 290T418 268Q415 249 419 222Q425 172 425 155T426 127T428 102Q431 68 429 34T407 -6ZM256 416T253 444T249 485T247 509Q244 525 230 513Q214 529 204 514Q197 503 197 478Q195 461 190 447T182 416Q179 396 172 367T173 324T197 314T218 318T230 320Q242
321 248 329T255 344T255 358Q252 378 254 397ZM202 797T188 799T166 813T163 842T181 868Q217 889 223 898T239 915T260 929Q288 944 296 941T313 935T324 916T319 888T307 876T297 870T287 862Q274 852 268 856Q265 858 258 851T249 834Q247 829 238 827T216
811Z" />
<glyph unicode="&#xc2;" glyph-name="Acircumflex" horiz-adv-x="456" d="M407 -6Q401 -17 391 -22T371 -21T357 -14T348 -16Q339 -17 330 -3T320 19T320 36Q324 54 315 68T302 89T298 109T297 126T294 132Q289 141 290 160T285 186T267 198T249 196T237 180T223
165T203 161T175 155T157 134T150 108T147 84T148 63T142 42Q134 17 123 15Q114 14 104 15Q93 -5 78 -9Q37 -18 29 4Q24 17 23 38Q21 80 14 95T10 131T13 173T13 205T15 225T19 242T21 262T25 289T31 320Q39 360 37 380T40 414T53 439Q71 468 70 486T69 515T69
537Q74 591 120 706Q123 717 139 723T171 725T198 720T216 728T232 743T253 754T280 759T312 750Q340 735 349 722T361 701T371 679T378 654T381 628Q385 613 381 593T381 554T385 527T386 514Q387 497 393 484Q399 470 397 450T395 416T406 388Q423 361 418 328Q417
319 418 309T420 290T418 268Q415 249 419 222Q425 172 425 155T426 127T428 102Q431 68 429 34T407 -6ZM256 416T253 444T249 485T247 509Q244 525 230 513Q214 529 204 514Q197 503 197 478Q195 461 190 447T182 416Q179 396 172 367T173 324T197 314T218 318T230
320Q242 321 248 329T255 344T255 358Q252 378 254 397ZM110 826Q106 852 164 889Q194 909 210 922T232 938Q242 943 257 937Q271 929 279 917T298 901T310 895T313 889T318 886T324 884Q334 883 340 875T354 864Q379 855 377 840T364 815T346 804T330 808T311
818Q300 823 294 834T280 847Q272 849 267 856T251 865T236 869T226 865T214 850T201 838T191 824T181 813T165 805T139 800Q113 802 110 826Z" />
<glyph unicode="&#xc3;" glyph-name="Atilde" horiz-adv-x="456" d="M407 -6Q401 -17 391 -22T371 -21T357 -14T348 -16Q339 -17 330 -3T320 19T320 36Q324 54 315 68T302 89T298 109T297 126T294 132Q289 141 290 160T285 186T267 198T249 196T237 180T223 165T203
161T175 155T157 134T150 108T147 84T148 63T142 42Q134 17 123 15Q114 14 104 15Q93 -5 78 -9Q37 -18 29 4Q24 17 23 38Q21 80 14 95T10 131T13 173T13 205T15 225T19 242T21 262T25 289T31 320Q39 360 37 380T40 414T53 439Q71 468 70 486T69 515T69 537Q74 591
120 706Q123 717 139 723T171 725T198 720T216 728T232 743T253 754T280 759T312 750Q340 735 349 722T361 701T371 679T378 654T381 628Q385 613 381 593T381 554T385 527T386 514Q387 497 393 484Q399 470 397 450T395 416T406 388Q423 361 418 328Q417 319 418
309T420 290T418 268Q415 249 419 222Q425 172 425 155T426 127T428 102Q431 68 429 34T407 -6ZM256 416T253 444T249 485T247 509Q244 525 230 513Q214 529 204 514Q197 503 197 478Q195 461 190 447T182 416Q179 396 172 367T173 324T197 314T218 318T230 320Q242
321 248 329T255 344T255 358Q252 378 254 397ZM283 871Q290 881 301 881Q312 895 330 899T364 901T387 890T391 874T388 860T382 848T356 835T328 820T309 812T284 812T262 814T254 816Q240 822 232 832T222 846Q217 850 204 848T186 837T174 824Q169 823 158
816Q140 806 134 806T117 810T103 820T101 833T99 846T94 857T96 869Q101 877 104 878T114 884T129 891T145 897T165 908Q183 920 194 909Q203 918 215 914T235 907T243 899T251 883T263 874T283 871Z" />
<glyph unicode="&#xc4;" glyph-name="Adieresis" horiz-adv-x="456" d="M407 -6Q401 -17 391 -22T371 -21T357 -14T348 -16Q339 -17 330 -3T320 19T320 36Q324 54 315 68T302 89T298 109T297 126T294 132Q289 141 290 160T285 186T267 198T249 196T237 180T223
165T203 161T175 155T157 134T150 108T147 84T148 63T142 42Q134 17 123 15Q114 14 104 15Q93 -5 78 -9Q37 -18 29 4Q24 17 23 38Q21 80 14 95T10 131T13 173T13 205T15 225T19 242T21 262T25 289T31 320Q39 360 37 380T40 414T53 439Q71 468 70 486T69 515T69
537Q74 591 120 706Q123 717 139 723T171 725T198 720T216 728T232 743T253 754T280 759T312 750Q340 735 349 722T361 701T371 679T378 654T381 628Q385 613 381 593T381 554T385 527T386 514Q387 497 393 484Q399 470 397 450T395 416T406 388Q423 361 418 328Q417
319 418 309T420 290T418 268Q415 249 419 222Q425 172 425 155T426 127T428 102Q431 68 429 34T407 -6ZM256 416T253 444T249 485T247 509Q244 525 230 513Q214 529 204 514Q197 503 197 478Q195 461 190 447T182 416Q179 396 172 367T173 324T197 314T218 318T230
320Q242 321 248 329T255 344T255 358Q252 378 254 397ZM95 874T110 890T137 906T160 904T180 893Q203 875 201 849Q201 822 178 805Q159 790 139 795T105 814T93 851Q95 874 110 890ZM373 816T359 806T325 794T297 803T288 815T282 820T277 835T274 850T277 867T289
883T298 891T310 900Q352 922 378 877Q382 871 387 865T394 845T384 824Z" />
<glyph unicode="&#xc5;" glyph-name="Aring" horiz-adv-x="456" d="M169 841Q173 851 181 853T195 860Q200 865 205 864T215 866T232 870T249 870T262 869T275 864T284 860T294 846T303 831T310 820Q313 804 313 793T312 770T308 752Q341 736 349 723T361 702T371
679T378 654T381 628Q385 613 381 593T381 554T385 527T386 514Q387 497 393 484Q399 470 397 450T395 416T406 388Q423 361 418 328Q417 319 418 309T420 290T418 268Q415 249 419 222Q425 172 425 155T426 127T428 102Q434 24 420 5Q414 -4 407 -6Q401 -17 391
-22T371 -21T357 -14T348 -16Q339 -17 330 -3T320 19T320 36Q324 54 315 68T302 89T298 109T297 126T294 132Q289 141 290 160T285 186T267 198T249 196T237 180T223 165T203 161T175 155T157 134T150 108T147 84T148 63T142 42Q134 17 123 15Q114 14 104 15Q93
-5 78 -9Q37 -18 29 4Q24 17 23 38Q21 80 14 95T10 131T13 173T13 205T15 225T19 242T21 262T25 289T31 320Q39 360 37 380T40 414T53 439Q71 468 70 486T69 515T69 537Q74 591 120 706Q123 717 139 723T171 724Q173 724 174 724T178 723Q175 723 169 734T158 749T152
761T149 778Q146 800 151 807T156 822T159 834Q167 838 169 841ZM256 416T253 444T249 485T247 509Q244 525 230 513Q214 529 204 514Q197 503 197 478Q195 461 190 447T182 416Q179 396 172 367T173 324T197 314T218 318T230 320Q242 321 248 329T255 344T255
358Q252 378 254 397ZM220 826T220 823T213 818T206 815T202 806Q198 799 199 797T198 784Q193 765 208 762Q213 760 219 760T230 765T241 770T250 776Q252 781 257 781T262 791T258 807T246 817Q232 826 226 826Z" />
<glyph unicode="&#xc6;" glyph-name="AE" horiz-adv-x="635" d="M422 158L478 160Q492 160 505 158T532 158T558 163T583 170T608 173T629 165T638 151Q644 135 635 117T619 86T608 53T602 22T592 7Q584 2 575 -3T553 -6T519 -3T472 -4Q410 -7 393 -15T367 -28T350
-34Q335 -36 324 -28T305 -14Q286 -2 275 1Q251 8 263 41Q286 103 257 159Q252 167 244 165T225 165T205 162T178 154T153 162Q120 129 101 61Q95 37 89 33T77 25T58 -1T29 -32T0 -36T-19 -25T-29 -3T-30 21T-35 34T-41 61T-28 98Q-7 134 -8 153T-4 187T7 213T20
242T36 280Q58 331 58 351T60 393T66 435Q73 482 89 498Q107 512 114 522T124 543T128 559T134 569Q144 585 152 620T168 676Q197 752 262 742Q288 737 315 729T366 715T407 714Q423 720 434 724L451 732Q465 738 475 734T489 730T496 732Q506 733 514 731Q522
729 531 731T550 734T570 736Q586 736 598 725T614 704T618 681T615 652T612 626T607 595Q601 575 601 556T597 525T586 498T566 480Q517 472 489 487Q458 506 424 502Q395 499 402 445Q403 438 402 429T398 408Q395 383 410 372T437 359T465 363T493 373T512 364Q531
317 528 309T525 286T518 265Q512 259 503 251T478 243T449 242T426 238Q401 231 399 215Q395 172 408 161Q411 158 422 158ZM187 362T184 349T182 326T189 310T202 302Q215 299 225 303T238 314T246 332T249 354T245 374Q240 403 247 413Q249 416 249 423T247
436Q242 454 232 454Q221 456 217 447T211 427T204 403T193 376Z" />
<glyph unicode="&#xc7;" glyph-name="Ccedilla" horiz-adv-x="441" d="M132 -201T132 -177T140 -153Q150 -154 159 -148T178 -146Q218 -163 240 -155T267 -139T272 -124T272 -113T266 -105Q258 -100 251 -90T223 -82T188 -77T171 -61T168 -45T167 -29T164 -19T165
-13T166 -4Q163 2 165 7Q156 11 147 13T129 20Q109 31 96 55Q88 70 81 80T68 99Q55 119 58 137Q64 185 45 200Q34 207 34 211T30 228Q24 246 30 270T35 309T30 342Q24 386 29 400T32 440T29 482T27 526T26 584Q33 662 79 691Q148 732 167 730Q173 730 181 729T198
729T212 735T224 744Q248 766 267 749Q285 728 295 721Q312 708 346 706Q375 704 398 676Q402 670 406 665T412 652Q418 637 416 609T419 564T429 530Q438 502 418 455Q403 412 381 404L363 398Q337 389 319 391T293 402Q273 428 283 462Q285 469 283 484T266 503Q258
505 256 510T252 518T249 523T239 519T230 513T224 514T213 513T203 502Q185 471 196 401Q200 380 204 362Q212 317 212 302T206 271T196 238Q184 197 199 168Q217 132 222 126Q231 117 244 118T264 131T277 156T290 182T306 196T331 197T351 195T365 189T373 160T375
124T368 100T358 81T354 64Q353 43 347 33T335 17T306 10Q278 10 254 -21Q253 -23 251 -25Q262 -33 272 -29T295 -29T312 -46Q312 -48 320 -51Q334 -56 335 -65Q335 -70 338 -75Q344 -81 346 -96T349 -117T350 -126Q349 -131 346 -141T339 -162Q333 -187 314 -194Q305
-197 296 -208Q246 -223 225 -220T189 -216T165 -210T140 -201Q132 -201 132 -177Z" />
<glyph unicode="&#xc8;" glyph-name="Egrave" horiz-adv-x="430" d="M27 595L29 652Q29 666 27 680T33 709T62 737T105 749T143 741T169 728T196 720Q228 715 258 729Q291 745 311 727Q332 726 355 731Q393 739 407 732Q438 714 417 660Q414 652 414 646T414 634Q414
616 411 607T408 592T408 578Q410 562 403 547Q399 538 399 533T399 522Q399 509 385 497Q362 473 347 473Q344 473 341 475T332 479Q308 487 282 489T243 488Q213 482 206 459Q198 435 210 422Q215 416 221 414T232 413T247 413T267 408Q294 402 303 406T316 410T322
407Q329 400 335 400Q351 401 357 387T355 351Q355 348 352 336Q345 312 345 303T342 285T331 268Q314 253 294 259Q285 263 278 270Q227 285 209 263Q199 251 198 242T197 210V173Q210 164 221 153T248 140T276 142T300 150Q324 160 344 154T369 136T371 107T368
81T369 65Q369 48 356 32Q342 11 330 7T299 4T268 3T247 -9T228 -22Q213 -32 194 -22Q187 -18 180 -14Q162 -5 136 -6T90 8T70 49T72 83T78 100Q82 113 74 120Q50 139 57 170Q60 186 63 195T64 214T62 233T62 250Q60 266 48 268Q33 270 28 300Q22 329 32 358T41
403T38 434L39 473Q39 502 34 512T31 541T30 571T27 595ZM307 851T313 833T311 803T288 790T261 801T238 817T227 824Q225 833 218 840T208 846Q202 842 193 849Q193 849 179 860Q174 864 170 865T157 878T151 905T163 924T178 930T194 929T216 919Q242 905 249
894Q258 879 295 858Q307 851 313 833Z" />
<glyph unicode="&#xc9;" glyph-name="Eacute" horiz-adv-x="430" d="M27 595L29 652Q29 666 27 680T33 709T62 737T105 749T143 741T169 728T196 720Q228 715 258 729Q291 745 311 727Q332 726 355 731Q393 739 407 732Q438 714 417 660Q414 652 414 646T414 634Q414
616 411 607T408 592T408 578Q410 562 403 547Q399 538 399 533T399 522Q399 509 385 497Q362 473 347 473Q344 473 341 475T332 479Q308 487 282 489T243 488Q213 482 206 459Q198 435 210 422Q215 416 221 414T232 413T247 413T267 408Q294 402 303 406T316 410T322
407Q329 400 335 400Q351 401 357 387T355 351Q355 348 352 336Q345 312 345 303T342 285T331 268Q314 253 294 259Q285 263 278 270Q227 285 209 263Q199 251 198 242T197 210V173Q210 164 221 153T248 140T276 142T300 150Q324 160 344 154T369 136T371 107T368
81T369 65Q369 48 356 32Q342 11 330 7T299 4T268 3T247 -9T228 -22Q213 -32 194 -22Q187 -18 180 -14Q162 -5 136 -6T90 8T70 49T72 83T78 100Q82 113 74 120Q50 139 57 170Q60 186 63 195T64 214T62 233T62 250Q60 266 48 268Q33 270 28 300Q22 329 32 358T41
403T38 434L39 473Q39 502 34 512T31 541T30 571T27 595ZM223 777T209 779T187 793T184 822T202 848Q238 869 244 878T260 895T281 909Q309 924 317 921T334 915T345 896T340 868T328 856T318 850T308 842Q295 832 289 836Q286 838 279 831T270 814Q268 809 259
807T237 791Z" />
<glyph unicode="&#xca;" glyph-name="Ecircumflex" horiz-adv-x="430" d="M27 595L29 652Q29 666 27 680T33 709T62 737T105 749T143 741T169 728T196 720Q228 715 258 729Q291 745 311 727Q332 726 355 731Q393 739 407 732Q438 714 417 660Q414 652 414 646T414
634Q414 616 411 607T408 592T408 578Q410 562 403 547Q399 538 399 533T399 522Q399 509 385 497Q362 473 347 473Q344 473 341 475T332 479Q308 487 282 489T243 488Q213 482 206 459Q198 435 210 422Q215 416 221 414T232 413T247 413T267 408Q294 402 303 406T316
410T322 407Q329 400 335 400Q351 401 357 387T355 351Q355 348 352 336Q345 312 345 303T342 285T331 268Q314 253 294 259Q285 263 278 270Q227 285 209 263Q199 251 198 242T197 210V173Q210 164 221 153T248 140T276 142T300 150Q324 160 344 154T369 136T371
107T368 81T369 65Q369 48 356 32Q342 11 330 7T299 4T268 3T247 -9T228 -22Q213 -32 194 -22Q187 -18 180 -14Q162 -5 136 -6T90 8T70 49T72 83T78 100Q82 113 74 120Q50 139 57 170Q60 186 63 195T64 214T62 233T62 250Q60 266 48 268Q33 270 28 300Q22 329 32
358T41 403T38 434L39 473Q39 502 34 512T31 541T30 571T27 595ZM100 836Q96 862 154 899Q184 919 200 932T222 948Q232 953 247 947Q261 939 269 927T288 911T300 905T303 899T308 896T314 894Q324 893 330 885T344 874Q369 865 367 850T354 825T336 814T320 818T301
828Q290 833 284 844T270 857Q262 859 257 866T241 875T226 879T216 875T204 860T191 848T181 834T171 823T155 815T129 810Q103 812 100 836Z" />
<glyph unicode="&#xcb;" glyph-name="Edieresis" horiz-adv-x="430" d="M27 595L29 652Q29 666 27 680T33 709T62 737T105 749T143 741T169 728T196 720Q228 715 258 729Q291 745 311 727Q332 726 355 731Q393 739 407 732Q438 714 417 660Q414 652 414 646T414
634Q414 616 411 607T408 592T408 578Q410 562 403 547Q399 538 399 533T399 522Q399 509 385 497Q362 473 347 473Q344 473 341 475T332 479Q308 487 282 489T243 488Q213 482 206 459Q198 435 210 422Q215 416 221 414T232 413T247 413T267 408Q294 402 303 406T316
410T322 407Q329 400 335 400Q351 401 357 387T355 351Q355 348 352 336Q345 312 345 303T342 285T331 268Q314 253 294 259Q285 263 278 270Q227 285 209 263Q199 251 198 242T197 210V173Q210 164 221 153T248 140T276 142T300 150Q324 160 344 154T369 136T371
107T368 81T369 65Q369 48 356 32Q342 11 330 7T299 4T268 3T247 -9T228 -22Q213 -32 194 -22Q187 -18 180 -14Q162 -5 136 -6T90 8T70 49T72 83T78 100Q82 113 74 120Q50 139 57 170Q60 186 63 195T64 214T62 233T62 250Q60 266 48 268Q33 270 28 300Q22 329 32
358T41 403T38 434L39 473Q39 502 34 512T31 541T30 571T27 595ZM85 874T100 890T127 906T150 904T170 893Q193 875 191 849Q191 822 168 805Q149 790 129 795T95 814T83 851Q85 874 100 890ZM363 816T349 806T315 794T287 803T278 815T272 820T267 835T264 850T267
867T279 883T288 891T300 900Q342 922 368 877Q372 871 377 865T384 845T374 824Z" />
<glyph unicode="&#xcc;" glyph-name="Igrave" horiz-adv-x="315" d="M230 155Q237 138 251 138Q264 138 268 133Q275 122 268 91Q264 73 264 63T262 46Q260 34 248 20Q235 9 220 5T194 -2T172 -11Q154 -20 142 -19T123 -18T108 -20T94 -23T84 -20Q69 -14 56 -14Q38
-14 32 46Q29 70 31 92T38 120T50 129T63 133T74 136Q80 139 80 157T82 192Q83 236 89 254Q99 281 86 300Q73 323 76 386Q78 424 75 448Q71 495 72 514Q73 528 73 536T72 548Q69 556 54 556T26 570T15 611Q18 639 15 662T18 698T25 720T28 736Q34 752 55 754T95
754T130 747Q172 737 185 737Q195 737 207 739T232 744Q260 749 274 741T292 722T296 699T295 672T296 642Q305 606 297 584T282 557T269 551T256 550T244 542Q236 529 236 442L238 275Q238 211 230 155ZM236 871T242 853T240 823T217 810T190 821T167 837T156
844Q154 853 147 860T137 866Q131 862 122 869Q122 869 108 880Q103 884 99 885T86 898T80 925T92 944T107 950T123 949T145 939Q171 925 178 914Q187 899 224 878Q236 871 242 853Z" />
<glyph unicode="&#xcd;" glyph-name="Iacute" horiz-adv-x="315" d="M230 155Q237 138 251 138Q264 138 268 133Q275 122 268 91Q264 73 264 63T262 46Q260 34 248 20Q235 9 220 5T194 -2T172 -11Q154 -20 142 -19T123 -18T108 -20T94 -23T84 -20Q69 -14 56 -14Q38
-14 32 46Q29 70 31 92T38 120T50 129T63 133T74 136Q80 139 80 157T82 192Q83 236 89 254Q99 281 86 300Q73 323 76 386Q78 424 75 448Q71 495 72 514Q73 528 73 536T72 548Q69 556 54 556T26 570T15 611Q18 639 15 662T18 698T25 720T28 736Q34 752 55 754T95
754T130 747Q172 737 185 737Q195 737 207 739T232 744Q260 749 274 741T292 722T296 699T295 672T296 642Q305 606 297 584T282 557T269 551T256 550T244 542Q236 529 236 442L238 275Q238 211 230 155ZM152 807T138 809T116 823T113 852T131 878Q167 899 173
908T189 925T210 939Q238 954 246 951T263 945T274 926T269 898T257 886T247 880T237 872Q224 862 218 866Q215 868 208 861T199 844Q197 839 188 837T166 821Z" />
<glyph unicode="&#xce;" glyph-name="Icircumflex" horiz-adv-x="315" d="M230 155Q237 138 251 138Q264 138 268 133Q275 122 268 91Q264 73 264 63T262 46Q260 34 248 20Q235 9 220 5T194 -2T172 -11Q154 -20 142 -19T123 -18T108 -20T94 -23T84 -20Q69 -14
56 -14Q38 -14 32 46Q29 70 31 92T38 120T50 129T63 133T74 136Q80 139 80 157T82 192Q83 236 89 254Q99 281 86 300Q73 323 76 386Q78 424 75 448Q71 495 72 514Q73 528 73 536T72 548Q69 556 54 556T26 570T15 611Q18 639 15 662T18 698T25 720T28 736Q34 752
55 754T95 754T130 747Q172 737 185 737Q195 737 207 739T232 744Q260 749 274 741T292 722T296 699T295 672T296 642Q305 606 297 584T282 557T269 551T256 550T244 542Q236 529 236 442L238 275Q238 211 230 155ZM29 836Q25 862 83 899Q113 919 129 932T151 948Q161
953 176 947Q190 939 198 927T217 911T229 905T232 899T237 896T243 894Q253 893 259 885T273 874Q298 865 296 850T283 825T265 814T249 818T230 828Q219 833 213 844T199 857Q191 859 186 866T170 875T155 879T145 875T133 860T120 848T110 834T100 823T84 815T58
810Q32 812 29 836Z" />
<glyph unicode="&#xcf;" glyph-name="Idieresis" horiz-adv-x="315" d="M230 155Q237 138 251 138Q264 138 268 133Q275 122 268 91Q264 73 264 63T262 46Q260 34 248 20Q235 9 220 5T194 -2T172 -11Q154 -20 142 -19T123 -18T108 -20T94 -23T84 -20Q69 -14 56
-14Q38 -14 32 46Q29 70 31 92T38 120T50 129T63 133T74 136Q80 139 80 157T82 192Q83 236 89 254Q99 281 86 300Q73 323 76 386Q78 424 75 448Q71 495 72 514Q73 528 73 536T72 548Q69 556 54 556T26 570T15 611Q18 639 15 662T18 698T25 720T28 736Q34 752 55
754T95 754T130 747Q172 737 185 737Q195 737 207 739T232 744Q260 749 274 741T292 722T296 699T295 672T296 642Q305 606 297 584T282 557T269 551T256 550T244 542Q236 529 236 442L238 275Q238 211 230 155ZM14 884T29 900T56 916T79 914T99 903Q122 885 120
859Q120 832 97 815Q78 800 58 805T24 824T12 861Q14 884 29 900ZM292 826T278 816T244 804T216 813T207 825T201 830T196 845T193 860T196 877T208 893T217 901T229 910Q271 932 297 887Q301 881 306 875T313 855T303 834Z" />
<glyph unicode="&#xd0;" glyph-name="Eth" horiz-adv-x="444" d="M41 412L40 464V494Q40 509 43 522Q55 570 48 604Q31 687 53 720Q80 756 122 753Q137 752 153 741T188 726T224 721Q268 718 278 710T297 698T314 690Q333 681 337 672T348 655T363 638Q382 616
387 589Q390 572 392 559T397 534Q406 495 418 465Q441 405 429 371L428 367Q434 350 431 335T427 311T423 293T417 271T408 241T398 209T386 184Q374 162 324 110Q308 94 301 77T282 53Q270 26 258 17Q234 -1 196 4Q169 -17 156 -22T129 -27T101 -19T82 0T77 24T78
54Q80 83 70 104T58 135Q52 156 54 196Q55 229 53 235Q48 244 55 295Q46 295 39 294T19 293T-5 296Q-31 304 -31 332Q-31 366 10 368Q21 368 30 365Q39 372 50 372V373Q44 383 43 389T41 412ZM194 487Q182 478 182 457T186 388V376Q203 377 214 372T223 344T212
311T181 299Q185 276 183 260T185 235T188 215T185 194Q183 167 196 166Q216 163 232 223Q236 238 238 250Q239 262 243 271T250 288Q260 312 260 324T261 340T264 348T268 357T272 376Q276 419 243 447Q229 458 220 473T206 490T194 487Z" />
<glyph unicode="&#xd1;" glyph-name="Ntilde" horiz-adv-x="529" d="M391 746Q422 755 436 739Q462 744 484 727T495 662Q488 638 491 628T499 608T503 585T498 555Q488 510 494 482Q509 416 482 344Q453 265 464 154Q473 74 471 50T459 10T429 -5Q393 -5 379
16Q371 28 371 47T366 81T352 109Q333 137 316 148Q288 167 273 239Q264 292 250 326Q246 336 244 347T240 370Q234 394 219 394Q196 394 201 328Q202 314 205 303T206 275T198 242Q186 198 193 177Q200 153 198 127T190 86T169 65Q160 49 154 29T146 1T139 -7Q122
-13 105 -5T82 17T77 45T75 68T71 86T72 100Q74 116 67 124Q58 134 58 151T57 180T59 200Q66 219 65 258Q62 331 47 346Q28 365 26 416Q25 428 27 438T29 460T32 482Q40 503 37 541T34 596T32 631T34 664T50 690Q75 717 120 717Q140 731 166 739T211 740T236 718T247
686T256 652T272 623Q283 612 288 597T297 567T305 544T318 534Q327 534 328 559T330 618T329 682T334 728T355 750T391 746ZM304 871Q311 881 322 881Q333 895 351 899T385 901T408 890T412 874T409 860T403 848T377 835T349 820T330 812T305 812T283 814T275
816Q261 822 253 832T243 846Q238 850 225 848T207 837T195 824Q190 823 179 816Q161 806 155 806T138 810T124 820T122 833T120 846T115 857T117 869Q122 877 125 878T135 884T150 891T166 897T186 908Q204 920 215 909Q224 918 236 914T256 907T264 899T272 883T284
874T304 871Z" />
<glyph unicode="&#xd2;" glyph-name="Ograve" horiz-adv-x="467" d="M36 572T36 585T40 615T60 647T89 676T110 706T132 730Q177 761 258 754Q291 751 328 730Q346 720 359 694T377 657Q382 647 390 643T404 630T418 605T432 564Q448 511 446 475T443 402Q441
336 430 307T414 259T407 223T406 192Q404 152 401 144T389 128T372 113T353 98T340 87T331 74T320 57T310 41T303 30T296 17T284 -2Q245 -50 210 -6Q207 -1 201 -1T186 -5T162 -5Q147 0 139 11T123 30T108 41T94 48Q75 58 74 64T73 77T70 92Q62 140 31 228Q7 294
18 365Q26 417 33 452Q44 505 42 526T38 559ZM213 501T207 489T198 465T191 446T182 432Q165 407 178 380Q197 341 198 329T200 293T204 244Q213 181 231 181Q241 181 250 204Q252 209 252 221T256 249Q267 306 265 328T262 367T261 402V463Q261 485 256 494T232
503ZM307 871T313 853T311 823T288 810T261 821T238 837T227 844Q225 853 218 860T208 866Q202 862 193 869Q193 869 179 880Q174 884 170 885T157 898T151 925T163 944T178 950T194 949T216 939Q242 925 249 914Q258 899 295 878Q307 871 313 853Z" />
<glyph unicode="&#xd3;" glyph-name="Oacute" horiz-adv-x="467" d="M36 572T36 585T40 615T60 647T89 676T110 706T132 730Q177 761 258 754Q291 751 328 730Q346 720 359 694T377 657Q382 647 390 643T404 630T418 605T432 564Q448 511 446 475T443 402Q441
336 430 307T414 259T407 223T406 192Q404 152 401 144T389 128T372 113T353 98T340 87T331 74T320 57T310 41T303 30T296 17T284 -2Q245 -50 210 -6Q207 -1 201 -1T186 -5T162 -5Q147 0 139 11T123 30T108 41T94 48Q75 58 74 64T73 77T70 92Q62 140 31 228Q7 294
18 365Q26 417 33 452Q44 505 42 526T38 559ZM213 501T207 489T198 465T191 446T182 432Q165 407 178 380Q197 341 198 329T200 293T204 244Q213 181 231 181Q241 181 250 204Q252 209 252 221T256 249Q267 306 265 328T262 367T261 402V463Q261 485 256 494T232
503ZM202 797T188 799T166 813T163 842T181 868Q217 889 223 898T239 915T260 929Q288 944 296 941T313 935T324 916T319 888T307 876T297 870T287 862Q274 852 268 856Q265 858 258 851T249 834Q247 829 238 827T216 811Z" />
<glyph unicode="&#xd4;" glyph-name="Ocircumflex" horiz-adv-x="467" d="M36 572T36 585T40 615T60 647T89 676T110 706T132 730Q177 761 258 754Q291 751 328 730Q346 720 359 694T377 657Q382 647 390 643T404 630T418 605T432 564Q448 511 446 475T443 402Q441
336 430 307T414 259T407 223T406 192Q404 152 401 144T389 128T372 113T353 98T340 87T331 74T320 57T310 41T303 30T296 17T284 -2Q245 -50 210 -6Q207 -1 201 -1T186 -5T162 -5Q147 0 139 11T123 30T108 41T94 48Q75 58 74 64T73 77T70 92Q62 140 31 228Q7 294
18 365Q26 417 33 452Q44 505 42 526T38 559ZM213 501T207 489T198 465T191 446T182 432Q165 407 178 380Q197 341 198 329T200 293T204 244Q213 181 231 181Q241 181 250 204Q252 209 252 221T256 249Q267 306 265 328T262 367T261 402V463Q261 485 256 494T232
503ZM100 847Q96 873 154 910Q184 930 200 943T222 959Q232 964 247 958Q261 950 269 938T288 922T300 916T303 910T308 907T314 905Q324 904 330 896T344 885Q369 876 367 861T354 836T336 825T320 829T301 839Q290 844 284 855T270 868Q262 870 257 877T241 886T226
890T216 886T204 871T191 859T181 845T171 834T155 826T129 821Q103 823 100 847Z" />
<glyph unicode="&#xd5;" glyph-name="Otilde" horiz-adv-x="467" d="M36 572T36 585T40 615T60 647T89 676T110 706T132 730Q177 761 258 754Q291 751 328 730Q346 720 359 694T377 657Q382 647 390 643T404 630T418 605T432 564Q448 511 446 475T443 402Q441
336 430 307T414 259T407 223T406 192Q404 152 401 144T389 128T372 113T353 98T340 87T331 74T320 57T310 41T303 30T296 17T284 -2Q245 -50 210 -6Q207 -1 201 -1T186 -5T162 -5Q147 0 139 11T123 30T108 41T94 48Q75 58 74 64T73 77T70 92Q62 140 31 228Q7 294
18 365Q26 417 33 452Q44 505 42 526T38 559ZM213 501T207 489T198 465T191 446T182 432Q165 407 178 380Q197 341 198 329T200 293T204 244Q213 181 231 181Q241 181 250 204Q252 209 252 221T256 249Q267 306 265 328T262 367T261 402V463Q261 485 256 494T232
503ZM273 881Q280 891 291 891Q302 905 320 909T354 911T377 900T381 884T378 870T372 858T346 845T318 830T299 822T274 822T252 824T244 826Q230 832 222 842T212 856Q207 860 194 858T176 847T164 834Q159 833 148 826Q130 816 124 816T107 820T93 830T91 843T89
856T84 867T86 879Q91 887 94 888T104 894T119 901T135 907T155 918Q173 930 184 919Q193 928 205 924T225 917T233 909T241 893T253 884T273 881Z" />
<glyph unicode="&#xd6;" glyph-name="Odieresis" horiz-adv-x="467" d="M36 572T36 585T40 615T60 647T89 676T110 706T132 730Q177 761 258 754Q291 751 328 730Q346 720 359 694T377 657Q382 647 390 643T404 630T418 605T432 564Q448 511 446 475T443 402Q441
336 430 307T414 259T407 223T406 192Q404 152 401 144T389 128T372 113T353 98T340 87T331 74T320 57T310 41T303 30T296 17T284 -2Q245 -50 210 -6Q207 -1 201 -1T186 -5T162 -5Q147 0 139 11T123 30T108 41T94 48Q75 58 74 64T73 77T70 92Q62 140 31 228Q7 294
18 365Q26 417 33 452Q44 505 42 526T38 559ZM213 501T207 489T198 465T191 446T182 432Q165 407 178 380Q197 341 198 329T200 293T204 244Q213 181 231 181Q241 181 250 204Q252 209 252 221T256 249Q267 306 265 328T262 367T261 402V463Q261 485 256 494T232
503ZM95 874T110 890T137 906T160 904T180 893Q203 875 201 849Q201 822 178 805Q159 790 139 795T105 814T93 851Q95 874 110 890ZM373 816T359 806T325 794T297 803T288 815T282 820T277 835T274 850T277 867T289 883T298 891T310 900Q352 922 378 877Q382 871
387 865T394 845T384 824Z" />
<glyph unicode="&#xd7;" glyph-name="multiply" horiz-adv-x="370" d="M294 521T302 518T319 508T332 490Q346 468 332 452Q330 442 319 433T299 416T288 404T283 397Q278 390 270 388Q256 384 246 368Q259 350 271 339T292 321T303 311T308 304Q315 295 324 291T342
281T354 267Q365 249 349 222Q333 195 302 197Q278 199 257 220Q247 232 242 235Q236 238 231 251Q224 268 186 297Q181 286 178 278T169 267Q163 265 160 258Q152 245 144 243T127 227T108 209T90 202T78 195Q64 200 48 208T29 229T35 260T54 285Q59 288 66 291T81
298Q98 306 100 313T104 323T110 327Q122 333 131 342Q90 396 34 435Q23 443 17 449T10 475T28 509Q67 540 108 499Q115 491 124 479T144 454T165 428T184 404Q212 433 234 460Q271 502 282 511Z" />
<glyph unicode="&#xd8;" glyph-name="Oslash" horiz-adv-x="489" d="M449 728Q477 724 473 685Q473 674 466 663T453 647T444 638T436 621T425 597Q426 586 430 577Q444 550 440 515T436 465T441 443T448 429Q456 410 456 391Q456 367 440 343Q433 334 435 308T438
256Q439 191 431 176T420 157T413 152Q398 145 387 111T356 55T317 20T285 -1T268 -16T258 -30Q245 -46 225 -46Q191 -46 175 -30Q168 -21 160 -4Q145 23 120 40Q104 51 98 62Q82 46 81 33Q79 10 76 6T65 1T51 4Q34 13 32 31Q30 51 58 89Q70 105 75 115T85 133Q85
165 77 186T68 222Q63 264 40 267Q23 269 20 318Q19 343 22 365T30 404Q38 433 35 471T35 540Q40 596 59 631Q68 646 85 661T120 690Q131 700 139 711T160 733Q195 762 230 750Q273 734 309 730T361 712T385 689T393 678T397 673Q420 719 429 724T449 728ZM233
388Q255 413 255 433T276 472Q261 511 237 511Q215 511 197 462Q181 419 183 405T194 382Q206 367 206 338Q228 381 233 388ZM210 228Q220 180 245 180Q276 180 288 300Q292 333 292 354V381Q292 387 291 393Q287 388 284 384T275 371T266 341T251 302T230 269T210
228Z" />
<glyph unicode="&#xd9;" glyph-name="Ugrave" horiz-adv-x="497" d="M230 632L226 524Q226 506 227 495T230 475Q234 446 224 403T220 324Q221 316 223 313T226 307Q231 298 231 284T242 254T266 239T290 269T296 345T290 418T288 463Q287 498 291 533Q300 607
294 657Q292 675 290 697T300 731Q312 742 325 741T357 737T388 736T410 740Q436 743 444 737T456 725T463 708Q469 684 467 629Q465 538 469 472T469 372T466 309T461 254T449 204T438 167T428 142Q417 112 413 85Q406 43 384 29Q374 21 362 21T344 17T332 8T319
-4Q301 -18 294 -16T281 -8T272 5Q261 24 256 25T241 23T216 17Q148 3 112 50Q83 88 70 146Q65 171 60 201T45 253T32 291T31 320T37 351Q46 400 42 429T34 476T28 513Q23 549 30 599Q34 626 35 647T39 685Q45 735 80 738Q98 740 118 738T147 737L178 740Q202 740
211 726Q230 702 230 632ZM317 861T323 843T321 813T298 800T271 811T248 827T237 834Q235 843 228 850T218 856Q212 852 203 859Q203 859 189 870Q184 874 180 875T167 888T161 915T173 934T188 940T204 939T226 929Q252 915 259 904Q268 889 305 868Q317 861
323 843Z" />
<glyph unicode="&#xda;" glyph-name="Uacute" horiz-adv-x="497" d="M230 632L226 524Q226 506 227 495T230 475Q234 446 224 403T220 324Q221 316 223 313T226 307Q231 298 231 284T242 254T266 239T290 269T296 345T290 418T288 463Q287 498 291 533Q300 607
294 657Q292 675 290 697T300 731Q312 742 325 741T357 737T388 736T410 740Q436 743 444 737T456 725T463 708Q469 684 467 629Q465 538 469 472T469 372T466 309T461 254T449 204T438 167T428 142Q417 112 413 85Q406 43 384 29Q374 21 362 21T344 17T332 8T319
-4Q301 -18 294 -16T281 -8T272 5Q261 24 256 25T241 23T216 17Q148 3 112 50Q83 88 70 146Q65 171 60 201T45 253T32 291T31 320T37 351Q46 400 42 429T34 476T28 513Q23 549 30 599Q34 626 35 647T39 685Q45 735 80 738Q98 740 118 738T147 737L178 740Q202 740
211 726Q230 702 230 632ZM233 787T219 789T197 803T194 832T212 858Q248 879 254 888T270 905T291 919Q319 934 327 931T344 925T355 906T350 878T338 866T328 860T318 852Q305 842 299 846Q296 848 289 841T280 824Q278 819 269 817T247 801Z" />
<glyph unicode="&#xdb;" glyph-name="Ucircumflex" horiz-adv-x="497" d="M230 632L226 524Q226 506 227 495T230 475Q234 446 224 403T220 324Q221 316 223 313T226 307Q231 298 231 284T242 254T266 239T290 269T296 345T290 418T288 463Q287 498 291 533Q300
607 294 657Q292 675 290 697T300 731Q312 742 325 741T357 737T388 736T410 740Q436 743 444 737T456 725T463 708Q469 684 467 629Q465 538 469 472T469 372T466 309T461 254T449 204T438 167T428 142Q417 112 413 85Q406 43 384 29Q374 21 362 21T344 17T332
8T319 -4Q301 -18 294 -16T281 -8T272 5Q261 24 256 25T241 23T216 17Q148 3 112 50Q83 88 70 146Q65 171 60 201T45 253T32 291T31 320T37 351Q46 400 42 429T34 476T28 513Q23 549 30 599Q34 626 35 647T39 685Q45 735 80 738Q98 740 118 738T147 737L178 740Q202
740 211 726Q230 702 230 632ZM120 836Q116 862 174 899Q204 919 220 932T242 948Q252 953 267 947Q281 939 289 927T308 911T320 905T323 899T328 896T334 894Q344 893 350 885T364 874Q389 865 387 850T374 825T356 814T340 818T321 828Q310 833 304 844T290
857Q282 859 277 866T261 875T246 879T236 875T224 860T211 848T201 834T191 823T175 815T149 810Q123 812 120 836Z" />
<glyph unicode="&#xdc;" glyph-name="Udieresis" horiz-adv-x="497" d="M230 632L226 524Q226 506 227 495T230 475Q234 446 224 403T220 324Q221 316 223 313T226 307Q231 298 231 284T242 254T266 239T290 269T296 345T290 418T288 463Q287 498 291 533Q300
607 294 657Q292 675 290 697T300 731Q312 742 325 741T357 737T388 736T410 740Q436 743 444 737T456 725T463 708Q469 684 467 629Q465 538 469 472T469 372T466 309T461 254T449 204T438 167T428 142Q417 112 413 85Q406 43 384 29Q374 21 362 21T344 17T332
8T319 -4Q301 -18 294 -16T281 -8T272 5Q261 24 256 25T241 23T216 17Q148 3 112 50Q83 88 70 146Q65 171 60 201T45 253T32 291T31 320T37 351Q46 400 42 429T34 476T28 513Q23 549 30 599Q34 626 35 647T39 685Q45 735 80 738Q98 740 118 738T147 737L178 740Q202
740 211 726Q230 702 230 632ZM116 884T131 900T158 916T181 914T201 903Q224 885 222 859Q222 832 199 815Q180 800 160 805T126 824T114 861Q116 884 131 900ZM394 826T380 816T346 804T318 813T309 825T303 830T298 845T295 860T298 877T310 893T319 901T331
910Q373 932 399 887Q403 881 408 875T415 855T405 834Z" />
<glyph unicode="&#xdd;" glyph-name="Yacute" horiz-adv-x="412" d="M271 151Q276 106 276 88T276 57T271 35Q264 12 251 10Q242 10 234 2T220 -11T206 -15T185 -12T164 4Q144 33 151 118Q137 128 132 147T132 203T140 257T141 285T135 304T124 326T115 354T106
374T98 391T91 412Q86 422 85 441T76 472T61 493T46 510Q26 532 18 547T10 574T10 595Q13 621 8 630L-3 652Q-20 686 -20 706T-10 736T13 742T46 734T78 731T100 738Q125 746 140 741T160 723T167 695T168 665T175 639T186 620T192 604T196 586T198 564T204 546T213
540Q225 542 229 564T238 602T247 630Q256 654 255 663T253 683T256 703Q266 725 298 721T351 716T382 724T404 732T423 723Q442 704 421 669T392 613T388 578T391 556T386 542T376 524Q333 448 299 334Q282 278 276 196Q274 165 271 151ZM192 766T178 768T156
782T153 811T171 837Q207 858 213 867T229 884T250 898Q278 913 286 910T303 904T314 885T309 857T297 845T287 839T277 831Q264 821 258 825Q255 827 248 820T239 803Q237 798 228 796T206 780Z" />
<glyph unicode="&#xde;" glyph-name="Thorn" horiz-adv-x="457" d="M183 86Q188 76 188 58Q188 25 175 12Q154 -9 120 -20Q105 -25 90 -18T56 -9T32 2T26 22Q26 45 38 64T55 106Q66 166 58 209T47 271T42 308T45 329T53 339T54 352T51 366T48 377T45 396T40 430Q36
487 39 521T36 588T24 650T16 701T24 733T45 743T69 739T94 734T116 737Q154 760 163 738Q166 732 170 729T177 722Q184 714 182 699T179 675T180 660Q184 632 180 610Q186 610 192 609T205 610T222 609T240 607Q248 608 255 606T270 604H288Q297 604 302 601T313
597T326 593Q344 588 347 578Q351 563 359 557T371 548T378 541Q383 531 395 524T413 507Q418 498 426 489T435 468T438 449T444 433Q452 402 429 344Q422 327 423 309T418 279T408 260T401 249T394 242Q385 230 386 209Q388 167 354 144Q332 129 310 131T271 136T238
136Q210 133 189 122Q191 94 183 86ZM188 437T188 430T191 416T192 399Q186 380 187 366T189 335T184 297T186 256Q188 249 201 251Q226 256 230 268T245 286T258 303T268 325T275 350T280 376T281 397T274 408T267 411T256 414Q235 418 226 426T212 440Q201 449
195 443Z" />
<glyph unicode="&#xdf;" glyph-name="germandbls" horiz-adv-x="837" d="M460 684Q484 712 518 720Q532 724 547 727T578 739Q608 756 619 756T637 754T652 751T671 750T692 748Q730 744 772 698Q799 669 805 638T811 577Q810 539 817 516T825 481T823 451T810
423T788 413T765 412T746 413Q739 413 737 410T732 402Q726 394 706 400T672 426T669 477Q672 487 675 495T676 510Q672 524 657 525T628 515T610 483T607 453T609 434T610 413Q614 386 626 376Q634 366 644 367T660 368T677 363T699 353T720 337T736 323T748 318Q761
311 764 303Q776 272 773 239T768 195T765 178T763 165T762 148Q762 108 743 80Q734 63 720 55T700 42Q698 39 695 33T688 20Q677 3 654 -4Q628 -12 598 -12T552 -8T522 6Q509 19 501 33T487 49T476 51H464Q447 51 442 59Q437 70 438 78T439 103Q438 119 439 133T458
162T494 177T517 184T527 195T537 201T550 200Q567 195 567 180T567 153T571 130Q578 104 598 106Q619 108 620 148Q621 159 621 169Q621 218 602 241Q591 256 557 273T507 304Q472 334 462 383Q450 433 446 438T438 445T427 457Q417 471 422 491T431 525T435 555Q435
571 434 586T433 618Q435 654 460 684ZM398 577T397 570T383 546T368 510T366 478T366 456Q365 434 342 426Q322 418 311 427T293 450T283 475T271 487Q257 490 250 484T238 474Q230 466 222 463T208 457Q198 450 200 434Q204 403 269 340Q281 328 297 314T330
282Q366 239 370 185Q374 130 354 89Q338 56 316 46Q299 37 293 23T284 2T272 -9T250 -13T228 -9T209 -1T195 5T184 2T174 -8Q159 -23 147 -20T119 -8T88 12Q34 54 51 98Q62 127 75 139T97 151Q110 151 114 142T122 126T129 115T141 107T160 102Q185 100 198 122Q211
144 208 170Q201 217 188 210Q177 203 161 209T144 226T140 247T133 266Q124 289 117 291Q109 293 96 293T66 310T43 354T31 400T22 431T15 454Q5 492 14 552Q20 587 36 613T72 666Q110 717 142 737T191 741Q206 728 223 730T251 736L269 740Q286 744 303 739T335
705Q342 690 349 679T364 658Q379 634 381 619T388 596T395 583Z" />
<glyph unicode="&#xe0;" glyph-name="agrave" horiz-adv-x="442" d="M97 -12Q87 -15 75 -11T57 6T51 35T50 71T51 108Q51 148 38 159Q11 179 16 261Q21 308 27 336Q37 382 37 414T38 464T44 494T53 519T62 562Q72 637 80 655Q91 680 106 706T132 742Q155 759 198
745Q230 734 257 738T299 742T332 731T360 706T374 674Q381 645 375 601T370 529T382 477T396 438T402 409T406 378T412 340T417 307T417 286T415 272T415 252T416 222T410 191Q399 145 401 126Q405 92 401 78T394 54T386 29T367 0T341 -8T325 6T319 26T313 44T300
53Q284 55 283 71T283 100T282 126T272 151Q254 182 230 185Q194 190 180 150Q177 140 176 124T168 94T154 72T140 56T131 37Q123 -6 97 -12ZM186 407Q166 353 181 321Q191 303 207 302Q236 299 241 306T254 322T260 348T257 379T248 410T236 446T232 484Q228 524
214 524Q204 524 202 514T198 486Q197 434 186 407ZM298 871T304 853T302 823T279 810T252 821T229 837T218 844Q216 853 209 860T199 866Q193 862 184 869Q184 869 170 880Q165 884 161 885T148 898T142 925T154 944T169 950T185 949T207 939Q233 925 240 914Q249
899 286 878Q298 871 304 853Z" />
<glyph unicode="&#xe1;" glyph-name="aacute" horiz-adv-x="442" d="M97 -12Q87 -15 75 -11T57 6T51 35T50 71T51 108Q51 148 38 159Q11 179 16 261Q21 308 27 336Q37 382 37 414T38 464T44 494T53 519T62 562Q72 637 80 655Q91 680 106 706T132 742Q155 759 198
745Q230 734 257 738T299 742T332 731T360 706T374 674Q381 645 375 601T370 529T382 477T396 438T402 409T406 378T412 340T417 307T417 286T415 272T415 252T416 222T410 191Q399 145 401 126Q405 92 401 78T394 54T386 29T367 0T341 -8T325 6T319 26T313 44T300
53Q284 55 283 71T283 100T282 126T272 151Q254 182 230 185Q194 190 180 150Q177 140 176 124T168 94T154 72T140 56T131 37Q123 -6 97 -12ZM186 407Q166 353 181 321Q191 303 207 302Q236 299 241 306T254 322T260 348T257 379T248 410T236 446T232 484Q228 524
214 524Q204 524 202 514T198 486Q197 434 186 407ZM223 807T209 809T187 823T184 852T202 878Q238 899 244 908T260 925T281 939Q309 954 317 951T334 945T345 926T340 898T328 886T318 880T308 872Q295 862 289 866Q286 868 279 861T270 844Q268 839 259 837T237
821Z" />
<glyph unicode="&#xe2;" glyph-name="acircumflex" horiz-adv-x="442" d="M97 -12Q87 -15 75 -11T57 6T51 35T50 71T51 108Q51 148 38 159Q11 179 16 261Q21 308 27 336Q37 382 37 414T38 464T44 494T53 519T62 562Q72 637 80 655Q91 680 106 706T132 742Q155
759 198 745Q230 734 257 738T299 742T332 731T360 706T374 674Q381 645 375 601T370 529T382 477T396 438T402 409T406 378T412 340T417 307T417 286T415 272T415 252T416 222T410 191Q399 145 401 126Q405 92 401 78T394 54T386 29T367 0T341 -8T325 6T319 26T313
44T300 53Q284 55 283 71T283 100T282 126T272 151Q254 182 230 185Q194 190 180 150Q177 140 176 124T168 94T154 72T140 56T131 37Q123 -6 97 -12ZM186 407Q166 353 181 321Q191 303 207 302Q236 299 241 306T254 322T260 348T257 379T248 410T236 446T232 484Q228
524 214 524Q204 524 202 514T198 486Q197 434 186 407ZM100 826Q96 852 154 889Q184 909 200 922T222 938Q232 943 247 937Q261 929 269 917T288 901T300 895T303 889T308 886T314 884Q324 883 330 875T344 864Q369 855 367 840T354 815T336 804T320 808T301 818Q290
823 284 834T270 847Q262 849 257 856T241 865T226 869T216 865T204 850T191 838T181 824T171 813T155 805T129 800Q103 802 100 826Z" />
<glyph unicode="&#xe3;" glyph-name="atilde" horiz-adv-x="442" d="M97 -12Q87 -15 75 -11T57 6T51 35T50 71T51 108Q51 148 38 159Q11 179 16 261Q21 308 27 336Q37 382 37 414T38 464T44 494T53 519T62 562Q72 637 80 655Q91 680 106 706T132 742Q155 759 198
745Q230 734 257 738T299 742T332 731T360 706T374 674Q381 645 375 601T370 529T382 477T396 438T402 409T406 378T412 340T417 307T417 286T415 272T415 252T416 222T410 191Q399 145 401 126Q405 92 401 78T394 54T386 29T367 0T341 -8T325 6T319 26T313 44T300
53Q284 55 283 71T283 100T282 126T272 151Q254 182 230 185Q194 190 180 150Q177 140 176 124T168 94T154 72T140 56T131 37Q123 -6 97 -12ZM186 407Q166 353 181 321Q191 303 207 302Q236 299 241 306T254 322T260 348T257 379T248 410T236 446T232 484Q228 524
214 524Q204 524 202 514T198 486Q197 434 186 407ZM273 871Q280 881 291 881Q302 895 320 899T354 901T377 890T381 874T378 860T372 848T346 835T318 820T299 812T274 812T252 814T244 816Q230 822 222 832T212 846Q207 850 194 848T176 837T164 824Q159 823
148 816Q130 806 124 806T107 810T93 820T91 833T89 846T84 857T86 869Q91 877 94 878T104 884T119 891T135 897T155 908Q173 920 184 909Q193 918 205 914T225 907T233 899T241 883T253 874T273 871Z" />
<glyph unicode="&#xe4;" glyph-name="adieresis" horiz-adv-x="442" d="M97 -12Q87 -15 75 -11T57 6T51 35T50 71T51 108Q51 148 38 159Q11 179 16 261Q21 308 27 336Q37 382 37 414T38 464T44 494T53 519T62 562Q72 637 80 655Q91 680 106 706T132 742Q155 759
198 745Q230 734 257 738T299 742T332 731T360 706T374 674Q381 645 375 601T370 529T382 477T396 438T402 409T406 378T412 340T417 307T417 286T415 272T415 252T416 222T410 191Q399 145 401 126Q405 92 401 78T394 54T386 29T367 0T341 -8T325 6T319 26T313
44T300 53Q284 55 283 71T283 100T282 126T272 151Q254 182 230 185Q194 190 180 150Q177 140 176 124T168 94T154 72T140 56T131 37Q123 -6 97 -12ZM186 407Q166 353 181 321Q191 303 207 302Q236 299 241 306T254 322T260 348T257 379T248 410T236 446T232 484Q228
524 214 524Q204 524 202 514T198 486Q197 434 186 407ZM95 874T110 890T137 906T160 904T180 893Q203 875 201 849Q201 822 178 805Q159 790 139 795T105 814T93 851Q95 874 110 890ZM373 816T359 806T325 794T297 803T288 815T282 820T277 835T274 850T277 867T289
883T298 891T310 900Q352 922 378 877Q382 871 387 865T394 845T384 824Z" />
<glyph unicode="&#xe5;" glyph-name="aring" horiz-adv-x="442" d="M166 847Q170 857 178 859T191 866Q196 871 202 870T212 873T229 876T246 877Q251 880 259 876T272 870T281 866T291 853T300 838T306 827Q310 810 310 798T309 773T302 756T290 741Q308 742
332 731Q379 702 378 638Q377 618 373 587Q364 519 385 470Q401 433 404 397T412 340T417 307T417 286T415 272T415 252T416 222T410 191Q399 145 401 126Q405 92 401 78T394 54T386 29T367 0T341 -8T325 6T319 26T313 44T300 53Q284 55 283 71T283 100T282 126T272
151Q254 182 230 185Q194 190 180 150Q177 140 176 124T168 94T154 72T140 56T131 37Q123 -6 97 -12Q87 -15 75 -11T57 6T51 35T50 71T51 108Q51 148 38 159Q11 179 16 261Q21 308 27 336Q37 382 37 414T38 464T44 494T53 519T62 562Q72 637 80 655T99 694T123
732T158 752Q157 754 154 757Q144 767 145 788T149 815T153 829T156 840Q164 844 166 847ZM186 407Q166 353 181 321Q191 303 207 302Q236 299 241 306T254 322T260 348T257 379T248 410T236 446T232 484Q228 524 214 524Q204 524 202 514T198 486Q197 434 186
407ZM217 833T217 830T210 824T203 821T199 812Q195 805 196 803T194 790T195 774T205 768T216 766T227 771T238 776T246 781T250 785T254 787Q259 790 259 801Q259 813 248 820Q230 833 224 833Z" />
<glyph unicode="&#xe6;" glyph-name="ae" horiz-adv-x="635" d="M422 158L478 160Q492 160 505 158T532 158T558 163T583 170T608 173T629 165T638 151Q644 135 635 117T619 86T608 53T602 22T592 7Q584 2 575 -3T553 -6T519 -3T472 -4Q410 -7 393 -15T367 -28T350
-34Q335 -36 324 -28T305 -14Q286 -2 275 1Q251 8 263 41Q286 103 257 159Q252 167 244 165T225 165T205 162T178 154T153 162Q120 129 101 61Q95 37 89 33T77 25T58 -1T29 -32T0 -36T-19 -25T-29 -3T-30 21T-35 34T-41 61T-28 98Q-7 134 -8 153T-4 187T7 213T20
242T36 280Q58 331 58 351T60 393T66 435Q73 482 89 498Q107 512 114 522T124 543T128 559T134 569Q144 585 152 620T168 676Q197 752 262 742Q288 737 315 729T366 715T407 714Q423 720 434 724L451 732Q465 738 475 734T489 730T496 732Q506 733 514 731Q522
729 531 731T550 734T570 736Q586 736 598 725T614 704T618 681T615 652T612 626T607 595Q601 575 601 556T597 525T586 498T566 480Q517 472 489 487Q458 506 424 502Q395 499 402 445Q403 438 402 429T398 408Q395 383 410 372T437 359T465 363T493 373T512 364Q531
317 528 309T525 286T518 265Q512 259 503 251T478 243T449 242T426 238Q401 231 399 215Q395 172 408 161Q411 158 422 158ZM187 362T184 349T182 326T189 310T202 302Q215 299 225 303T238 314T246 332T249 354T245 374Q240 403 247 413Q249 416 249 423T247
436Q242 454 232 454Q221 456 217 447T211 427T204 403T193 376Z" />
<glyph unicode="&#xe7;" glyph-name="ccedilla" horiz-adv-x="444" d="M133 -201T133 -177T141 -153Q151 -154 160 -148T180 -146T208 -156T244 -154Q276 -141 272 -123Q271 -116 273 -113T267 -105Q259 -100 252 -90T224 -82T189 -77T173 -63T169 -49T168 -35T168
-24Q149 -21 141 -13T118 4T101 26T91 48T76 68Q55 95 55 132Q55 155 56 170T56 196Q56 217 38 239T17 278T12 309T11 338T15 367Q17 382 22 393T27 415T28 433T35 448Q43 470 33 491T23 526T25 549T31 569T35 594T40 629T68 654T94 670T101 691Q104 702 120 715T166
733T210 734T235 718T256 704T277 704Q329 711 381 682Q399 672 405 651T415 621T422 602Q427 579 418 547Q404 496 418 468Q430 439 412 416Q405 406 387 398T353 378T318 360Q314 348 311 338T299 323T281 320T273 341T268 365T256 376T247 384T241 394Q236 412
243 426T251 447T251 462Q248 482 250 496T244 520T223 529T204 498T192 424T188 327T192 230Q202 127 228 125T268 132T290 154T302 176T313 189Q355 203 372 172Q379 159 379 135T376 100T368 81T359 67T353 52T344 34T327 20Q306 9 295 9Q263 9 246 5Q240 -8
241 -11T248 -21Q257 -32 270 -29T296 -29T313 -46Q313 -48 320 -51Q335 -56 336 -65Q336 -70 340 -75Q345 -81 347 -96T350 -117T350 -126Q350 -131 347 -141T340 -162Q334 -187 316 -194Q306 -197 297 -208Q247 -223 226 -220T190 -216T166 -210T141 -201Q133
-201 133 -177Z" />
<glyph unicode="&#xe8;" glyph-name="egrave" horiz-adv-x="413" d="M50 188L49 239Q49 253 50 265Q51 278 48 297Q43 330 43 345T44 370T41 388Q38 400 27 426T15 482T28 530Q40 548 37 567T33 607T32 651T42 695Q64 746 130 744Q171 743 201 736T245 730T288
740Q330 756 355 738Q362 733 368 731T380 723Q397 704 390 640Q388 621 386 602Q381 557 386 535T391 497T390 467Q384 438 367 438Q352 439 346 447T335 466T327 485T307 494Q263 494 249 503T223 514T202 512Q181 503 178 479T173 437T173 404Q175 369 186 365T206
363T222 372Q246 388 271 388T309 367T320 329T317 292T312 258Q298 196 254 234Q197 238 183 220Q180 215 177 199T176 165Q181 118 221 115Q247 113 268 122T297 142Q303 154 312 155T328 158T342 160T356 158Q374 152 377 130T373 90T363 58T358 36T347 19T332
1T314 4Q292 21 261 -16Q253 -27 244 -32T216 -36Q197 -35 186 -26T166 -8Q151 11 114 6Q92 3 78 25Q75 28 74 36T70 54Q63 80 58 87T52 107T49 132T46 152T47 168T50 188ZM288 861T294 843T292 813T269 800T242 811T219 827T208 834Q206 843 199 850T189 856Q183
852 174 859Q174 859 160 870Q155 874 151 875T138 888T132 915T144 934T159 940T175 939T197 929Q223 915 230 904Q239 889 276 868Q288 861 294 843Z" />
<glyph unicode="&#xe9;" glyph-name="eacute" horiz-adv-x="413" d="M50 188L49 239Q49 253 50 265Q51 278 48 297Q43 330 43 345T44 370T41 388Q38 400 27 426T15 482T28 530Q40 548 37 567T33 607T32 651T42 695Q64 746 130 744Q171 743 201 736T245 730T288
740Q330 756 355 738Q362 733 368 731T380 723Q397 704 390 640Q388 621 386 602Q381 557 386 535T391 497T390 467Q384 438 367 438Q352 439 346 447T335 466T327 485T307 494Q263 494 249 503T223 514T202 512Q181 503 178 479T173 437T173 404Q175 369 186 365T206
363T222 372Q246 388 271 388T309 367T320 329T317 292T312 258Q298 196 254 234Q197 238 183 220Q180 215 177 199T176 165Q181 118 221 115Q247 113 268 122T297 142Q303 154 312 155T328 158T342 160T356 158Q374 152 377 130T373 90T363 58T358 36T347 19T332
1T314 4Q292 21 261 -16Q253 -27 244 -32T216 -36Q197 -35 186 -26T166 -8Q151 11 114 6Q92 3 78 25Q75 28 74 36T70 54Q63 80 58 87T52 107T49 132T46 152T47 168T50 188ZM192 787T178 789T156 803T153 832T171 858Q207 879 213 888T229 905T250 919Q278 934 286
931T303 925T314 906T309 878T297 866T287 860T277 852Q264 842 258 846Q255 848 248 841T239 824Q237 819 228 817T206 801Z" />
<glyph unicode="&#xea;" glyph-name="ecircumflex" horiz-adv-x="413" d="M50 188L49 239Q49 253 50 265Q51 278 48 297Q43 330 43 345T44 370T41 388Q38 400 27 426T15 482T28 530Q40 548 37 567T33 607T32 651T42 695Q64 746 130 744Q171 743 201 736T245 730T288
740Q330 756 355 738Q362 733 368 731T380 723Q397 704 390 640Q388 621 386 602Q381 557 386 535T391 497T390 467Q384 438 367 438Q352 439 346 447T335 466T327 485T307 494Q263 494 249 503T223 514T202 512Q181 503 178 479T173 437T173 404Q175 369 186 365T206
363T222 372Q246 388 271 388T309 367T320 329T317 292T312 258Q298 196 254 234Q197 238 183 220Q180 215 177 199T176 165Q181 118 221 115Q247 113 268 122T297 142Q303 154 312 155T328 158T342 160T356 158Q374 152 377 130T373 90T363 58T358 36T347 19T332
1T314 4Q292 21 261 -16Q253 -27 244 -32T216 -36Q197 -35 186 -26T166 -8Q151 11 114 6Q92 3 78 25Q75 28 74 36T70 54Q63 80 58 87T52 107T49 132T46 152T47 168T50 188ZM81 826Q77 852 135 889Q165 909 181 922T203 938Q213 943 228 937Q242 929 250 917T269
901T281 895T284 889T289 886T295 884Q305 883 311 875T325 864Q350 855 348 840T335 815T317 804T301 808T282 818Q271 823 265 834T251 847Q243 849 238 856T222 865T207 869T197 865T185 850T172 838T162 824T152 813T136 805T110 800Q84 802 81 826Z" />
<glyph unicode="&#xeb;" glyph-name="edieresis" horiz-adv-x="413" d="M50 188L49 239Q49 253 50 265Q51 278 48 297Q43 330 43 345T44 370T41 388Q38 400 27 426T15 482T28 530Q40 548 37 567T33 607T32 651T42 695Q64 746 130 744Q171 743 201 736T245 730T288
740Q330 756 355 738Q362 733 368 731T380 723Q397 704 390 640Q388 621 386 602Q381 557 386 535T391 497T390 467Q384 438 367 438Q352 439 346 447T335 466T327 485T307 494Q263 494 249 503T223 514T202 512Q181 503 178 479T173 437T173 404Q175 369 186 365T206
363T222 372Q246 388 271 388T309 367T320 329T317 292T312 258Q298 196 254 234Q197 238 183 220Q180 215 177 199T176 165Q181 118 221 115Q247 113 268 122T297 142Q303 154 312 155T328 158T342 160T356 158Q374 152 377 130T373 90T363 58T358 36T347 19T332
1T314 4Q292 21 261 -16Q253 -27 244 -32T216 -36Q197 -35 186 -26T166 -8Q151 11 114 6Q92 3 78 25Q75 28 74 36T70 54Q63 80 58 87T52 107T49 132T46 152T47 168T50 188ZM76 874T91 890T118 906T141 904T161 893Q184 875 182 849Q182 822 159 805Q140 790 120
795T86 814T74 851Q76 874 91 890ZM354 816T340 806T306 794T278 803T269 815T263 820T258 835T255 850T258 867T270 883T279 891T291 900Q333 922 359 877Q363 871 368 865T375 845T365 824Z" />
<glyph unicode="&#xec;" glyph-name="igrave" horiz-adv-x="336" d="M272 553Q238 544 259 437Q266 408 266 389T261 346T255 309T251 276Q252 255 251 234T248 192Q245 143 247 134T253 123T264 118Q278 113 281 105T284 83T280 52Q271 14 255 3Q246 -3 237 -1T216
3Q182 9 158 -3Q99 -35 67 -3Q54 10 51 37Q47 86 56 100T72 117T84 124Q95 129 95 141Q95 150 97 160T102 183Q107 212 97 231Q86 253 87 267T90 292L94 316Q96 345 93 365T89 408T87 451T88 489Q88 531 80 539T64 547T50 548Q31 546 26 554Q15 565 15 582T21 608T30
628T32 653Q34 683 30 692T25 709T23 724Q23 753 64 754Q89 755 115 754T156 755Q208 765 239 763T280 758Q305 748 307 703Q308 682 308 659T310 612Q314 562 272 553ZM236 892T242 874T240 844T217 831T190 842T167 858T156 865Q154 874 147 881T137 887Q131
883 122 890Q122 890 108 901Q103 905 99 906T86 919T80 946T92 965T107 971T123 970T145 960Q171 946 178 935Q187 920 224 899Q236 892 242 874Z" />
<glyph unicode="&#xed;" glyph-name="iacute" horiz-adv-x="336" d="M272 553Q238 544 259 437Q266 408 266 389T261 346T255 309T251 276Q252 255 251 234T248 192Q245 143 247 134T253 123T264 118Q278 113 281 105T284 83T280 52Q271 14 255 3Q246 -3 237 -1T216
3Q182 9 158 -3Q99 -35 67 -3Q54 10 51 37Q47 86 56 100T72 117T84 124Q95 129 95 141Q95 150 97 160T102 183Q107 212 97 231Q86 253 87 267T90 292L94 316Q96 345 93 365T89 408T87 451T88 489Q88 531 80 539T64 547T50 548Q31 546 26 554Q15 565 15 582T21 608T30
628T32 653Q34 683 30 692T25 709T23 724Q23 753 64 754Q89 755 115 754T156 755Q208 765 239 763T280 758Q305 748 307 703Q308 682 308 659T310 612Q314 562 272 553ZM142 807T128 809T106 823T103 852T121 878Q157 899 163 908T179 925T200 939Q228 954 236
951T253 945T264 926T259 898T247 886T237 880T227 872Q214 862 208 866Q205 868 198 861T189 844Q187 839 178 837T156 821Z" />
<glyph unicode="&#xee;" glyph-name="icircumflex" horiz-adv-x="336" d="M272 553Q238 544 259 437Q266 408 266 389T261 346T255 309T251 276Q252 255 251 234T248 192Q245 143 247 134T253 123T264 118Q278 113 281 105T284 83T280 52Q271 14 255 3Q246 -3
237 -1T216 3Q182 9 158 -3Q99 -35 67 -3Q54 10 51 37Q47 86 56 100T72 117T84 124Q95 129 95 141Q95 150 97 160T102 183Q107 212 97 231Q86 253 87 267T90 292L94 316Q96 345 93 365T89 408T87 451T88 489Q88 531 80 539T64 547T50 548Q31 546 26 554Q15 565
15 582T21 608T30 628T32 653Q34 683 30 692T25 709T23 724Q23 753 64 754Q89 755 115 754T156 755Q208 765 239 763T280 758Q305 748 307 703Q308 682 308 659T310 612Q314 562 272 553ZM29 836Q25 862 83 899Q113 919 129 932T151 948Q161 953 176 947Q190 939
198 927T217 911T229 905T232 899T237 896T243 894Q253 893 259 885T273 874Q298 865 296 850T283 825T265 814T249 818T230 828Q219 833 213 844T199 857Q191 859 186 866T170 875T155 879T145 875T133 860T120 848T110 834T100 823T84 815T58 810Q32 812 29 836Z"
/>
<glyph unicode="&#xef;" glyph-name="idieresis" horiz-adv-x="336" d="M272 553Q238 544 259 437Q266 408 266 389T261 346T255 309T251 276Q252 255 251 234T248 192Q245 143 247 134T253 123T264 118Q278 113 281 105T284 83T280 52Q271 14 255 3Q246 -3 237
-1T216 3Q182 9 158 -3Q99 -35 67 -3Q54 10 51 37Q47 86 56 100T72 117T84 124Q95 129 95 141Q95 150 97 160T102 183Q107 212 97 231Q86 253 87 267T90 292L94 316Q96 345 93 365T89 408T87 451T88 489Q88 531 80 539T64 547T50 548Q31 546 26 554Q15 565 15 582T21
608T30 628T32 653Q34 683 30 692T25 709T23 724Q23 753 64 754Q89 755 115 754T156 755Q208 765 239 763T280 758Q305 748 307 703Q308 682 308 659T310 612Q314 562 272 553ZM25 894T40 910T67 926T90 924T110 913Q133 895 131 869Q131 842 108 825Q89 810 69
815T35 834T23 871Q25 894 40 910ZM303 836T289 826T255 814T227 823T218 835T212 840T207 855T204 870T207 887T219 903T228 911T240 920Q282 942 308 897Q312 891 317 885T324 865T314 844Z" />
<glyph unicode="&#xf0;" glyph-name="eth" horiz-adv-x="444" d="M41 412L40 464V494Q40 509 43 522Q55 570 48 604Q31 687 53 720Q80 756 122 753Q137 752 153 741T188 726T224 721Q268 718 278 710T297 698T314 690Q333 681 337 672T348 655T363 638Q382 616
387 589Q390 572 392 559T397 534Q406 495 418 465Q441 405 429 371L428 367Q434 350 431 335T427 311T423 293T417 271T408 241T398 209T386 184Q374 162 324 110Q308 94 301 77T282 53Q270 26 258 17Q234 -1 196 4Q169 -17 156 -22T129 -27T101 -19T82 0T77 24T78
54Q80 83 70 104T58 135Q52 156 54 196Q55 229 53 235Q48 244 55 295Q46 295 39 294T19 293T-5 296Q-31 304 -31 332Q-31 366 10 368Q21 368 30 365Q39 372 50 372V373Q44 383 43 389T41 412ZM194 487Q182 478 182 457T186 388V376Q203 377 214 372T223 344T212
311T181 299Q185 276 183 260T185 235T188 215T185 194Q183 167 196 166Q216 163 232 223Q236 238 238 250Q239 262 243 271T250 288Q260 312 260 324T261 340T264 348T268 357T272 376Q276 419 243 447Q229 458 220 473T206 490T194 487Z" />
<glyph unicode="&#xf1;" glyph-name="ntilde" horiz-adv-x="521" d="M121 730Q171 750 175 734Q200 740 212 719Q216 712 227 690T252 643T278 596T294 567T304 558T316 561Q329 571 324 591T318 622T321 644Q327 672 323 689T319 721Q319 751 368 751Q378 751
391 751T430 752T475 739T488 680Q479 623 480 604T481 567Q481 549 475 514Q464 452 469 426Q473 403 473 392V376Q473 373 475 363T474 343T473 320T468 293T461 259T459 225T462 190Q471 159 447 81Q443 62 435 57T422 48T416 35Q411 15 395 17Q374 20 361 59Q343
113 332 122T316 147T306 180Q298 222 290 228T277 254T267 281T258 299T248 319Q235 344 223 341Q216 339 214 324T209 286Q203 222 189 194Q198 168 202 147T201 96T190 48T182 17T171 -4T156 -10T144 -4T138 4Q131 17 114 23T90 38T81 59T79 85T72 115T65 143T67
162T71 179T67 206Q55 243 74 267Q88 287 86 301Q80 330 63 339Q55 344 55 351Q55 366 51 373T50 393T49 413Q49 414 47 433T42 483T36 549T32 618Q28 694 33 707T50 726T75 734Q103 737 121 730ZM293 871Q300 881 311 881Q322 895 340 899T374 901T397 890T401
874T398 860T392 848T366 835T338 820T319 812T294 812T272 814T264 816Q250 822 242 832T232 846Q227 850 214 848T196 837T184 824Q179 823 168 816Q150 806 144 806T127 810T113 820T111 833T109 846T104 857T106 869Q111 877 114 878T124 884T139 891T155 897T175
908Q193 920 204 909Q213 918 225 914T245 907T253 899T261 883T273 874T293 871Z" />
<glyph unicode="&#xf2;" glyph-name="ograve" horiz-adv-x="481" d="M120 690Q131 700 139 711T160 733Q195 762 230 750Q273 734 309 730T361 712T390 682Q419 644 425 599Q426 582 431 575Q444 553 440 516T436 465T441 443T448 429Q456 410 456 391Q456 367
440 343Q433 334 435 308T438 256Q439 191 431 176T420 157T413 152Q398 145 387 111T356 55T317 20T285 -1T268 -16T258 -30Q245 -46 225 -46Q191 -46 175 -30Q168 -21 160 -4Q145 23 120 40Q92 59 86 97Q83 110 84 123T83 156Q81 176 75 192T68 222Q63 264 40
267Q23 269 20 318Q19 343 22 365T30 404Q38 433 35 471T35 540Q40 596 59 631Q68 646 85 661T120 690ZM186 390T193 382T204 355T207 316T206 275T208 240T214 211Q225 180 245 180Q276 180 288 300Q292 333 292 384T276 473T237 511Q215 511 197 462Q181 418
183 404ZM317 871T323 853T321 823T298 810T271 821T248 837T237 844Q235 853 228 860T218 866Q212 862 203 869Q203 869 189 880Q184 884 180 885T167 898T161 925T173 944T188 950T204 949T226 939Q252 925 259 914Q268 899 305 878Q317 871 323 853Z" />
<glyph unicode="&#xf3;" glyph-name="oacute" horiz-adv-x="481" d="M120 690Q131 700 139 711T160 733Q195 762 230 750Q273 734 309 730T361 712T390 682Q419 644 425 599Q426 582 431 575Q444 553 440 516T436 465T441 443T448 429Q456 410 456 391Q456 367
440 343Q433 334 435 308T438 256Q439 191 431 176T420 157T413 152Q398 145 387 111T356 55T317 20T285 -1T268 -16T258 -30Q245 -46 225 -46Q191 -46 175 -30Q168 -21 160 -4Q145 23 120 40Q92 59 86 97Q83 110 84 123T83 156Q81 176 75 192T68 222Q63 264 40
267Q23 269 20 318Q19 343 22 365T30 404Q38 433 35 471T35 540Q40 596 59 631Q68 646 85 661T120 690ZM186 390T193 382T204 355T207 316T206 275T208 240T214 211Q225 180 245 180Q276 180 288 300Q292 333 292 384T276 473T237 511Q215 511 197 462Q181 418
183 404ZM212 807T198 809T176 823T173 852T191 878Q227 899 233 908T249 925T270 939Q298 954 306 951T323 945T334 926T329 898T317 886T307 880T297 872Q284 862 278 866Q275 868 268 861T259 844Q257 839 248 837T226 821Z" />
<glyph unicode="&#xf4;" glyph-name="ocircumflex" horiz-adv-x="481" d="M120 690Q131 700 139 711T160 733Q195 762 230 750Q273 734 309 730T361 712T390 682Q419 644 425 599Q426 582 431 575Q444 553 440 516T436 465T441 443T448 429Q456 410 456 391Q456
367 440 343Q433 334 435 308T438 256Q439 191 431 176T420 157T413 152Q398 145 387 111T356 55T317 20T285 -1T268 -16T258 -30Q245 -46 225 -46Q191 -46 175 -30Q168 -21 160 -4Q145 23 120 40Q92 59 86 97Q83 110 84 123T83 156Q81 176 75 192T68 222Q63 264
40 267Q23 269 20 318Q19 343 22 365T30 404Q38 433 35 471T35 540Q40 596 59 631Q68 646 85 661T120 690ZM186 390T193 382T204 355T207 316T206 275T208 240T214 211Q225 180 245 180Q276 180 288 300Q292 333 292 384T276 473T237 511Q215 511 197 462Q181 418
183 404ZM100 826Q96 852 154 889Q184 909 200 922T222 938Q232 943 247 937Q261 929 269 917T288 901T300 895T303 889T308 886T314 884Q324 883 330 875T344 864Q369 855 367 840T354 815T336 804T320 808T301 818Q290 823 284 834T270 847Q262 849 257 856T241
865T226 869T216 865T204 850T191 838T181 824T171 813T155 805T129 800Q103 802 100 826Z" />
<glyph unicode="&#xf5;" glyph-name="otilde" horiz-adv-x="481" d="M120 690Q131 700 139 711T160 733Q195 762 230 750Q273 734 309 730T361 712T390 682Q419 644 425 599Q426 582 431 575Q444 553 440 516T436 465T441 443T448 429Q456 410 456 391Q456 367
440 343Q433 334 435 308T438 256Q439 191 431 176T420 157T413 152Q398 145 387 111T356 55T317 20T285 -1T268 -16T258 -30Q245 -46 225 -46Q191 -46 175 -30Q168 -21 160 -4Q145 23 120 40Q92 59 86 97Q83 110 84 123T83 156Q81 176 75 192T68 222Q63 264 40
267Q23 269 20 318Q19 343 22 365T30 404Q38 433 35 471T35 540Q40 596 59 631Q68 646 85 661T120 690ZM186 390T193 382T204 355T207 316T206 275T208 240T214 211Q225 180 245 180Q276 180 288 300Q292 333 292 384T276 473T237 511Q215 511 197 462Q181 418
183 404ZM283 871Q290 881 301 881Q312 895 330 899T364 901T387 890T391 874T388 860T382 848T356 835T328 820T309 812T284 812T262 814T254 816Q240 822 232 832T222 846Q217 850 204 848T186 837T174 824Q169 823 158 816Q140 806 134 806T117 810T103 820T101
833T99 846T94 857T96 869Q101 877 104 878T114 884T129 891T145 897T165 908Q183 920 194 909Q203 918 215 914T235 907T243 899T251 883T263 874T283 871Z" />
<glyph unicode="&#xf6;" glyph-name="odieresis" horiz-adv-x="481" d="M120 690Q131 700 139 711T160 733Q195 762 230 750Q273 734 309 730T361 712T390 682Q419 644 425 599Q426 582 431 575Q444 553 440 516T436 465T441 443T448 429Q456 410 456 391Q456
367 440 343Q433 334 435 308T438 256Q439 191 431 176T420 157T413 152Q398 145 387 111T356 55T317 20T285 -1T268 -16T258 -30Q245 -46 225 -46Q191 -46 175 -30Q168 -21 160 -4Q145 23 120 40Q92 59 86 97Q83 110 84 123T83 156Q81 176 75 192T68 222Q63 264
40 267Q23 269 20 318Q19 343 22 365T30 404Q38 433 35 471T35 540Q40 596 59 631Q68 646 85 661T120 690ZM186 390T193 382T204 355T207 316T206 275T208 240T214 211Q225 180 245 180Q276 180 288 300Q292 333 292 384T276 473T237 511Q215 511 197 462Q181 418
183 404ZM95 874T110 890T137 906T160 904T180 893Q203 875 201 849Q201 822 178 805Q159 790 139 795T105 814T93 851Q95 874 110 890ZM373 816T359 806T325 794T297 803T288 815T282 820T277 835T274 850T277 867T289 883T298 891T310 900Q352 922 378 877Q382
871 387 865T394 845T384 824Z" />
<glyph unicode="&#xf7;" glyph-name="divide" horiz-adv-x="413" d="M243 466Q193 444 160 460Q139 470 144 508Q148 533 162 546T201 566T242 565T267 543T274 516Q276 479 243 466ZM65 312T54 311T30 312Q5 318 5 341Q5 389 66 387Q97 387 107 389Q125 393 138
393T171 387T230 380T298 384T344 390T373 390T392 386Q410 379 409 360T404 335T396 324T385 318T374 309Q355 309 331 310T283 312Q208 315 187 310T155 302T136 300T118 306Q104 316 85 314ZM188 136Q172 149 167 156T159 179T167 214T183 236T198 243T218 247Q246
250 261 234Q266 229 268 222T277 202Q289 173 269 153Q252 138 229 132T188 136Z" />
<glyph unicode="&#xf8;" glyph-name="oslash" horiz-adv-x="489" d="M449 728Q477 724 473 685Q473 674 466 663T453 647T444 638T436 621T425 597Q426 586 430 577Q444 550 440 515T436 465T441 443T448 429Q456 410 456 391Q456 367 440 343Q433 334 435 308T438
256Q439 191 431 176T420 157T413 152Q398 145 387 111T356 55T317 20T285 -1T268 -16T258 -30Q245 -46 225 -46Q191 -46 175 -30Q168 -21 160 -4Q145 23 120 40Q104 51 98 62Q82 46 81 33Q79 10 76 6T65 1T51 4Q34 13 32 31Q30 51 58 89Q70 105 75 115T85 133Q85
165 77 186T68 222Q63 264 40 267Q23 269 20 318Q19 343 22 365T30 404Q38 433 35 471T35 540Q40 596 59 631Q68 646 85 661T120 690Q131 700 139 711T160 733Q195 762 230 750Q273 734 309 730T361 712T385 689T393 678T397 673Q420 719 429 724T449 728ZM233
388Q255 413 255 433T276 472Q261 511 237 511Q215 511 197 462Q181 419 183 405T194 382Q206 367 206 338Q228 381 233 388ZM210 228Q220 180 245 180Q276 180 288 300Q292 333 292 354V381Q292 387 291 393Q287 388 284 384T275 371T266 341T251 302T230 269T210
228Z" />
<glyph unicode="&#xf9;" glyph-name="ugrave" horiz-adv-x="501" d="M210 587L205 360Q205 209 247 217Q283 223 280 344Q280 380 285 390T293 408Q298 428 295 461Q293 482 288 524T279 610T275 691T282 736T301 746T325 747T349 742T368 739T386 741T407 745T427
747T445 740T458 705T466 639T469 558T468 475Q464 389 461 371T452 345T442 330Q432 316 439 290T450 250Q457 225 451 205T447 166Q452 115 435 93Q427 82 410 72Q376 53 360 26Q352 10 341 7Q335 5 323 6T297 9T270 12T252 13T243 7T234 -3Q207 -30 178 3Q172
10 167 16T156 26T143 33T124 44Q81 70 70 128Q64 156 60 200T54 257T41 283T28 310T27 337T32 369Q40 417 36 453T34 509T35 534T29 545T26 566T28 597T28 628Q31 696 49 710Q64 721 80 722Q105 723 117 731T138 744Q188 772 200 704Q208 662 210 587ZM307 871T313
853T311 823T288 810T261 821T238 837T227 844Q225 853 218 860T208 866Q202 862 193 869Q193 869 179 880Q174 884 170 885T157 898T151 925T163 944T178 950T194 949T216 939Q242 925 249 914Q258 899 295 878Q307 871 313 853Z" />
<glyph unicode="&#xfa;" glyph-name="uacute" horiz-adv-x="501" d="M210 587L205 360Q205 209 247 217Q283 223 280 344Q280 380 285 390T293 408Q298 428 295 461Q293 482 288 524T279 610T275 691T282 736T301 746T325 747T349 742T368 739T386 741T407 745T427
747T445 740T458 705T466 639T469 558T468 475Q464 389 461 371T452 345T442 330Q432 316 439 290T450 250Q457 225 451 205T447 166Q452 115 435 93Q427 82 410 72Q376 53 360 26Q352 10 341 7Q335 5 323 6T297 9T270 12T252 13T243 7T234 -3Q207 -30 178 3Q172
10 167 16T156 26T143 33T124 44Q81 70 70 128Q64 156 60 200T54 257T41 283T28 310T27 337T32 369Q40 417 36 453T34 509T35 534T29 545T26 566T28 597T28 628Q31 696 49 710Q64 721 80 722Q105 723 117 731T138 744Q188 772 200 704Q208 662 210 587ZM243 797T229
799T207 813T204 842T222 868Q258 889 264 898T280 915T301 929Q329 944 337 941T354 935T365 916T360 888T348 876T338 870T328 862Q315 852 309 856Q306 858 299 851T290 834Q288 829 279 827T257 811Z" />
<glyph unicode="&#xfb;" glyph-name="ucircumflex" horiz-adv-x="501" d="M210 587L205 360Q205 209 247 217Q283 223 280 344Q280 380 285 390T293 408Q298 428 295 461Q293 482 288 524T279 610T275 691T282 736T301 746T325 747T349 742T368 739T386 741T407
745T427 747T445 740T458 705T466 639T469 558T468 475Q464 389 461 371T452 345T442 330Q432 316 439 290T450 250Q457 225 451 205T447 166Q452 115 435 93Q427 82 410 72Q376 53 360 26Q352 10 341 7Q335 5 323 6T297 9T270 12T252 13T243 7T234 -3Q207 -30
178 3Q172 10 167 16T156 26T143 33T124 44Q81 70 70 128Q64 156 60 200T54 257T41 283T28 310T27 337T32 369Q40 417 36 453T34 509T35 534T29 545T26 566T28 597T28 628Q31 696 49 710Q64 721 80 722Q105 723 117 731T138 744Q188 772 200 704Q208 662 210 587ZM110
836Q106 862 164 899Q194 919 210 932T232 948Q242 953 257 947Q271 939 279 927T298 911T310 905T313 899T318 896T324 894Q334 893 340 885T354 874Q379 865 377 850T364 825T346 814T330 818T311 828Q300 833 294 844T280 857Q272 859 267 866T251 875T236 879T226
875T214 860T201 848T191 834T181 823T165 815T139 810Q113 812 110 836Z" />
<glyph unicode="&#xfc;" glyph-name="udieresis" horiz-adv-x="501" d="M210 587L205 360Q205 209 247 217Q283 223 280 344Q280 380 285 390T293 408Q298 428 295 461Q293 482 288 524T279 610T275 691T282 736T301 746T325 747T349 742T368 739T386 741T407
745T427 747T445 740T458 705T466 639T469 558T468 475Q464 389 461 371T452 345T442 330Q432 316 439 290T450 250Q457 225 451 205T447 166Q452 115 435 93Q427 82 410 72Q376 53 360 26Q352 10 341 7Q335 5 323 6T297 9T270 12T252 13T243 7T234 -3Q207 -30
178 3Q172 10 167 16T156 26T143 33T124 44Q81 70 70 128Q64 156 60 200T54 257T41 283T28 310T27 337T32 369Q40 417 36 453T34 509T35 534T29 545T26 566T28 597T28 628Q31 696 49 710Q64 721 80 722Q105 723 117 731T138 744Q188 772 200 704Q208 662 210 587ZM95
874T110 890T137 906T160 904T180 893Q203 875 201 849Q201 822 178 805Q159 790 139 795T105 814T93 851Q95 874 110 890ZM373 816T359 806T325 794T297 803T288 815T282 820T277 835T274 850T277 867T289 883T298 891T310 900Q352 922 378 877Q382 871 387 865T394
845T384 824Z" />
<glyph unicode="&#xfd;" glyph-name="yacute" horiz-adv-x="442" d="M435 740Q448 740 465 719Q473 707 473 690Q473 657 450 633T419 592T411 560T407 533T398 512Q385 489 361 483Q356 460 343 443T326 419T320 406Q315 393 308 383Q302 262 304 210Q306 128
275 93Q264 78 260 46T252 1T236 -13T216 -10T202 3T192 20T177 39T166 71T168 111T166 140T155 161T143 180Q131 199 133 221T138 260Q145 301 144 313Q140 341 146 375Q138 389 134 404Q127 430 112 435Q82 444 70 484Q61 515 65 524T71 536Q74 544 38 575Q20
590 13 612T-3 648T-20 676Q-36 704 -28 724Q-20 738 2 741T46 738T83 729T111 728T135 729T152 729Q156 720 164 712T176 690T180 653T190 614T202 585T206 560T210 540T219 530Q226 528 229 538T235 563Q244 608 255 623Q268 640 272 669T280 711T293 732T324
738T370 732T411 734T435 740ZM192 766T178 768T156 782T153 811T171 837Q207 858 213 867T229 884T250 898Q278 913 286 910T303 904T314 885T309 857T297 845T287 839T277 831Q264 821 258 825Q255 827 248 820T239 803Q237 798 228 796T206 780Z" />
<glyph unicode="&#xfe;" glyph-name="thorn" horiz-adv-x="457" d="M183 86Q188 76 188 58Q188 25 175 12Q154 -9 120 -20Q105 -25 90 -18T56 -9T32 2T26 22Q26 45 38 64T55 106Q66 166 58 209T47 271T42 308T45 329T53 339T54 352T51 366T48 377T45 396T40 430Q36
487 39 521T36 588T24 650T16 701T24 733T45 743T69 739T94 734T116 737Q154 760 163 738Q166 732 170 729T177 722Q184 714 182 699T179 675T180 660Q184 632 180 610Q186 610 192 609T205 610T222 609T240 607Q248 608 255 606T270 604H288Q297 604 302 601T313
597T326 593Q344 588 347 578Q351 563 359 557T371 548T378 541Q383 531 395 524T413 507Q418 498 426 489T435 468T438 449T444 433Q452 402 429 344Q422 327 423 309T418 279T408 260T401 249T394 242Q385 230 386 209Q388 167 354 144Q332 129 310 131T271 136T238
136Q210 133 189 122Q191 94 183 86ZM188 437T188 430T191 416T192 399Q186 380 187 366T189 335T184 297T186 256Q188 249 201 251Q226 256 230 268T245 286T258 303T268 325T275 350T280 376T281 397T274 408T267 411T256 414Q235 418 226 426T212 440Q201 449
195 443Z" />
<glyph unicode="&#xff;" glyph-name="ydieresis" horiz-adv-x="442" d="M435 740Q448 740 465 719Q473 707 473 690Q473 657 450 633T419 592T411 560T407 533T398 512Q385 489 361 483Q356 460 343 443T326 419T320 406Q315 393 308 383Q302 262 304 210Q306
128 275 93Q264 78 260 46T252 1T236 -13T216 -10T202 3T192 20T177 39T166 71T168 111T166 140T155 161T143 180Q131 199 133 221T138 260Q145 301 144 313Q140 341 146 375Q138 389 134 404Q127 430 112 435Q82 444 70 484Q61 515 65 524T71 536Q74 544 38 575Q20
590 13 612T-3 648T-20 676Q-36 704 -28 724Q-20 738 2 741T46 738T83 729T111 728T135 729T152 729Q156 720 164 712T176 690T180 653T190 614T202 585T206 560T210 540T219 530Q226 528 229 538T235 563Q244 608 255 623Q268 640 272 669T280 711T293 732T324
738T370 732T411 734T435 740ZM76 874T91 890T118 906T141 904T161 893Q184 875 182 849Q182 822 159 805Q140 790 120 795T86 814T74 851Q76 874 91 890ZM354 816T340 806T306 794T278 803T269 815T263 820T258 835T255 850T258 867T270 883T279 891T291 900Q333
922 359 877Q363 871 368 865T375 845T365 824Z" />
<glyph unicode="&#x2013;" glyph-name="endash" horiz-adv-x="399" d="M14 309Q-5 328 12 360Q32 400 80 389Q114 381 137 385T168 386T180 383T194 386Q218 392 246 392Q265 392 283 393T318 396Q357 398 371 392Q391 380 393 362Q397 328 375 315T339 303T313
311T293 324T279 331T269 328T260 321Q247 312 228 312T203 311T192 306Q181 301 164 301Q146 301 133 301Q115 301 87 302T43 302T14 309Z" />
<glyph unicode="&#x2014;" glyph-name="emdash" horiz-adv-x="587" d="M5 344Q5 405 72 399Q110 396 128 392Q162 386 175 386T203 386T230 386T256 388T282 388Q313 390 325 393T353 395T384 391T414 387T437 387Q445 385 455 386T476 388T497 389T520 386T546
381Q575 379 580 356Q585 335 573 326Q568 322 565 315T553 304T535 301T517 299T487 296T437 300Q425 295 404 299T364 302T335 299T314 298Q292 298 262 305Q245 309 235 309T218 308Q194 305 175 307T146 307T129 306T115 307T98 305T85 306T77 304Q54 295 21
317Q6 327 5 344Z" />
<glyph unicode="&#x2018;" glyph-name="quoteleft" horiz-adv-x="142" d="M18 663T19 666T22 677T26 690T33 703Q36 711 39 713T45 723Q49 731 54 732T67 740Q86 767 105 742Q113 732 105 723T94 710Q88 704 86 704Q71 698 69 680Q68 673 73 666Q81 670 85 667T99
665T112 660T123 650T131 636T131 611Q126 578 108 570Q99 566 91 562Q80 556 73 559T58 560T48 560T43 565T35 568Q24 572 22 581T19 593T16 597Q15 600 15 613T16 630T17 642T15 654T17 660Z" />
<glyph unicode="&#x2019;" glyph-name="quoteright" horiz-adv-x="142" d="M127 696L125 670Q125 668 126 659T125 646T121 632Q120 621 117 616T110 603T103 594T97 584T87 575T76 566Q65 552 53 554Q43 554 39 561T35 575T42 590T52 601T63 606T73 622T70 642Q61
637 57 640T43 642T31 647T20 656T11 671T12 696Q18 730 35 737T56 748T68 748Q76 744 84 747T94 747T99 742T108 740Q117 736 119 726T123 713T126 710Q127 707 127 696Z" />
<glyph unicode="&#x201a;" glyph-name="quotesinglbase" horiz-adv-x="144" d="M125 71Q125 71 129 38Q129 11 120 -5T106 -36Q96 -63 73 -73Q59 -80 54 -79T44 -71T42 -54Q46 -35 66 -34Q73 -33 73 -22Q73 -5 76 -1T78 8Q64 5 57 8L46 12Q43 14 35 14T19 21T10
43Q10 57 11 61T15 76Q18 91 26 98T43 112T65 118T84 112T96 103T115 93T125 71Z" />
<glyph unicode="&#x201c;" glyph-name="quotedblleft" horiz-adv-x="273" d="M18 663T19 666T22 677T26 690T33 703Q36 711 39 713T45 723Q49 731 54 732T67 740Q86 767 105 742Q113 732 105 723T94 710Q88 704 86 704Q71 698 69 680Q68 673 73 666Q81 670 85
667T99 665T112 660T123 650T131 636T131 611Q126 578 108 570Q99 566 91 562Q80 556 73 559T58 560T48 560T43 565T35 568Q24 572 22 581T19 593T16 597Q15 600 15 613T16 630T17 642T15 654T17 660ZM147 601L144 635Q144 659 153 676T168 708Q176 732 201 745Q215
753 219 751T229 743T232 727T222 711T207 705T200 693Q200 678 197 674T194 669T195 665Q210 667 220 663T236 658Q261 658 263 629Q263 615 261 611T257 596Q254 580 246 573T230 559T208 554T189 560T176 569T158 579T147 601Z" />
<glyph unicode="&#x201d;" glyph-name="quotedblright" horiz-adv-x="273" d="M258 696L256 670Q256 668 257 659T256 646T252 632Q251 621 248 616T241 603T234 594T228 584T218 575T207 566Q196 552 184 554Q174 554 170 561T166 575T173 590T183 601T193 606T205
628Q205 632 201 642Q192 637 188 640T174 642T162 647T151 656T142 671T142 696Q147 729 165 737Q174 741 179 744T187 748T192 750T201 747T215 747T225 747T230 742T238 740Q248 736 250 726T254 713T256 710Q258 707 258 696ZM125 706L129 672Q129 646 120
629T106 599Q95 572 73 562Q59 555 54 556T44 563T42 580Q46 600 66 602Q73 602 73 613Q73 630 76 634T78 643Q64 640 57 643T47 647T35 649T19 656T10 678Q10 692 11 696T15 711Q18 726 26 733T43 747T65 753T84 747T96 737T115 728T125 706Z" />
<glyph unicode="&#x201e;" glyph-name="quotedblbase" horiz-adv-x="273" d="M258 61L256 36Q256 33 257 24T256 11T252 -3Q251 -14 248 -19T241 -32T234 -41T228 -51T218 -60T207 -68Q197 -83 184 -81Q174 -81 170 -74T166 -60T173 -45T183 -34T191 -30Q200 -27
205 -7Q205 -3 201 7Q192 2 188 5T174 7T162 12T151 22T142 37T142 61Q147 94 165 102Q174 106 179 109T187 113T192 115T201 113T215 113T225 112T230 107T238 104Q249 101 251 91T254 78T256 75Q258 72 258 61ZM125 71L129 38Q129 11 120 -5T106 -36Q96 -63 73
-73Q59 -80 54 -79T44 -71T42 -54Q46 -35 66 -34Q73 -33 73 -22Q73 -5 76 -1T78 8Q64 5 57 8L46 12Q43 14 35 14T19 21T10 43Q10 57 11 61T15 76Q18 91 26 98T43 112T65 118T84 112T96 103T115 93T125 71Z" />
<glyph unicode="&#x2022;" glyph-name="bullet" horiz-adv-x="182" d="M61 238T50 244T33 269T22 304T15 342Q13 385 37 430Q48 453 80 458Q140 467 160 397Q169 364 164 342Q162 333 163 326T166 313Q169 297 162 288T148 276T134 271Q116 265 110 259T94 246T72 239Z" />
<glyph unicode="&#x2039;" glyph-name="guilsinglleft" horiz-adv-x="230" d="M179 398Q205 434 224 418Q230 413 230 404T223 384T216 364Q200 344 189 330T170 306L155 288Q95 220 95 199Q95 173 130 127Q139 116 147 108T156 93T164 80Q172 74 185 59T201 27T202
7T201 -1Q201 -9 191 -12T174 -6Q164 7 144 25Q125 39 93 88Q89 94 81 102L64 119Q41 142 30 161Q20 175 12 184T5 209T23 239T52 265T76 293T103 326Q120 340 141 357T179 398Z" />
<glyph unicode="&#x203a;" glyph-name="guilsinglright" horiz-adv-x="230" d="M15 372T8 383T0 404T6 418Q26 434 51 398Q68 375 89 358T127 326Q143 310 154 293T178 265T207 240T224 209T218 184T199 157T166 119T135 84Q108 41 86 25L70 10Q63 2 57 -6T40
-12T30 -1Q30 4 29 7T30 26T45 58T64 78T72 86T75 92Q78 103 84 109T99 127T116 150Q135 180 135 193T129 218T113 242T94 267T76 287T60 305Q41 328 14 364Q15 372 8 383Z" />
</font>
</defs>
</svg>
