<?xml version="1.0" standalone="no"?>
<!DOCTYPE svg PUBLIC "-//W3C//DTD SVG 1.1//EN" "http://www.w3.org/Graphics/SVG/1.1/DTD/svg11.dtd">
<svg xmlns="http://www.w3.org/2000/svg">
<defs >
<font id="CormorantGaramond" horiz-adv-x="453" ><font-face
    font-family="Cormorant Garamond Light"
    units-per-em="1000"
    panose-1="0 0 0 0 0 0 0 0 0 0"
    ascent="924"
    descent="-287"
    alphabetic="0" />
<glyph unicode=" " horiz-adv-x="234" />
<glyph unicode="!" horiz-adv-x="219" d="M113 191Q112 186 107 187T102 192Q107 258 110 332T116 481T120 621Q120 625 142 629T186 633Q210 633 231 629T250 621Q223 555 198 481T152 332T113 191ZM90 -8Q64 -8 49 7T33 49Q33 74 48 88T90 103Q116 103 130 89T145
49Q145 -8 90 -8Z" />
<glyph unicode="&quot;" horiz-adv-x="337" d="M85 295L106 609Q106 617 124 623T165 634T205 640T220 637L102 296Q101 293 93 293T85 295ZM248 295L269 609Q269 617 287 623T328 634T368 640T383 637L265 296Q264 293 256 293T248 295Z" />
<glyph unicode="#" horiz-adv-x="444" d="M75 -83Q75 -86 65 -84T45 -77T35 -70L221 487Q222 490 232 487T252 479T261 471L75 -83ZM22 73Q20 73 20 84T20 107T22 119H358Q361 119 361 108T360 85T357 73H22ZM226 -83Q226 -86 216 -84T196 -77T186 -70L372 487Q373
490 383 487T403 479T412 471L226 -83ZM89 271Q87 271 86 283T86 306T89 318H425Q427 318 427 307T427 283T423 271H89Z" />
<glyph unicode="$" horiz-adv-x="404" d="M145 -99L262 564Q263 571 275 570T287 560L170 -103Q169 -110 157 -108T145 -99ZM168 386Q164 358 176 339T210 304T257 273Q284 257 308 238T345 192T351 125Q345 86 319 55T253 6T167 -12Q124 -12 89 2T39 28Q36 31
35 35T34 49L49 163Q50 166 54 166T60 163Q68 133 83 98T122 37T180 11Q199 11 217 19T248 46T265 91Q271 124 259 146T224 186T175 221Q151 237 129 255T95 299T89 359Q96 398 123 425T187 466T265 480Q297 480 327 472T372 455Q380 451 382 446T384 434L367 338Q366
334 362 334T357 339Q357 346 352 364T334 404T301 441T250 457Q213 457 193 436T168 386Z" />
<glyph unicode="%" horiz-adv-x="529" d="M70 -11Q69 -12 62 -8T48 2T43 9L473 553Q475 556 482 551T495 540T499 532L70 -11ZM354 -6Q307 -6 283 31T269 124Q275 159 294 188T341 234T400 251Q447 251 470 213T483 122Q473 68 437 31T354 -6ZM363 14Q386 14 396
43T411 115Q418 173 412 202T392 232Q368 232 357 202T340 127Q334 80 339 47T363 14ZM160 302Q113 302 89 339T75 432Q81 467 100 496T147 542T206 559Q253 559 276 521T289 429Q279 376 243 339T160 302ZM168 322Q191 322 201 350T216 422Q224 480 218 509T198
539Q174 539 163 509T146 435Q140 388 145 355T168 322Z" />
<glyph unicode="&amp;" horiz-adv-x="765" d="M316 -12Q252 -12 202 12T119 78T74 172T74 278Q86 333 119 375T200 441T304 465Q330 465 355 460T400 441L317 363Q305 407 286 421T250 435Q226 435 210 418T183 372T167 310Q158 248 170 199T209 116T273 64T353
46Q409 46 457 77T537 168T571 309L593 303Q586 200 548 130T450 24T316 -12ZM126 191L112 205Q143 232 185 265T271 336T352 410T413 481T437 544Q437 565 428 575T408 590T388 606T379 637Q379 660 393 674T429 688Q460 688 474 664T488 605Q488 557 467 514T409
429T325 349T227 270T126 191ZM388 211Q375 211 364 219T352 250Q352 280 372 308T425 355T490 374Q518 374 547 363T605 336T660 309T708 297Q721 297 729 302T738 316Q738 325 730 331T714 347T706 370Q706 383 715 391T742 399Q756 399 766 391T777 360Q777
332 760 303T715 255T655 235Q628 235 599 247T541 276T483 305T429 318Q412 318 404 312T396 297Q396 287 402 279T415 262T422 242Q422 232 415 222T388 211Z" />
<glyph unicode="&apos;" horiz-adv-x="139" d="M73 295L94 609Q94 617 112 623T153 634T193 640T208 637L90 296Q89 293 81 293T73 295Z" />
<glyph unicode="(" horiz-adv-x="290" d="M204 -117Q141 -80 106 -17T63 128T71 304Q88 398 127 480T224 625T352 725Q355 727 357 723T358 717Q292 645 249 545T182 304Q161 183 168 83T211 -109Q212 -111 209 -114T204 -117Z" />
<glyph unicode=")" horiz-adv-x="290" d="M126 725Q190 689 224 626T267 480T259 304Q243 211 204 129T107 -17T-22 -117Q-25 -118 -27 -115T-28 -109Q38 -37 81 63T148 304Q169 425 162 525T119 717Q118 719 121 723T126 725Z" />
<glyph unicode="*" horiz-adv-x="448" d="M208 359Q205 352 187 356T147 371T110 391T98 404L244 491Q247 493 251 490T254 485L208 359ZM310 315L273 481Q272 483 275 486T281 487L387 405Q393 400 383 384T356 350T325 321T310 315ZM243 511L109 516Q102 516
101 535T102 578T109 619T118 634L247 522Q249 520 248 515T243 511ZM461 488L291 503Q289 503 288 507T289 513L399 588Q405 593 417 579T441 543T459 505T461 488ZM265 529L228 661Q226 669 243 675T285 687T327 693T343 689L276 529Q275 526 271 526T265 529Z"
/>
<glyph unicode="+" horiz-adv-x="398" d="M34 166Q31 166 30 178T30 201T33 213H364Q367 213 368 202T368 178T364 166H34ZM222 25Q222 22 211 21T187 20T175 23V354Q175 357 187 358T210 358T222 354V25Z" />
<glyph unicode="," horiz-adv-x="234" d="M17 -180Q13 -183 10 -178T10 -171Q39 -140 56 -107T81 -45Q89 -11 83 3T77 18L110 36Q111 14 103 3T74 -8Q43 -8 31 14T22 58Q26 77 40 90T82 104Q119 104 136 75T142 -5Q132 -50 100 -97T17 -180Z" />
<glyph unicode="-" horiz-adv-x="305" d="M34 164Q31 164 29 176T27 202T29 215L278 262Q281 263 283 250T285 225T282 211L34 164Z" />
<glyph unicode="." horiz-adv-x="207" d="M78 -8Q52 -8 37 7T21 49Q21 74 36 88T78 103Q104 103 118 89T133 49Q133 -8 78 -8Z" />
<glyph unicode="/" horiz-adv-x="305" d="M-9 -170Q-11 -173 -22 -170T-42 -162T-51 -154L333 735Q335 739 346 736T366 728T374 718L-9 -170Z" />
<glyph unicode="0" horiz-adv-x="448" d="M188 -13Q133 -13 93 13T36 87T29 196Q40 256 74 301T157 373T263 399Q319 399 358 374T414 302T419 193Q407 132 373 86T291 13T188 -13ZM205 7Q235 7 257 30T295 93T317 181Q326 244 320 288T295 355T248 379Q208 379
175 332T130 204Q123 152 128 107T152 35T205 7Z" />
<glyph unicode="1" horiz-adv-x="291" d="M5 0Q1 0 1 6T5 12Q38 12 55 17T82 37T96 81L131 273Q135 295 134 307T115 318T51 295Q47 293 45 298T46 308L232 399Q234 401 237 399T239 394L182 81Q177 52 180 37T200 17T251 12Q255 12 255 6T251 0Q226 0 195 1T129
2Q94 2 63 1T5 0Z" />
<glyph unicode="2" horiz-adv-x="373" d="M1 16Q63 71 105 110T174 178T214 232T232 281Q238 314 227 341T182 368Q149 368 123 336T71 250Q70 248 65 249T60 255L119 411Q121 414 127 412T131 405Q124 388 126 383T135 377Q149 377 174 388T236 399Q288 399 311
371T326 299Q319 263 296 236T239 184T171 136T106 82Q104 81 104 81T106 80Q153 80 189 81T253 88T297 105T323 136Q324 138 329 137T333 132L291 7Q290 3 289 2T284 0Q220 0 148 0T8 0Q4 0 2 5T1 16Z" />
<glyph unicode="3" horiz-adv-x="354" d="M-34 -276Q-36 -277 -39 -272T-39 -264Q39 -232 87 -189T160 -101T191 -19Q198 19 191 46T164 89T113 105Q105 105 96 103T76 97Q71 96 69 103T71 112Q136 129 173 167T222 274Q231 321 223 346T188 371Q150 371 114 342T49
258Q47 254 42 256T37 263L95 404Q97 407 102 405T105 399Q100 385 104 381T115 377Q131 377 158 388T221 399Q259 399 281 382T312 337T316 280Q310 244 288 211T230 153T151 119L153 135Q211 133 243 111T285 54T289 -18Q282 -62 244 -109T137 -200T-34 -276Z"
/>
<glyph unicode="4" horiz-adv-x="433" d="M188 -188Q179 -193 180 -182L263 294L324 343L63 69Q56 62 67 62Q131 62 180 62T274 64T367 67Q370 67 369 52T365 21T359 5Q311 8 260 9T145 11T-6 12Q-10 12 -11 15T-9 23L356 405Q358 407 364 406T368 400L271 -158Q269
-169 262 -172L188 -188Z" />
<glyph unicode="5" horiz-adv-x="374" d="M-23 -275Q-27 -276 -29 -271T-28 -264Q49 -221 95 -180T164 -96T195 -8Q208 69 173 118T54 167Q44 167 48 179L108 357Q110 364 112 365T122 368Q204 378 249 384T316 395T344 406T356 423Q358 426 363 424T366 419L330
322Q324 309 318 307T301 304L123 299Q112 299 106 285L73 180L69 196Q163 196 216 172T288 105T297 9Q287 -47 250 -94T145 -184T-23 -275Z" />
<glyph unicode="6" horiz-adv-x="425" d="M196 -13Q104 -13 61 44T37 208Q50 276 85 344T173 473T296 583T448 661Q452 662 453 657T451 649Q362 605 296 535T190 385T136 226Q126 165 133 117T164 40T226 11Q253 11 273 36T301 116Q309 171 295 209T240 248Q227
248 215 244T187 229Q185 227 182 230T179 236Q224 282 288 282Q338 282 364 261T398 207T399 142Q390 98 361 63T289 8T196 -13Z" />
<glyph unicode="7" horiz-adv-x="392" d="M-14 -275Q-15 -276 -17 -273T-19 -268L329 303Q333 310 326 310Q234 310 182 308T103 299T65 278T42 241Q41 237 35 239T30 244L96 415Q97 418 103 416T108 412Q101 395 108 391T145 386Q159 386 187 386T250 386T320
386T384 386Q388 386 389 382T389 373L97 -220Q88 -237 74 -244L-14 -275Z" />
<glyph unicode="8" horiz-adv-x="440" d="M193 -13Q132 -13 91 10T33 70T22 149Q30 195 63 235T142 306T228 349L233 340Q187 317 159 274T122 175Q116 135 125 97T158 35T221 11Q256 11 284 44T320 132Q328 181 315 214T278 271T226 313T174 351T136 395T129
456Q136 496 161 522T221 561T290 574Q337 574 365 555T404 509T412 460Q406 421 368 390T275 333L271 339Q294 362 309 388T329 448Q332 475 326 499T307 538T275 554Q252 554 235 533T214 483Q211 447 226 421T267 375T322 336T375 293T411 239T414 161Q403 106
369 67T289 8T193 -13Z" />
<glyph unicode="9" horiz-adv-x="426" d="M-21 -275Q-25 -276 -26 -270T-25 -263Q42 -230 96 -180T191 -71T257 47T291 160Q300 214 293 263T263 343T202 374Q175 374 155 354T127 282Q122 244 128 212T151 159T193 139Q205 139 216 144T242 159Q245 162 249 159T251
153Q230 128 205 116T147 104Q99 104 71 128T32 188T28 256Q36 297 66 329T140 380T233 399Q289 399 328 374T384 299T388 178Q377 111 343 43T254 -87T130 -197T-21 -275Z" />
<glyph unicode=":" horiz-adv-x="207" d="M78 -8Q52 -8 37 7T21 49Q21 74 36 88T78 103Q104 103 118 89T133 49Q133 -8 78 -8ZM115 273Q89 273 74 288T58 330Q58 355 73 369T115 384Q141 384 155 370T170 330Q170 273 115 273Z" />
<glyph unicode=";" horiz-adv-x="222" d="M17 -180Q13 -183 10 -178T10 -171Q39 -140 56 -107T81 -45Q89 -11 83 3T77 18L110 36Q111 14 103 3T74 -8Q43 -8 31 14T22 58Q26 77 40 90T82 104Q119 104 136 75T142 -5Q132 -50 100 -97T17 -180ZM115 273Q89 273 74
288T58 330Q58 355 73 369T115 384Q141 384 155 370T170 330Q170 273 115 273Z" />
<glyph unicode="&lt;" horiz-adv-x="407" d="M369 354Q374 357 375 346T376 322T369 306L76 181V199L369 74Q374 72 375 59T376 34T369 25L35 173Q30 176 30 190T35 207L369 354Z" />
<glyph unicode="=" horiz-adv-x="468" d="M34 236Q31 236 30 248T30 271T33 283H434Q437 283 438 272T438 248T434 236H34ZM34 96Q31 96 30 108T30 131T33 143H434Q437 143 438 132T438 108T434 96H34Z" />
<glyph unicode="&gt;" horiz-adv-x="407" d="M37 25Q33 23 32 34T31 58T37 73L330 198V180L37 305Q33 308 32 321T31 345T37 354L371 206Q376 203 376 189T371 172L37 25Z" />
<glyph unicode="?" horiz-adv-x="295" d="M138 186Q116 214 106 249T99 305Q105 341 126 364T172 407T219 452T246 517Q249 538 247 558T236 591T211 605Q194 605 188 592T180 565Q179 554 175 540T160 515T126 504Q98 504 88 521T82 558Q87 581 108 596T159 618T219
625Q281 625 317 596T342 505Q336 473 320 450T284 408T242 372Q196 337 176 311T151 249Q150 237 150 223T153 192Q154 188 147 185T138 186ZM122 -8Q96 -8 81 7T65 49Q65 74 80 88T122 103Q148 103 162 89T177 49Q177 -8 122 -8Z" />
<glyph unicode="@" horiz-adv-x="729" d="M363 -106Q279 -106 211 -73T103 23T62 175Q62 249 90 309T166 412T276 479T405 503Q488 503 548 470T641 384T674 268Q674 210 646 162T571 85T464 56Q423 56 408 80T404 147L423 234L457 247Q434 192 401 148T331 79T261
54Q236 54 217 73T205 143Q211 185 232 223T285 293T350 342T415 360Q435 360 453 349T474 311L444 330Q459 332 477 342T499 367Q501 369 509 369T517 366L476 142Q471 114 478 98T511 82Q533 82 558 99T601 150T619 236Q619 304 587 359T498 447T370 480Q292
480 237 442T153 340T124 201Q124 118 158 57T254 -37T399 -71Q443 -71 483 -61T566 -20Q569 -18 571 -22T572 -28Q516 -76 464 -91T363 -106ZM311 118Q325 118 343 132T378 168T408 219T428 275Q432 301 427 319T404 337Q379 336 357 315T318 262T294 194Q287
169 289 144T311 118Z" />
<glyph unicode="A" horiz-adv-x="605" d="M-34 0Q-38 0 -38 6T-34 12Q-8 12 30 42T103 136L382 634Q384 638 391 637T400 633L509 84Q514 57 519 41T536 19T573 12Q577 12 577 6T573 0Q547 0 521 2T462 4Q431 4 407 2T356 0Q352 0 352 6T356 12Q394 12 405 27T408
84L323 505L379 582L130 129Q107 88 105 62T121 24T181 12Q185 12 185 6T180 0Q157 0 124 2T58 4Q29 4 11 2T-34 0ZM171 229L186 257H405L407 229H171Z" />
<glyph unicode="B" horiz-adv-x="561" d="M312 333L325 353Q395 353 442 330T509 267T520 175Q510 124 473 84T380 20T260 -4Q235 -4 198 -1T131 2Q98 2 68 1T15 0Q13 0 13 6T15 12Q41 12 56 18T81 40T95 84L177 547Q184 591 173 602T125 613Q121 613 122 619T125
625Q149 625 177 624T237 622Q264 622 292 625T350 628Q413 628 454 613T513 567T522 494Q510 439 458 396T312 333ZM335 608Q317 608 305 601T286 579T275 538L241 346L209 353Q238 352 257 352T277 351Q335 351 373 393T425 496Q434 534 426 558T394 595T335
608ZM244 18Q318 18 358 56T413 163Q429 234 400 279T285 324Q275 324 254 324T206 318L237 330L193 77Q187 46 195 32T244 18Z" />
<glyph unicode="C" horiz-adv-x="588" d="M320 -12Q231 -12 175 17T91 95T57 200T60 313Q74 390 110 450T199 551T312 614T436 636Q477 636 519 628T585 607Q592 603 593 599T593 584L577 450Q577 447 572 447T566 450Q549 524 505 566T395 609Q338 609 292 578T215
488T172 346Q162 278 168 217T194 109T247 35T326 8Q376 8 428 45T538 160Q541 164 545 162T549 157L522 42Q519 30 516 26T504 19Q454 2 407 -5T320 -12Z" />
<glyph unicode="D" horiz-adv-x="636" d="M251 -4Q227 -4 191 -1T124 2Q91 2 64 1T13 0Q10 0 10 6T13 12Q40 12 54 17T75 37T88 81L170 544Q178 587 168 600T120 613Q118 613 118 619T120 625Q143 625 171 624T233 622Q261 622 291 624T349 627Q446 627 512 589T608
482T621 323Q608 249 572 189T484 85T372 19T251 -4ZM247 16Q310 16 363 49T454 146T508 301Q517 354 515 408T494 507T439 579T340 607Q302 607 288 592T268 542L188 92Q181 53 192 35T247 16Z" />
<glyph unicode="E" horiz-adv-x="531" d="M20 0Q17 0 17 6T20 12Q47 12 61 17T82 37T94 81L175 544Q183 587 174 600T126 613Q124 613 124 619T126 625H519Q527 625 525 616Q522 597 518 571T511 521T504 482Q503 478 498 479T492 483Q488 539 453 571T363 604H345Q317
604 304 600T285 582T274 543L193 85Q186 45 195 33T241 21H267Q326 21 381 58T474 159Q476 162 481 161T485 157Q476 128 467 89T451 15Q448 0 435 0H20ZM434 222Q433 218 427 218T422 223Q430 267 409 289T344 311H187L191 339H351Q396 339 421 356T455 415Q456
420 462 420T467 414Q462 382 458 364T450 325Q446 300 443 276T434 222Z" />
<glyph unicode="F" horiz-adv-x="485" d="M15 0Q13 0 13 6T15 12Q42 12 56 17T78 37T90 81L172 544Q180 587 171 600T123 613Q120 613 120 619T123 625H516Q524 625 522 616Q519 597 515 571T507 521T501 482Q500 478 495 479T489 483Q485 539 450 571T359 604H342Q314
604 300 600T281 582T270 543L189 85Q184 55 189 40T214 18T273 12Q275 12 275 6T273 0Q254 0 218 1T124 2Q93 2 65 1T15 0ZM407 211Q406 207 400 207T395 212Q403 255 382 277T317 299H184L187 327H324Q369 327 394 345T428 404Q429 408 435 408T440 402Q435 370
431 352T423 313Q419 288 416 264T407 211Z" />
<glyph unicode="G" horiz-adv-x="633" d="M330 -12Q226 -12 161 32T70 151T61 319Q74 389 109 447T197 547T313 613T447 636Q491 636 533 628T599 607Q606 603 607 599T607 584L591 450Q590 447 586 447T580 450Q563 524 519 567T405 611Q345 611 298 580T218
492T174 356Q159 251 177 173T243 52T363 9Q395 9 415 19T447 55T464 126Q471 174 468 196T444 226T377 233Q372 233 372 241T377 249Q438 245 489 245T598 247Q601 247 602 240T598 233Q585 234 579 227T569 194T557 116Q552 83 551 67T550 44T547 28Q546 22 544
20T536 16Q485 4 431 -4T330 -12Z" />
<glyph unicode="H" horiz-adv-x="675" d="M13 0Q10 0 10 6T13 12Q40 12 54 17T75 37T88 81L170 544Q178 586 168 599T120 613Q118 613 118 619T120 625Q143 625 170 624T229 622Q261 622 290 623T342 625Q344 625 344 619T342 613Q315 613 301 607T280 586T268
542L186 81Q178 38 187 25T235 12Q238 12 238 6T235 0Q213 0 184 1T122 2Q91 2 63 1T13 0ZM164 311L167 339H550L547 311H164ZM374 0Q372 0 372 6T374 12Q402 12 415 17T436 37T448 81L529 542Q536 584 528 598T481 613Q478 613 478 619T481 625Q503 625 531 624T591
622Q622 622 651 623T702 625Q704 625 704 619T702 613Q676 613 662 608T641 587T628 544L546 81Q539 38 549 25T596 12Q599 12 599 6T596 0Q577 0 548 1T487 2Q455 2 426 1T374 0Z" />
<glyph unicode="I" horiz-adv-x="336" d="M25 0Q22 0 22 6T25 12Q52 12 65 17T86 37T98 81L180 544Q188 587 178 600T130 613Q127 613 127 619T130 625Q153 625 181 624T240 622Q275 622 303 623T353 625Q356 625 356 619T353 613Q326 613 312 607T292 586T280
542L198 81Q190 38 199 25T248 12Q250 12 250 6T248 0Q226 0 198 1T136 2Q105 2 77 1T25 0Z" />
<glyph unicode="J" horiz-adv-x="317" d="M-25 -193Q-27 -194 -30 -189T-30 -182Q17 -154 42 -98T83 40L172 544Q180 587 170 600T122 613Q119 613 119 619T122 625Q145 625 172 624T232 622Q267 622 295 623T345 625Q348 625 348 619T345 613Q318 613 304 607T284
586T271 542L187 67Q173 -11 148 -60T80 -139T-25 -193Z" />
<glyph unicode="K" horiz-adv-x="625" d="M13 0Q10 0 10 6T13 12Q40 12 54 17T75 37T88 81L170 544Q178 587 168 600T120 613Q118 613 118 619T120 625Q143 625 170 624T229 622Q261 622 290 623T342 625Q344 625 344 619T342 613Q315 613 301 607T280 586T268
542L186 81Q181 52 181 37T192 17T235 12Q238 12 238 6T235 0Q210 0 185 1T122 2Q91 2 63 1T13 0ZM495 0Q464 0 448 1T424 10T408 33T389 80T353 160L263 342L340 411L437 216Q472 147 493 106T530 45T558 19T589 12Q592 12 592 6T589 0Q552 0 529 0T495 0ZM160
262L439 524Q474 556 472 584T430 613Q428 613 428 619T430 625Q450 625 488 624T560 622Q596 622 617 623T658 625Q661 625 661 619T658 613Q619 613 567 588T464 518L185 260L160 262Z" />
<glyph unicode="L" horiz-adv-x="505" d="M14 0Q12 0 12 6T14 12Q41 12 55 17T76 37T88 81L170 544Q178 587 168 600T120 613Q118 613 118 619T120 625Q143 625 170 624T229 622Q261 622 290 623T342 625Q344 625 344 619T342 613Q315 613 301 608T280 587T268
543L187 85Q180 45 187 33T223 21H249Q323 21 379 57T480 171Q482 173 487 172T491 168Q483 137 473 94T456 15Q453 0 440 0H14Z" />
<glyph unicode="M" horiz-adv-x="742" d="M461 0Q458 0 458 6T461 12Q489 12 503 17T524 37T535 81L609 580L633 613L335 7Q333 3 328 3T320 8L208 542Q201 574 186 589T154 608T122 613Q119 613 119 619T122 625Q134 625 150 624T186 623Q214 623 236 624T270
625Q281 625 287 615T301 573L394 132L329 39L602 600Q614 625 639 625Q648 625 668 624T704 623Q726 623 740 624T770 625Q772 625 772 619T770 613Q740 613 724 601T702 546L633 81Q627 38 636 25T683 12Q686 12 686 6T683 0Q661 0 633 1T572 2Q540 2 512 1T461
0ZM13 0Q10 0 10 6T13 12Q47 12 73 43T109 127L198 602L222 600L137 130Q127 75 141 44T189 12Q192 12 192 6T189 0Q171 0 149 1T99 2Q76 2 55 1T13 0Z" />
<glyph unicode="N" horiz-adv-x="655" d="M487 -9L185 543Q162 584 143 598T102 613Q99 613 99 619T102 625Q122 625 147 624T189 623Q206 623 227 624T254 625Q265 625 268 614T287 573L523 143L516 -7Q516 -12 503 -14T487 -9ZM-2 0Q-5 0 -5 6T-2 12Q36 12 63
39T99 116L187 602L214 600L127 116Q119 67 137 40T193 12Q195 12 195 6T193 0Q172 0 149 1T96 2Q70 2 45 1T-2 0ZM516 -7L497 54L580 509Q589 557 572 585T515 613Q512 613 512 619T515 625Q533 625 557 624T612 622Q638 622 663 623T710 625Q712 625 712 619T710
613Q673 613 645 585T608 509L516 -7Z" />
<glyph unicode="O" horiz-adv-x="655" d="M281 -12Q197 -12 142 31T66 149T60 313Q72 383 104 442T183 544T289 612T411 636Q497 636 553 593T631 477T637 313Q624 237 589 177T505 75T399 11T281 -12ZM324 14Q395 14 449 80T523 260Q535 329 531 392T507 504T453
583T372 612Q301 612 247 546T173 366Q162 299 166 236T189 123T242 44T324 14Z" />
<glyph unicode="P" horiz-adv-x="532" d="M15 0Q13 0 13 6T15 12Q42 12 56 17T78 37T90 81L172 544Q180 588 171 600T123 613Q120 613 120 619T123 625Q145 625 172 624T232 622Q252 622 287 625T352 628Q414 628 459 609T527 551T538 453Q529 402 502 366T439
307T364 273T291 262Q280 262 270 263T250 267Q248 268 250 278T256 287Q263 285 270 284T285 283Q317 283 346 298T398 347T428 433Q437 489 425 527T389 586T333 607Q312 607 300 602T282 583T269 542L188 81Q181 38 190 25T237 12Q240 12 240 6T237 0Q215 0
186 1T124 2Q93 2 65 1T15 0Z" />
<glyph unicode="Q" horiz-adv-x="655" d="M627 -200Q579 -200 532 -177T441 -109T363 1L455 48Q472 -1 499 -42T557 -114T616 -161T665 -178Q674 -178 682 -177T697 -174Q700 -173 701 -178T701 -185Q682 -192 663 -196T627 -200ZM281 -12Q197 -12 142 31T66 149T60
313Q72 383 104 442T183 544T289 612T411 636Q497 636 553 593T631 477T637 313Q624 237 589 177T505 75T399 11T281 -12ZM324 14Q395 14 449 80T523 260Q535 329 531 392T507 504T453 583T372 612Q301 612 247 546T173 366Q162 299 166 236T189 123T242 44T324
14Z" />
<glyph unicode="R" horiz-adv-x="635" d="M19 0Q15 0 15 6T19 12Q48 12 64 17T88 38T101 81L182 544Q188 573 186 587T171 607T130 613Q126 613 126 619T130 625Q153 625 182 624T244 622Q267 622 299 625T351 628Q452 628 493 593T522 491Q512 433 472 391T373
327T250 304Q246 304 238 304T227 306L233 337Q239 334 251 333T270 331Q335 331 370 363T416 469Q425 520 417 550T388 594T342 607Q320 607 309 604T293 588T281 542L199 81Q194 53 196 38T210 18T250 12Q254 12 254 6T251 0Q227 0 199 1T136 2Q103 2 73 1T19
0ZM460 0Q447 0 424 32T371 135T305 322L386 349Q435 223 472 150T543 44T611 12Q614 12 614 6T611 0Q550 0 514 0T460 0Z" />
<glyph unicode="S" horiz-adv-x="470" d="M192 -12Q155 -12 118 -5T39 22Q35 25 33 29T33 41L65 182Q65 187 70 187T77 182Q90 124 110 87T157 31T219 12Q248 12 270 24T308 60T327 115Q334 157 320 189T279 247T222 296Q191 320 163 345T120 404T113 481Q124
534 158 568T239 619T336 636Q363 636 393 631T454 612Q468 605 465 595L450 465Q449 462 445 462T439 465Q429 512 410 545T365 597T309 615Q279 615 259 601T228 567T213 526Q206 487 220 459T260 407T315 360Q348 335 378 307T425 243T434 160Q425 112 395 73T314
11T192 -12Z" />
<glyph unicode="T" horiz-adv-x="553" d="M113 0Q111 0 111 6T113 12Q149 12 168 17T196 37T211 81L292 544Q299 579 293 590T261 602H249Q217 602 184 581T124 524T84 446Q83 443 78 444T73 448Q77 462 83 487T97 543T110 601T120 647Q122 650 127 650T132 646Q130
631 145 628T171 625Q208 624 257 623T354 622Q414 622 455 623T530 625Q558 625 573 629T596 650Q598 653 603 653T607 648Q603 632 596 604T583 545T571 488T564 448Q563 444 557 444T552 449Q560 491 549 525T512 581T451 602H440Q413 602 405 590T391 542L310
81Q305 52 308 37T329 17T384 12Q386 12 386 6T384 0Q356 0 323 1T248 2Q211 2 176 1T113 0Z" />
<glyph unicode="U" horiz-adv-x="620" d="M559 501Q568 554 551 583T496 613Q493 613 494 619T496 625Q519 625 542 624T594 622Q619 622 642 623T684 625Q688 625 687 619T684 613Q648 613 623 580T588 494L535 192Q524 128 488 82T397 11T277 -14Q210 -14 163
12T94 86T84 201L146 547Q154 591 144 602T95 613Q91 613 92 619T94 625Q118 625 147 624T207 622Q242 622 271 623T323 625Q325 625 325 619T323 613Q295 613 280 606T257 583T244 538L189 229Q170 120 205 72T313 23Q390 23 441 69T505 198L559 501Z" />
<glyph unicode="V" horiz-adv-x="599" d="M261 1L130 542Q120 581 108 597T69 613Q66 613 66 619T69 625Q91 625 116 624T164 622Q206 622 235 623T288 625Q291 625 291 619T288 613Q257 613 241 601T233 552L338 113L268 15L519 509Q545 559 528 586T468 613Q465
613 465 619T468 625Q495 625 520 624T587 622Q614 622 632 623T675 625Q679 625 679 619T675 613Q656 613 637 606T597 577T551 506L288 1Q285 -4 274 -4T261 1Z" />
<glyph unicode="W" horiz-adv-x="833" d="M495 1L364 542Q354 581 345 597T315 613Q312 613 312 619T315 625Q334 625 356 624T398 622Q424 622 442 623T475 625Q479 625 479 619T475 613Q459 613 456 603T463 552L568 113L502 15L753 509Q775 552 767 582T722
613Q719 613 719 619T722 625Q745 625 766 624T821 622Q848 622 866 623T909 625Q912 625 912 619T909 613Q890 613 871 606T831 577T785 506L522 1Q519 -4 508 -4T495 1ZM261 1L130 542Q120 581 108 597T69 613Q66 613 66 619T69 625Q91 625 116 624T164 622Q198
622 221 623T264 625Q268 625 268 619T264 613Q247 613 234 600T229 552L335 113L268 15L447 366L463 339L288 1Q285 -4 274 -4T261 1ZM481 339L464 366L537 509Q564 562 563 587T532 613Q530 613 530 619T532 625Q549 625 564 624T605 622Q628 622 642 623T677
625Q681 625 681 619T677 613Q660 613 645 606T611 576T568 506L481 339Z" />
<glyph unicode="X" horiz-adv-x="580" d="M313 0Q309 0 309 6T313 12Q325 12 337 16T357 28T359 51L172 542Q158 580 142 596T99 613Q96 613 96 619T99 625Q117 625 136 624T173 622Q209 622 244 623T301 625Q304 625 304 619T301 613Q285 613 273 603T268 573L455
83Q470 45 488 29T538 12Q542 12 542 6T538 0Q518 0 495 1T444 2Q411 2 373 1T313 0ZM-32 0Q-36 0 -36 6T-32 12Q-2 12 39 38T126 123L274 310L292 291L146 103Q119 69 118 49T132 21T175 12Q179 12 179 6T175 0Q153 0 116 1T46 2Q26 2 7 1T-32 0ZM322 315L303
333L449 522Q476 557 477 576T463 604T420 613Q416 613 416 619T420 625Q442 625 479 624T550 622Q570 622 589 623T627 625Q632 625 632 619T627 613Q597 613 556 587T469 502L322 315Z" />
<glyph unicode="Y" horiz-adv-x="535" d="M311 265L294 282L450 526Q473 561 465 587T420 613Q416 613 416 619T420 625Q443 625 474 624T538 622Q559 622 572 623T605 625Q608 625 608 619T605 613Q574 613 541 587T469 504L311 265ZM117 0Q113 0 113 6T117 12Q149
12 166 17T191 37T204 81L243 310L344 319L302 81Q294 38 304 25T363 12Q366 12 366 6T363 0Q338 0 308 1T241 2Q204 2 173 1T117 0ZM254 271L139 542Q123 579 107 596T70 613Q66 613 66 619T70 625Q92 625 118 624T167 622Q196 622 229 623T282 625Q286 625 286
619T282 613Q248 613 238 605T237 573L344 317L254 271Z" />
<glyph unicode="Z" horiz-adv-x="557" d="M474 -2Q403 -1 322 -1T159 0T6 0Q2 0 1 4T2 13L469 600Q474 605 474 606T467 608Q403 608 356 605T274 592T211 567T160 526T112 465Q110 462 105 463T102 469L175 655Q177 657 183 656T187 651Q182 634 190 630T232
625Q291 625 374 625T586 625Q591 625 592 620T591 612L129 27Q125 22 125 21T131 19Q164 19 190 19T233 19Q300 19 349 31T437 73T510 154Q512 158 517 157T522 152L483 8Q483 5 480 2T474 -2Z" />
<glyph unicode="[" horiz-adv-x="253" d="M14 -117Q9 -117 8 -115T8 -106L153 715Q154 722 156 723T163 725Q203 725 247 725T318 725Q322 725 322 719T318 713Q286 713 269 707T244 686T230 642L111 -34Q104 -77 115 -91T172 -105Q177 -105 177 -111T172 -117Q146
-117 101 -117T14 -117Z" />
<glyph unicode="\" horiz-adv-x="305" d="M182 -163L110 723Q110 728 120 731T142 734T153 729L226 -158Q227 -162 216 -165T194 -168T182 -163Z" />
<glyph unicode="]" horiz-adv-x="251" d="M277 725Q282 725 283 724T283 714L138 -107Q137 -114 135 -115T128 -117Q88 -117 44 -117T-27 -117Q-31 -117 -31 -111T-27 -105Q5 -105 22 -99T47 -78T61 -34L180 642Q188 685 177 699T119 713Q115 713 115 719T119
725Q145 725 191 725T277 725Z" />
<glyph unicode="^" horiz-adv-x="353" d="M96 375Q93 373 89 375T85 380L243 629Q245 634 253 634T263 629L333 380Q333 378 329 376T323 377L228 488L96 375Z" />
<glyph unicode="_" horiz-adv-x="363" d="M-7 -80Q-10 -80 -11 -68T-11 -45T-8 -33H311Q314 -33 315 -44T315 -68T311 -80H-7Z" />
<glyph unicode="`" horiz-adv-x="166" d="M172 475L111 727Q110 733 124 734T157 733T190 726T205 716L181 476Q181 474 177 473T172 475Z" />
<glyph unicode="a" horiz-adv-x="444" d="M83 -13Q49 -13 30 11T18 91Q25 142 52 195T120 295T206 370T294 399Q314 399 335 392T371 368T389 324L329 357Q346 359 364 373T396 407Q398 410 403 408T408 404L350 89Q341 42 361 42Q371 42 385 51T415 77Q418 80
422 76T423 69Q392 32 365 12T311 -9Q279 -9 268 14T264 89L289 229L310 246Q286 164 248 106T167 18T83 -13ZM147 60Q171 60 195 79T239 128T274 191T294 253Q302 298 288 324T244 350Q216 350 189 327T141 264T111 172Q101 109 113 85T147 60Z" />
<glyph unicode="b" horiz-adv-x="451" d="M154 -13Q95 -13 66 14T44 87L136 589Q144 637 132 647T78 637Q74 636 72 642T74 649L229 725Q234 727 238 723T241 717L131 96Q125 61 143 38T191 15Q221 15 249 39T300 109T333 220Q340 251 338 276T326 317T295 332Q259
332 226 302T169 219T131 96L120 116Q129 173 151 224T205 315T274 376T352 399Q399 399 421 358T432 251Q420 186 389 137T317 54T233 4T154 -13Z" />
<glyph unicode="c" horiz-adv-x="347" d="M160 -13Q115 -13 87 6T43 56T25 125T29 202Q40 262 75 306T159 374T253 399Q276 399 298 393T334 371T347 332Q346 312 333 300T296 287Q269 287 259 301T246 332Q242 347 235 359T209 371Q189 371 172 354T142 307T123
237Q114 182 120 136T151 63T221 36Q242 36 267 45T309 67Q311 69 315 65T317 58Q280 21 239 4T160 -13Z" />
<glyph unicode="d" horiz-adv-x="450" d="M108 -13Q82 -13 59 0T25 44T23 126Q33 180 61 229T128 316T210 377T294 399Q327 399 352 383T380 332L330 246Q301 171 266 113T191 21T108 -13ZM158 57Q186 57 211 78T257 132T292 199T310 260Q318 305 295 327T239
350Q192 350 159 306T111 180Q101 116 114 87T158 57ZM322 -9Q288 -9 279 16T278 89L370 589Q378 637 366 647T312 637Q308 636 306 642T308 649L463 725Q468 727 472 723T475 717L363 89Q358 61 362 52T375 42Q386 42 399 52T428 77Q432 81 436 77T436 69Q405
32 378 12T322 -9Z" />
<glyph unicode="e" horiz-adv-x="357" d="M160 -12Q102 -12 70 17T28 91T27 185Q35 224 56 262T109 331T182 380T270 399Q311 399 331 385T350 345Q347 319 323 295T260 252T172 220T73 201L75 214Q146 225 194 250T249 324Q253 346 245 359T218 372Q195 372 177
352T145 296T124 218Q116 167 123 125T154 58T219 32Q238 32 262 39T309 63Q311 65 314 61T316 55Q278 18 238 3T160 -12Z" />
<glyph unicode="f" horiz-adv-x="268" d="M-35 -275Q-80 -275 -104 -258T-124 -218Q-121 -198 -108 -188T-78 -178Q-54 -178 -46 -189T-35 -216T-30 -243T-13 -255Q-3 -255 4 -240T18 -179T39 -47L90 306Q94 331 92 342T78 356T41 359Q37 359 37 367T41 375Q73
375 87 384T106 418Q121 509 139 569T182 663T242 712T324 726Q369 726 393 710T413 669Q410 649 396 638T364 627Q337 627 327 639T315 666T310 693T292 705Q259 705 237 638T195 439L127 -21Q113 -117 93 -172T42 -251T-35 -275ZM256 339Q255 339 235 342T188
348T136 351L138 378Q161 378 191 380T246 384T281 386Q286 386 287 382T288 374Q286 366 276 353T256 339Z" />
<glyph unicode="g" horiz-adv-x="388" d="M110 -281Q56 -281 20 -266T-34 -224T-46 -167Q-38 -123 9 -88T123 -18L130 -26Q112 -37 94 -53T62 -89T44 -138Q40 -171 55 -196T98 -235T161 -250Q211 -250 231 -226T251 -175Q252 -147 237 -128T197 -94T146 -67T96
-42T61 -13T53 25Q58 50 83 73T145 123L152 116Q143 112 137 102T129 80Q126 58 141 43T181 15T234 -11T287 -42T324 -85T331 -146Q324 -188 292 -218T213 -264T110 -281ZM154 98Q112 98 86 119T51 173T49 246Q57 289 82 321T145 373T225 392Q269 392 295 372T330
318T331 246Q322 200 295 167T230 116T154 98ZM180 120Q202 120 220 152T244 237Q247 265 245 296T232 349T201 371Q179 371 160 337T136 253Q132 214 136 184T153 137T180 120ZM263 346L262 353Q292 373 329 384T394 396Q399 396 399 385T398 361T392 338T386
330Q362 347 327 353T263 346Z" />
<glyph unicode="h" horiz-adv-x="455" d="M60 -8Q41 -8 34 -6T27 0Q27 4 32 26T42 74L136 589Q144 637 132 647T78 637Q74 636 72 642T74 649L229 725Q234 727 238 723T241 717L116 12Q111 -8 60 -8ZM319 -9Q286 -9 277 16T276 89L305 248Q314 296 307 319T278
342Q250 342 219 304T161 193T116 12L98 13Q118 132 152 218T232 352T329 399Q371 399 388 367T393 267L360 89Q355 61 359 52T373 42Q384 42 397 52T426 77Q429 81 433 77T434 69Q403 32 376 12T319 -9Z" />
<glyph unicode="i" horiz-adv-x="247" d="M106 -9Q73 -9 63 16T63 89L104 297Q114 346 89 346Q79 346 65 336T32 306Q28 302 24 306T23 315Q59 358 88 376T145 395Q177 395 187 373T189 309L147 89Q142 61 147 52T160 42Q171 42 184 52T213 77Q217 81 221 77T221
69Q190 32 163 12T106 -9ZM173 499Q147 499 132 514T116 557Q116 581 131 596T173 611Q199 611 213 596T228 557Q228 499 173 499Z" />
<glyph unicode="j" horiz-adv-x="249" d="M-21 -275Q-66 -275 -90 -258T-110 -218Q-107 -198 -94 -188T-64 -178Q-40 -178 -32 -189T-21 -216T-16 -243T1 -255Q11 -255 17 -239T32 -178T56 -47L117 297Q126 346 102 346Q81 346 44 306Q41 302 37 306T36 315Q72
358 101 376T158 395Q190 395 200 373T202 309L145 -21Q129 -115 108 -170T56 -250T-21 -275ZM189 499Q163 499 148 514T132 557Q132 581 147 596T189 611Q215 611 229 596T244 557Q244 499 189 499Z" />
<glyph unicode="k" horiz-adv-x="412" d="M60 -8Q41 -8 34 -6T27 0Q27 4 32 26T42 74L136 589Q144 637 132 647T78 637Q74 636 72 642T74 649L229 725Q233 727 237 724T241 717L150 205L116 12Q111 -8 60 -8ZM317 -9Q291 -9 272 5T228 58L170 154Q160 172 152
175T123 173L228 214L298 102Q319 68 333 59T360 49Q370 49 384 55T414 75Q418 79 422 75T422 67Q356 -9 317 -9ZM123 173V191Q181 203 218 219T274 258T295 311Q297 332 291 344T267 356Q227 356 195 315T150 205L104 243Q128 287 164 322T244 378T331 399Q363
399 377 389T396 365T398 339Q393 307 359 275T266 216T123 173Z" />
<glyph unicode="l" horiz-adv-x="247" d="M94 -9Q60 -9 51 16T50 89L142 589Q150 637 138 647T84 637Q80 636 78 642T80 649L235 725Q240 727 244 723T247 717L135 89Q129 61 134 52T147 42Q158 42 171 52T200 77Q204 81 208 77T208 69Q177 32 150 12T94 -9Z" />
<glyph unicode="m" horiz-adv-x="685" d="M550 -9Q516 -9 507 16T506 89L536 248Q544 296 538 319T512 342Q488 342 459 306T403 196T358 12L340 13Q360 135 394 221T472 353T564 399Q603 399 619 367T623 267L591 89Q586 61 590 52T604 42Q615 42 627 52T656
77Q660 81 664 77T664 69Q633 32 606 12T550 -9ZM80 -8Q61 -8 54 -6T47 0Q47 4 52 26T62 74L103 297Q112 346 88 346Q78 346 64 336T30 306Q27 302 23 306T22 315Q58 358 87 376T144 395Q176 395 186 373T188 309L136 12Q131 -8 80 -8ZM302 -8Q283 -8 276 -6T269
0Q269 4 274 26T284 74L317 250Q326 299 318 320T290 342Q264 342 235 303T179 191T136 12L118 13Q137 132 170 218T248 352T343 399Q381 399 398 368T404 269L358 12Q355 -8 302 -8Z" />
<glyph unicode="n" horiz-adv-x="475" d="M339 -9Q306 -9 297 16T296 89L325 248Q343 342 298 342Q270 342 239 304T181 193T136 12L118 13Q138 132 172 218T252 352T349 399Q391 399 408 367T413 267L380 89Q375 61 379 52T393 42Q404 42 417 52T446 77Q449 81
453 77T454 69Q423 32 396 12T339 -9ZM80 -8Q61 -8 54 -6T47 0Q47 4 52 26T62 74L103 297Q112 346 88 346Q78 346 64 336T30 306Q27 302 23 306T22 315Q58 358 87 376T144 395Q176 395 186 373T188 309L136 12Q131 -8 80 -8Z" />
<glyph unicode="o" horiz-adv-x="408" d="M158 -14Q103 -14 71 15T28 91T28 193Q40 254 72 300T150 373T249 399Q305 399 338 372T382 298T381 193Q368 125 333 79T251 9T158 -14ZM192 11Q224 11 247 48T282 149Q290 194 290 234T280 307T255 357T216 375Q188
375 164 341T127 236Q119 191 120 150T129 78T154 29T192 11Z" />
<glyph unicode="p" horiz-adv-x="405" d="M-67 -275Q-70 -276 -71 -270T-69 -263Q-49 -258 -40 -252T-25 -230T-15 -185L87 386Q87 389 99 395T127 412T157 435T175 464Q177 468 182 467T186 462L73 -178Q66 -217 75 -227T120 -233Q124 -233 126 -238T123 -244L-67
-275ZM145 -1Q120 -1 96 2T57 8L67 70Q88 54 115 42T182 29Q216 29 239 54T276 123T297 220Q301 252 296 280T272 326T216 344Q172 344 125 323T20 260Q16 256 13 261T13 270Q77 323 147 358T285 393Q345 393 371 357T387 253Q380 202 357 156T300 75T226 19T145
-1Z" />
<glyph unicode="q" horiz-adv-x="421" d="M158 -275Q154 -275 153 -270T156 -263Q179 -259 190 -253T207 -232T219 -185L282 174L303 191Q281 127 247 81T173 11T97 -13Q57 -13 34 14T20 103Q28 161 52 214T114 308T198 374T296 399Q316 399 337 392T374 368T392
324L331 357Q348 359 367 373T399 407Q401 410 406 408T411 404L304 -178Q297 -215 309 -230T364 -239Q367 -237 369 -243T366 -250L158 -275ZM159 60Q194 60 221 85T266 150T292 232Q303 292 288 321T229 350Q190 350 158 312T112 177Q111 163 110 144T112 105T126
73T159 60Z" />
<glyph unicode="r" horiz-adv-x="356" d="M133 12L123 13Q133 66 146 120T174 224T209 311T250 372T297 395Q313 395 330 387T358 364T366 333Q365 320 353 306T322 292Q307 292 296 299T276 314T255 322Q244 322 230 301T202 244T174 168T150 85T133 12ZM77 -8Q58
-8 51 -6T44 0Q44 4 50 26T60 74L101 297Q104 314 103 324T98 340T85 346Q76 346 62 336T28 306Q24 302 20 306T20 315Q56 358 85 376T142 395Q164 395 175 385T188 356T186 309L133 12Q130 -8 77 -8Z" />
<glyph unicode="s" horiz-adv-x="316" d="M108 -11Q63 -11 32 10T5 61Q8 81 21 91T50 102Q70 102 81 90T101 63T122 35T156 23Q174 23 182 33T193 63Q197 95 183 117T145 158T98 196T62 238T55 295Q60 319 80 342T132 381T204 396Q251 396 278 380T302 336Q299
316 285 306T257 295Q233 295 223 306T208 331T193 357T161 368Q143 368 135 358T125 337Q120 309 134 287T173 247T220 208T257 164T265 108Q261 83 240 55T186 8T108 -11Z" />
<glyph unicode="t" horiz-adv-x="301" d="M126 -12Q102 -12 81 -4T50 27T48 94L87 306Q93 339 87 349T53 359Q49 359 49 367T53 375Q101 375 131 402T180 463Q182 467 191 466T199 460L137 111Q131 76 143 60T186 43Q206 43 226 52T270 80Q272 82 276 78T278 71Q232
27 197 8T126 -12ZM278 337Q277 337 259 340T214 346T159 349L161 378Q195 378 223 380T272 384T304 386Q309 386 310 382T311 374Q310 366 300 352T278 337Z" />
<glyph unicode="u" horiz-adv-x="476" d="M127 -13Q85 -13 68 19T63 119L98 297Q103 326 99 335T85 344Q75 344 62 334T33 309Q29 305 25 309T25 317Q57 355 83 375T138 395Q168 395 180 372T182 297L151 138Q141 90 149 67T178 44Q207 44 237 82T295 193T340
374L358 373Q339 255 304 168T224 34T127 -13ZM332 -9Q300 -9 291 13T288 77L340 374Q345 394 396 394Q416 394 422 391T429 386Q429 382 424 360T414 312L373 89Q364 40 388 40Q398 40 412 50T446 80Q449 84 453 80T454 71Q418 28 390 10T332 -9Z" />
<glyph unicode="v" horiz-adv-x="448" d="M189 -13Q158 -13 134 3T97 47T85 106Q88 147 112 190T159 282Q166 296 166 303T156 310H108Q84 310 70 306T47 292T33 267Q31 263 25 264T21 270Q36 313 48 338T79 375T126 387H219Q227 387 229 385T227 375Q208 330
190 278T166 189Q157 131 178 98T239 64Q267 64 293 80T340 127T365 199Q368 223 365 239T353 268T332 296Q322 307 314 319T306 347Q306 373 322 384T361 396Q382 396 395 386T413 348T413 270Q407 213 386 162T332 71T262 10T189 -13Z" />
<glyph unicode="w" horiz-adv-x="628" d="M189 -13Q154 -13 132 4T100 54T98 130Q104 167 120 206T159 282Q168 297 168 303T156 310H108Q84 310 70 306T47 292T33 267Q31 263 25 264T21 270Q36 313 48 338T79 375T126 387H219Q227 387 229 385T227 375Q208 330
190 278T166 189Q157 131 178 98T239 64Q263 64 286 82T329 128T362 189T380 249Q385 279 377 291T352 303Q340 303 330 295T315 262Q309 234 313 200T333 135T373 84T435 64Q460 64 483 80T523 127T544 199Q547 223 544 239T532 268T511 296Q501 307 493 319T485
347Q485 373 501 384T540 396Q561 396 574 386T592 348T592 270Q587 213 567 162T518 71T455 10T386 -13Q354 -13 332 7T297 62T283 147T291 255Q300 303 312 333T340 378T377 392Q404 392 413 368T415 294Q407 237 385 183T332 84T264 13T189 -13Z" />
<glyph unicode="x" horiz-adv-x="430" d="M280 -11Q253 -11 239 4T211 60L135 292Q125 323 113 330T88 338Q73 338 61 331T36 311Q33 307 29 311T28 319Q65 357 94 376T151 395Q177 395 192 380T220 325L296 92Q306 61 318 54T343 47Q358 47 370 54T394 74Q398
77 402 73T402 65Q365 28 336 9T280 -11ZM54 -11Q29 -11 8 9T-9 55Q-7 69 5 80T35 92Q54 92 63 85T80 71T99 63Q104 63 110 67T124 83L204 201L214 187L135 62Q116 31 103 16T80 -5T54 -11ZM219 184L208 198L288 323Q307 354 319 369T343 389T368 395Q393 395 414
376T432 330Q430 316 418 304T387 292Q369 292 360 299T343 314T323 322Q319 322 313 318T298 302L219 184Z" />
<glyph unicode="y" d="M-15 -281Q-41 -281 -59 -269T-73 -221Q-65 -175 -15 -175Q6 -175 23 -184T58 -198T99 -186Q121 -171 151 -135T213 -52T273 43T322 130T347 191Q356 227 352 248T338 284T319 311T310 345Q310 368 326 382T368 396Q393 396 407 379T421
326Q421 294 405 246T360 140T294 24T216 -89T133 -187T53 -256T-15 -281ZM164 -135Q169 94 141 216T63 339Q50 339 38 330T18 308Q16 304 11 305T6 311Q24 349 59 372T122 395Q155 395 180 363T221 273T243 142T244 -16L164 -135Z" />
<glyph unicode="z" horiz-adv-x="344" d="M1 -7Q-1 -8 -7 -2T-12 6L308 360L302 349Q289 314 277 302T243 290Q222 290 194 296T140 307T97 313Q78 313 67 305T47 276Q45 272 40 274T36 281Q53 334 64 358T88 388T125 394Q160 392 206 381T291 367Q307 367 319
373T346 396Q349 398 355 393T359 385L40 29L35 39Q49 73 66 86T105 99Q131 99 163 94T225 82T275 76Q292 76 302 85T320 115Q322 117 327 116T331 111Q317 58 306 33T282 2T249 -5Q221 -4 188 2T120 14T56 22Q40 22 28 16T1 -7Z" />
<glyph unicode="{" horiz-adv-x="263" d="M179 -117Q130 -117 103 -110T64 -81T55 -22T68 80Q82 159 85 202T75 266T29 298Q27 298 27 304T29 311Q62 317 82 335T118 399T147 529Q158 592 171 631T204 690T253 718T325 725Q328 725 328 719T325 713Q297 713 280
685T254 607Q239 527 226 476T196 393T151 342T81 305Q129 287 150 267T175 214T170 131T147 1Q139 -48 149 -76T179 -105Q181 -105 181 -111T179 -117Z" />
<glyph unicode="|" horiz-adv-x="152" d="M37 -154Q36 -159 26 -159T5 -158T-5 -151L150 731Q151 736 162 736T183 735T193 727L37 -154Z" />
<glyph unicode="}" horiz-adv-x="264" d="M124 725Q173 725 200 718T239 689T248 630T235 528Q221 450 218 407T228 343T274 310Q276 310 276 304T274 297Q241 292 221 273T186 209T156 79Q145 16 132 -23T99 -82T50 -110T-22 -117Q-25 -117 -25 -111T-22 -105Q6
-105 23 -77T49 1Q64 81 77 132T107 215T152 266T222 303Q174 321 153 341T128 394T133 477T156 607Q164 657 154 685T124 713Q122 713 122 719T124 725Z" />
<glyph unicode="~" horiz-adv-x="443" d="M43 143Q42 141 39 144T36 150Q64 187 83 206T118 232T153 240Q176 240 207 232T269 216T320 208Q350 208 369 219T401 244Q403 246 406 243T408 237Q370 187 344 167T285 147Q264 147 234 155T173 171T118 179Q90 179
75 169T43 143Z" />
<glyph unicode="&#xa0;" horiz-adv-x="234" />
<glyph unicode="&#xa1;" horiz-adv-x="218" d="M112 163Q113 168 118 168T123 162Q119 96 115 22T109 -126T105 -267Q105 -271 83 -275T39 -279Q15 -279 -6 -275T-25 -267Q2 -201 27 -127T73 23T112 163ZM135 362Q161 362 176 347T192 305Q192 280 177 266T135
251Q109 251 95 265T80 305Q80 362 135 362Z" />
<glyph unicode="&#xa2;" horiz-adv-x="498" d="M218 -102L336 565Q337 572 349 571T360 561L242 -105Q241 -112 229 -111T218 -102ZM337 480Q369 480 408 472T469 449Q474 445 477 442T478 430L464 327Q463 323 460 323T455 327Q443 386 408 422T327 458Q283 458
248 431T190 355T154 246Q147 203 148 161T161 85T198 30T263 9Q311 9 346 39T425 139Q427 143 433 142T439 136L413 30Q410 23 409 19T399 13Q357 -1 319 -6T250 -12Q181 -12 138 12T73 75T46 158T48 242Q60 311 101 364T205 449T337 480Z" />
<glyph unicode="&#xa3;" horiz-adv-x="388" d="M-7 0Q-11 0 -11 6T-7 14Q31 23 51 40T81 80T92 124Q97 163 96 190T92 240T87 284T90 333Q100 388 130 420T200 466T284 480Q301 480 321 476T361 464Q378 459 375 446L364 340Q363 338 359 338T352 343Q344 377
334 403T308 445T267 460Q242 460 225 445T197 406T182 357Q176 320 180 286T187 218T184 143Q174 93 151 70T102 29L78 48H214Q252 48 273 53T307 76T333 130Q335 134 341 132T345 125Q338 106 330 72T316 9Q315 2 312 1T301 0H-7ZM55 215Q51 215 49 222T48 237T54
244H264Q269 244 270 237T271 223T265 215H55Z" />
<glyph unicode="&#xa4;" horiz-adv-x="384" d="M108 88L53 32L28 64L84 119L108 88ZM112 284L73 338L111 373L149 317L112 284ZM274 123L315 68L274 32L237 90L274 123ZM275 308L337 370L361 338L298 278L275 308ZM163 65Q123 65 99 86T66 140T63 208Q71 252 97
280T156 321T219 335Q272 335 301 295T320 195Q313 153 288 124T229 80T163 65ZM179 89Q204 89 223 114T251 186Q257 218 254 246T237 293T199 311Q175 311 157 287T130 218Q125 188 127 159T141 109T179 89Z" />
<glyph unicode="&#xa5;" horiz-adv-x="448" d="M256 192L236 196L350 370Q373 406 373 431T335 456Q331 456 331 462T335 468Q362 468 384 467T443 465Q460 465 470 466T492 468Q496 468 496 462T492 456Q464 456 435 432T375 364L256 192ZM81 0Q77 0 77 6T81
12Q110 12 125 18T149 40T163 84L171 127H263L255 77Q250 49 252 35T268 17T310 12Q314 12 314 6T310 0Q285 0 258 1T196 2Q165 2 135 1T81 0ZM85 116Q78 116 78 129T84 142H347Q354 142 354 129T349 116H85ZM97 187Q91 187 91 200T97 213H360Q366 213 367 200T361
187H97ZM184 200L188 228L283 237L276 200H184ZM194 193L117 387Q102 426 86 441T50 456Q47 456 47 462T50 468Q64 468 86 467T119 465Q142 465 170 466T223 467T261 468Q264 468 264 462T261 456Q233 456 218 443T215 398L283 235L194 193Z" />
<glyph unicode="&#xa6;" horiz-adv-x="152" d="M127 357Q127 352 116 352T95 353T85 360L150 731Q151 736 162 736T183 735T193 727L127 357ZM36 -158Q36 -162 25 -163T4 -162T-6 -154L58 216Q59 221 70 221T92 220T102 213L36 -158Z" />
<glyph unicode="&#xa7;" horiz-adv-x="408" d="M131 -188Q109 -188 87 -185T50 -175Q47 -173 45 -169T43 -159L64 -36Q64 -34 69 -34T75 -36Q80 -51 87 -72T105 -114T132 -149T172 -163Q193 -163 207 -148T227 -102Q232 -68 221 -42T188 7T143 51T99 95T68 146T63
212Q71 259 107 299T188 373L194 364Q176 348 164 321T147 262Q140 214 151 182T183 126T228 83T273 42T304 -7T306 -76Q298 -115 273 -139T212 -176T131 -188ZM249 11L243 20Q261 36 273 63T289 122Q296 170 286 202T254 258T209 301T164 342T133 391T131 460Q139
499 164 524T226 560T306 572Q329 572 350 569T387 559Q391 557 393 553T394 543L373 420Q373 417 369 417T363 420Q359 434 352 455T333 497T305 532T265 546Q244 546 230 532T211 485Q206 451 217 425T249 376T294 332T339 288T370 237T374 172Q367 129 333 89T249
11Z" />
<glyph unicode="&#xa8;" horiz-adv-x="275" d="M274 464Q220 464 220 519Q220 543 234 556T274 570Q298 570 311 557T325 519Q325 464 274 464ZM115 464Q61 464 61 519Q61 543 75 556T115 570Q139 570 152 557T166 519Q166 464 115 464Z" />
<glyph unicode="&#xa9;" horiz-adv-x="727" d="M380 -106Q316 -106 259 -87T157 -30T88 62T63 187Q63 258 92 316T170 415T282 480T411 503Q492 503 551 470T642 384T674 268Q674 210 641 158T548 72T409 39Q342 39 302 62T244 122T226 195Q226 249 252 287T318
344T402 364Q428 364 452 358T493 338T510 303Q510 284 500 273T467 261Q450 261 441 272T423 297Q415 313 404 326T370 340Q337 340 327 312T317 230Q317 187 332 150T379 90T463 67Q500 67 533 87T586 146T607 236Q607 304 577 359T495 447T375 480Q299 480 246
444T165 346T137 213Q137 148 156 96T212 6T300 -51T416 -71Q449 -71 479 -67T539 -51T601 -20Q604 -18 607 -22T607 -28Q546 -76 490 -91T380 -106Z" />
<glyph unicode="&#xaa;" horiz-adv-x="276" d="M94 361Q72 361 61 379T55 440Q60 472 77 505T120 568T173 615T227 633Q247 633 266 622T288 586L249 606Q260 608 272 616T291 637Q293 639 296 638T299 635L260 426Q254 396 268 396Q275 396 285 405T309 428Q311
430 315 426T317 420Q295 393 275 379T236 364Q216 364 209 379T207 426L223 525L243 537Q227 475 202 436T148 379T94 361ZM44 283Q42 283 41 290T40 305T43 313H269Q272 313 273 306T273 291T269 283H44ZM133 406Q148 406 163 419T192 453T215 497T227 540Q233
569 224 585T195 601Q176 601 160 587T131 547T113 490Q105 443 112 425T133 406Z" />
<glyph unicode="&#xab;" horiz-adv-x="434" d="M251 364Q254 366 258 362T260 356L150 201L206 47Q208 44 204 41T198 40L43 189Q40 194 40 200T47 212L251 364ZM399 364Q401 366 405 362T407 356L297 201L353 47Q355 44 351 41T345 40L191 189Q187 194 187 200T194
212L399 364Z" />
<glyph unicode="&#xac;" horiz-adv-x="407" d="M40 225Q37 225 36 236T36 259T39 271H370V225H40ZM323 81V271H370V82Q370 79 359 78T335 78T323 81Z" />
<glyph unicode="&#xad;" horiz-adv-x="305" d="M34 164Q31 164 29 176T27 202T29 215L278 262Q281 263 283 250T285 225T282 211L34 164Z" />
<glyph unicode="&#xae;" horiz-adv-x="751" d="M404 138Q347 138 293 157T197 214T129 303T104 419Q104 490 131 546T205 643T311 704T437 725Q526 725 591 689T691 591T727 451Q727 386 703 329T634 229T531 162T404 138ZM442 164Q517 164 565 197T637 288T661
418Q661 508 628 571T535 668T399 701Q317 701 266 667T190 577T166 456Q166 392 187 338T246 246T334 186T442 164ZM254 280Q252 280 253 285T256 291Q277 291 284 298T296 336L333 551Q338 578 335 586T310 595Q309 595 310 601T312 607Q327 607 346 607T382
606Q401 606 425 607T465 609Q515 609 538 593T553 540Q547 502 519 479T450 446T364 439L367 455Q424 448 447 462T477 520Q485 561 476 578T447 596Q428 596 419 590T404 549L366 336Q361 306 367 299T400 291Q402 291 401 286T398 280Q383 280 365 280T325 281Q308
281 287 281T254 280ZM483 280Q473 280 458 324T421 443L483 457Q498 407 512 375T544 322T582 288Q584 287 584 284T581 280Q544 280 519 280T483 280Z" />
<glyph unicode="&#xaf;" horiz-adv-x="333" d="M105 473Q99 473 97 483T96 503T105 513H333Q340 513 342 503T343 483T333 473H105Z" />
<glyph unicode="&#xb0;" horiz-adv-x="299" d="M184 373Q136 373 110 396T75 452T71 515Q77 545 98 571T153 614T226 630Q273 630 299 608T333 554T336 489Q326 438 283 406T184 373ZM196 393Q216 393 227 406T243 440T251 482Q259 541 252 576T215 611Q188 611
175 582T156 518Q151 486 152 457T164 411T196 393Z" />
<glyph unicode="&#xb1;" horiz-adv-x="398" d="M34 1Q31 1 30 12T30 33T33 44H364Q367 44 368 34T368 12T364 1H34ZM34 229Q31 229 30 240T30 264T33 276H364Q367 276 368 264T368 241T364 229H34ZM222 88Q222 85 211 84T187 84T175 87V418Q175 421 187 421T210
422T222 418V88Z" />
<glyph unicode="&#xb2;" horiz-adv-x="234" d="M63 403Q55 403 60 414Q81 467 105 498T153 552T192 596T212 649Q214 672 207 686T181 701Q163 701 144 686T115 647Q113 643 108 645T103 651Q118 683 143 706T209 729Q250 729 266 706T277 649Q271 617 250 595T202
553T149 514T110 465Q109 463 111 463Q150 463 175 465T216 473T239 486T249 507Q250 512 255 511T260 504L241 404Q241 403 239 403Q201 403 153 403T63 403Z" />
<glyph unicode="&#xb3;" horiz-adv-x="234" d="M179 568L180 578Q205 578 224 568T254 539T260 493Q256 471 241 449T202 412T142 397Q103 397 87 416T67 460Q66 464 71 465T78 462Q82 450 89 442T107 429T130 424Q148 424 166 441T192 500Q198 533 184 548T137
564Q133 564 133 570T137 576Q155 576 169 585T193 611T207 649Q212 678 203 688T179 699Q158 699 142 684T116 649Q115 646 110 647T105 655Q119 686 145 707T208 729Q249 729 265 705T275 649Q271 625 255 607T218 579T179 568Z" />
<glyph unicode="&#xb4;" horiz-adv-x="212" d="M119 473Q118 470 113 472T109 476L184 716Q185 721 201 725T238 731T272 733T284 727L119 473Z" />
<glyph unicode="&#xb6;" horiz-adv-x="594" d="M239 -193Q199 -193 179 -179T161 -138Q164 -118 176 -109T206 -99Q227 -99 234 -109T243 -133T251 -156T275 -167Q290 -167 297 -155T312 -105T333 8L354 125Q318 122 275 122Q234 122 195 135T126 179T83 260T82
386Q105 507 186 567T386 628Q417 628 448 625T519 622Q545 622 571 623T619 625Q624 625 624 619T619 613Q580 613 555 592T522 532L439 55Q416 -75 366 -134T239 -193Z" />
<glyph unicode="&#xb7;" horiz-adv-x="209" d="M111 164Q85 164 70 179T54 221Q54 246 69 260T111 275Q137 275 151 261T166 221Q166 164 111 164Z" />
<glyph unicode="&#xb8;" horiz-adv-x="196" d="M4 -275Q-31 -275 -55 -261T-76 -222Q-74 -204 -61 -196T-34 -188Q-15 -188 -8 -198T4 -222T13 -245T34 -256Q57 -256 60 -232Q62 -213 46 -188T9 -138Q-4 -121 2 -102T20 -60L49 0H65Q54 -24 56 -41T69 -73T91 -104Q111
-129 119 -148T124 -187Q121 -204 108 -225T69 -260T4 -275Z" />
<glyph unicode="&#xb9;" horiz-adv-x="242" d="M77 403Q74 403 74 408T77 414Q104 414 116 418T135 437T146 483L167 601Q173 632 170 647T154 663T116 652Q112 650 110 655T111 662L248 731Q252 733 255 731T257 725L215 483Q210 452 210 437T221 418T256 414Q260
414 260 409T256 403Q238 403 217 404T170 405Q145 405 121 404T77 403Z" />
<glyph unicode="&#xba;" horiz-adv-x="269" d="M152 358Q116 358 95 377T66 428T67 497Q74 536 94 566T145 613T209 630Q246 630 267 612T296 564T296 495Q288 450 266 420T213 374T152 358ZM49 283Q46 283 45 290T45 305T48 313H269Q272 313 273 306T273 291T269
283H49ZM173 377Q195 377 210 401T234 467Q242 506 239 539T222 592T188 612Q169 612 153 592T129 524Q119 463 130 420T173 377Z" />
<glyph unicode="&#xbb;" horiz-adv-x="433" d="M185 37Q182 36 178 39T177 46L287 200L230 354Q229 357 233 360T239 361L393 212Q397 208 397 201T389 189L185 37ZM37 37Q35 36 31 39T29 46L139 200L83 354Q82 357 86 360T91 361L246 212Q249 208 249 201T242
189L37 37Z" />
<glyph unicode="&#xbc;" horiz-adv-x="558" d="M59 309Q56 309 56 314T59 320Q86 320 98 324T117 343T128 389L149 507Q155 538 152 553T136 569T98 558Q94 556 92 561T93 568L230 637Q234 639 237 637T239 631L197 389Q192 358 192 343T203 324T238 320Q242 320
242 315T238 309Q220 309 199 310T152 311Q127 311 103 310T59 309ZM162 -6Q161 -7 154 -4T139 3T133 9L471 627Q473 630 480 627T495 619T500 611L162 -6ZM361 -2Q357 -2 357 4T361 10Q390 10 398 15T411 41L444 231L473 262L361 122Q357 119 363 119Q395 119
421 120T472 122T524 125Q526 125 526 116T524 97T520 87Q481 90 432 91T313 93Q312 93 311 95T312 99L506 329Q508 332 516 329T523 321L477 41Q473 22 477 16T506 10Q511 10 511 4T506 -2Q491 -2 476 -1T441 0Q418 0 398 -1T361 -2Z" />
<glyph unicode="&#xbd;" horiz-adv-x="573" d="M59 309Q56 309 56 314T59 320Q86 320 98 324T117 343T128 389L149 507Q155 538 152 553T136 569T98 558Q94 556 92 561T93 568L230 637Q234 639 237 637T239 631L197 389Q192 358 192 343T203 324T238 320Q242 320
242 315T238 309Q220 309 199 310T152 311Q127 311 103 310T59 309ZM162 -6Q161 -7 154 -4T139 3T133 9L471 627Q473 630 480 627T495 619T500 611L162 -6ZM332 0Q324 0 329 11Q350 64 374 95T422 149T461 193T481 246Q483 269 476 283T450 298Q432 298 413 283T384
244Q382 240 377 242T372 248Q387 280 412 303T478 326Q519 326 535 303T546 246Q540 214 519 192T471 150T418 111T379 62Q378 60 380 60Q419 60 444 62T485 70T508 83T518 104Q519 109 524 108T529 101L510 1Q510 0 508 0Q470 0 422 0T332 0Z" />
<glyph unicode="&#xbe;" horiz-adv-x="550" d="M161 474L162 484Q187 484 206 474T236 445T242 399Q238 377 223 355T184 318T124 303Q85 303 69 322T49 366Q48 370 53 371T60 368Q64 356 71 348T89 335T112 330Q130 330 148 347T174 406Q180 439 166 454T119
470Q115 470 115 476T119 482Q137 482 151 491T175 517T189 555Q194 584 185 594T161 605Q140 605 124 590T98 555Q97 552 92 553T87 561Q101 592 127 613T190 635Q231 635 247 611T257 555Q253 531 237 513T200 485T161 474ZM154 -6Q153 -7 146 -4T131 3T125 9L463
627Q465 630 472 627T487 619T492 611L154 -6ZM353 -2Q349 -2 349 4T353 10Q382 10 390 15T403 41L436 231L465 262L353 122Q349 119 355 119Q387 119 413 120T464 122T516 125Q518 125 518 116T516 97T512 87Q473 90 424 91T305 93Q304 93 303 95T304 99L498 329Q500
332 508 329T515 321L469 41Q465 22 469 16T498 10Q503 10 503 4T498 -2Q483 -2 468 -1T433 0Q410 0 390 -1T353 -2Z" />
<glyph unicode="&#xbf;" horiz-adv-x="327" d="M189 164Q211 136 221 101T228 45Q222 9 201 -14T155 -57T108 -102T81 -167Q79 -187 81 -207T91 -241T116 -255Q133 -255 139 -242T147 -215Q148 -204 152 -190T167 -165T201 -154Q229 -154 239 -171T245 -208Q241
-231 220 -246T169 -268T108 -275Q47 -275 11 -246T-15 -155Q-9 -123 7 -100T44 -58T85 -22Q132 13 151 40T176 101Q178 113 178 127T174 158Q173 163 180 165T189 164ZM205 358Q231 358 246 343T262 301Q262 276 247 262T205 247Q179 247 165 261T150 301Q150
358 205 358Z" />
<glyph unicode="&#xc0;" horiz-adv-x="605" d="M-34 0Q-38 0 -38 6T-34 12Q-8 12 30 42T103 136L382 634Q384 638 391 637T400 633L509 84Q514 57 519 41T536 19T573 12Q577 12 577 6T573 0Q547 0 521 2T462 4Q431 4 407 2T356 0Q352 0 352 6T356 12Q394 12 405
27T408 84L323 505L379 582L130 129Q107 88 105 62T121 24T181 12Q185 12 185 6T180 0Q157 0 124 2T58 4Q29 4 11 2T-34 0ZM171 229L186 257H405L407 229H171ZM486 679Q435 702 383 721T264 756Q254 758 266 765T300 780T341 792T365 793Q395 769 425 742T490 689Q494
688 493 683T486 679Z" />
<glyph unicode="&#xc1;" horiz-adv-x="605" d="M-34 0Q-38 0 -38 6T-34 12Q-8 12 30 42T103 136L382 634Q384 638 391 637T400 633L509 84Q514 57 519 41T536 19T573 12Q577 12 577 6T573 0Q547 0 521 2T462 4Q431 4 407 2T356 0Q352 0 352 6T356 12Q394 12 405
27T408 84L323 505L379 582L130 129Q107 88 105 62T121 24T181 12Q185 12 185 6T180 0Q157 0 124 2T58 4Q29 4 11 2T-34 0ZM171 229L186 257H405L407 229H171ZM289 678Q285 677 283 682T284 689Q320 715 350 741T410 793Q414 796 433 792T474 780T508 765T511 756Q444
739 392 720T289 678Z" />
<glyph unicode="&#xc2;" horiz-adv-x="605" d="M-34 0Q-38 0 -38 6T-34 12Q-8 12 30 42T103 136L382 634Q384 638 391 637T400 633L509 84Q514 57 519 41T536 19T573 12Q577 12 577 6T573 0Q547 0 521 2T462 4Q431 4 407 2T356 0Q352 0 352 6T356 12Q394 12 405
27T408 84L323 505L379 582L130 129Q107 88 105 62T121 24T181 12Q185 12 185 6T180 0Q157 0 124 2T58 4Q29 4 11 2T-34 0ZM171 229L186 257H405L407 229H171ZM296 680Q294 679 291 682T290 687L406 802Q410 807 415 807T424 802L507 687Q509 685 506 682T500 680L406
718L296 680Z" />
<glyph unicode="&#xc3;" horiz-adv-x="605" d="M-34 0Q-38 0 -38 6T-34 12Q-8 12 30 42T103 136L382 634Q384 638 391 637T400 633L509 84Q514 57 519 41T536 19T573 12Q577 12 577 6T573 0Q547 0 521 2T462 4Q431 4 407 2T356 0Q352 0 352 6T356 12Q394 12 405
27T408 84L323 505L379 582L130 129Q107 88 105 62T121 24T181 12Q185 12 185 6T180 0Q157 0 124 2T58 4Q29 4 11 2T-34 0ZM171 229L186 257H405L407 229H171ZM270 709Q269 708 266 711T263 716Q273 731 287 750T321 783T362 797Q376 797 396 791T439 779T483 772Q505
772 518 778T546 799Q548 801 551 798T553 792Q522 743 503 728T458 712Q440 712 420 718T378 730T333 736Q306 736 296 730T270 709Z" />
<glyph unicode="&#xc4;" horiz-adv-x="605" d="M-34 0Q-38 0 -38 6T-34 12Q-8 12 30 42T103 136L382 634Q384 638 391 637T400 633L509 84Q514 57 519 41T536 19T573 12Q577 12 577 6T573 0Q547 0 521 2T462 4Q431 4 407 2T356 0Q352 0 352 6T356 12Q394 12 405
27T408 84L323 505L379 582L130 129Q107 88 105 62T121 24T181 12Q185 12 185 6T180 0Q157 0 124 2T58 4Q29 4 11 2T-34 0ZM171 229L186 257H405L407 229H171ZM324 703Q299 703 284 717T269 758Q269 782 284 796T324 810Q349 810 362 796T376 758Q376 703 324 703ZM498
703Q444 703 444 758Q444 782 458 795T498 809Q550 809 550 758Q550 703 498 703Z" />
<glyph unicode="&#xc5;" horiz-adv-x="605" d="M-34 0Q-38 0 -38 6T-34 12Q-8 12 30 42T103 136L382 634Q384 638 391 637T400 633L509 84Q514 57 519 41T536 19T573 12Q577 12 577 6T573 0Q547 0 521 2T462 4Q431 4 407 2T356 0Q352 0 352 6T356 12Q394 12 405
27T408 84L323 505L379 582L130 129Q107 88 105 62T121 24T181 12Q185 12 185 6T180 0Q157 0 124 2T58 4Q29 4 11 2T-34 0ZM171 229L186 257H405L407 229H171ZM392 660Q341 660 313 684T285 740Q285 766 303 783T348 808T401 817Q445 817 476 794T508 737Q508 713
491 696T447 669T392 660ZM407 674Q434 674 434 720Q434 753 419 778T381 803Q358 803 358 759Q358 740 363 720T380 687T407 674Z" />
<glyph unicode="&#xc6;" horiz-adv-x="772" d="M-56 0Q-60 0 -60 6T-56 12Q-31 12 -6 21T48 58T110 135L411 577Q424 596 424 603T407 611T352 613Q348 613 348 619T352 625H760Q768 625 766 616Q763 597 759 571T752 521T745 482Q744 478 739 479T733 483Q729
542 694 576T604 611H586Q569 611 558 604T539 581T529 543L471 85Q468 57 470 43T483 23T519 18H532Q584 18 633 56T715 159Q717 162 722 161T726 157Q716 128 708 89T692 15Q689 0 676 0H303Q299 0 299 6T303 12Q340 12 353 25T371 81L440 613L467 602L136 123Q105
77 121 45T192 12Q197 12 196 6T192 0Q174 0 147 1T92 3T40 4Q9 4 -10 2T-56 0ZM263 311L282 339H467L469 311H263ZM675 222Q674 218 668 218T663 223Q671 267 650 289T585 311H428L432 339H592Q636 339 661 356T696 415Q697 420 703 420T708 414Q703 382 700 364T691
325Q686 300 683 276T675 222Z" />
<glyph unicode="&#xc7;" horiz-adv-x="588" d="M320 -12Q231 -12 175 17T91 95T57 200T60 313Q74 390 110 450T199 551T312 614T436 636Q477 636 519 628T585 607Q592 603 593 599T593 584L577 450Q577 447 572 447T566 450Q549 524 505 566T395 609Q338 609 292
578T215 488T172 346Q162 278 168 217T194 109T247 35T326 8Q376 8 428 45T538 160Q541 164 545 162T549 157L522 42Q519 30 516 26T504 19Q454 2 407 -5T320 -12ZM266 -275Q231 -275 207 -261T186 -222Q188 -204 201 -196T228 -188Q247 -188 254 -198T266 -222T275
-245T296 -256Q319 -256 322 -232Q324 -213 308 -188T271 -138Q258 -121 264 -102T282 -60L311 0H327Q316 -24 318 -41T331 -73T353 -104Q373 -129 381 -148T386 -187Q383 -204 370 -225T331 -260T266 -275Z" />
<glyph unicode="&#xc8;" horiz-adv-x="531" d="M20 0Q17 0 17 6T20 12Q47 12 61 17T82 37T94 81L175 544Q183 587 174 600T126 613Q124 613 124 619T126 625H519Q527 625 525 616Q522 597 518 571T511 521T504 482Q503 478 498 479T492 483Q488 539 453 571T363
604H345Q317 604 304 600T285 582T274 543L193 85Q186 45 195 33T241 21H267Q326 21 381 58T474 159Q476 162 481 161T485 157Q476 128 467 89T451 15Q448 0 435 0H20ZM434 222Q433 218 427 218T422 223Q430 267 409 289T344 311H187L191 339H351Q396 339 421 356T455
415Q456 420 462 420T467 414Q462 382 458 364T450 325Q446 300 443 276T434 222ZM441 692Q404 707 375 717T316 736T249 756Q240 758 247 763T272 775T308 786T342 793T360 792Q383 766 402 749T451 701Q454 698 450 694T441 692Z" />
<glyph unicode="&#xc9;" horiz-adv-x="531" d="M20 0Q17 0 17 6T20 12Q47 12 61 17T82 37T94 81L175 544Q183 587 174 600T126 613Q124 613 124 619T126 625H519Q527 625 525 616Q522 597 518 571T511 521T504 482Q503 478 498 479T492 483Q488 539 453 571T363
604H345Q317 604 304 600T285 582T274 543L193 85Q186 45 195 33T241 21H267Q326 21 381 58T474 159Q476 162 481 161T485 157Q476 128 467 89T451 15Q448 0 435 0H20ZM434 222Q433 218 427 218T422 223Q430 267 409 289T344 311H187L191 339H351Q396 339 421 356T455
415Q456 420 462 420T467 414Q462 382 458 364T450 325Q446 300 443 276T434 222ZM300 679Q296 677 294 682T295 689Q331 715 361 742T420 793Q425 797 444 793T485 780T519 765T522 756Q455 740 403 721T300 679Z" />
<glyph unicode="&#xca;" horiz-adv-x="531" d="M20 0Q17 0 17 6T20 12Q47 12 61 17T82 37T94 81L175 544Q183 587 174 600T126 613Q124 613 124 619T126 625H519Q527 625 525 616Q522 597 518 571T511 521T504 482Q503 478 498 479T492 483Q488 539 453 571T363
604H345Q317 604 304 600T285 582T274 543L193 85Q186 45 195 33T241 21H267Q326 21 381 58T474 159Q476 162 481 161T485 157Q476 128 467 89T451 15Q448 0 435 0H20ZM434 222Q433 218 427 218T422 223Q430 267 409 289T344 311H187L191 339H351Q396 339 421 356T455
415Q456 420 462 420T467 414Q462 382 458 364T450 325Q446 300 443 276T434 222ZM260 680Q258 679 255 682T254 687L370 802Q374 807 379 807T388 802L471 687Q473 685 470 682T464 680L370 718L260 680Z" />
<glyph unicode="&#xcb;" horiz-adv-x="531" d="M20 0Q17 0 17 6T20 12Q47 12 61 17T82 37T94 81L175 544Q183 587 174 600T126 613Q124 613 124 619T126 625H519Q527 625 525 616Q522 597 518 571T511 521T504 482Q503 478 498 479T492 483Q488 539 453 571T363
604H345Q317 604 304 600T285 582T274 543L193 85Q186 45 195 33T241 21H267Q326 21 381 58T474 159Q476 162 481 161T485 157Q476 128 467 89T451 15Q448 0 435 0H20ZM434 222Q433 218 427 218T422 223Q430 267 409 289T344 311H187L191 339H351Q396 339 421 356T455
415Q456 420 462 420T467 414Q462 382 458 364T450 325Q446 300 443 276T434 222ZM453 703Q399 703 399 758Q399 782 413 795T453 809Q477 809 490 796T504 758Q504 703 453 703ZM294 703Q240 703 240 758Q240 782 254 795T294 809Q318 809 331 796T345 758Q345
703 294 703Z" />
<glyph unicode="&#xcc;" horiz-adv-x="336" d="M25 0Q22 0 22 6T25 12Q52 12 65 17T86 37T98 81L180 544Q188 587 178 600T130 613Q127 613 127 619T130 625Q153 625 181 624T240 622Q275 622 303 623T353 625Q356 625 356 619T353 613Q326 613 312 607T292 586T280
542L198 81Q190 38 199 25T248 12Q250 12 250 6T248 0Q226 0 198 1T136 2Q105 2 77 1T25 0ZM332 692Q295 707 266 717T207 736T140 756Q131 758 138 763T163 775T199 786T233 793T251 792Q274 766 293 749T342 701Q345 698 341 694T332 692Z" />
<glyph unicode="&#xcd;" horiz-adv-x="336" d="M25 0Q22 0 22 6T25 12Q52 12 65 17T86 37T98 81L180 544Q188 587 178 600T130 613Q127 613 127 619T130 625Q153 625 181 624T240 622Q275 622 303 623T353 625Q356 625 356 619T353 613Q326 613 312 607T292 586T280
542L198 81Q190 38 199 25T248 12Q250 12 250 6T248 0Q226 0 198 1T136 2Q105 2 77 1T25 0ZM191 679Q187 677 185 682T186 689Q222 715 252 742T311 793Q316 797 335 793T376 780T410 765T413 756Q346 740 294 721T191 679Z" />
<glyph unicode="&#xce;" horiz-adv-x="336" d="M25 0Q22 0 22 6T25 12Q52 12 65 17T86 37T98 81L180 544Q188 587 178 600T130 613Q127 613 127 619T130 625Q153 625 181 624T240 622Q275 622 303 623T353 625Q356 625 356 619T353 613Q326 613 312 607T292 586T280
542L198 81Q190 38 199 25T248 12Q250 12 250 6T248 0Q226 0 198 1T136 2Q105 2 77 1T25 0ZM151 680Q149 679 146 682T145 687L261 802Q265 807 270 807T279 802L362 687Q364 685 361 682T355 680L261 718L151 680Z" />
<glyph unicode="&#xcf;" horiz-adv-x="336" d="M25 0Q22 0 22 6T25 12Q52 12 65 17T86 37T98 81L180 544Q188 587 178 600T130 613Q127 613 127 619T130 625Q153 625 181 624T240 622Q275 622 303 623T353 625Q356 625 356 619T353 613Q326 613 312 607T292 586T280
542L198 81Q190 38 199 25T248 12Q250 12 250 6T248 0Q226 0 198 1T136 2Q105 2 77 1T25 0ZM190 703Q165 703 150 717T135 758Q135 782 150 796T190 810Q215 810 228 796T241 758Q241 703 190 703ZM343 703Q291 703 291 758Q291 809 343 809Q367 809 380 796T394
758Q394 703 343 703Z" />
<glyph unicode="&#xd0;" horiz-adv-x="636" d="M69 297Q66 297 65 304T65 318T69 325H331Q334 325 335 318T335 304T331 297H69ZM251 -4Q227 -4 191 -1T124 2Q91 2 64 1T13 0Q10 0 10 6T13 12Q40 12 54 17T75 37T88 81L170 544Q178 587 168 600T120 613Q118 613
118 619T120 625Q143 625 171 624T233 622Q261 622 291 624T349 627Q446 627 512 589T608 482T621 323Q608 249 572 189T484 85T372 19T251 -4ZM247 16Q310 16 363 49T454 146T508 301Q517 354 515 408T494 507T439 579T340 607Q302 607 288 592T268 542L188 92Q181
53 192 35T247 16Z" />
<glyph unicode="&#xd1;" horiz-adv-x="655" d="M487 -9L185 543Q162 584 143 598T102 613Q99 613 99 619T102 625Q122 625 147 624T189 623Q206 623 227 624T254 625Q265 625 268 614T287 573L523 143L516 -7Q516 -12 503 -14T487 -9ZM-2 0Q-5 0 -5 6T-2 12Q36
12 63 39T99 116L187 602L214 600L127 116Q119 67 137 40T193 12Q195 12 195 6T193 0Q172 0 149 1T96 2Q70 2 45 1T-2 0ZM516 -7L497 54L580 509Q589 557 572 585T515 613Q512 613 512 619T515 625Q533 625 557 624T612 622Q638 622 663 623T710 625Q712 625 712
619T710 613Q673 613 645 585T608 509L516 -7ZM289 686Q288 684 285 687T282 693Q292 708 306 727T340 760T382 774Q396 774 415 768T458 756T502 749Q525 749 538 755T566 776Q568 778 571 775T573 769Q542 720 523 704T478 688Q460 688 440 694T397 707T353 713Q325
713 315 706T289 686Z" />
<glyph unicode="&#xd2;" horiz-adv-x="655" d="M281 -12Q197 -12 142 31T66 149T60 313Q72 383 104 442T183 544T289 612T411 636Q497 636 553 593T631 477T637 313Q624 237 589 177T505 75T399 11T281 -12ZM324 14Q395 14 449 80T523 260Q535 329 531 392T507
504T453 583T372 612Q301 612 247 546T173 366Q162 299 166 236T189 123T242 44T324 14ZM490 692Q453 707 424 717T365 736T298 756Q289 758 296 763T321 775T357 786T391 793T409 792Q432 766 451 749T500 701Q503 698 499 694T490 692Z" />
<glyph unicode="&#xd3;" horiz-adv-x="655" d="M281 -12Q197 -12 142 31T66 149T60 313Q72 383 104 442T183 544T289 612T411 636Q497 636 553 593T631 477T637 313Q624 237 589 177T505 75T399 11T281 -12ZM324 14Q395 14 449 80T523 260Q535 329 531 392T507
504T453 583T372 612Q301 612 247 546T173 366Q162 299 166 236T189 123T242 44T324 14ZM349 679Q345 677 343 682T344 689Q380 715 410 742T469 793Q474 797 493 793T534 780T568 765T571 756Q504 740 452 721T349 679Z" />
<glyph unicode="&#xd4;" horiz-adv-x="655" d="M281 -12Q197 -12 142 31T66 149T60 313Q72 383 104 442T183 544T289 612T411 636Q497 636 553 593T631 477T637 313Q624 237 589 177T505 75T399 11T281 -12ZM324 14Q395 14 449 80T523 260Q535 329 531 392T507
504T453 583T372 612Q301 612 247 546T173 366Q162 299 166 236T189 123T242 44T324 14ZM309 680Q307 679 304 682T303 687L419 802Q423 807 428 807T437 802L520 687Q522 685 519 682T513 680L419 718L309 680Z" />
<glyph unicode="&#xd5;" horiz-adv-x="655" d="M281 -12Q197 -12 142 31T66 149T60 313Q72 383 104 442T183 544T289 612T411 636Q497 636 553 593T631 477T637 313Q624 237 589 177T505 75T399 11T281 -12ZM324 14Q395 14 449 80T523 260Q535 329 531 392T507
504T453 583T372 612Q301 612 247 546T173 366Q162 299 166 236T189 123T242 44T324 14ZM287 686Q286 684 283 687T280 693Q290 708 304 727T338 760T380 774Q394 774 413 768T456 756T500 749Q523 749 536 755T564 776Q566 778 569 775T571 769Q540 720 521 704T476
688Q458 688 438 694T395 707T351 713Q323 713 313 706T287 686Z" />
<glyph unicode="&#xd6;" horiz-adv-x="655" d="M281 -12Q197 -12 142 31T66 149T60 313Q72 383 104 442T183 544T289 612T411 636Q497 636 553 593T631 477T637 313Q624 237 589 177T505 75T399 11T281 -12ZM324 14Q395 14 449 80T523 260Q535 329 531 392T507
504T453 583T372 612Q301 612 247 546T173 366Q162 299 166 236T189 123T242 44T324 14ZM502 703Q448 703 448 758Q448 782 462 795T502 809Q526 809 539 796T553 758Q553 703 502 703ZM343 703Q289 703 289 758Q289 782 303 795T343 809Q367 809 380 796T394 758Q394
703 343 703Z" />
<glyph unicode="&#xd7;" horiz-adv-x="399" d="M98 56Q97 54 88 61T71 78T64 88L298 323Q301 325 310 317T326 301T331 289L98 56ZM65 290Q63 292 71 301T87 318T97 324L332 90Q334 88 327 79T310 63T298 57L65 290Z" />
<glyph unicode="&#xd8;" horiz-adv-x="655" d="M47 -14Q45 -16 39 -12T29 -1T27 7L647 635Q649 637 655 633T666 624T668 616L47 -14ZM281 -12Q197 -12 142 31T66 149T60 313Q72 383 104 442T183 544T289 612T411 636Q497 636 553 593T631 477T637 313Q624 237
589 177T505 75T399 11T281 -12ZM324 14Q395 14 449 80T523 260Q535 329 531 392T507 504T453 583T372 612Q301 612 247 546T173 366Q162 299 166 236T189 123T242 44T324 14Z" />
<glyph unicode="&#xd9;" horiz-adv-x="620" d="M559 501Q568 554 551 583T496 613Q493 613 494 619T496 625Q519 625 542 624T594 622Q619 622 642 623T684 625Q688 625 687 619T684 613Q648 613 623 580T588 494L535 192Q524 128 488 82T397 11T277 -14Q210 -14
163 12T94 86T84 201L146 547Q154 591 144 602T95 613Q91 613 92 619T94 625Q118 625 147 624T207 622Q242 622 271 623T323 625Q325 625 325 619T323 613Q295 613 280 606T257 583T244 538L189 229Q170 120 205 72T313 23Q390 23 441 69T505 198L559 501ZM513
679Q462 702 410 721T291 756Q281 758 293 765T327 780T368 792T392 793Q422 769 452 742T517 689Q521 688 520 683T513 679Z" />
<glyph unicode="&#xda;" horiz-adv-x="620" d="M559 501Q568 554 551 583T496 613Q493 613 494 619T496 625Q519 625 542 624T594 622Q619 622 642 623T684 625Q688 625 687 619T684 613Q648 613 623 580T588 494L535 192Q524 128 488 82T397 11T277 -14Q210 -14
163 12T94 86T84 201L146 547Q154 591 144 602T95 613Q91 613 92 619T94 625Q118 625 147 624T207 622Q242 622 271 623T323 625Q325 625 325 619T323 613Q295 613 280 606T257 583T244 538L189 229Q170 120 205 72T313 23Q390 23 441 69T505 198L559 501ZM316
678Q312 677 310 682T311 689Q347 715 377 741T437 793Q441 796 460 792T501 780T535 765T538 756Q471 739 419 720T316 678Z" />
<glyph unicode="&#xdb;" horiz-adv-x="620" d="M559 501Q568 554 551 583T496 613Q493 613 494 619T496 625Q519 625 542 624T594 622Q619 622 642 623T684 625Q688 625 687 619T684 613Q648 613 623 580T588 494L535 192Q524 128 488 82T397 11T277 -14Q210 -14
163 12T94 86T84 201L146 547Q154 591 144 602T95 613Q91 613 92 619T94 625Q118 625 147 624T207 622Q242 622 271 623T323 625Q325 625 325 619T323 613Q295 613 280 606T257 583T244 538L189 229Q170 120 205 72T313 23Q390 23 441 69T505 198L559 501ZM323
680Q321 679 318 682T317 687L433 802Q437 807 442 807T451 802L534 687Q536 685 533 682T527 680L433 718L323 680Z" />
<glyph unicode="&#xdc;" horiz-adv-x="620" d="M559 501Q568 554 551 583T496 613Q493 613 494 619T496 625Q519 625 542 624T594 622Q619 622 642 623T684 625Q688 625 687 619T684 613Q648 613 623 580T588 494L535 192Q524 128 488 82T397 11T277 -14Q210 -14
163 12T94 86T84 201L146 547Q154 591 144 602T95 613Q91 613 92 619T94 625Q118 625 147 624T207 622Q242 622 271 623T323 625Q325 625 325 619T323 613Q295 613 280 606T257 583T244 538L189 229Q170 120 205 72T313 23Q390 23 441 69T505 198L559 501ZM351
703Q326 703 311 717T296 758Q296 782 311 796T351 810Q376 810 389 796T403 758Q403 703 351 703ZM525 703Q471 703 471 758Q471 782 485 795T525 809Q577 809 577 758Q577 703 525 703Z" />
<glyph unicode="&#xdd;" horiz-adv-x="535" d="M311 265L294 282L450 526Q473 561 465 587T420 613Q416 613 416 619T420 625Q443 625 474 624T538 622Q559 622 572 623T605 625Q608 625 608 619T605 613Q574 613 541 587T469 504L311 265ZM117 0Q113 0 113 6T117
12Q149 12 166 17T191 37T204 81L243 310L344 319L302 81Q294 38 304 25T363 12Q366 12 366 6T363 0Q338 0 308 1T241 2Q204 2 173 1T117 0ZM254 271L139 542Q123 579 107 596T70 613Q66 613 66 619T70 625Q92 625 118 624T167 622Q196 622 229 623T282 625Q286
625 286 619T282 613Q248 613 238 605T237 573L344 317L254 271ZM299 679Q295 677 293 682T294 689Q330 715 360 742T419 793Q424 797 443 793T484 780T518 765T521 756Q454 740 402 721T299 679Z" />
<glyph unicode="&#xde;" horiz-adv-x="546" d="M15 0Q13 0 13 6T15 12Q42 12 56 17T78 37T90 81L172 544Q180 587 171 600T123 613Q120 613 120 619T123 625Q145 625 172 624T232 622Q274 622 308 623T368 625Q371 625 371 619T368 613Q329 613 310 609T283 589T269
542L188 81Q183 52 186 37T206 17T261 12Q263 12 263 6T261 0Q234 0 200 1T124 2Q93 2 65 1T15 0ZM280 133Q268 133 258 134T239 138Q236 139 238 148T244 157Q257 153 274 153Q303 153 334 165T391 208T427 292Q437 340 426 382T382 451T290 478Q266 478 243 474T201
463L195 483Q224 492 259 495T325 499Q399 499 451 478T528 415T538 312Q528 264 500 230T435 175T357 143T280 133Z" />
<glyph unicode="&#xdf;" horiz-adv-x="475" d="M-36 -275Q-81 -275 -104 -259T-125 -218Q-123 -200 -110 -189T-77 -178Q-55 -178 -47 -189T-36 -216T-31 -243T-14 -255Q-6 -255 1 -236T18 -172T39 -47L108 418Q121 506 152 575T236 685T361 726Q396 726 421 716T460
686T469 634Q465 599 446 573T402 525T358 480T333 428Q329 403 340 378T370 325T406 269T433 206T437 135Q431 96 412 63T361 9T287 -11Q244 -11 222 9T200 49Q200 69 212 83T246 98Q270 98 280 87T294 60T305 33T330 21Q353 21 361 37T372 70Q376 99 366 127T338
183T303 241T275 301T269 366Q274 400 289 429T324 486T357 547T375 620Q377 647 372 665T354 693T323 703Q274 703 245 637T194 439L126 -21Q112 -117 92 -172T41 -251T-36 -275Z" />
<glyph unicode="&#xe0;" horiz-adv-x="444" d="M83 -13Q49 -13 30 11T18 91Q25 142 52 195T120 295T206 370T294 399Q314 399 335 392T371 368T389 324L329 357Q346 359 364 373T396 407Q398 410 403 408T408 404L350 89Q341 42 361 42Q371 42 385 51T415 77Q418
80 422 76T423 69Q392 32 365 12T311 -9Q279 -9 268 14T264 89L289 229L310 246Q286 164 248 106T167 18T83 -13ZM147 60Q171 60 195 79T239 128T274 191T294 253Q302 298 288 324T244 350Q216 350 189 327T141 264T111 172Q101 109 113 85T147 60ZM298 475L237
727Q236 733 250 734T283 733T316 726T331 716L307 476Q307 474 303 473T298 475Z" />
<glyph unicode="&#xe1;" horiz-adv-x="444" d="M83 -13Q49 -13 30 11T18 91Q25 142 52 195T120 295T206 370T294 399Q314 399 335 392T371 368T389 324L329 357Q346 359 364 373T396 407Q398 410 403 408T408 404L350 89Q341 42 361 42Q371 42 385 51T415 77Q418
80 422 76T423 69Q392 32 365 12T311 -9Q279 -9 268 14T264 89L289 229L310 246Q286 164 248 106T167 18T83 -13ZM147 60Q171 60 195 79T239 128T274 191T294 253Q302 298 288 324T244 350Q216 350 189 327T141 264T111 172Q101 109 113 85T147 60ZM287 473Q286
470 281 472T277 476L352 716Q353 721 369 725T406 731T440 733T452 727L287 473Z" />
<glyph unicode="&#xe2;" horiz-adv-x="444" d="M83 -13Q49 -13 30 11T18 91Q25 142 52 195T120 295T206 370T294 399Q314 399 335 392T371 368T389 324L329 357Q346 359 364 373T396 407Q398 410 403 408T408 404L350 89Q341 42 361 42Q371 42 385 51T415 77Q418
80 422 76T423 69Q392 32 365 12T311 -9Q279 -9 268 14T264 89L289 229L310 246Q286 164 248 106T167 18T83 -13ZM147 60Q171 60 195 79T239 128T274 191T294 253Q302 298 288 324T244 350Q216 350 189 327T141 264T111 172Q101 109 113 85T147 60ZM352 726L384
477Q384 475 379 475T372 476L319 584L225 474Q223 471 218 473T214 477L334 726Q336 731 344 731T352 726Z" />
<glyph unicode="&#xe3;" horiz-adv-x="444" d="M83 -13Q49 -13 30 11T18 91Q25 142 52 195T120 295T206 370T294 399Q314 399 335 392T371 368T389 324L329 357Q346 359 364 373T396 407Q398 410 403 408T408 404L350 89Q341 42 361 42Q371 42 385 51T415 77Q418
80 422 76T423 69Q392 32 365 12T311 -9Q279 -9 268 14T264 89L289 229L310 246Q286 164 248 106T167 18T83 -13ZM147 60Q171 60 195 79T239 128T274 191T294 253Q302 298 288 324T244 350Q216 350 189 327T141 264T111 172Q101 109 113 85T147 60ZM164 470Q163
469 160 472T157 477Q167 492 181 511T215 544T256 558Q270 558 290 552T333 540T377 533Q399 533 412 539T440 560Q442 562 445 559T447 553Q416 504 397 489T352 473Q334 473 314 479T272 491T227 497Q200 497 190 491T164 470Z" />
<glyph unicode="&#xe4;" horiz-adv-x="444" d="M83 -13Q49 -13 30 11T18 91Q25 142 52 195T120 295T206 370T294 399Q314 399 335 392T371 368T389 324L329 357Q346 359 364 373T396 407Q398 410 403 408T408 404L350 89Q341 42 361 42Q371 42 385 51T415 77Q418
80 422 76T423 69Q392 32 365 12T311 -9Q279 -9 268 14T264 89L289 229L310 246Q286 164 248 106T167 18T83 -13ZM147 60Q171 60 195 79T239 128T274 191T294 253Q302 298 288 324T244 350Q216 350 189 327T141 264T111 172Q101 109 113 85T147 60ZM383 464Q329
464 329 519Q329 543 343 556T383 570Q407 570 420 557T434 519Q434 464 383 464ZM224 464Q170 464 170 519Q170 543 184 556T224 570Q248 570 261 557T275 519Q275 464 224 464Z" />
<glyph unicode="&#xe5;" horiz-adv-x="444" d="M83 -13Q49 -13 30 11T18 91Q25 142 52 195T120 295T206 370T294 399Q314 399 335 392T371 368T389 324L329 357Q346 359 364 373T396 407Q398 410 403 408T408 404L350 89Q341 42 361 42Q371 42 385 51T415 77Q418
80 422 76T423 69Q392 32 365 12T311 -9Q279 -9 268 14T264 89L289 229L310 246Q286 164 248 106T167 18T83 -13ZM147 60Q171 60 195 79T239 128T274 191T294 253Q302 298 288 324T244 350Q216 350 189 327T141 264T111 172Q101 109 113 85T147 60ZM297 468Q247
468 219 492T191 547Q191 573 209 590T254 616T307 625Q351 625 382 602T413 545Q413 521 396 504T353 477T297 468ZM313 482Q340 482 340 527Q340 561 325 586T287 611Q264 611 264 567Q264 547 269 528T286 495T313 482Z" />
<glyph unicode="&#xe6;" horiz-adv-x="589" d="M88 -13Q51 -13 31 14T18 91Q24 139 49 192T112 293T198 369T297 399Q326 399 350 388T379 350Q364 324 348 298T316 246Q288 172 251 113T172 21T88 -13ZM152 65Q168 65 190 83T234 130T274 191T297 254Q307 301
293 334T247 367Q222 367 196 341T148 271T117 171Q110 126 114 104T130 73T152 65ZM396 -12Q322 -12 298 49T296 211L331 305Q368 352 416 375T520 399Q570 399 587 382T599 338Q596 316 573 293T495 243T337 185L338 196Q369 209 405 226T468 267T501 323Q503
334 501 345T491 365T470 373Q437 373 411 329T377 215Q365 126 390 81T458 35Q476 35 495 42T532 64Q535 67 539 63T540 56Q501 19 466 4T396 -12Z" />
<glyph unicode="&#xe7;" horiz-adv-x="347" d="M160 -13Q115 -13 87 6T43 56T25 125T29 202Q40 262 75 306T159 374T253 399Q276 399 298 393T334 371T347 332Q346 312 333 300T296 287Q269 287 259 301T246 332Q242 347 235 359T209 371Q189 371 172 354T142
307T123 237Q114 182 120 136T151 63T221 36Q242 36 267 45T309 67Q311 69 315 65T317 58Q280 21 239 4T160 -13ZM113 -275Q78 -275 54 -261T33 -222Q35 -204 48 -196T75 -188Q94 -188 101 -198T113 -222T122 -245T143 -256Q166 -256 169 -232Q171 -213 155 -188T118
-138Q105 -121 111 -102T129 -60L158 0H174Q163 -24 165 -41T178 -73T200 -104Q220 -129 228 -148T233 -187Q230 -204 217 -225T178 -260T113 -275Z" />
<glyph unicode="&#xe8;" horiz-adv-x="357" d="M160 -12Q102 -12 70 17T28 91T27 185Q35 224 56 262T109 331T182 380T270 399Q311 399 331 385T350 345Q347 319 323 295T260 252T172 220T73 201L75 214Q146 225 194 250T249 324Q253 346 245 359T218 372Q195
372 177 352T145 296T124 218Q116 167 123 125T154 58T219 32Q238 32 262 39T309 63Q311 65 314 61T316 55Q278 18 238 3T160 -12ZM252 475L191 727Q190 733 204 734T237 733T270 726T285 716L261 476Q261 474 257 473T252 475Z" />
<glyph unicode="&#xe9;" horiz-adv-x="357" d="M160 -12Q102 -12 70 17T28 91T27 185Q35 224 56 262T109 331T182 380T270 399Q311 399 331 385T350 345Q347 319 323 295T260 252T172 220T73 201L75 214Q146 225 194 250T249 324Q253 346 245 359T218 372Q195
372 177 352T145 296T124 218Q116 167 123 125T154 58T219 32Q238 32 262 39T309 63Q311 65 314 61T316 55Q278 18 238 3T160 -12ZM241 473Q240 470 235 472T231 476L306 716Q307 721 323 725T360 731T394 733T406 727L241 473Z" />
<glyph unicode="&#xea;" horiz-adv-x="357" d="M160 -12Q102 -12 70 17T28 91T27 185Q35 224 56 262T109 331T182 380T270 399Q311 399 331 385T350 345Q347 319 323 295T260 252T172 220T73 201L75 214Q146 225 194 250T249 324Q253 346 245 359T218 372Q195
372 177 352T145 296T124 218Q116 167 123 125T154 58T219 32Q238 32 262 39T309 63Q311 65 314 61T316 55Q278 18 238 3T160 -12ZM306 727L338 478Q338 475 333 475T326 477L273 584L179 474Q177 472 172 473T168 478L287 727Q290 732 298 732T306 727Z" />
<glyph unicode="&#xeb;" horiz-adv-x="357" d="M160 -12Q102 -12 70 17T28 91T27 185Q35 224 56 262T109 331T182 380T270 399Q311 399 331 385T350 345Q347 319 323 295T260 252T172 220T73 201L75 214Q146 225 194 250T249 324Q253 346 245 359T218 372Q195
372 177 352T145 296T124 218Q116 167 123 125T154 58T219 32Q238 32 262 39T309 63Q311 65 314 61T316 55Q278 18 238 3T160 -12ZM337 464Q283 464 283 519Q283 543 297 556T337 570Q361 570 374 557T388 519Q388 464 337 464ZM178 464Q124 464 124 519Q124 543
138 556T178 570Q202 570 215 557T229 519Q229 464 178 464Z" />
<glyph unicode="&#xec;" horiz-adv-x="247" d="M106 -9Q73 -9 63 16T63 89L104 297Q114 346 89 346Q79 346 65 336T32 306Q28 302 24 306T23 315Q59 358 88 376T145 395Q177 395 187 373T189 309L147 89Q142 61 147 52T160 42Q171 42 184 52T213 77Q217 81 221
77T221 69Q190 32 163 12T106 -9ZM158 475L97 727Q96 733 110 734T143 733T176 726T191 716L167 476Q167 474 163 473T158 475Z" />
<glyph unicode="&#xed;" horiz-adv-x="247" d="M106 -9Q73 -9 63 16T63 89L104 297Q114 346 89 346Q79 346 65 336T32 306Q28 302 24 306T23 315Q59 358 88 376T145 395Q177 395 187 373T189 309L147 89Q142 61 147 52T160 42Q171 42 184 52T213 77Q217 81 221
77T221 69Q190 32 163 12T106 -9ZM147 473Q146 470 141 472T137 476L212 716Q213 721 229 725T266 731T300 733T312 727L147 473Z" />
<glyph unicode="&#xee;" horiz-adv-x="247" d="M106 -9Q73 -9 63 16T63 89L104 297Q114 346 89 346Q79 346 65 336T32 306Q28 302 24 306T23 315Q59 358 88 376T145 395Q177 395 187 373T189 309L147 89Q142 61 147 52T160 42Q171 42 184 52T213 77Q217 81 221
77T221 69Q190 32 163 12T106 -9ZM212 726L244 477Q244 475 239 475T232 476L179 584L85 474Q83 471 78 473T74 477L194 726Q196 731 204 731T212 726Z" />
<glyph unicode="&#xef;" horiz-adv-x="247" d="M106 -9Q73 -9 63 16T63 89L104 297Q114 346 89 346Q79 346 65 336T32 306Q28 302 24 306T23 315Q59 358 88 376T145 395Q177 395 187 373T189 309L147 89Q142 61 147 52T160 42Q171 42 184 52T213 77Q217 81 221
77T221 69Q190 32 163 12T106 -9ZM89 464Q64 464 49 478T34 519Q34 543 49 557T89 571Q114 571 127 557T140 519Q140 464 89 464ZM242 464Q190 464 190 519Q190 570 242 570Q266 570 279 557T293 519Q293 464 242 464Z" />
<glyph unicode="&#xf0;" horiz-adv-x="401" d="M154 -13Q101 -13 68 14T22 87T20 186Q34 259 71 306T156 376T242 399Q276 399 305 382T349 333L288 204Q297 278 293 355T272 502T230 627T172 712Q170 715 173 719T180 725T186 725Q241 693 284 638T354 514T390
368T385 216Q371 140 336 89T253 13T154 -13ZM181 11Q217 11 245 56T288 204Q298 286 286 332T228 378Q193 378 162 336T119 215Q113 160 118 114T139 39T181 11ZM142 495Q138 493 132 503T130 516L404 646Q407 648 413 638T415 625L142 495Z" />
<glyph unicode="&#xf1;" horiz-adv-x="475" d="M339 -9Q306 -9 297 16T296 89L325 248Q343 342 298 342Q270 342 239 304T181 193T136 12L118 13Q138 132 172 218T252 352T349 399Q391 399 408 367T413 267L380 89Q375 61 379 52T393 42Q404 42 417 52T446 77Q449
81 453 77T454 69Q423 32 396 12T339 -9ZM80 -8Q61 -8 54 -6T47 0Q47 4 52 26T62 74L103 297Q112 346 88 346Q78 346 64 336T30 306Q27 302 23 306T22 315Q58 358 87 376T144 395Q176 395 186 373T188 309L136 12Q131 -8 80 -8ZM149 470Q148 469 145 472T142 477Q152
492 166 511T200 544T241 558Q255 558 275 552T318 540T362 533Q384 533 397 539T425 560Q427 562 430 559T432 553Q401 504 382 489T337 473Q319 473 299 479T257 491T212 497Q185 497 175 491T149 470Z" />
<glyph unicode="&#xf2;" horiz-adv-x="408" d="M158 -14Q103 -14 71 15T28 91T28 193Q40 254 72 300T150 373T249 399Q305 399 338 372T382 298T381 193Q368 125 333 79T251 9T158 -14ZM192 11Q224 11 247 48T282 149Q290 194 290 234T280 307T255 357T216 375Q188
375 164 341T127 236Q119 191 120 150T129 78T154 29T192 11ZM254 475L193 727Q192 733 206 734T239 733T272 726T287 716L263 476Q263 474 259 473T254 475Z" />
<glyph unicode="&#xf3;" horiz-adv-x="408" d="M158 -14Q103 -14 71 15T28 91T28 193Q40 254 72 300T150 373T249 399Q305 399 338 372T382 298T381 193Q368 125 333 79T251 9T158 -14ZM192 11Q224 11 247 48T282 149Q290 194 290 234T280 307T255 357T216 375Q188
375 164 341T127 236Q119 191 120 150T129 78T154 29T192 11ZM243 473Q242 470 237 472T233 476L308 716Q309 721 325 725T362 731T396 733T408 727L243 473Z" />
<glyph unicode="&#xf4;" horiz-adv-x="408" d="M158 -14Q103 -14 71 15T28 91T28 193Q40 254 72 300T150 373T249 399Q305 399 338 372T382 298T381 193Q368 125 333 79T251 9T158 -14ZM192 11Q224 11 247 48T282 149Q290 194 290 234T280 307T255 357T216 375Q188
375 164 341T127 236Q119 191 120 150T129 78T154 29T192 11ZM308 727L340 478Q340 475 335 475T328 477L275 584L181 474Q179 472 174 473T170 478L289 727Q292 732 300 732T308 727Z" />
<glyph unicode="&#xf5;" horiz-adv-x="408" d="M158 -14Q103 -14 71 15T28 91T28 193Q40 254 72 300T150 373T249 399Q305 399 338 372T382 298T381 193Q368 125 333 79T251 9T158 -14ZM192 11Q224 11 247 48T282 149Q290 194 290 234T280 307T255 357T216 375Q188
375 164 341T127 236Q119 191 120 150T129 78T154 29T192 11ZM120 470Q119 469 116 472T113 477Q123 492 137 511T171 544T212 558Q226 558 246 552T289 540T333 533Q355 533 368 539T396 560Q398 562 401 559T403 553Q372 504 353 489T308 473Q290 473 270 479T228
491T183 497Q156 497 146 491T120 470Z" />
<glyph unicode="&#xf6;" horiz-adv-x="408" d="M158 -14Q103 -14 71 15T28 91T28 193Q40 254 72 300T150 373T249 399Q305 399 338 372T382 298T381 193Q368 125 333 79T251 9T158 -14ZM192 11Q224 11 247 48T282 149Q290 194 290 234T280 307T255 357T216 375Q188
375 164 341T127 236Q119 191 120 150T129 78T154 29T192 11ZM339 464Q285 464 285 519Q285 543 299 556T339 570Q363 570 376 557T390 519Q390 464 339 464ZM180 464Q126 464 126 519Q126 543 140 556T180 570Q204 570 217 557T231 519Q231 464 180 464Z" />
<glyph unicode="&#xf7;" horiz-adv-x="394" d="M34 178Q31 178 30 190T30 213T33 225H364Q367 225 368 214T368 190T364 178H34ZM200 -8Q174 -8 159 7T143 49Q143 74 158 88T200 103Q226 103 240 89T255 49Q255 -8 200 -8ZM199 309Q173 309 158 324T142 366Q142
391 157 405T199 420Q225 420 239 406T254 366Q254 309 199 309Z" />
<glyph unicode="&#xf8;" horiz-adv-x="408" d="M12 -18Q9 -20 1 -12T-5 0L386 402Q388 405 397 398T404 387L12 -18ZM158 -14Q103 -14 71 15T28 91T28 193Q40 254 72 300T150 373T249 399Q305 399 338 372T382 298T381 193Q368 125 333 79T251 9T158 -14ZM192
11Q224 11 247 48T282 149Q290 194 290 234T280 307T255 357T216 375Q188 375 164 341T127 236Q119 191 120 150T129 78T154 29T192 11Z" />
<glyph unicode="&#xf9;" horiz-adv-x="476" d="M127 -13Q85 -13 68 19T63 119L98 297Q103 326 99 335T85 344Q75 344 62 334T33 309Q29 305 25 309T25 317Q57 355 83 375T138 395Q168 395 180 372T182 297L151 138Q141 90 149 67T178 44Q207 44 237 82T295 193T340
374L358 373Q339 255 304 168T224 34T127 -13ZM332 -9Q300 -9 291 13T288 77L340 374Q345 394 396 394Q416 394 422 391T429 386Q429 382 424 360T414 312L373 89Q364 40 388 40Q398 40 412 50T446 80Q449 84 453 80T454 71Q418 28 390 10T332 -9ZM276 475L215
727Q214 733 228 734T261 733T294 726T309 716L285 476Q285 474 281 473T276 475Z" />
<glyph unicode="&#xfa;" horiz-adv-x="476" d="M127 -13Q85 -13 68 19T63 119L98 297Q103 326 99 335T85 344Q75 344 62 334T33 309Q29 305 25 309T25 317Q57 355 83 375T138 395Q168 395 180 372T182 297L151 138Q141 90 149 67T178 44Q207 44 237 82T295 193T340
374L358 373Q339 255 304 168T224 34T127 -13ZM332 -9Q300 -9 291 13T288 77L340 374Q345 394 396 394Q416 394 422 391T429 386Q429 382 424 360T414 312L373 89Q364 40 388 40Q398 40 412 50T446 80Q449 84 453 80T454 71Q418 28 390 10T332 -9ZM265 473Q264
470 259 472T255 476L330 716Q331 721 347 725T384 731T418 733T430 727L265 473Z" />
<glyph unicode="&#xfb;" horiz-adv-x="476" d="M127 -13Q85 -13 68 19T63 119L98 297Q103 326 99 335T85 344Q75 344 62 334T33 309Q29 305 25 309T25 317Q57 355 83 375T138 395Q168 395 180 372T182 297L151 138Q141 90 149 67T178 44Q207 44 237 82T295 193T340
374L358 373Q339 255 304 168T224 34T127 -13ZM332 -9Q300 -9 291 13T288 77L340 374Q345 394 396 394Q416 394 422 391T429 386Q429 382 424 360T414 312L373 89Q364 40 388 40Q398 40 412 50T446 80Q449 84 453 80T454 71Q418 28 390 10T332 -9ZM330 727L362
478Q362 475 357 475T350 477L297 584L203 474Q201 472 196 473T192 478L311 727Q314 732 322 732T330 727Z" />
<glyph unicode="&#xfc;" horiz-adv-x="476" d="M127 -13Q85 -13 68 19T63 119L98 297Q103 326 99 335T85 344Q75 344 62 334T33 309Q29 305 25 309T25 317Q57 355 83 375T138 395Q168 395 180 372T182 297L151 138Q141 90 149 67T178 44Q207 44 237 82T295 193T340
374L358 373Q339 255 304 168T224 34T127 -13ZM332 -9Q300 -9 291 13T288 77L340 374Q345 394 396 394Q416 394 422 391T429 386Q429 382 424 360T414 312L373 89Q364 40 388 40Q398 40 412 50T446 80Q449 84 453 80T454 71Q418 28 390 10T332 -9ZM361 464Q307
464 307 519Q307 543 321 556T361 570Q385 570 398 557T412 519Q412 464 361 464ZM202 464Q148 464 148 519Q148 543 162 556T202 570Q226 570 239 557T253 519Q253 464 202 464Z" />
<glyph unicode="&#xfd;" d="M-15 -281Q-41 -281 -59 -269T-73 -221Q-65 -175 -15 -175Q6 -175 23 -184T58 -198T99 -186Q121 -171 151 -135T213 -52T273 43T322 130T347 191Q356 227 352 248T338 284T319 311T310 345Q310 368 326 382T368 396Q393 396 407 379T421
326Q421 294 405 246T360 140T294 24T216 -89T133 -187T53 -256T-15 -281ZM164 -135Q169 94 141 216T63 339Q50 339 38 330T18 308Q16 304 11 305T6 311Q24 349 59 372T122 395Q155 395 180 363T221 273T243 142T244 -16L164 -135ZM249 473Q248 470 243 472T239
476L314 716Q315 721 331 725T368 731T402 733T414 727L249 473Z" />
<glyph unicode="&#xfe;" horiz-adv-x="411" d="M-67 -275Q-70 -276 -71 -270T-69 -263Q-49 -258 -40 -252T-25 -230T-15 -185L124 589Q133 637 122 647T69 637Q65 636 63 642T64 649L220 725Q225 727 229 723T232 717L73 -178Q66 -217 75 -227T120 -233Q124 -233
126 -238T123 -244L-67 -275ZM145 -1Q120 -1 96 2T57 8L67 70Q88 54 115 42T182 29Q216 29 240 54T281 123T303 220Q307 252 300 280T273 326T216 344Q172 344 125 323T20 260Q16 256 13 261T13 270Q77 323 147 358T285 393Q345 393 374 357T393 253Q386 202 362
156T303 75T227 19T145 -1Z" />
<glyph unicode="&#xff;" d="M-15 -281Q-41 -281 -59 -269T-73 -221Q-65 -175 -15 -175Q6 -175 23 -184T58 -198T99 -186Q121 -171 151 -135T213 -52T273 43T322 130T347 191Q356 227 352 248T338 284T319 311T310 345Q310 368 326 382T368 396Q393 396 407 379T421
326Q421 294 405 246T360 140T294 24T216 -89T133 -187T53 -256T-15 -281ZM164 -135Q169 94 141 216T63 339Q50 339 38 330T18 308Q16 304 11 305T6 311Q24 349 59 372T122 395Q155 395 180 363T221 273T243 142T244 -16L164 -135ZM345 464Q291 464 291 519Q291
543 305 556T345 570Q369 570 382 557T396 519Q396 464 345 464ZM186 464Q132 464 132 519Q132 543 146 556T186 570Q210 570 223 557T237 519Q237 464 186 464Z" />
<glyph unicode="&#x2013;" horiz-adv-x="515" d="M34 166Q31 166 30 178T30 201T33 213H481Q484 213 485 202T485 178T481 166H34Z" />
<glyph unicode="&#x2014;" horiz-adv-x="830" d="M34 166Q31 166 30 178T30 201T33 213H796Q799 213 800 202T800 178T796 166H34Z" />
<glyph unicode="&#x2018;" horiz-adv-x="189" d="M203 635Q207 638 210 633T210 626Q182 595 164 562T139 500Q131 466 137 453T143 437L110 419Q109 441 117 452T146 463Q178 463 190 441T198 397Q194 378 180 365T138 351Q101 351 84 380T78 460Q89 505 121
552T203 635Z" />
<glyph unicode="&#x2019;" horiz-adv-x="190" d="M92 351Q88 348 85 353T85 360Q114 391 131 424T156 486Q164 520 158 534T152 549L185 567Q186 545 178 534T149 523Q118 523 106 545T97 589Q101 608 115 621T157 635Q194 635 211 606T217 526Q207 481 175 434T92 351Z" />
<glyph unicode="&#x201a;" horiz-adv-x="143" d="M-19 -180Q-23 -183 -26 -178T-26 -171Q3 -140 20 -107T45 -45Q53 -11 47 3T41 18L74 36Q75 14 67 3T38 -8Q7 -8 -5 14T-14 58Q-10 77 4 90T46 104Q83 104 100 75T106 -5Q96 -50 64 -97T-19 -180Z" />
<glyph unicode="&#x201c;" horiz-adv-x="352" d="M186 635Q190 638 193 633T193 626Q165 595 147 562T122 500Q114 466 120 453T126 437L93 419Q92 441 100 452T129 463Q161 463 173 441T181 397Q177 378 163 365T121 351Q84 351 67 380T61 460Q72 505 104 552T186
635ZM349 635Q353 638 356 633T356 626Q328 595 310 562T285 500Q277 466 283 453T289 437L256 419Q255 441 263 452T292 463Q324 463 336 441T344 397Q340 378 326 365T284 351Q247 351 230 380T224 460Q235 505 267 552T349 635Z" />
<glyph unicode="&#x201d;" horiz-adv-x="353" d="M272 351Q268 348 265 353T265 360Q294 391 311 424T336 486Q344 520 338 534T332 549L365 567Q366 545 358 534T329 523Q298 523 286 545T277 589Q281 608 295 621T337 635Q374 635 391 606T397 526Q387 481 355
434T272 351ZM109 351Q105 348 102 353T102 360Q131 391 148 424T173 486Q181 520 175 534T169 549L202 567Q203 545 195 534T166 523Q135 523 123 545T114 589Q118 608 132 621T174 635Q211 635 228 606T234 526Q224 481 192 434T109 351Z" />
<glyph unicode="&#x201e;" horiz-adv-x="352" d="M161 -180Q157 -183 154 -178T154 -171Q183 -140 200 -107T225 -45Q233 -11 227 3T221 18L254 36Q255 14 247 3T218 -8Q187 -8 175 14T166 58Q170 77 184 90T226 104Q263 104 280 75T286 -5Q276 -50 244 -97T161
-180ZM-2 -180Q-6 -183 -9 -178T-9 -171Q20 -140 37 -107T62 -45Q70 -11 64 3T58 18L91 36Q92 14 84 3T55 -8Q24 -8 12 14T3 58Q7 77 21 90T63 104Q100 104 117 75T123 -5Q113 -50 81 -97T-2 -180Z" />
<glyph unicode="&#x2022;" horiz-adv-x="322" d="M171 131Q139 131 112 146T69 188T53 248Q53 280 69 306T112 349T171 365Q203 365 229 349T272 307T288 248Q288 215 272 189T230 147T171 131Z" />
<glyph unicode="&#x2039;" horiz-adv-x="287" d="M251 364Q254 366 258 362T260 356L150 201L206 47Q208 44 204 41T198 40L43 189Q40 194 40 200T47 212L251 364Z" />
<glyph unicode="&#x203a;" horiz-adv-x="285" d="M37 37Q35 36 31 39T29 46L139 200L83 354Q82 357 86 360T91 361L246 212Q249 208 249 201T242 189L37 37Z" />
</font>
</defs>
</svg>
