<?xml version="1.0" standalone="no"?>
<!DOCTYPE svg PUBLIC "-//W3C//DTD SVG 1.1//EN" "http://www.w3.org/Graphics/SVG/1.1/DTD/svg11.dtd">
<svg xmlns="http://www.w3.org/2000/svg">
<defs >
<font id="CormorantGaramond" horiz-adv-x="492" ><font-face
    font-family="Cormorant Garamond Light"
    units-per-em="1000"
    panose-1="0 0 0 0 0 0 0 0 0 0"
    ascent="924"
    descent="-287"
    alphabetic="0" />
<glyph unicode=" " horiz-adv-x="234" />
<glyph unicode="!" horiz-adv-x="263" d="M61 615Q60 620 71 623T100 627T131 629Q145 629 162 628T191 623T202 615Q184 552 174 479T157 331T146 189Q146 186 138 185T121 184T112 189Q108 256 103 330T88 478T61 615ZM125 -11Q97 -11 81 5T64 50Q64 76 80 92T125
108Q154 108 169 92T184 50Q184 22 169 6T125 -11Z" />
<glyph unicode="&quot;" horiz-adv-x="302" d="M57 365L28 606Q27 615 44 623T83 636T122 641T136 632L73 366Q72 364 65 363T57 365ZM209 365L180 606Q179 615 196 623T235 636T274 641T288 632L225 366Q224 364 217 363T209 365Z" />
<glyph unicode="#" horiz-adv-x="526" d="M150 -83Q150 -86 137 -85T111 -81T99 -75L198 482Q198 485 210 483T236 478T248 471L150 -83ZM337 -83Q337 -86 324 -85T299 -81T287 -75L385 482Q385 485 397 483T423 478T435 471L337 -83ZM63 74Q60 74 59 86T59 110T62
122H428Q431 122 432 110T432 86T428 74H63ZM98 273Q95 273 94 285T94 308T97 320H463Q466 320 467 309T467 285T463 273H98Z" />
<glyph unicode="$" horiz-adv-x="422" d="M205 -102V561Q205 566 212 567T227 568T234 561V-102Q234 -106 227 -107T213 -108T205 -102ZM137 392Q137 363 154 342T199 306T258 275Q291 258 321 239T371 195T391 131Q391 91 368 59T304 7T211 -12Q163 -12 120 0T61
25Q57 27 55 32T53 46L48 159Q48 164 53 164T60 161Q78 130 102 95T157 36T226 11Q246 11 263 18T291 42T302 85Q302 119 283 142T235 184T175 219Q145 235 118 253T72 295T54 353Q54 394 78 422T143 465T228 480Q263 480 297 473T351 457Q361 454 363 449T366
437V342Q366 339 361 338T354 339Q351 346 341 365T312 405T269 441T211 457Q171 457 154 438T137 392Z" />
<glyph unicode="%" horiz-adv-x="574" d="M150 303Q92 303 55 340T18 433Q18 468 35 497T82 543T150 560Q208 560 244 522T280 430Q280 377 244 340T150 303ZM157 319Q184 319 191 349T198 423Q198 544 144 544Q116 544 108 512T99 436Q99 387 111 353T157 319ZM427
-5Q389 -5 359 12T312 59T295 125Q295 160 312 189T359 235T427 253Q466 253 495 236T540 189T557 123Q557 69 521 32T427 -5ZM434 12Q461 12 468 41T475 116Q475 236 421 236Q393 236 385 205T377 129Q377 80 388 46T434 12ZM110 -8Q109 -10 101 -6T86 5T80 13L450
557Q452 559 460 554T475 543T481 535L110 -8Z" />
<glyph unicode="&amp;" horiz-adv-x="716" d="M65 131Q65 170 86 201T140 259T211 314T282 373T337 441T358 525Q358 570 337 594T284 619Q256 619 244 601T232 547Q232 492 257 435T325 323T420 218T527 127Q598 74 649 47T725 12Q729 11 729 6T725 0Q694 0 651
0T561 0Q550 0 532 8T484 36T404 96Q362 130 316 173T231 262T167 353Q154 378 146 403T138 461Q138 514 161 556T227 622T330 646Q371 646 401 634T447 600T464 546Q464 506 443 475T387 418T315 367T243 316T188 259T166 188Q166 150 188 116T251 59T351 37Q392
37 422 49T471 86T500 145T510 226Q510 283 492 310T429 337Q427 337 427 343T429 349L667 350Q670 350 670 344T667 338Q637 338 622 331T600 308T584 262Q576 233 563 197T529 124T474 56T391 7T274 -12Q202 -12 156 9T87 63T65 131Z" />
<glyph unicode="&apos;" horiz-adv-x="150" d="M57 365L28 606Q27 615 44 623T83 636T122 641T136 632L73 366Q72 364 65 363T57 365Z" />
<glyph unicode="(" horiz-adv-x="309" d="M44 304Q44 398 71 480T149 625T274 725Q276 726 278 724T278 719Q214 647 185 543T156 304Q156 169 185 65T278 -111Q280 -112 278 -115T274 -117Q201 -80 150 -17T71 128T44 304Z" />
<glyph unicode=")" horiz-adv-x="309" d="M265 304Q265 211 238 129T160 -17T36 -117Q34 -118 32 -116T31 -111Q96 -39 124 65T153 304Q153 439 125 543T31 719Q29 721 31 723T36 725Q109 689 160 626T238 480T265 304Z" />
<glyph unicode="*" horiz-adv-x="448" d="M160 366Q157 360 138 365T98 380T61 399T50 411L206 491Q208 493 212 491T215 485L160 366ZM261 309L232 481Q231 483 235 486T241 488L337 399Q343 394 333 378T306 344T276 315T261 309ZM204 511L73 526Q66 527 65
546T67 589T74 630T82 644L207 520Q209 519 208 515T204 511ZM425 477L250 504Q248 504 247 508T248 513L361 578Q368 581 380 567T405 531T423 493T425 477ZM226 529L200 657Q199 665 216 671T258 683T299 689T315 685L236 529Q235 526 231 526T226 529Z" />
<glyph unicode="+" horiz-adv-x="398" d="M34 165Q31 165 30 177T30 202T33 214H364Q367 214 368 202T368 178T364 165H34ZM223 25Q223 22 211 21T187 20T174 23V354Q174 357 186 358T211 358T223 354V25Z" />
<glyph unicode="," horiz-adv-x="222" d="M101 106Q136 106 155 83T175 9Q175 -46 149 -94T75 -189Q71 -192 68 -189T67 -182Q96 -147 105 -114T115 -44Q115 -14 110 -1T94 20L131 27Q132 10 121 1T91 -8Q65 -8 51 7T36 48Q36 76 54 91T101 106Z" />
<glyph unicode="-" horiz-adv-x="323" d="M32 154Q29 154 28 167T27 194T30 208L291 255Q294 256 295 243T295 216T291 201L32 154Z" />
<glyph unicode="." horiz-adv-x="207" d="M105 -11Q77 -11 61 5T44 50Q44 76 60 92T105 108Q134 108 149 92T164 50Q164 22 149 6T105 -11Z" />
<glyph unicode="/" horiz-adv-x="351" d="M74 -165Q73 -168 61 -166T37 -159T26 -152L278 730Q280 733 291 731T314 724T325 716L74 -165Z" />
<glyph unicode="0" horiz-adv-x="477" d="M240 -13Q178 -13 130 14T54 88T26 195Q26 255 53 301T129 373T240 399Q303 399 350 373T424 300T451 193Q451 133 424 87T350 14T240 -13ZM250 8Q297 8 320 54T343 179Q343 251 328 294T287 358T232 378Q184 378 159
331T133 206Q133 147 147 103T188 33T250 8Z" />
<glyph unicode="1" horiz-adv-x="332" d="M119 305Q119 334 114 349T93 369T42 374Q40 374 40 380T42 386Q68 386 99 385T166 384Q201 384 233 385T290 386Q293 386 293 380T290 374Q258 374 242 369T219 349T213 305V81Q213 52 218 37T239 17T290 12Q293 12 293
6T290 0Q265 0 234 1T166 2Q131 2 100 1T42 0Q40 0 40 6T42 12Q74 12 90 17T113 37T119 81V305Z" />
<glyph unicode="2" horiz-adv-x="402" d="M37 27Q97 82 135 119T196 184T228 232T237 276Q237 311 219 339T164 368Q124 368 101 332T56 235Q55 233 49 234T44 237L88 408Q89 411 95 410T99 406Q95 387 100 382T113 377Q130 377 155 388T222 399Q278 399 308 373T339
304Q339 268 319 237T269 180T206 130T147 87Q144 84 146 82T152 80Q203 80 241 81T306 87T347 102T367 130Q368 134 373 133T379 130L358 11Q358 7 356 4T349 0Q279 0 198 0T43 0Q38 0 35 11T37 27Z" />
<glyph unicode="3" horiz-adv-x="394" d="M54 -275Q50 -276 48 -271T49 -264Q109 -240 148 -210T211 -148T244 -84T254 -25Q254 14 241 43T202 89T143 105Q133 105 123 104T102 99Q99 98 97 104T98 111Q166 129 199 165T232 268Q232 317 218 344T173 371Q131 371
97 343T40 258Q39 256 33 257T28 261L65 407Q67 410 72 409T77 405Q73 388 79 383T92 377Q109 377 137 388T206 399Q269 399 301 364T333 285Q333 248 315 214T263 154T181 119L182 135Q246 133 286 112T344 58T363 -12Q363 -57 331 -106T230 -199T54 -275Z" />
<glyph unicode="4" horiz-adv-x="456" d="M34 8Q30 8 27 12T27 20L337 396Q339 399 345 398T352 392V-135Q352 -145 344 -149L265 -188Q256 -193 256 -182V278L335 338L89 49Q86 45 88 44T94 42Q148 42 191 42T271 43T344 45T420 48Q423 48 423 37T423 13T418
1Q380 3 341 4T256 6T157 7T34 8Z" />
<glyph unicode="5" horiz-adv-x="409" d="M78 196Q180 196 242 172T332 106T360 9Q360 -48 330 -94T236 -184T68 -275Q64 -276 61 -271T62 -264Q138 -221 180 -179T240 -94T257 -8Q257 74 209 120T68 167Q56 167 58 179L90 357Q91 364 93 365T103 368Q189 378
237 384T307 395T335 406T345 423Q346 426 351 426T356 421L336 310Q333 298 327 295T308 292L118 288Q105 288 103 274L85 177L78 196Z" />
<glyph unicode="6" horiz-adv-x="465" d="M309 288Q356 288 384 269T426 220T440 159Q440 112 412 73T336 10T230 -13Q142 -13 90 45T37 207Q37 301 80 391T205 552T400 661Q404 662 406 657T405 650Q316 606 257 536T169 384T139 221Q139 164 153 116T194 40T257
11Q294 11 316 42T338 130Q338 181 318 213T255 246Q236 246 220 239T184 218Q181 215 177 218T173 225Q199 253 232 270T309 288Z" />
<glyph unicode="7" horiz-adv-x="429" d="M177 -212Q173 -222 169 -227T156 -236L74 -275Q71 -276 69 -273T67 -268L327 291Q331 298 323 298Q242 298 190 297T107 292T60 281T37 261T25 230Q24 227 18 228T13 233L58 413Q60 415 65 415T70 412Q66 395 75 391T117
386Q132 386 163 386T233 386T311 386T382 386Q387 386 390 382T391 373L177 -212Z" />
<glyph unicode="8" horiz-adv-x="489" d="M296 351Q307 376 314 401T322 453Q322 498 300 525T247 553Q219 553 203 535T186 488Q186 457 205 432T254 387T317 345Q353 323 386 299T441 242T463 164Q463 112 433 72T352 10T241 -13Q179 -13 133 10T62 70T37 153Q37
195 58 233T119 301T212 349L218 340Q183 318 162 275T140 180Q140 135 156 96T202 33T268 9Q301 9 324 25T359 68T371 124Q371 164 350 191T297 241T230 284Q197 305 167 328T118 380T98 448Q98 494 123 521T186 561T257 574Q305 574 338 558T389 518T407 470Q407
439 380 403T302 345L296 351Z" />
<glyph unicode="9" horiz-adv-x="465" d="M164 104Q114 104 84 126T40 180T26 243Q26 289 49 324T115 379T214 399Q281 399 328 371T402 293T428 172Q428 105 404 38T334 -91T220 -200T65 -275Q62 -276 60 -271T61 -264Q128 -233 177 -186T260 -81T309 37T326
154Q326 189 320 227T299 300T260 356T200 378Q160 378 144 348T127 268Q127 213 147 178T211 143Q229 143 245 150T282 174Q284 177 289 174T292 167Q244 104 164 104Z" />
<glyph unicode=":" horiz-adv-x="207" d="M105 -11Q77 -11 61 5T44 50Q44 76 60 92T105 108Q134 108 149 92T164 50Q164 22 149 6T105 -11ZM105 270Q77 270 61 286T44 331Q44 357 60 373T105 389Q134 389 149 373T164 331Q164 303 149 287T105 270Z" />
<glyph unicode=";" horiz-adv-x="232" d="M110 106Q145 106 164 83T184 9Q184 -46 158 -94T84 -189Q80 -192 77 -189T76 -182Q105 -147 114 -114T124 -44Q124 -14 119 -1T103 20L140 27Q141 10 130 1T100 -8Q74 -8 60 7T45 48Q45 76 63 91T110 106ZM107 270Q79
270 63 286T46 331Q46 357 62 373T107 389Q136 389 151 373T166 331Q166 303 151 287T107 270Z" />
<glyph unicode="&lt;" horiz-adv-x="407" d="M36 173Q31 176 31 190T36 207L370 354Q375 357 376 346T377 322T370 306L54 171V209L370 74Q375 72 376 59T377 34T370 25L36 173Z" />
<glyph unicode="=" horiz-adv-x="468" d="M34 96Q31 96 30 108T30 131T33 143H434Q437 143 438 132T438 108T434 96H34ZM34 236Q31 236 30 248T30 271T33 283H434Q437 283 438 272T438 248T434 236H34Z" />
<glyph unicode="&gt;" horiz-adv-x="407" d="M371 206Q376 203 376 189T371 172L37 25Q33 23 32 34T31 58T37 73L353 208V170L37 305Q33 308 32 321T31 345T37 354L371 206Z" />
<glyph unicode="?" horiz-adv-x="339" d="M165 606Q149 606 144 593T137 565Q136 553 132 537T117 508T80 496Q52 496 41 511T30 543Q30 578 68 601T165 625Q206 625 241 612T297 573T319 506Q319 472 304 449T266 408T222 371Q191 344 177 315T163 248Q163 236
164 224T168 195Q170 192 162 190T152 191Q140 219 133 254T126 312Q126 340 134 359T155 393T179 424T199 463T208 519Q208 556 197 581T165 606ZM153 -11Q125 -11 109 5T92 50Q92 76 108 92T153 108Q182 108 197 92T212 50Q212 22 197 6T153 -11Z" />
<glyph unicode="@" horiz-adv-x="729" d="M406 147L426 234L460 247Q437 192 403 148T333 79T263 54Q238 54 219 73T207 143Q213 185 234 223T287 293T352 342T418 360Q438 360 456 349T476 311L447 330Q462 332 480 342T502 367Q504 369 511 369T519 366L478
142Q473 114 480 98T513 82Q535 82 560 99T603 150T621 236Q621 304 589 359T501 447T372 480Q294 480 239 442T155 340T126 201Q126 118 160 57T256 -37T401 -71Q445 -71 485 -61T568 -20Q571 -18 574 -22T574 -28Q518 -76 466 -91T365 -106Q282 -106 214 -73T105
23T64 175Q64 249 92 309T168 412T278 479T407 503Q490 503 550 470T643 384T676 268Q676 210 648 162T573 85T467 56Q426 56 411 80T406 147ZM313 118Q327 118 345 132T380 168T410 219T430 275Q434 301 429 319T406 337Q382 336 360 315T321 262T296 194Q290
169 292 144T313 118Z" />
<glyph unicode="A" horiz-adv-x="716" d="M171 229L186 257H474L481 229H171ZM717 12Q722 12 722 6T717 0Q687 0 655 2T592 4Q558 4 533 2T477 0Q473 0 473 6T477 12Q518 12 524 28T506 94L303 495L352 581L153 142Q126 82 152 47T234 12Q239 12 239 6T234 0Q204
0 179 2T116 4Q77 4 54 2T-4 0Q-8 0 -8 6T-4 12Q23 12 42 23T81 65T126 152L343 629Q344 632 352 632T361 629L611 137Q635 90 652 63T685 24T717 12Z" />
<glyph unicode="B" horiz-adv-x="595" d="M306 335L317 353Q386 353 436 331T515 271T543 181Q543 129 513 87T431 21T312 -4Q285 -4 244 -1T168 2Q132 2 100 1T41 0Q38 0 38 6T41 12Q69 12 84 17T106 37T113 81V544Q113 573 107 587T86 607T42 613Q40 613 40
619T42 625Q68 625 100 624T168 622Q197 622 228 625T291 628Q351 628 393 614T459 571T482 499Q482 444 438 399T306 335ZM276 606Q257 606 246 600T230 581T225 542V346L188 353Q221 352 242 352T265 351Q319 351 346 391T373 490Q373 528 362 554T329 593T276
606ZM295 21Q364 21 395 56T426 157Q426 231 391 277T277 324Q267 324 243 324T192 318L225 330V81Q225 61 229 48T249 28T295 21Z" />
<glyph unicode="C" horiz-adv-x="681" d="M427 636Q457 636 489 633T551 624T600 609Q609 606 611 602T615 586L628 447Q628 444 623 443T616 446Q588 527 537 571T411 615Q343 615 290 579T206 475T175 315Q175 245 193 189T244 92T322 31T421 9Q492 9 538 47T626
170Q628 173 632 172T637 168L622 44Q621 32 619 29T607 21Q559 4 512 -4T421 -12Q313 -12 229 28T97 141T49 308Q49 380 77 440T157 544T278 612T427 636Z" />
<glyph unicode="D" horiz-adv-x="705" d="M326 -4Q294 -4 246 -1T158 2Q122 2 89 1T30 0Q28 0 28 6T30 12Q61 12 76 17T97 37T103 81V544Q103 573 98 587T78 607T32 613Q29 613 29 619T32 625Q58 625 90 624T159 622Q195 622 238 624T312 627Q416 627 493 587T613
478T656 323Q656 248 630 188T558 85T453 19T326 -4ZM316 19Q379 19 428 51T505 147T533 301Q533 386 507 455T434 564T322 605Q264 605 239 594T214 542V92Q214 55 233 37T316 19Z" />
<glyph unicode="E" horiz-adv-x="552" d="M483 0H41Q38 0 38 6T41 12Q72 12 87 17T107 37T112 81V544Q112 573 107 587T87 607T41 613Q38 613 38 619T41 625H465Q475 625 475 616L477 483Q477 481 472 480T465 482Q449 541 411 568T311 596H281Q261 596 248 591T229
573T223 543V85Q223 66 228 53T243 34T269 28H302Q380 28 427 60T496 159Q497 162 502 161T508 157Q504 128 501 89T498 15Q498 0 483 0ZM427 223Q427 264 396 287T305 311H170V339H306Q365 339 395 359T426 415Q426 418 431 418T437 415Q437 382 437 364T436 325Q436
300 437 276T439 223Q439 221 433 221T427 223Z" />
<glyph unicode="F" horiz-adv-x="522" d="M34 0Q31 0 31 6T34 12Q68 12 84 17T106 37T112 81V544Q112 573 107 587T87 607T41 613Q38 613 38 619T41 625H465Q475 625 475 616L477 483Q477 481 472 480T465 482Q449 541 411 568T311 596H281Q251 596 237 583T223
543V85Q223 55 231 40T262 18T330 12Q332 12 332 6T330 0Q296 0 257 1T164 2Q128 2 94 1T34 0ZM415 212Q415 252 384 275T294 299H170V327H295Q354 327 384 348T414 404Q414 406 420 406T426 404Q426 370 426 352T425 313Q425 288 426 264T427 212Q427 209 421
209T415 212Z" />
<glyph unicode="G" horiz-adv-x="731" d="M421 -12Q333 -12 264 13T147 82T74 184T49 308Q49 381 78 441T160 544T284 612T439 636Q486 636 534 629T612 609Q623 605 624 603T627 586L640 447Q640 444 635 443T628 446Q621 465 604 493T558 549T491 596T401 615Q337
615 285 581T201 482T170 329Q170 257 190 198T248 96T336 29T446 5Q484 5 507 14T540 49T551 126Q551 174 546 196T519 226T451 233Q445 233 445 241T450 249Q520 245 576 245T694 247Q698 247 698 240T694 233Q677 234 669 227T659 194T657 116Q657 83 659 67T662
44T664 28Q664 22 662 20T653 16Q598 4 538 -4T421 -12Z" />
<glyph unicode="H" horiz-adv-x="764" d="M543 542Q543 571 538 586T514 607T460 613Q457 613 457 619T460 625Q486 625 519 624T599 622Q635 622 670 623T732 625Q735 625 735 619T732 613Q699 613 682 608T660 588T654 544V81Q654 52 659 37T682 17T732 12Q735
12 735 6T732 0Q706 0 671 1T599 2Q553 2 520 1T460 0Q457 0 457 6T460 12Q496 12 514 17T537 37T543 81V542ZM161 311V339H594V311H161ZM109 81V544Q109 573 104 587T82 607T32 613Q29 613 29 619T32 625Q58 625 91 624T160 622Q206 622 240 623T303 625Q305 625
305 619T303 613Q268 613 250 607T226 586T220 542V81Q220 52 226 37T250 17T303 12Q305 12 305 6T303 0Q274 0 240 1T160 2Q124 2 90 1T30 0Q28 0 28 6T30 12Q64 12 80 17T103 37T109 81Z" />
<glyph unicode="I" horiz-adv-x="342" d="M227 81Q227 52 232 37T252 17T298 12Q301 12 301 6T298 0Q272 0 240 1T170 2Q134 2 101 1T42 0Q40 0 40 6T42 12Q73 12 88 17T109 37T115 81V544Q115 573 110 587T89 607T42 613Q40 613 40 619T42 625Q68 625 101 624T170
622Q208 622 240 623T298 625Q301 625 301 619T298 613Q268 613 253 607T232 586T227 542V81Z" />
<glyph unicode="J" horiz-adv-x="339" d="M298 625Q301 625 301 619T298 613Q273 613 260 607T243 586T239 542V-4Q239 -116 184 -179T29 -242Q-8 -242 -32 -227T-57 -182Q-57 -164 -45 -148T-5 -131Q19 -131 32 -144T52 -176T66 -207T85 -221Q106 -221 116 -188T126
-74V544Q126 573 120 587T96 607T42 613Q40 613 40 619T42 625Q73 625 108 624T181 622Q216 622 245 623T298 625Z" />
<glyph unicode="K" horiz-adv-x="655" d="M103 81V544Q103 573 98 587T78 607T32 613Q29 613 29 619T32 625Q58 625 90 624T158 622Q196 622 228 623T285 625Q288 625 288 619T285 613Q255 613 240 607T220 586T214 542V81Q214 52 219 37T239 17T285 12Q289 12
289 6T285 0Q259 0 228 1T158 2Q122 2 89 1T30 0Q28 0 28 6T30 12Q61 12 76 17T97 37T103 81ZM367 145L230 330L310 407L463 201Q502 146 529 111T574 55T607 25T634 14T664 12Q667 12 667 6T664 0Q620 0 593 0T552 0Q537 0 526 -1T507 -2Q494 -2 484 3T461 23T425
67T367 145ZM144 258L402 522Q439 559 430 586T370 613Q367 613 367 619T370 625Q397 625 425 624T499 622Q547 622 575 623T629 625Q632 625 632 619T629 613Q583 613 528 587T428 516L171 255L144 258Z" />
<glyph unicode="L" horiz-adv-x="545" d="M213 543V85Q213 61 217 49T233 32T270 28H304Q382 28 439 70T515 182Q516 185 521 184T526 180Q523 147 520 101T517 15Q517 0 502 0H30Q28 0 28 6T30 12Q61 12 76 17T96 37T102 81V544Q102 573 97 587T76 607T30 613Q28
613 28 619T30 625Q54 625 87 624T157 622Q195 622 227 623T284 625Q287 625 287 619T284 613Q254 613 239 608T218 587T213 543Z" />
<glyph unicode="M" horiz-adv-x="857" d="M117 127L127 602L156 600L145 127Q144 74 166 43T230 12Q233 12 233 6T230 0Q208 0 185 1T133 2Q101 2 75 1T27 0Q24 0 24 6T27 12Q68 12 92 43T117 127ZM833 12Q835 12 835 6T833 0Q807 0 774 1T705 2Q668 2 636 1T578
0Q575 0 575 6T578 12Q625 12 638 25T649 81L626 525L677 605L422 7Q421 3 415 3T406 7L125 542Q87 613 34 613Q31 613 31 619T34 625Q55 625 78 624T117 623Q143 623 162 624T193 625Q207 625 214 615T239 573L463 153L413 63L647 600Q653 614 659 619T677 625Q687
625 698 624T724 623Q756 623 778 624T823 625Q826 625 826 619T823 613Q777 613 756 594T736 535L760 81Q762 52 767 37T788 17T833 12Z" />
<glyph unicode="N" horiz-adv-x="735" d="M127 127V602L157 600V127Q157 74 179 43T240 12Q242 12 242 6T240 0Q218 0 195 1T143 2Q113 2 85 1T32 0Q29 0 29 6T32 12Q76 12 101 43T127 127ZM637 -15Q637 -18 633 -18T626 -18L133 543Q97 584 72 598T22 613Q20
613 20 619T22 625Q42 625 63 624T102 623Q138 623 167 624T212 625Q225 625 231 614T262 573L629 150L637 -15ZM637 497V-15L608 15V497Q608 550 586 581T525 613Q523 613 523 619T525 625Q547 625 570 624T622 622Q649 622 675 623T723 625Q725 625 725 619T723
613Q683 613 660 582T637 497Z" />
<glyph unicode="O" horiz-adv-x="766" d="M366 -12Q294 -12 236 13T136 84T72 187T49 312Q49 393 80 454T164 555T278 616T401 636Q475 636 533 610T633 538T695 436T717 319Q717 249 689 189T613 84T501 14T366 -12ZM399 13Q455 13 499 45T568 139T594 290Q594
382 566 454T486 567T361 609Q270 609 221 540T172 349Q172 276 189 215T236 108T308 38T399 13Z" />
<glyph unicode="P" horiz-adv-x="553" d="M216 85Q216 55 222 40T250 18T312 12Q315 12 315 6T312 0Q280 0 243 1T161 2Q125 2 93 1T34 0Q31 0 31 6T34 12Q65 12 80 17T100 37T105 81V544Q105 573 100 587T80 607T34 613Q31 613 31 619T34 625Q60 625 92 624T160
622Q184 622 223 625T296 628Q359 628 407 612T485 559T516 464Q518 413 500 375T449 312T377 275T298 262Q288 262 276 263T251 267Q248 268 249 274T254 280Q262 278 272 277T288 276Q317 276 341 294T380 349T395 441Q395 494 380 530T336 586T264 606Q246 606
236 601T221 582T216 542V85Z" />
<glyph unicode="Q" horiz-adv-x="766" d="M491 12Q517 -45 554 -88T632 -156T710 -181Q721 -181 729 -181T745 -179Q748 -178 749 -183T749 -189Q731 -194 711 -197T668 -201Q617 -201 561 -178T453 -109T359 2L491 12ZM366 -12Q294 -12 236 13T136 84T72 187T49
312Q49 393 80 454T164 555T278 616T401 636Q475 636 533 610T633 538T695 436T717 319Q717 249 689 189T613 84T501 14T366 -12ZM399 13Q455 13 499 45T568 139T594 290Q594 382 566 454T486 567T361 609Q270 609 221 540T172 349Q172 276 189 215T236 108T308
38T399 13Z" />
<glyph unicode="R" horiz-adv-x="698" d="M530 0Q515 0 482 37T401 146T295 316L387 344Q467 223 523 150T624 45T708 12Q710 12 710 6T708 0Q638 0 594 0T530 0ZM315 628Q407 628 456 595T506 501Q506 442 473 397T389 326T280 301Q266 301 252 301T225 302V81Q225
52 230 37T250 17T296 12Q298 12 298 6T296 0Q270 0 238 1T168 2Q132 2 100 1T41 0Q38 0 38 6T41 12Q72 12 87 17T107 37T113 81V544Q113 573 108 587T88 607T42 613Q40 613 40 619T42 625Q68 625 100 624T168 622Q201 622 240 625T315 628ZM392 463Q392 522 380
553T347 595T299 607Q259 607 242 592T225 542V330Q239 328 255 327T283 326Q342 326 367 358T392 463Z" />
<glyph unicode="S" horiz-adv-x="515" d="M174 524Q174 486 193 458T244 406T311 360Q349 336 383 310T440 249T463 166Q463 113 435 73T358 11T247 -12Q217 -12 185 -6T126 9T87 28Q83 31 80 34T77 47L74 206Q73 211 78 211T85 208Q100 177 118 143T158 79T209
32T273 13Q296 13 317 21T351 50T365 108Q365 155 344 188T290 247T221 296Q186 319 154 343T102 399T82 475Q82 531 113 566T193 619T292 636Q328 636 364 630T421 614Q431 610 433 605T436 594V447Q436 444 432 443T425 444Q419 456 408 483T379 541T333 592T265
614Q240 614 220 604T187 575T174 524Z" />
<glyph unicode="T" horiz-adv-x="643" d="M222 602Q161 602 119 562T51 447Q50 444 45 444T40 448Q42 462 44 487T48 543T52 601T54 647Q54 652 59 652T65 647Q65 637 75 633T99 627T122 625Q208 622 323 622Q393 622 435 623T516 625Q552 625 570 629T594 650Q595
654 600 654T606 650Q604 634 603 606T600 546T597 488T596 448Q596 445 591 445T585 448Q570 527 529 564T428 602Q408 602 398 597T384 578T380 542V81Q380 52 386 37T409 17T463 12Q466 12 466 6T463 0Q435 0 400 1T323 2Q283 2 248 1T184 0Q181 0 181 6T184
12Q219 12 237 17T261 37T268 81V544Q268 566 265 578T251 596T222 602Z" />
<glyph unicode="U" horiz-adv-x="703" d="M571 497Q571 550 547 581T478 613Q476 613 476 619T478 625Q503 625 529 624T587 622Q614 622 640 623T688 625Q690 625 690 619T688 613Q648 613 627 582T605 497V219Q605 148 574 96T487 15T356 -14Q283 -14 226 14T136
94T103 221V544Q103 573 98 587T78 607T32 613Q29 613 29 619T32 625Q58 625 90 624T158 622Q196 622 228 623T285 625Q288 625 288 619T285 613Q255 613 240 607T220 586T214 542V256Q214 133 263 78T394 23Q477 23 524 73T571 218V497Z" />
<glyph unicode="V" horiz-adv-x="660" d="M665 625Q668 625 668 619T665 613Q628 613 596 581T543 495L358 1Q357 -3 348 -3T336 1L81 542Q64 577 46 595T5 613Q2 613 2 619T5 625Q17 625 23 624T41 623T78 622Q134 622 169 622T226 624T264 625Q267 625 267 619T264
613Q221 613 207 589T212 524L394 136L347 54L515 498Q533 547 518 580T453 613Q450 613 450 619T453 625Q482 625 508 624T577 622Q605 622 622 623T665 625Z" />
<glyph unicode="W" horiz-adv-x="911" d="M481 331L358 1Q357 -3 348 -3T336 1L81 542Q67 572 57 587T36 607T5 613Q2 613 2 619T5 625Q17 625 23 624T41 623T78 622Q123 622 149 622T193 624T223 625Q226 625 226 619T223 613Q182 613 178 597T200 524L389 123L347
54L462 359L481 331ZM917 625Q919 625 919 619T917 613Q880 613 848 582T794 495L609 1Q608 -3 599 -3T587 1L332 542Q316 575 301 594T268 613Q265 613 265 619T268 625Q278 625 284 624T299 623T330 622Q386 622 410 623T451 625Q454 625 454 619T451 613Q424
613 424 597T451 524L642 123L599 54L761 488Q781 542 768 577T716 613Q713 613 713 619T716 625Q742 625 766 624T828 622Q856 622 874 623T917 625ZM468 359L520 498Q543 557 543 585T517 613Q514 613 514 619T517 625Q527 625 530 624T542 623T582 622Q607 622
622 623T660 625Q662 625 662 619T660 613Q626 613 599 584T549 495L487 331L468 359Z" />
<glyph unicode="X" horiz-adv-x="647" d="M404 0Q401 0 401 6T404 12Q423 12 433 19T428 51L117 533Q89 577 65 595T12 613Q9 613 9 619T12 625Q32 625 54 624T97 622Q140 622 176 623T241 625Q243 625 243 619T241 613Q222 613 211 606T216 573L533 83Q558 46
584 29T644 12Q647 12 647 6T644 0Q622 0 596 1T539 2Q496 2 464 1T404 0ZM5 0Q2 0 2 6T5 12Q34 12 78 43T175 146L298 312L316 298L205 140Q163 81 166 47T218 12Q220 12 220 6T218 0Q189 0 163 1T94 2Q66 2 49 1T5 0ZM335 312L317 326L428 484Q470 544 467 578T415
613Q413 613 413 619T415 625Q444 625 470 624T539 622Q568 622 585 623T628 625Q631 625 631 619T628 613Q599 613 555 582T457 478L335 312Z" />
<glyph unicode="Y" horiz-adv-x="619" d="M318 278L441 487Q474 543 467 578T412 613Q409 613 409 619T412 625Q444 625 472 624T547 622Q572 622 587 623T625 625Q627 625 627 619T625 613Q605 613 577 596T521 548T469 478L339 261L318 278ZM260 274L108 510Q68
572 45 592T5 613Q2 613 2 619T5 625Q20 625 36 624T67 622Q95 622 127 622T187 624T234 625Q236 625 236 619T234 613Q205 613 200 593T212 546L356 319L260 274ZM254 310L365 319V81Q365 52 370 37T390 17T436 12Q439 12 439 6T436 0Q410 0 379 1T309 2Q273 2
240 1T181 0Q179 0 179 6T181 12Q212 12 227 17T248 37T254 81V310Z" />
<glyph unicode="Z" horiz-adv-x="605" d="M60 13L411 600Q414 605 414 606T406 608Q344 608 297 606T214 596T152 575T106 537T69 478Q68 476 62 477T57 481L97 655Q98 657 104 656T109 653Q106 635 117 630T166 625Q226 625 313 625T531 625Q536 625 538 620T538
612L192 27Q188 22 189 21T196 19Q261 19 314 19T398 19Q435 19 468 37T526 86T556 153Q557 156 562 156T567 153L553 8Q553 5 551 2T544 -2Q470 -1 388 -1T223 0T65 0Q61 0 59 4T60 13Z" />
<glyph unicode="[" horiz-adv-x="274" d="M67 -106V715Q67 722 68 723T76 725Q100 725 131 725T192 725T236 725Q239 725 239 719T236 713Q206 713 191 707T170 686T165 642V-34Q165 -62 170 -77T190 -99T236 -105Q239 -105 239 -111T236 -117Q221 -117 192 -117T132
-117T76 -117Q70 -117 69 -115T67 -106Z" />
<glyph unicode="\" horiz-adv-x="351" d="M277 -165L26 716Q26 719 37 723T60 730T73 730L325 -152Q326 -154 315 -158T291 -165T277 -165Z" />
<glyph unicode="]" horiz-adv-x="274" d="M207 -106V715Q207 722 206 723T198 725Q175 725 143 725T82 725T38 725Q35 725 35 719T38 713Q69 713 84 707T104 686T109 642V-34Q109 -62 104 -77T84 -99T38 -105Q35 -105 35 -111T38 -117Q53 -117 82 -117T143 -117T198
-117Q204 -117 205 -115T207 -106Z" />
<glyph unicode="^" horiz-adv-x="392" d="M333 380Q335 378 331 376T324 375L196 509L68 375Q65 373 61 375T58 380L185 629Q186 634 196 634T207 629L333 380Z" />
<glyph unicode="_" horiz-adv-x="398" d="M34 -81Q31 -81 30 -69T30 -44T33 -32H364Q367 -32 368 -44T368 -68T364 -81H34Z" />
<glyph unicode="`" horiz-adv-x="213" d="M23 727Q22 731 36 731T70 729T105 723T122 716L154 476Q154 474 150 473T144 474L23 727Z" />
<glyph unicode="a" horiz-adv-x="421" d="M319 -6Q315 -8 309 -8Q291 -8 273 16T255 85V255Q255 318 245 347T209 377Q184 377 172 362T155 327T149 295Q146 264 131 252T91 239Q65 239 54 250T43 277Q43 301 64 322T119 360T187 386T250 396Q291 396 320 370T349
285V108Q349 79 359 63T389 47Q403 47 418 54Q422 56 424 51T422 43L319 -6ZM127 -7Q83 -7 62 12T40 65Q40 98 58 115T105 143T165 165L265 202L269 187L212 161Q204 158 189 152T162 133T150 97Q150 71 167 59T201 46Q209 46 216 48T234 57L284 91L285 75L215
25Q193 8 173 1T127 -7Z" />
<glyph unicode="b" horiz-adv-x="516" d="M268 -13Q225 -13 184 2T110 48L174 165Q174 106 194 71T242 22T292 7Q336 7 358 51T381 174Q381 264 351 305T271 346Q240 346 212 333T161 302L152 310Q173 331 196 351T250 385T318 399Q362 399 399 379T460 317T484
213Q484 138 453 88T372 12T268 -13ZM36 -7Q32 -8 30 -4T32 2Q55 16 68 39T81 103V589Q81 623 75 638T51 654Q38 654 14 643Q10 642 8 648T7 655L153 724Q156 725 158 725Q163 725 168 721T174 712V56L36 -7Z" />
<glyph unicode="c" horiz-adv-x="425" d="M234 -12Q165 -12 120 17T54 93T32 186Q32 236 53 275T108 340T185 381T268 395Q297 395 326 387T374 362T393 320Q393 303 379 289T338 274Q313 274 299 287T277 325Q270 349 262 361T229 374Q186 374 161 331T135 219Q135
169 150 128T199 62T290 37Q320 37 340 44T386 63Q388 65 391 61T393 55Q358 23 321 6T234 -12Z" />
<glyph unicode="d" horiz-adv-x="510" d="M189 -13Q146 -13 111 10T54 76T32 182Q32 243 54 284T110 351T185 387T261 399Q297 399 328 390T384 368L361 287Q340 332 313 352T246 373Q195 373 165 338T135 214Q135 157 149 117T188 56T244 35Q284 35 314 57T372
110L382 101Q361 77 333 51T269 6T189 -13ZM433 712V116Q433 82 439 68T461 54Q468 54 478 57T502 65Q505 67 508 62T509 54L371 -13Q368 -14 366 -14Q356 -14 348 11T339 82V589Q339 623 333 638T310 654Q303 654 294 651T273 643Q269 642 266 648T265 655L412
724Q414 725 416 725Q421 725 427 721T433 712Z" />
<glyph unicode="e" horiz-adv-x="418" d="M235 -12Q170 -12 125 15T56 86T32 182Q32 241 61 289T141 366T258 395Q317 395 352 368T388 280Q388 267 386 258T377 249H281Q283 306 270 340T220 375Q180 375 157 334T133 225Q133 167 151 125T204 60T290 37Q320
37 340 44T386 65Q388 67 391 63T393 56Q356 19 318 4T235 -12ZM98 248L97 267L316 271V249L98 248Z" />
<glyph unicode="f" horiz-adv-x="305" d="M27 0Q23 0 23 6T27 12Q65 12 76 25T87 81V306Q87 328 81 338T61 352T23 356Q20 356 20 365T23 374Q58 374 71 383T85 418Q90 584 148 655T319 726Q375 726 406 711T437 667Q437 643 421 631T386 618Q359 618 349 631T331
661Q324 677 315 690T280 703Q237 703 209 642T181 439V81Q181 52 187 37T212 17T270 12Q274 12 274 6T270 0Q235 0 202 1T133 2Q104 2 77 1T27 0ZM288 335Q249 344 214 347T138 351V377Q176 377 213 380T291 387Q294 387 296 380T298 363Q298 353 295 344T288
335Z" />
<glyph unicode="g" horiz-adv-x="451" d="M182 -282Q113 -282 69 -251T25 -168Q25 -136 49 -100T144 -21L154 -32Q142 -40 133 -51T120 -79T115 -116Q115 -161 133 -190T181 -235T242 -250Q292 -250 322 -218T353 -131Q353 -86 334 -67T280 -44T201 -39Q167 -38
133 -33T77 -12T54 40Q54 75 78 108T157 167L166 161Q146 149 136 135T126 99Q126 71 141 59T185 45T250 41Q284 41 316 39T376 26T419 -6T435 -67Q435 -110 415 -148T360 -217T279 -264T182 -282ZM199 133Q151 133 116 153T62 204T43 268Q43 310 70 338T137 379T218
393Q264 393 299 377T354 332T375 268Q375 226 349 196T282 150T199 133ZM225 151Q245 151 261 171T277 240Q277 286 263 315T227 359T185 374Q161 374 151 354T140 298Q140 255 152 222T184 170T225 151ZM302 313L304 345Q336 370 366 383T434 396Q439 396 440
388T442 368Q442 354 438 337T430 323Q412 331 393 335T356 340Q344 340 333 339T308 332L302 313Z" />
<glyph unicode="h" horiz-adv-x="509" d="M21 0Q19 0 19 6T21 12Q52 12 63 26T75 81V589Q75 623 69 638T46 654Q32 654 8 643Q5 642 2 648T1 655L147 724Q149 725 150 725T152 725Q157 725 162 721T168 712V81Q168 41 179 27T222 12Q226 12 226 6T222 0Q202 0
177 1T122 2Q93 2 67 1T21 0ZM290 0Q288 0 288 6T290 12Q321 12 332 26T344 81V225Q344 331 262 331Q232 331 201 316T151 275L145 287Q180 337 224 367T320 398Q376 398 406 363T437 273V81Q437 41 448 27T491 12Q495 12 495 6T491 0Q471 0 446 1T391 2Q362 2
336 1T290 0Z" />
<glyph unicode="i" horiz-adv-x="263" d="M39 0Q36 0 36 6T39 12Q70 12 81 26T92 81V260Q92 293 86 308T62 324Q55 324 46 321T25 313Q21 312 19 318T19 325L170 395Q172 396 173 396Q178 396 183 391T188 382Q188 370 187 342T186 262V81Q186 41 197 27T240 12Q243
12 243 6T240 0Q220 0 194 1T139 2Q111 2 85 1T39 0ZM135 495Q107 495 91 511T74 556Q74 582 90 597T135 613Q163 613 178 598T193 556Q193 495 135 495Z" />
<glyph unicode="j" horiz-adv-x="263" d="M188 382Q188 370 187 342T186 262V-48Q186 -114 170 -158T115 -232T8 -282Q6 -283 4 -278T4 -271Q53 -250 72 -203T92 -71V260Q92 293 86 308T63 324Q56 324 47 321T26 313Q22 312 19 318T19 325L170 395Q172 396 173
396Q178 396 183 391T188 382ZM133 495Q105 495 89 511T72 556Q72 582 88 597T133 613Q161 613 176 598T191 556Q191 495 133 495Z" />
<glyph unicode="k" horiz-adv-x="491" d="M21 0Q19 0 19 6T21 12Q52 12 63 26T75 81V589Q75 623 69 638T46 654Q32 654 8 643Q5 642 2 648T1 655L147 724Q150 725 152 725Q157 725 162 721T168 712V81Q168 41 179 27T222 12Q226 12 226 6T222 0Q202 0 177 1T122
2Q93 2 67 1T21 0ZM273 0Q270 0 270 6T273 12Q300 12 307 24T301 53L180 208L248 260L388 81Q417 44 443 28T497 12Q500 12 500 6T497 0Q477 0 451 1T396 2Q356 2 327 1T273 0ZM132 149L126 165L261 295Q289 321 287 347T249 374Q247 374 247 380T249 386Q275 386
301 385T373 384Q414 384 438 385T485 386Q488 386 488 380T485 374Q460 374 426 366T355 339T287 290L132 149Z" />
<glyph unicode="l" horiz-adv-x="268" d="M35 0Q33 0 33 6T35 12Q66 12 77 26T89 81L90 589Q90 623 84 638T61 654Q48 654 23 643Q20 642 17 648T16 655L163 724Q165 725 167 725Q172 725 178 721T184 712V81Q184 41 195 27T237 12Q241 12 241 6T237 0Q218 0 192
1T136 2Q107 2 81 1T35 0Z" />
<glyph unicode="m" horiz-adv-x="777" d="M558 0Q555 0 555 6T558 12Q589 12 600 26T612 81V225Q612 331 537 331Q506 331 477 316T430 275L425 287Q459 337 501 367T594 398Q647 398 676 368T705 273V81Q705 41 716 27T759 12Q763 12 763 6T759 0Q739 0 713 1T658
2Q630 2 604 1T558 0ZM296 0Q293 0 293 6T296 12Q327 12 338 26T350 81V225Q350 331 275 331Q244 331 215 316T168 275L163 287Q197 337 239 367T332 398Q385 398 414 369T443 284V81Q443 41 454 27T497 12Q501 12 501 6T497 0Q477 0 451 1T396 2Q368 2 342 1T296
0ZM39 0Q36 0 36 6T39 12Q70 12 81 26T92 81V269Q92 300 85 314T61 329Q52 329 40 326T13 315Q9 313 7 319T7 326L146 394Q152 396 153 396Q164 396 175 372T186 303V81Q186 41 197 27T240 12Q243 12 243 6T240 0Q220 0 194 1T139 2Q111 2 85 1T39 0Z" />
<glyph unicode="n" horiz-adv-x="526" d="M308 0Q305 0 305 6T308 12Q339 12 350 26T361 81V225Q361 279 342 305T280 331Q250 331 219 316T168 275L163 287Q198 337 242 367T338 398Q394 398 424 363T455 273V81Q455 41 466 27T509 12Q512 12 512 6T509 0Q489
0 463 1T408 2Q380 2 354 1T308 0ZM39 0Q36 0 36 6T39 12Q70 12 81 26T92 81V269Q92 300 85 314T61 329Q52 329 40 326T13 315Q9 313 7 319T7 326L146 394Q152 396 153 396Q164 396 175 372T186 303V81Q186 41 197 27T240 12Q243 12 243 6T240 0Q220 0 194 1T139
2Q111 2 85 1T39 0Z" />
<glyph unicode="o" horiz-adv-x="489" d="M237 -13Q174 -13 128 16T57 93T32 198Q32 250 52 288T105 350T177 387T254 399Q318 399 363 369T433 292T457 192Q457 131 427 85T346 13T237 -13ZM267 8Q307 8 327 47T347 157Q347 230 329 279T281 353T220 378Q181
378 161 343T140 235Q140 167 157 116T203 36T267 8Z" />
<glyph unicode="p" horiz-adv-x="513" d="M26 -275Q23 -275 23 -269T26 -263Q61 -263 71 -250T82 -194V269Q82 300 75 314T50 329Q42 329 30 326T4 315Q0 313 -3 319T-4 326L138 395Q140 396 143 396Q154 396 164 372T175 303V-194Q175 -222 181 -237T207 -257T264
-263Q267 -263 267 -269T264 -275Q236 -275 201 -274T127 -273Q99 -273 73 -274T26 -275ZM261 -13Q222 -13 195 -7T129 12L164 75Q186 48 211 30T280 12Q327 12 354 53T381 184Q381 264 344 303T257 343Q220 343 193 324T140 276L130 288Q181 347 227 373T323 399Q365
399 401 378T459 315T482 215Q482 151 462 107T408 37T337 -1T261 -13Z" />
<glyph unicode="q" horiz-adv-x="502" d="M198 -13Q155 -13 117 7T56 69T32 173Q32 229 51 271T102 342T175 385T256 399Q341 399 401 357L342 263Q342 305 324 330T281 366T235 378Q184 378 160 335T135 212Q135 122 165 81T244 40Q275 40 303 53T354 84L363
77Q343 56 319 36T266 1T198 -13ZM264 -275Q262 -275 262 -269T264 -263Q314 -263 328 -250T342 -194V338L480 388Q484 390 486 385T484 378Q459 365 447 346T435 295V-194Q435 -237 445 -250T491 -263Q494 -263 494 -269T491 -275Q471 -275 445 -274T389 -273Q355
-273 323 -274T264 -275Z" />
<glyph unicode="r" horiz-adv-x="379" d="M161 271L153 284Q192 329 219 353T265 386T299 396Q320 396 342 381T365 340Q365 319 353 306T318 292Q297 292 287 303T268 324T243 335Q236 335 228 331T204 313T161 271ZM39 0Q36 0 36 6T39 12Q70 12 81 26T92 81V269Q92
300 85 314T61 329Q52 329 40 326T13 315Q9 313 7 319T7 326L146 394Q152 396 153 396Q164 396 175 372T186 303V81Q186 55 194 40T221 18T275 12Q279 12 279 6T275 0Q248 0 214 1T139 2Q111 2 85 1T39 0Z" />
<glyph unicode="s" horiz-adv-x="337" d="M118 338Q118 317 129 301T159 271T198 244Q223 230 247 215T287 177T303 120Q303 88 287 58T237 8T154 -11Q129 -11 104 -6T50 16Q48 18 46 21T44 28L42 127Q42 130 47 130T54 129Q65 97 85 70T130 26T182 9Q202 9 215
21T228 60Q228 88 216 106T184 138T145 163Q122 176 99 190T61 225T46 282Q46 324 67 349T121 385T191 396Q213 396 231 393T274 381Q283 378 283 370Q283 350 282 329T281 281Q281 278 275 278T269 281Q269 300 254 322T213 360T159 377Q145 377 132 370T118 338Z"
/>
<glyph unicode="t" horiz-adv-x="336" d="M184 -12Q160 -12 136 -4T95 24T78 80V302Q78 323 73 335T57 352T27 357Q23 357 23 366T27 375Q78 377 110 397T158 458Q160 462 166 462T173 458V113Q173 73 193 56T244 39Q267 39 287 48T322 69Q325 72 329 68T330 60Q293
23 259 6T184 -12ZM299 335Q258 344 220 347T138 351V377Q179 377 218 380T303 387Q305 387 307 380T310 363Q310 353 307 344T299 335Z" />
<glyph unicode="u" horiz-adv-x="505" d="M192 -12Q137 -12 106 23T74 113V260Q74 293 67 309T43 325Q32 325 18 318Q14 317 12 323T12 330L146 394Q149 395 151 395Q156 395 161 391T167 382V161Q167 107 187 80T250 53Q279 53 308 69T354 111L360 99Q326 50
284 19T192 -12ZM428 382V116Q428 82 434 68T456 54Q463 54 473 57T497 65Q501 67 504 62T504 54L366 -13Q364 -14 361 -14Q351 -14 343 11T335 82V260Q335 293 328 309T304 325Q293 325 278 318Q275 317 273 323T273 330L407 394Q409 395 412 395Q417 395 422
391T428 382Z" />
<glyph unicode="v" horiz-adv-x="440" d="M454 386Q456 386 456 380T454 374Q425 374 403 352T360 284L237 0Q235 -5 227 -5T215 0L62 303Q40 349 24 361T-14 374Q-17 374 -17 380T-14 386Q3 386 24 385T83 384Q124 384 153 385T207 386Q210 386 210 380T207 374Q176
374 159 366T154 335L274 109L223 21L332 285Q349 326 333 350T276 374Q274 374 274 380T276 386Q300 386 321 385T377 384Q401 384 416 385T454 386Z" />
<glyph unicode="w" horiz-adv-x="685" d="M461 1L308 303Q286 346 274 360T243 374Q241 374 241 380T243 386Q258 386 277 385T329 384Q366 384 392 385T441 386Q443 386 443 380T441 374Q416 374 403 364T400 335L519 111L469 22L578 285Q595 326 578 350T522
374Q519 374 519 380T522 386Q545 386 566 385T622 384Q647 384 662 385T699 386Q702 386 702 380T699 374Q671 374 649 353T606 284L483 1Q482 -3 473 -3T461 1ZM215 1L62 303Q40 348 24 361T-14 374Q-17 374 -17 380T-14 386Q3 386 24 385T83 384Q120 384 146
385T195 386Q198 386 198 380T195 374Q170 374 154 366T150 335L274 111L223 22L332 285L360 284L237 1Q236 -3 227 -3T215 1Z" />
<glyph unicode="x" horiz-adv-x="440" d="M248 0Q245 0 245 6T248 12Q267 12 270 22T260 51L92 303Q71 335 51 354T14 374Q12 374 12 380T14 386Q29 386 45 385T76 384Q112 384 140 385T191 386Q193 386 193 380T191 374Q175 374 170 365T179 335L346 83Q372 45
395 29T436 12Q439 12 439 6T436 0Q419 0 400 1T363 2Q327 2 299 1T248 0ZM4 0Q1 0 1 6T4 12Q36 12 70 37T136 105L202 195L216 181L160 98Q142 71 138 52T145 22T181 12Q184 12 184 6T181 0Q158 0 137 1T81 2Q56 2 41 1T4 0ZM223 191L209 205L265 288Q294 329
289 351T244 374Q242 374 242 380T244 386Q268 386 289 385T345 384Q370 384 385 385T422 386Q425 386 425 380T422 374Q391 374 356 349T290 281L223 191Z" />
<glyph unicode="y" horiz-adv-x="427" d="M441 386Q443 386 443 380T441 374Q407 374 384 345T343 267L232 -28Q196 -124 163 -179T95 -258T23 -281Q-6 -281 -22 -269T-39 -232Q-39 -208 -25 -197T9 -185Q26 -185 36 -191T56 -204T82 -211Q106 -211 126 -191T169
-121T223 15L220 -40L50 303Q28 347 16 360T-15 374Q-18 374 -18 380T-15 386Q5 386 27 385T70 384Q106 384 133 385T182 386Q185 386 185 380T182 374Q147 374 137 366T138 335L265 75L229 16L316 268Q333 317 319 345T263 374Q261 374 261 380T263 386Q287 386
308 385T364 384Q388 384 403 385T441 386Z" />
<glyph unicode="z" horiz-adv-x="405" d="M33 12L256 364Q260 371 251 371Q198 371 156 360T85 325T43 265Q42 263 37 264T32 268L74 425Q75 427 81 426T85 422Q80 400 92 393T135 386Q174 386 232 386T365 386Q370 386 372 382T373 374L145 25Q142 18 150 18Q199
18 236 25T301 46T344 81T367 132Q368 135 373 135T379 132L377 11Q377 7 375 4T367 0Q318 0 261 0T146 0T40 0Q36 0 34 4T33 12Z" />
<glyph unicode="{" horiz-adv-x="289" d="M32 298Q29 298 29 304T32 311Q58 316 70 349T86 430T90 529Q90 592 97 631T121 690T169 717T250 725Q254 725 254 719T250 713Q224 713 210 686T195 607Q194 527 191 476T177 393T143 342T78 305Q120 287 143 267T176
214T190 131T195 1Q196 -50 210 -77T250 -105Q254 -105 254 -111T250 -117Q200 -117 169 -110T120 -81T97 -22T90 80Q90 131 87 179T71 261T32 298Z" />
<glyph unicode="|" horiz-adv-x="168" d="M62 -154V731Q62 736 74 737T97 738T109 731V-154Q109 -159 98 -160T74 -161T62 -154Z" />
<glyph unicode="}" horiz-adv-x="283" d="M251 298Q254 298 254 304T251 311Q225 316 213 349T197 430T193 529Q193 592 186 631T162 690T114 717T33 725Q29 725 29 719T33 713Q59 713 73 686T88 607Q90 527 93 476T106 393T140 342T205 305Q163 287 140 267T107
214T93 131T88 1Q87 -50 73 -77T33 -105Q29 -105 29 -111T33 -117Q83 -117 114 -110T163 -81T186 -22T193 80Q193 131 196 179T212 261T251 298Z" />
<glyph unicode="~" horiz-adv-x="443" d="M315 212Q347 212 362 224T389 250Q391 252 394 249T396 243Q370 201 351 179T316 148T280 139Q253 139 230 148T183 166T129 175Q100 175 86 165T55 137Q54 136 51 138T48 144Q60 163 78 187T120 230T171 248Q192 248
214 239T262 221T315 212Z" />
<glyph unicode="&#xa0;" horiz-adv-x="234" />
<glyph unicode="&#xa1;" horiz-adv-x="263" d="M202 -261Q204 -266 192 -269T163 -273T132 -275Q118 -275 101 -274T72 -269T61 -261Q79 -198 89 -125T106 24T117 165Q117 169 125 170T142 170T151 165Q155 99 160 24T175 -124T202 -261ZM138 365Q166 365 182
349T199 304Q199 278 183 262T138 246Q110 246 95 262T79 304Q79 333 94 349T138 365Z" />
<glyph unicode="&#xa2;" horiz-adv-x="530" d="M273 -102V561Q273 566 280 567T295 568T302 561V-102Q302 -106 295 -107T281 -108T273 -102ZM308 480Q343 480 387 473T460 451Q467 448 469 445T471 434L476 331Q476 328 471 327T464 330Q427 394 388 426T296
458Q248 458 215 432T166 359T149 251Q149 208 158 165T188 87T240 30T318 9Q371 9 406 41T474 140Q476 144 480 143T485 139L477 33Q476 25 474 22T463 15Q420 0 379 -6T303 -12Q226 -12 174 11T90 73T44 154T30 236Q30 306 66 361T166 448T308 480Z" />
<glyph unicode="&#xa3;" horiz-adv-x="432" d="M99 48H251Q294 48 316 54T350 77T368 129Q368 131 374 131T380 127Q376 105 374 74T371 15Q371 0 356 0H13Q10 0 10 5T13 12Q54 21 73 38T97 76T101 118Q99 157 92 185T77 235T63 279T57 327Q57 384 84 417T154
465T247 480Q264 480 287 478T336 467Q351 461 352 448L359 344Q359 340 354 340T347 344Q329 377 312 403T275 444T226 460Q199 460 184 446T162 410T156 363Q156 324 166 290T187 222T198 149Q198 115 188 93T162 57T129 30L99 48ZM43 244H274Q279 244 280 237T281
223T274 215H43Q39 215 38 222T37 237T43 244Z" />
<glyph unicode="&#xa4;" horiz-adv-x="414" d="M133 88L83 32L50 64L103 119L133 88ZM99 284L46 338L83 373L135 317L99 284ZM312 123L367 68L329 32L277 90L312 123ZM276 308L335 370L366 338L306 278L276 308ZM196 65Q153 65 123 85T77 137T61 202Q61 247 84
276T143 320T211 335Q250 335 281 318T330 270T349 201Q349 158 326 128T268 81T196 65ZM215 89Q241 89 257 113T274 180Q274 213 264 243T235 292T188 311Q164 311 149 289T133 223Q133 192 141 161T168 110T215 89Z" />
<glyph unicode="&#xa5;" horiz-adv-x="498" d="M112 142H401Q409 142 409 129T401 116H112Q105 116 105 129T112 142ZM112 213H401Q409 213 409 200T401 187H112Q105 187 105 200T112 213ZM265 196L358 367Q378 403 371 429T322 456Q319 456 319 462T322 468Q351
468 376 467T443 465Q461 465 471 466T497 468Q500 468 500 462T497 456Q467 456 439 433T386 366L287 188L265 196ZM222 189L96 385Q71 423 50 439T6 456Q3 456 3 462T6 468Q19 468 44 467T83 465Q107 465 138 466T197 467T240 468Q242 468 242 462T240 456Q209
456 196 444T204 400L310 235L222 189ZM310 126V81Q310 52 315 37T336 17T384 12Q386 12 386 6T384 0Q358 0 327 1T257 2Q223 2 190 1T131 0Q128 0 128 6T131 12Q163 12 179 17T200 37T206 81V126H310ZM206 200V228L310 237V199L206 200Z" />
<glyph unicode="&#xa6;" horiz-adv-x="168" d="M62 -154V216Q62 221 74 222T97 223T109 216V-154Q109 -159 98 -160T74 -161T62 -154ZM62 360V731Q62 736 74 737T97 738T109 731V360Q109 356 98 355T74 354T62 360Z" />
<glyph unicode="&#xa7;" horiz-adv-x="488" d="M326 11L318 20Q342 40 349 65T357 116Q357 162 340 194T295 249T237 292T179 331T135 378T117 442Q117 487 141 515T205 558T287 572Q313 572 335 567T373 553Q384 548 384 537L392 420Q392 417 387 417T380 420Q374
431 363 452T336 495T300 533T254 549Q231 549 217 533T202 482Q202 444 218 418T261 371T317 332T373 291T416 239T433 165Q433 141 425 118T393 69T326 11ZM228 -188Q202 -188 181 -183T142 -170Q138 -167 135 -163T131 -153L123 -36Q123 -34 128 -34T135 -36Q141
-47 152 -68T178 -111T215 -149T261 -165Q284 -165 298 -149T312 -98Q312 -60 296 -34T253 13T197 51T142 92T99 144T82 219Q82 244 90 267T122 315T188 373L196 364Q173 344 166 319T158 268Q158 222 175 190T220 135T278 92T336 52T380 5T398 -58Q398 -102 373
-131T310 -174T228 -188Z" />
<glyph unicode="&#xa8;" horiz-adv-x="322" d="M75 464Q50 464 35 478T20 519Q20 543 35 557T75 571Q100 571 113 557T127 519Q127 464 75 464ZM249 464Q224 464 210 478T195 519Q195 543 209 556T249 570Q301 570 301 519Q301 464 249 464Z" />
<glyph unicode="&#xa9;" horiz-adv-x="727" d="M381 -106Q317 -106 260 -87T159 -30T90 62T64 187Q64 258 93 316T171 415T283 480T412 503Q493 503 552 470T643 384T675 268Q675 210 642 158T549 72T411 39Q344 39 304 62T245 122T227 195Q227 249 253 287T320
344T404 364Q429 364 453 358T494 338T511 303Q511 284 501 273T468 261Q452 261 442 272T425 297Q416 313 405 326T371 340Q338 340 328 312T318 230Q318 187 333 150T380 90T464 67Q501 67 534 87T587 146T608 236Q608 304 578 359T496 447T377 480Q300 480 247
444T166 346T138 213Q138 148 157 96T214 6T302 -51T418 -71Q450 -71 480 -67T540 -51T602 -20Q605 -18 608 -22T608 -28Q547 -76 491 -91T381 -106Z" />
<glyph unicode="&#xaa;" horiz-adv-x="288" d="M40 283Q37 283 36 292T36 309T39 318H264Q267 318 268 310T268 292T264 283H40ZM213 366Q198 359 184 373T170 419V538Q170 572 165 587T153 607T136 612Q122 612 113 597T102 561Q100 548 93 536T64 523Q47 523
37 532T26 558Q26 572 40 585T76 608T121 624T163 630Q192 630 213 613T234 558V441Q234 407 242 401T275 407Q279 409 281 405T281 398L213 366ZM75 365Q52 365 39 376T26 404Q26 421 35 433T70 455L193 497L194 487L127 461Q114 456 107 448T99 425Q99 412 106
404T125 396Q131 396 136 397T147 401L199 427L200 416L142 385Q119 372 105 369T75 365Z" />
<glyph unicode="&#xab;" horiz-adv-x="475" d="M241 40L53 189Q49 194 49 201T53 212L241 361Q243 364 246 361T248 356L156 201L248 46Q249 44 246 41T241 40ZM412 40L223 189Q219 194 219 201T223 212L412 361Q414 364 417 361T419 356L326 201L419 46Q420 44
417 41T412 40Z" />
<glyph unicode="&#xac;" horiz-adv-x="395" d="M364 77Q364 74 353 73T329 73T317 76V271H364V77ZM34 225Q31 225 30 236T30 259T33 271H364V225H34Z" />
<glyph unicode="&#xad;" horiz-adv-x="600" />
<glyph unicode="&#xae;" horiz-adv-x="740" d="M364 138Q307 138 254 157T157 214T89 303T64 419Q64 490 91 546T165 643T272 704T398 725Q486 725 551 689T652 591T688 451Q688 386 663 329T594 229T491 162T364 138ZM234 274Q233 274 233 279T234 285Q255 285
260 292T265 330V545Q265 572 260 580T234 589Q233 589 233 595T234 601Q249 601 268 601T305 600Q324 600 347 602T387 604Q437 604 462 588T488 535Q488 497 464 473T401 440T316 433V449Q375 442 395 456T415 515Q415 555 403 573T371 591Q352 591 344 585T336
543V330Q336 300 343 293T378 285Q380 285 380 280T378 274Q363 274 346 274T305 275Q288 275 267 275T234 274ZM402 164Q477 164 525 197T597 288T621 418Q621 508 588 571T495 668T359 701Q277 701 226 667T150 577T126 456Q126 392 147 338T206 246T294 186T402
164ZM463 274Q453 274 430 318T372 437L432 451Q456 401 476 369T516 316T561 282Q563 281 563 278T561 274Q524 274 499 274T463 274Z" />
<glyph unicode="&#xaf;" horiz-adv-x="345" d="M47 474Q41 474 39 483T38 502T47 511H298Q305 511 307 502T308 484T298 474H47Z" />
<glyph unicode="&#xb0;" horiz-adv-x="332" d="M167 373Q105 373 67 410T29 503Q29 538 46 566T94 612T167 630Q229 630 266 593T303 501Q303 447 266 410T167 373ZM174 387Q198 387 209 400T223 438T227 494Q227 616 161 616Q138 616 126 602T110 563T106 506Q106
454 120 421T174 387Z" />
<glyph unicode="&#xb1;" horiz-adv-x="398" d="M34 1Q31 1 30 12T30 33T33 44H364Q367 44 368 34T368 12T364 1H34ZM34 228Q31 228 30 240T30 265T33 277H364Q367 277 368 265T368 241T364 228H34ZM223 88Q223 85 211 84T187 84T174 87V418Q174 421 186 421T211
422T223 418V88Z" />
<glyph unicode="&#xb2;" horiz-adv-x="253" d="M20 409Q30 452 45 480T77 527T108 562T131 597T140 644Q140 677 129 689T99 702Q77 702 61 688T37 651Q36 648 31 649T26 654Q36 685 58 707T127 730Q173 730 194 709T215 656Q215 622 196 599T149 557T97 517T63
468Q62 464 65 464Q110 464 138 465T183 471T206 484T213 504Q213 506 219 506T225 504L223 408Q223 404 219 404Q178 404 124 404T23 404Q18 404 20 409Z" />
<glyph unicode="&#xb3;" horiz-adv-x="251" d="M125 567V578Q166 578 197 558T229 498Q229 476 217 452T180 412T116 396Q74 396 53 416T21 465Q20 469 26 470T33 468Q43 447 60 435T99 423Q119 423 136 438T153 494Q153 529 135 546T78 564Q73 564 73 569T78
575Q99 575 112 583T133 607T140 643Q140 673 128 685T98 698Q76 698 60 683T39 650Q38 647 32 648T27 653Q36 686 60 707T127 729Q172 729 194 707T216 655Q216 630 202 611T166 580T125 567Z" />
<glyph unicode="&#xb4;" horiz-adv-x="212" d="M69 474Q68 471 63 472T58 476L91 716Q93 719 108 722T143 728T177 731T189 727L69 474Z" />
<glyph unicode="&#xb6;" horiz-adv-x="657" d="M353 -193Q310 -193 285 -178T260 -133Q260 -115 271 -102T310 -88Q337 -88 346 -101T356 -131T361 -161T378 -174Q391 -174 398 -158T409 -102T413 8V125Q403 124 392 123T368 122Q313 122 258 135T156 179T82 260T54
386Q54 507 131 567T342 628Q375 628 411 625T490 622Q518 622 546 623T600 625Q603 625 603 619T600 613Q557 613 534 592T511 532L512 55Q512 -73 475 -133T353 -193Z" />
<glyph unicode="&#xb7;" horiz-adv-x="195" d="M97 141Q69 141 53 157T36 202Q36 228 52 244T97 260Q126 260 141 244T156 202Q156 174 141 158T97 141Z" />
<glyph unicode="&#xb8;" horiz-adv-x="232" d="M120 -2Q115 -23 116 -39T127 -68T156 -92Q177 -105 194 -122T211 -170Q211 -194 199 -218T161 -258T89 -275Q53 -275 34 -264T14 -227Q14 -213 26 -201T54 -188Q75 -188 83 -197T94 -219T103 -241T129 -251Q151
-251 151 -227Q151 -201 133 -180T68 -133Q61 -130 60 -124T63 -105Q73 -81 78 -68T88 -41T103 -1L120 -2Z" />
<glyph unicode="&#xb9;" horiz-adv-x="262" d="M37 404Q35 404 35 409T37 415Q66 415 79 419T97 438T101 484V602Q101 641 97 657T78 673T33 658Q29 657 27 662T27 669L163 729Q167 731 170 728T173 722V484Q173 453 176 438T193 419T233 415Q235 415 235 410T233
404Q213 404 189 405T138 406Q110 406 84 405T37 404Z" />
<glyph unicode="&#xba;" horiz-adv-x="325" d="M42 283Q39 283 38 292T38 309T41 318H284Q287 318 288 310T288 292T284 283H42ZM158 359Q119 359 90 378T46 429T30 498Q30 543 51 572T105 615T170 630Q210 630 238 611T281 561T296 495Q296 457 277 426T227 377T158
359ZM173 374Q196 374 209 401T223 477Q223 534 203 574T151 614Q128 614 116 589T103 517Q103 480 112 447T137 394T173 374Z" />
<glyph unicode="&#xbb;" horiz-adv-x="475" d="M234 361L422 212Q427 208 427 201T422 189L235 40Q233 37 230 40T227 46L319 200L227 356Q226 358 229 361T234 361ZM63 361L251 212Q256 208 256 201T251 189L63 40Q62 37 59 40T56 46L149 200L56 356Q55 358 58
361T63 361Z" />
<glyph unicode="&#xbc;" horiz-adv-x="607" d="M37 309Q35 309 35 314T37 320Q66 320 79 324T97 343T101 389V508Q101 547 97 563T78 579T33 564Q29 562 27 567T27 574L163 634Q167 636 170 633T173 627V389Q173 358 176 343T193 324T233 320Q235 320 235 315T233
309Q213 309 189 310T138 311Q110 311 84 310T37 309ZM189 -1Q189 -3 181 0T165 8T157 14L436 630Q438 633 446 630T462 623T469 616L189 -1ZM547 41Q547 22 552 17T586 11Q587 11 587 5T586 -1Q570 -1 554 -1T516 0Q491 0 469 0T428 -1Q427 -1 427 5T428 11Q461
11 469 16T478 41V254L496 263L382 112Q379 109 384 109Q431 109 463 110T523 112T586 115Q589 115 589 102T586 88Q539 90 486 92T352 94Q348 94 346 98T347 105L513 320Q517 325 532 325T547 319V41Z" />
<glyph unicode="&#xbd;" horiz-adv-x="612" d="M37 309Q35 309 35 314T37 320Q66 320 79 324T97 343T101 389V508Q101 547 97 563T78 579T33 564Q29 562 27 567T27 574L163 634Q167 636 170 633T173 627V389Q173 358 176 343T193 324T233 320Q235 320 235 315T233
309Q213 309 189 310T138 311Q110 311 84 310T37 309ZM189 -1Q189 -3 181 0T165 8T157 14L436 630Q438 633 446 630T462 623T469 616L189 -1ZM379 6Q389 49 404 77T436 124T467 159T490 194T499 241Q499 273 488 285T458 298Q436 298 420 284T396 248Q395 244 390
245T385 250Q395 281 417 303T486 326Q532 326 553 305T574 253Q574 219 555 196T508 153T456 113T422 64Q421 61 424 61Q469 61 497 62T542 68T565 81T572 101Q572 103 578 103T584 101L582 5Q582 0 578 0Q537 0 483 0T382 0Q378 0 379 6Z" />
<glyph unicode="&#xbe;" horiz-adv-x="596" d="M125 473V483Q166 483 197 463T229 404Q229 381 217 358T180 318T116 302Q74 302 53 321T21 371Q20 374 26 375T33 373Q43 352 60 341T99 329Q119 329 136 344T153 399Q153 434 135 451T78 469Q73 469 73 475T78
481Q99 481 112 489T133 513T140 549Q140 578 128 591T98 604Q76 604 60 589T39 556Q38 552 32 553T27 558Q36 591 60 612T127 634Q172 634 194 612T216 560Q216 535 202 516T166 485T125 473ZM178 -1Q178 -3 170 0T154 8T146 14L425 630Q427 633 435 630T451 623T458
616L178 -1ZM536 41Q536 22 541 17T575 11Q576 11 576 5T575 -1Q559 -1 543 -1T505 0Q480 0 458 0T417 -1Q416 -1 416 5T417 11Q450 11 458 16T467 41V254L485 263L371 112Q368 109 373 109Q420 109 452 110T512 112T575 115Q578 115 578 102T575 88Q528 90 475
92T341 94Q337 94 335 98T336 105L502 320Q506 325 521 325T536 319V41Z" />
<glyph unicode="&#xbf;" horiz-adv-x="327" d="M162 -256Q178 -256 183 -243T190 -215Q191 -202 195 -186T211 -158T247 -146Q276 -146 286 -161T297 -193Q297 -227 259 -251T162 -275Q122 -275 87 -262T30 -223T8 -156Q8 -121 23 -98T61 -57T105 -21Q136 6 150
35T164 102Q164 114 163 126T159 155Q158 158 166 160T175 159Q187 131 194 96T201 38Q201 10 193 -9T172 -43T148 -74T128 -113T119 -169Q119 -206 130 -231T162 -256ZM174 361Q202 361 218 345T235 300Q235 274 219 258T174 242Q146 242 131 258T115 300Q115
329 130 345T174 361Z" />
<glyph unicode="&#xc0;" horiz-adv-x="716" d="M171 229L186 257H474L481 229H171ZM717 12Q722 12 722 6T717 0Q687 0 655 2T592 4Q558 4 533 2T477 0Q473 0 473 6T477 12Q518 12 524 28T506 94L303 495L352 581L153 142Q126 82 152 47T234 12Q239 12 239 6T234
0Q204 0 179 2T116 4Q77 4 54 2T-4 0Q-8 0 -8 6T-4 12Q23 12 42 23T81 65T126 152L343 629Q344 632 352 632T361 629L611 137Q635 90 652 63T685 24T717 12ZM454 679Q403 702 351 721T232 756Q222 758 234 765T268 780T309 792T333 793Q363 769 393 742T458 689Q462
688 461 683T454 679Z" />
<glyph unicode="&#xc1;" horiz-adv-x="716" d="M171 229L186 257H474L481 229H171ZM717 12Q722 12 722 6T717 0Q687 0 655 2T592 4Q558 4 533 2T477 0Q473 0 473 6T477 12Q518 12 524 28T506 94L303 495L352 581L153 142Q126 82 152 47T234 12Q239 12 239 6T234
0Q204 0 179 2T116 4Q77 4 54 2T-4 0Q-8 0 -8 6T-4 12Q23 12 42 23T81 65T126 152L343 629Q344 632 352 632T361 629L611 137Q635 90 652 63T685 24T717 12ZM257 678Q253 677 251 682T252 689Q288 715 318 741T378 793Q382 796 401 792T442 780T476 765T479 756Q412
739 360 720T257 678Z" />
<glyph unicode="&#xc2;" horiz-adv-x="716" d="M171 229L186 257H474L481 229H171ZM717 12Q722 12 722 6T717 0Q687 0 655 2T592 4Q558 4 533 2T477 0Q473 0 473 6T477 12Q518 12 524 28T506 94L303 495L352 581L153 142Q126 82 152 47T234 12Q239 12 239 6T234
0Q204 0 179 2T116 4Q77 4 54 2T-4 0Q-8 0 -8 6T-4 12Q23 12 42 23T81 65T126 152L343 629Q344 632 352 632T361 629L611 137Q635 90 652 63T685 24T717 12ZM239 685L342 801Q347 806 354 806T365 801L467 685Q470 684 467 681T462 678L354 717L245 678Q244 677
241 680T239 685Z" />
<glyph unicode="&#xc3;" horiz-adv-x="716" d="M171 229L186 257H474L481 229H171ZM717 12Q722 12 722 6T717 0Q687 0 655 2T592 4Q558 4 533 2T477 0Q473 0 473 6T477 12Q518 12 524 28T506 94L303 495L352 581L153 142Q126 82 152 47T234 12Q239 12 239 6T234
0Q204 0 179 2T116 4Q77 4 54 2T-4 0Q-8 0 -8 6T-4 12Q23 12 42 23T81 65T126 152L343 629Q344 632 352 632T361 629L611 137Q635 90 652 63T685 24T717 12ZM429 763Q446 763 456 769T480 790Q482 792 485 789T487 783Q460 734 444 719T404 703Q386 703 366 709T324
721T279 727Q257 727 249 720T228 700Q226 699 223 702T221 707Q229 722 242 741T272 774T308 788Q322 788 342 782T385 770T429 763Z" />
<glyph unicode="&#xc4;" horiz-adv-x="716" d="M171 229L186 257H474L481 229H171ZM717 12Q722 12 722 6T717 0Q687 0 655 2T592 4Q558 4 533 2T477 0Q473 0 473 6T477 12Q518 12 524 28T506 94L303 495L352 581L153 142Q126 82 152 47T234 12Q239 12 239 6T234
0Q204 0 179 2T116 4Q77 4 54 2T-4 0Q-8 0 -8 6T-4 12Q23 12 42 23T81 65T126 152L343 629Q344 632 352 632T361 629L611 137Q635 90 652 63T685 24T717 12ZM268 703Q243 703 228 717T213 758Q213 782 228 796T268 810Q293 810 306 796T320 758Q320 703 268 703ZM442
703Q417 703 403 717T388 758Q388 782 402 795T442 809Q494 809 494 758Q494 703 442 703Z" />
<glyph unicode="&#xc5;" horiz-adv-x="716" d="M171 229L186 257H474L481 229H171ZM717 12Q722 12 722 6T717 0Q687 0 655 2T592 4Q558 4 533 2T477 0Q473 0 473 6T477 12Q518 12 524 28T506 94L303 495L352 581L153 142Q126 82 152 47T234 12Q239 12 239 6T234
0Q204 0 179 2T116 4Q77 4 54 2T-4 0Q-8 0 -8 6T-4 12Q23 12 42 23T81 65T126 152L343 629Q344 632 352 632T361 629L611 137Q635 90 652 63T685 24T717 12ZM346 660Q295 660 267 684T239 739Q239 765 257 782T302 807T355 816Q399 816 430 793T461 737Q461 713
444 696T401 669T346 660ZM361 674Q388 674 388 719Q388 753 373 777T335 802Q312 802 312 759Q312 739 317 720T334 687T361 674Z" />
<glyph unicode="&#xc6;" horiz-adv-x="888" d="M-7 0Q-11 0 -11 6T-7 12Q35 12 69 39T147 132L435 574Q454 600 444 606T371 613Q368 613 368 619T371 625H801Q811 625 811 616L813 483Q813 481 808 480T801 482Q795 504 775 530T725 576T658 596H616Q597 596
584 591T565 573T559 543V85Q559 66 564 54T579 35T605 28H649Q687 28 725 46T792 94T832 159Q833 162 838 161T843 157Q840 128 837 89T834 15Q834 0 819 0H382Q380 0 380 6T382 12Q413 12 428 17T448 37T454 81V589L490 604L194 138Q158 80 171 46T242 12Q247
12 247 6T242 0Q206 0 177 2T101 4Q66 4 45 2T-7 0ZM290 311L305 339H535L542 311H290ZM763 223Q763 264 732 287T641 311H482V339H642Q701 339 731 359T761 415Q761 418 767 418T773 415Q773 382 773 364T772 325Q772 300 773 276T774 223Q774 221 769 221T763
223Z" />
<glyph unicode="&#xc7;" horiz-adv-x="681" d="M427 636Q457 636 489 633T551 624T600 609Q609 606 611 602T615 586L628 447Q628 444 623 443T616 446Q588 527 537 571T411 615Q343 615 290 579T206 475T175 315Q175 245 193 189T244 92T322 31T421 9Q492 9 538
47T626 170Q628 173 632 172T637 168L622 44Q621 32 619 29T607 21Q559 4 512 -4T421 -12Q313 -12 229 28T97 141T49 308Q49 380 77 440T157 544T278 612T427 636ZM418 -2Q413 -23 414 -39T425 -68T454 -92Q475 -105 492 -122T509 -170Q509 -194 497 -218T459 -258T387
-275Q351 -275 332 -264T312 -227Q312 -213 324 -201T352 -188Q373 -188 381 -197T392 -219T401 -241T427 -251Q449 -251 449 -227Q449 -201 431 -180T366 -133Q359 -130 358 -124T361 -105Q371 -81 376 -68T386 -41T401 -1L418 -2Z" />
<glyph unicode="&#xc8;" horiz-adv-x="552" d="M483 0H41Q38 0 38 6T41 12Q72 12 87 17T107 37T112 81V544Q112 573 107 587T87 607T41 613Q38 613 38 619T41 625H465Q475 625 475 616L477 483Q477 481 472 480T465 482Q449 541 411 568T311 596H281Q261 596 248
591T229 573T223 543V85Q223 66 228 53T243 34T269 28H302Q380 28 427 60T496 159Q497 162 502 161T508 157Q504 128 501 89T498 15Q498 0 483 0ZM427 223Q427 264 396 287T305 311H170V339H306Q365 339 395 359T426 415Q426 418 431 418T437 415Q437 382 437 364T436
325Q436 300 437 276T439 223Q439 221 433 221T427 223ZM398 679Q347 702 295 721T176 756Q166 758 178 765T212 780T253 792T277 793Q307 769 337 742T402 689Q406 688 405 683T398 679Z" />
<glyph unicode="&#xc9;" horiz-adv-x="552" d="M483 0H41Q38 0 38 6T41 12Q72 12 87 17T107 37T112 81V544Q112 573 107 587T87 607T41 613Q38 613 38 619T41 625H465Q475 625 475 616L477 483Q477 481 472 480T465 482Q449 541 411 568T311 596H281Q261 596 248
591T229 573T223 543V85Q223 66 228 53T243 34T269 28H302Q380 28 427 60T496 159Q497 162 502 161T508 157Q504 128 501 89T498 15Q498 0 483 0ZM427 223Q427 264 396 287T305 311H170V339H306Q365 339 395 359T426 415Q426 418 431 418T437 415Q437 382 437 364T436
325Q436 300 437 276T439 223Q439 221 433 221T427 223ZM201 679Q197 677 195 682T196 689Q232 715 262 742T322 793Q326 797 345 793T386 780T420 765T423 756Q356 740 304 721T201 679Z" />
<glyph unicode="&#xca;" horiz-adv-x="552" d="M483 0H41Q38 0 38 6T41 12Q72 12 87 17T107 37T112 81V544Q112 573 107 587T87 607T41 613Q38 613 38 619T41 625H465Q475 625 475 616L477 483Q477 481 472 480T465 482Q449 541 411 568T311 596H281Q261 596 248
591T229 573T223 543V85Q223 66 228 53T243 34T269 28H302Q380 28 427 60T496 159Q497 162 502 161T508 157Q504 128 501 89T498 15Q498 0 483 0ZM427 223Q427 264 396 287T305 311H170V339H306Q365 339 395 359T426 415Q426 418 431 418T437 415Q437 382 437 364T436
325Q436 300 437 276T439 223Q439 221 433 221T427 223ZM184 702L287 818Q292 823 299 823T310 818L412 702Q415 701 412 698T407 695L299 734L190 695Q189 694 186 697T184 702Z" />
<glyph unicode="&#xcb;" horiz-adv-x="552" d="M483 0H41Q38 0 38 6T41 12Q72 12 87 17T107 37T112 81V544Q112 573 107 587T87 607T41 613Q38 613 38 619T41 625H465Q475 625 475 616L477 483Q477 481 472 480T465 482Q449 541 411 568T311 596H281Q261 596 248
591T229 573T223 543V85Q223 66 228 53T243 34T269 28H302Q380 28 427 60T496 159Q497 162 502 161T508 157Q504 128 501 89T498 15Q498 0 483 0ZM427 223Q427 264 396 287T305 311H170V339H306Q365 339 395 359T426 415Q426 418 431 418T437 415Q437 382 437 364T436
325Q436 300 437 276T439 223Q439 221 433 221T427 223ZM212 703Q187 703 172 717T157 758Q157 782 172 796T212 810Q237 810 250 796T264 758Q264 703 212 703ZM386 703Q361 703 347 717T332 758Q332 782 346 795T386 809Q438 809 438 758Q438 703 386 703Z" />
<glyph unicode="&#xcc;" horiz-adv-x="342" d="M227 81Q227 52 232 37T252 17T298 12Q301 12 301 6T298 0Q272 0 240 1T170 2Q134 2 101 1T42 0Q40 0 40 6T42 12Q73 12 88 17T109 37T115 81V544Q115 573 110 587T89 607T42 613Q40 613 40 619T42 625Q68 625 101
624T170 622Q208 622 240 623T298 625Q301 625 301 619T298 613Q268 613 253 607T232 586T227 542V81ZM271 679Q220 702 168 721T49 756Q39 758 51 765T85 780T126 792T150 793Q180 769 210 742T275 689Q279 688 278 683T271 679Z" />
<glyph unicode="&#xcd;" horiz-adv-x="342" d="M227 81Q227 52 232 37T252 17T298 12Q301 12 301 6T298 0Q272 0 240 1T170 2Q134 2 101 1T42 0Q40 0 40 6T42 12Q73 12 88 17T109 37T115 81V544Q115 573 110 587T89 607T42 613Q40 613 40 619T42 625Q68 625 101
624T170 622Q208 622 240 623T298 625Q301 625 301 619T298 613Q268 613 253 607T232 586T227 542V81ZM74 679Q70 677 68 682T69 689Q105 715 135 742T195 793Q199 797 218 793T259 780T293 765T296 756Q229 740 177 721T74 679Z" />
<glyph unicode="&#xce;" horiz-adv-x="342" d="M227 81Q227 52 232 37T252 17T298 12Q301 12 301 6T298 0Q272 0 240 1T170 2Q134 2 101 1T42 0Q40 0 40 6T42 12Q73 12 88 17T109 37T115 81V544Q115 573 110 587T89 607T42 613Q40 613 40 619T42 625Q68 625 101
624T170 622Q208 622 240 623T298 625Q301 625 301 619T298 613Q268 613 253 607T232 586T227 542V81ZM57 702L160 818Q165 823 172 823T183 818L285 702Q288 701 285 698T280 695L172 734L63 695Q62 694 59 697T57 702Z" />
<glyph unicode="&#xcf;" horiz-adv-x="342" d="M227 81Q227 52 232 37T252 17T298 12Q301 12 301 6T298 0Q272 0 240 1T170 2Q134 2 101 1T42 0Q40 0 40 6T42 12Q73 12 88 17T109 37T115 81V544Q115 573 110 587T89 607T42 613Q40 613 40 619T42 625Q68 625 101
624T170 622Q208 622 240 623T298 625Q301 625 301 619T298 613Q268 613 253 607T232 586T227 542V81ZM95 703Q70 703 55 717T40 758Q40 782 55 796T95 810Q120 810 134 796T148 758Q148 732 134 718T95 703ZM247 703Q222 703 208 717T194 758Q194 782 208 795T247
809Q299 809 299 758Q299 703 247 703Z" />
<glyph unicode="&#xd0;" horiz-adv-x="705" d="M53 297Q50 297 49 304T49 318T53 325H350Q353 325 354 318T354 304T350 297H53ZM326 -4Q294 -4 246 -1T158 2Q122 2 89 1T30 0Q28 0 28 6T30 12Q61 12 76 17T97 37T103 81V544Q103 573 98 587T78 607T32 613Q29
613 29 619T32 625Q58 625 90 624T159 622Q195 622 238 624T312 627Q416 627 493 587T613 478T656 323Q656 248 630 188T558 85T453 19T326 -4ZM316 19Q379 19 428 51T505 147T533 301Q533 386 507 455T434 564T322 605Q264 605 239 594T214 542V92Q214 55 233
37T316 19Z" />
<glyph unicode="&#xd1;" horiz-adv-x="735" d="M127 127V602L157 600V127Q157 74 179 43T240 12Q242 12 242 6T240 0Q218 0 195 1T143 2Q113 2 85 1T32 0Q29 0 29 6T32 12Q76 12 101 43T127 127ZM637 -15Q637 -18 633 -18T626 -18L133 543Q97 584 72 598T22 613Q20
613 20 619T22 625Q42 625 63 624T102 623Q138 623 167 624T212 625Q225 625 231 614T262 573L629 150L637 -15ZM637 497V-15L608 15V497Q608 550 586 581T525 613Q523 613 523 619T525 625Q547 625 570 624T622 622Q649 622 675 623T723 625Q725 625 725 619T723
613Q683 613 660 582T637 497ZM457 763Q474 763 484 769T508 790Q510 792 513 789T515 783Q488 734 472 719T432 703Q414 703 394 709T352 721T307 727Q285 727 277 720T256 700Q254 699 251 702T249 707Q257 722 270 741T300 774T336 788Q350 788 370 782T413
770T457 763Z" />
<glyph unicode="&#xd2;" horiz-adv-x="766" d="M366 -12Q294 -12 236 13T136 84T72 187T49 312Q49 393 80 454T164 555T278 616T401 636Q475 636 533 610T633 538T695 436T717 319Q717 249 689 189T613 84T501 14T366 -12ZM399 13Q455 13 499 45T568 139T594 290Q594
382 566 454T486 567T361 609Q270 609 221 540T172 349Q172 276 189 215T236 108T308 38T399 13ZM488 679Q437 702 385 721T266 756Q256 758 268 765T302 780T343 792T367 793Q397 769 427 742T492 689Q496 688 495 683T488 679Z" />
<glyph unicode="&#xd3;" horiz-adv-x="766" d="M366 -12Q294 -12 236 13T136 84T72 187T49 312Q49 393 80 454T164 555T278 616T401 636Q475 636 533 610T633 538T695 436T717 319Q717 249 689 189T613 84T501 14T366 -12ZM399 13Q455 13 499 45T568 139T594 290Q594
382 566 454T486 567T361 609Q270 609 221 540T172 349Q172 276 189 215T236 108T308 38T399 13ZM291 679Q287 677 285 682T286 689Q322 715 352 742T412 793Q416 797 435 793T476 780T510 765T513 756Q446 740 394 721T291 679Z" />
<glyph unicode="&#xd4;" horiz-adv-x="766" d="M366 -12Q294 -12 236 13T136 84T72 187T49 312Q49 393 80 454T164 555T278 616T401 636Q475 636 533 610T633 538T695 436T717 319Q717 249 689 189T613 84T501 14T366 -12ZM399 13Q455 13 499 45T568 139T594 290Q594
382 566 454T486 567T361 609Q270 609 221 540T172 349Q172 276 189 215T236 108T308 38T399 13ZM274 702L377 818Q382 823 389 823T400 818L502 702Q505 701 502 698T497 695L389 734L280 695Q279 694 276 697T274 702Z" />
<glyph unicode="&#xd5;" horiz-adv-x="766" d="M366 -12Q294 -12 236 13T136 84T72 187T49 312Q49 393 80 454T164 555T278 616T401 636Q475 636 533 610T633 538T695 436T717 319Q717 249 689 189T613 84T501 14T366 -12ZM399 13Q455 13 499 45T568 139T594 290Q594
382 566 454T486 567T361 609Q270 609 221 540T172 349Q172 276 189 215T236 108T308 38T399 13ZM463 763Q480 763 490 769T514 790Q516 792 519 789T521 783Q494 734 478 719T438 703Q420 703 400 709T358 721T313 727Q291 727 283 720T262 700Q260 699 257 702T255
707Q263 722 276 741T306 774T342 788Q356 788 376 782T419 770T463 763Z" />
<glyph unicode="&#xd6;" horiz-adv-x="766" d="M366 -12Q294 -12 236 13T136 84T72 187T49 312Q49 393 80 454T164 555T278 616T401 636Q475 636 533 610T633 538T695 436T717 319Q717 249 689 189T613 84T501 14T366 -12ZM399 13Q455 13 499 45T568 139T594 290Q594
382 566 454T486 567T361 609Q270 609 221 540T172 349Q172 276 189 215T236 108T308 38T399 13ZM302 703Q277 703 262 717T247 758Q247 782 262 796T302 810Q327 810 340 796T354 758Q354 703 302 703ZM476 703Q451 703 437 717T422 758Q422 782 436 795T476 809Q528
809 528 758Q528 703 476 703Z" />
<glyph unicode="&#xd7;" horiz-adv-x="399" d="M101 55Q99 53 90 61T72 78T64 89L298 323Q301 325 310 317T328 300T333 289L101 55ZM65 289Q64 292 72 301T89 318T99 325L333 91Q336 89 328 80T311 62T299 56L65 289Z" />
<glyph unicode="&#xd8;" horiz-adv-x="789" d="M90 -9Q89 -11 84 -7T74 3T71 11L684 633Q687 635 697 627T704 614L90 -9ZM366 -12Q294 -12 236 13T136 84T72 187T49 312Q49 393 80 454T164 555T278 616T401 636Q475 636 533 610T633 538T695 436T717 319Q717
249 689 189T613 84T501 14T366 -12ZM399 13Q455 13 499 45T568 139T594 290Q594 382 566 454T486 567T361 609Q270 609 221 540T172 349Q172 276 189 215T236 108T308 38T399 13Z" />
<glyph unicode="&#xd9;" horiz-adv-x="703" d="M571 497Q571 550 547 581T478 613Q476 613 476 619T478 625Q503 625 529 624T587 622Q614 622 640 623T688 625Q690 625 690 619T688 613Q648 613 627 582T605 497V219Q605 148 574 96T487 15T356 -14Q283 -14 226
14T136 94T103 221V544Q103 573 98 587T78 607T32 613Q29 613 29 619T32 625Q58 625 90 624T158 622Q196 622 228 623T285 625Q288 625 288 619T285 613Q255 613 240 607T220 586T214 542V256Q214 133 263 78T394 23Q477 23 524 73T571 218V497ZM473 679Q422 702
370 721T251 756Q241 758 253 765T287 780T328 792T352 793Q382 769 412 742T477 689Q481 688 480 683T473 679Z" />
<glyph unicode="&#xda;" horiz-adv-x="703" d="M571 497Q571 550 547 581T478 613Q476 613 476 619T478 625Q503 625 529 624T587 622Q614 622 640 623T688 625Q690 625 690 619T688 613Q648 613 627 582T605 497V219Q605 148 574 96T487 15T356 -14Q283 -14 226
14T136 94T103 221V544Q103 573 98 587T78 607T32 613Q29 613 29 619T32 625Q58 625 90 624T158 622Q196 622 228 623T285 625Q288 625 288 619T285 613Q255 613 240 607T220 586T214 542V256Q214 133 263 78T394 23Q477 23 524 73T571 218V497ZM276 679Q272 677
270 682T271 689Q307 715 337 742T397 793Q401 797 420 793T461 780T495 765T498 756Q431 740 379 721T276 679Z" />
<glyph unicode="&#xdb;" horiz-adv-x="703" d="M571 497Q571 550 547 581T478 613Q476 613 476 619T478 625Q503 625 529 624T587 622Q614 622 640 623T688 625Q690 625 690 619T688 613Q648 613 627 582T605 497V219Q605 148 574 96T487 15T356 -14Q283 -14 226
14T136 94T103 221V544Q103 573 98 587T78 607T32 613Q29 613 29 619T32 625Q58 625 90 624T158 622Q196 622 228 623T285 625Q288 625 288 619T285 613Q255 613 240 607T220 586T214 542V256Q214 133 263 78T394 23Q477 23 524 73T571 218V497ZM259 702L362 818Q367
823 374 823T385 818L487 702Q490 701 487 698T482 695L374 734L265 695Q264 694 261 697T259 702Z" />
<glyph unicode="&#xdc;" horiz-adv-x="703" d="M571 497Q571 550 547 581T478 613Q476 613 476 619T478 625Q503 625 529 624T587 622Q614 622 640 623T688 625Q690 625 690 619T688 613Q648 613 627 582T605 497V219Q605 148 574 96T487 15T356 -14Q283 -14 226
14T136 94T103 221V544Q103 573 98 587T78 607T32 613Q29 613 29 619T32 625Q58 625 90 624T158 622Q196 622 228 623T285 625Q288 625 288 619T285 613Q255 613 240 607T220 586T214 542V256Q214 133 263 78T394 23Q477 23 524 73T571 218V497ZM287 703Q262 703
247 717T232 758Q232 782 247 796T287 810Q312 810 325 796T339 758Q339 703 287 703ZM461 703Q436 703 422 717T407 758Q407 782 421 795T461 809Q513 809 513 758Q513 703 461 703Z" />
<glyph unicode="&#xdd;" horiz-adv-x="619" d="M318 278L441 487Q474 543 467 578T412 613Q409 613 409 619T412 625Q444 625 472 624T547 622Q572 622 587 623T625 625Q627 625 627 619T625 613Q605 613 577 596T521 548T469 478L339 261L318 278ZM260 274L108
510Q68 572 45 592T5 613Q2 613 2 619T5 625Q20 625 36 624T67 622Q95 622 127 622T187 624T234 625Q236 625 236 619T234 613Q205 613 200 593T212 546L356 319L260 274ZM254 310L365 319V81Q365 52 370 37T390 17T436 12Q439 12 439 6T436 0Q410 0 379 1T309
2Q273 2 240 1T181 0Q179 0 179 6T181 12Q212 12 227 17T248 37T254 81V310ZM227 679Q223 677 221 682T222 689Q258 715 288 742T348 793Q352 797 371 793T412 780T446 765T449 756Q382 740 330 721T227 679Z" />
<glyph unicode="&#xde;" horiz-adv-x="549" d="M101 544Q101 573 97 587T80 607T41 613Q38 613 38 619T41 625Q65 625 94 624T157 622Q201 622 238 623T308 625Q310 625 310 619T308 613Q267 613 246 607T219 586T212 539V85Q212 55 218 40T246 18T308 12Q310
12 310 6T308 0Q275 0 238 1T157 2Q124 2 95 1T41 0Q38 0 38 6T41 12Q67 12 79 17T96 37T101 81V544ZM147 483Q183 492 227 495T301 499Q360 499 408 484T485 433T517 336Q518 283 499 245T449 182T380 145T308 133Q295 133 283 134T258 138Q255 139 256 145T261
151Q270 150 279 149T297 147Q323 147 345 165T382 220T396 316Q396 398 363 437T276 477Q244 477 213 473T156 462L147 483Z" />
<glyph unicode="&#xdf;" horiz-adv-x="579" d="M377 -11Q329 -11 300 9T271 65Q271 88 285 101T324 115Q345 115 355 105T370 79T379 48T390 22T415 11Q441 11 451 35T458 85Q455 125 428 156T368 215Q335 247 307 280T278 356Q278 386 291 411T321 461T352 517T365
587Q365 617 356 645T329 690T282 708Q227 708 204 638T181 446V81Q181 38 190 25T236 12Q239 12 239 6T236 0Q209 0 185 0T135 1Q105 1 77 1T27 0Q24 0 24 6T27 12Q64 12 75 25T87 81L85 309Q85 329 80 339T61 353T23 357Q20 357 20 365T23 373Q54 373 66 379T82
401T88 448Q95 581 150 653T325 726Q370 726 403 716T454 684T473 630Q473 600 459 578T425 539T385 507T350 474T336 433Q336 399 365 367T432 299Q460 274 486 247T529 191T546 130Q546 96 526 64T467 10T377 -11Z" />
<glyph unicode="&#xe0;" horiz-adv-x="421" d="M319 -6Q315 -8 309 -8Q291 -8 273 16T255 85V255Q255 318 245 347T209 377Q184 377 172 362T155 327T149 295Q146 264 131 252T91 239Q65 239 54 250T43 277Q43 301 64 322T119 360T187 386T250 396Q291 396 320
370T349 285V108Q349 79 359 63T389 47Q403 47 418 54Q422 56 424 51T422 43L319 -6ZM127 -7Q83 -7 62 12T40 65Q40 98 58 115T105 143T165 165L265 202L269 187L212 161Q204 158 189 152T162 133T150 97Q150 71 167 59T201 46Q209 46 216 48T234 57L284 91L285
75L215 25Q193 8 173 1T127 -7ZM99 727Q98 731 112 731T146 729T181 723T198 716L230 476Q230 474 226 473T220 474L99 727Z" />
<glyph unicode="&#xe1;" horiz-adv-x="421" d="M319 -6Q315 -8 309 -8Q291 -8 273 16T255 85V255Q255 318 245 347T209 377Q184 377 172 362T155 327T149 295Q146 264 131 252T91 239Q65 239 54 250T43 277Q43 301 64 322T119 360T187 386T250 396Q291 396 320
370T349 285V108Q349 79 359 63T389 47Q403 47 418 54Q422 56 424 51T422 43L319 -6ZM127 -7Q83 -7 62 12T40 65Q40 98 58 115T105 143T165 165L265 202L269 187L212 161Q204 158 189 152T162 133T150 97Q150 71 167 59T201 46Q209 46 216 48T234 57L284 91L285
75L215 25Q193 8 173 1T127 -7ZM212 474Q211 471 206 472T201 476L234 716Q236 719 251 722T286 728T320 731T332 727L212 474Z" />
<glyph unicode="&#xe2;" horiz-adv-x="421" d="M319 -6Q315 -8 309 -8Q291 -8 273 16T255 85V255Q255 318 245 347T209 377Q184 377 172 362T155 327T149 295Q146 264 131 252T91 239Q65 239 54 250T43 277Q43 301 64 322T119 360T187 386T250 396Q291 396 320
370T349 285V108Q349 79 359 63T389 47Q403 47 418 54Q422 56 424 51T422 43L319 -6ZM127 -7Q83 -7 62 12T40 65Q40 98 58 115T105 143T165 165L265 202L269 187L212 161Q204 158 189 152T162 133T150 97Q150 71 167 59T201 46Q209 46 216 48T234 57L284 91L285
75L215 25Q193 8 173 1T127 -7ZM293 476Q295 474 290 473T283 474L215 582L146 474Q145 471 140 472T135 476L203 725Q204 730 214 730T226 725L293 476Z" />
<glyph unicode="&#xe3;" horiz-adv-x="421" d="M319 -6Q315 -8 309 -8Q291 -8 273 16T255 85V255Q255 318 245 347T209 377Q184 377 172 362T155 327T149 295Q146 264 131 252T91 239Q65 239 54 250T43 277Q43 301 64 322T119 360T187 386T250 396Q291 396 320
370T349 285V108Q349 79 359 63T389 47Q403 47 418 54Q422 56 424 51T422 43L319 -6ZM127 -7Q83 -7 62 12T40 65Q40 98 58 115T105 143T165 165L265 202L269 187L212 161Q204 158 189 152T162 133T150 97Q150 71 167 59T201 46Q209 46 216 48T234 57L284 91L285
75L215 25Q193 8 173 1T127 -7ZM289 533Q306 533 316 539T340 560Q342 562 345 559T347 553Q320 504 304 489T264 473Q246 473 226 479T184 491T139 497Q117 497 109 490T88 470Q86 469 83 472T81 477Q89 492 102 511T132 544T168 558Q182 558 202 552T245 540T289
533Z" />
<glyph unicode="&#xe4;" horiz-adv-x="421" d="M319 -6Q315 -8 309 -8Q291 -8 273 16T255 85V255Q255 318 245 347T209 377Q184 377 172 362T155 327T149 295Q146 264 131 252T91 239Q65 239 54 250T43 277Q43 301 64 322T119 360T187 386T250 396Q291 396 320
370T349 285V108Q349 79 359 63T389 47Q403 47 418 54Q422 56 424 51T422 43L319 -6ZM127 -7Q83 -7 62 12T40 65Q40 98 58 115T105 143T165 165L265 202L269 187L212 161Q204 158 189 152T162 133T150 97Q150 71 167 59T201 46Q209 46 216 48T234 57L284 91L285
75L215 25Q193 8 173 1T127 -7ZM128 464Q103 464 88 478T73 519Q73 543 88 557T128 571Q153 571 166 557T180 519Q180 464 128 464ZM302 464Q277 464 263 478T248 519Q248 543 262 556T302 570Q354 570 354 519Q354 464 302 464Z" />
<glyph unicode="&#xe5;" horiz-adv-x="421" d="M319 -6Q315 -8 309 -8Q291 -8 273 16T255 85V255Q255 318 245 347T209 377Q184 377 172 362T155 327T149 295Q146 264 131 252T91 239Q65 239 54 250T43 277Q43 301 64 322T119 360T187 386T250 396Q291 396 320
370T349 285V108Q349 79 359 63T389 47Q403 47 418 54Q422 56 424 51T422 43L319 -6ZM127 -7Q83 -7 62 12T40 65Q40 98 58 115T105 143T165 165L265 202L269 187L212 161Q204 158 189 152T162 133T150 97Q150 71 167 59T201 46Q209 46 216 48T234 57L284 91L285
75L215 25Q193 8 173 1T127 -7ZM205 468Q155 468 127 492T99 547Q99 573 117 590T162 616T215 625Q259 625 290 602T321 545Q321 521 304 504T261 477T205 468ZM221 482Q247 482 247 527Q247 561 232 586T195 611Q171 611 171 567Q171 547 177 528T194 495T221
482Z" />
<glyph unicode="&#xe6;" horiz-adv-x="589" d="M420 -12Q369 -12 328 6T263 64T235 170Q234 238 231 283T220 350T192 373Q171 373 158 364T138 337T131 291Q131 275 122 258T80 241Q55 241 42 251T28 285Q28 302 45 321T91 357T152 384T214 395Q255 395 284 370T320
299Q323 288 327 274T334 245T337 215Q337 172 345 138T368 81T408 46T463 34Q492 34 519 40T571 65Q573 67 576 63T578 56Q540 19 503 4T420 -12ZM295 248L294 267L477 271V249L295 248ZM337 215L270 299Q299 343 346 369T451 395Q510 395 541 363T573 269Q573
259 571 254T558 249H465Q468 311 455 343T418 375Q379 375 358 332T337 215ZM112 -7Q71 -7 50 13T28 67Q28 98 44 115T86 143T142 165L242 202L246 187L188 161Q169 153 154 139T138 96Q138 70 152 58T185 46Q195 46 204 48T222 57L273 91L274 75L204 23Q182 9
160 1T112 -7Z" />
<glyph unicode="&#xe7;" horiz-adv-x="425" d="M234 -12Q165 -12 120 17T54 93T32 186Q32 236 53 275T108 340T185 381T268 395Q297 395 326 387T374 362T393 320Q393 303 379 289T338 274Q313 274 299 287T277 325Q270 349 262 361T229 374Q186 374 161 331T135
219Q135 169 150 128T199 62T290 37Q320 37 340 44T386 63Q388 65 391 61T393 55Q358 23 321 6T234 -12ZM232 -2Q227 -23 228 -39T239 -68T268 -92Q289 -105 306 -122T323 -170Q323 -194 311 -218T273 -258T201 -275Q165 -275 146 -264T126 -227Q126 -213 138 -201T166
-188Q187 -188 195 -197T206 -219T215 -241T241 -251Q263 -251 263 -227Q263 -201 245 -180T180 -133Q173 -130 172 -124T175 -105Q185 -81 190 -68T200 -41T215 -1L232 -2Z" />
<glyph unicode="&#xe8;" horiz-adv-x="418" d="M235 -12Q170 -12 125 15T56 86T32 182Q32 241 61 289T141 366T258 395Q317 395 352 368T388 280Q388 267 386 258T377 249H281Q283 306 270 340T220 375Q180 375 157 334T133 225Q133 167 151 125T204 60T290 37Q320
37 340 44T386 65Q388 67 391 63T393 56Q356 19 318 4T235 -12ZM98 248L97 267L316 271V249L98 248ZM120 727Q119 731 133 731T167 729T202 723T219 716L251 476Q251 474 247 473T241 474L120 727Z" />
<glyph unicode="&#xe9;" horiz-adv-x="418" d="M235 -12Q170 -12 125 15T56 86T32 182Q32 241 61 289T141 366T258 395Q317 395 352 368T388 280Q388 267 386 258T377 249H281Q283 306 270 340T220 375Q180 375 157 334T133 225Q133 167 151 125T204 60T290 37Q320
37 340 44T386 65Q388 67 391 63T393 56Q356 19 318 4T235 -12ZM98 248L97 267L316 271V249L98 248ZM233 474Q232 471 227 472T222 476L255 716Q257 719 272 722T307 728T341 731T353 727L233 474Z" />
<glyph unicode="&#xea;" horiz-adv-x="418" d="M235 -12Q170 -12 125 15T56 86T32 182Q32 241 61 289T141 366T258 395Q317 395 352 368T388 280Q388 267 386 258T377 249H281Q283 306 270 340T220 375Q180 375 157 334T133 225Q133 167 151 125T204 60T290 37Q320
37 340 44T386 65Q388 67 391 63T393 56Q356 19 318 4T235 -12ZM98 248L97 267L316 271V249L98 248ZM314 476Q316 474 311 473T304 474L236 582L167 474Q166 471 161 472T156 476L224 725Q225 730 235 730T247 725L314 476Z" />
<glyph unicode="&#xeb;" horiz-adv-x="418" d="M235 -12Q170 -12 125 15T56 86T32 182Q32 241 61 289T141 366T258 395Q317 395 352 368T388 280Q388 267 386 258T377 249H281Q283 306 270 340T220 375Q180 375 157 334T133 225Q133 167 151 125T204 60T290 37Q320
37 340 44T386 65Q388 67 391 63T393 56Q356 19 318 4T235 -12ZM98 248L97 267L316 271V249L98 248ZM149 464Q124 464 109 478T94 519Q94 543 109 557T149 571Q174 571 187 557T201 519Q201 464 149 464ZM323 464Q298 464 284 478T269 519Q269 543 283 556T323
570Q375 570 375 519Q375 464 323 464Z" />
<glyph unicode="&#xec;" horiz-adv-x="263" d="M39 0Q36 0 36 6T39 12Q70 12 81 26T92 81V260Q92 293 86 308T62 324Q55 324 46 321T25 313Q21 312 19 318T19 325L170 395Q172 396 173 396Q178 396 183 391T188 382Q188 370 187 342T186 262V81Q186 41 197 27T240
12Q243 12 243 6T240 0Q220 0 194 1T139 2Q111 2 85 1T39 0ZM20 727Q19 731 33 731T67 729T102 723T119 716L151 476Q151 474 147 473T141 474L20 727Z" />
<glyph unicode="&#xed;" horiz-adv-x="263" d="M39 0Q36 0 36 6T39 12Q70 12 81 26T92 81V260Q92 293 86 308T62 324Q55 324 46 321T25 313Q21 312 19 318T19 325L170 395Q172 396 173 396Q178 396 183 391T188 382Q188 370 187 342T186 262V81Q186 41 197 27T240
12Q243 12 243 6T240 0Q220 0 194 1T139 2Q111 2 85 1T39 0ZM133 474Q132 471 127 472T122 476L155 716Q157 719 172 722T207 728T241 731T253 727L133 474Z" />
<glyph unicode="&#xee;" horiz-adv-x="263" d="M39 0Q36 0 36 6T39 12Q70 12 81 26T92 81V260Q92 293 86 308T62 324Q55 324 46 321T25 313Q21 312 19 318T19 325L170 395Q172 396 173 396Q178 396 183 391T188 382Q188 370 187 342T186 262V81Q186 41 197 27T240
12Q243 12 243 6T240 0Q220 0 194 1T139 2Q111 2 85 1T39 0ZM214 476Q216 474 211 473T204 474L136 582L67 474Q66 471 61 472T56 476L124 725Q125 730 135 730T147 725L214 476Z" />
<glyph unicode="&#xef;" horiz-adv-x="263" d="M39 0Q36 0 36 6T39 12Q70 12 81 26T92 81V260Q92 293 86 308T62 324Q55 324 46 321T25 313Q21 312 19 318T19 325L170 395Q172 396 173 396Q178 396 183 391T188 382Q188 370 187 342T186 262V81Q186 41 197 27T240
12Q243 12 243 6T240 0Q220 0 194 1T139 2Q111 2 85 1T39 0ZM59 464Q34 464 19 478T4 519Q4 543 19 557T59 571Q84 571 98 557T112 519Q112 493 98 479T59 464ZM211 464Q186 464 172 478T158 519Q158 543 172 556T211 570Q263 570 263 519Q263 464 211 464Z" />
<glyph unicode="&#xf0;" horiz-adv-x="470" d="M378 209Q363 290 323 333T232 377Q183 377 150 336T117 215Q117 159 133 112T180 37T251 9Q281 9 304 25T339 80T352 191Q352 274 332 353T275 501T191 625T90 716Q86 718 89 722T96 725Q179 689 245 634T359 513T431
373T456 227Q456 142 424 89T339 12T223 -13Q159 -13 112 14T40 87T14 186Q14 241 35 281T90 347T164 386T239 399Q276 399 309 386T367 347L378 209ZM125 484Q121 483 117 490T110 506T111 517L385 647Q389 649 394 642T401 626T399 614L125 484Z" />
<glyph unicode="&#xf1;" horiz-adv-x="526" d="M308 0Q305 0 305 6T308 12Q339 12 350 26T361 81V225Q361 279 342 305T280 331Q250 331 219 316T168 275L163 287Q198 337 242 367T338 398Q394 398 424 363T455 273V81Q455 41 466 27T509 12Q512 12 512 6T509
0Q489 0 463 1T408 2Q380 2 354 1T308 0ZM39 0Q36 0 36 6T39 12Q70 12 81 26T92 81V269Q92 300 85 314T61 329Q52 329 40 326T13 315Q9 313 7 319T7 326L146 394Q152 396 153 396Q164 396 175 372T186 303V81Q186 41 197 27T240 12Q243 12 243 6T240 0Q220 0 194
1T139 2Q111 2 85 1T39 0ZM352 533Q369 533 379 539T403 560Q405 562 408 559T410 553Q383 504 367 489T327 473Q309 473 289 479T247 491T202 497Q180 497 172 490T151 470Q149 469 146 472T144 477Q152 492 165 511T195 544T231 558Q245 558 265 552T308 540T352
533Z" />
<glyph unicode="&#xf2;" horiz-adv-x="489" d="M237 -13Q174 -13 128 16T57 93T32 198Q32 250 52 288T105 350T177 387T254 399Q318 399 363 369T433 292T457 192Q457 131 427 85T346 13T237 -13ZM267 8Q307 8 327 47T347 157Q347 230 329 279T281 353T220 378Q181
378 161 343T140 235Q140 167 157 116T203 36T267 8ZM131 727Q130 731 144 731T178 729T213 723T230 716L262 476Q262 474 258 473T252 474L131 727Z" />
<glyph unicode="&#xf3;" horiz-adv-x="489" d="M237 -13Q174 -13 128 16T57 93T32 198Q32 250 52 288T105 350T177 387T254 399Q318 399 363 369T433 292T457 192Q457 131 427 85T346 13T237 -13ZM267 8Q307 8 327 47T347 157Q347 230 329 279T281 353T220 378Q181
378 161 343T140 235Q140 167 157 116T203 36T267 8ZM244 474Q243 471 238 472T233 476L266 716Q268 719 283 722T318 728T352 731T364 727L244 474Z" />
<glyph unicode="&#xf4;" horiz-adv-x="489" d="M237 -13Q174 -13 128 16T57 93T32 198Q32 250 52 288T105 350T177 387T254 399Q318 399 363 369T433 292T457 192Q457 131 427 85T346 13T237 -13ZM267 8Q307 8 327 47T347 157Q347 230 329 279T281 353T220 378Q181
378 161 343T140 235Q140 167 157 116T203 36T267 8ZM325 476Q327 474 322 473T315 474L247 582L178 474Q177 471 172 472T167 476L235 725Q236 730 246 730T258 725L325 476Z" />
<glyph unicode="&#xf5;" horiz-adv-x="489" d="M237 -13Q174 -13 128 16T57 93T32 198Q32 250 52 288T105 350T177 387T254 399Q318 399 363 369T433 292T457 192Q457 131 427 85T346 13T237 -13ZM267 8Q307 8 327 47T347 157Q347 230 329 279T281 353T220 378Q181
378 161 343T140 235Q140 167 157 116T203 36T267 8ZM321 533Q338 533 348 539T372 560Q374 562 377 559T379 553Q352 504 336 489T296 473Q278 473 258 479T216 491T171 497Q149 497 141 490T120 470Q118 469 115 472T113 477Q121 492 134 511T164 544T200 558Q214
558 234 552T277 540T321 533Z" />
<glyph unicode="&#xf6;" horiz-adv-x="489" d="M237 -13Q174 -13 128 16T57 93T32 198Q32 250 52 288T105 350T177 387T254 399Q318 399 363 369T433 292T457 192Q457 131 427 85T346 13T237 -13ZM267 8Q307 8 327 47T347 157Q347 230 329 279T281 353T220 378Q181
378 161 343T140 235Q140 167 157 116T203 36T267 8ZM160 464Q135 464 120 478T105 519Q105 543 120 557T160 571Q185 571 198 557T212 519Q212 464 160 464ZM334 464Q309 464 295 478T280 519Q280 543 294 556T334 570Q386 570 386 519Q386 464 334 464Z" />
<glyph unicode="&#xf7;" horiz-adv-x="398" d="M34 165Q31 165 30 177T30 202T33 214H364Q367 214 368 202T368 178T364 165H34ZM199 -11Q171 -11 155 5T138 50Q138 76 154 92T199 108Q227 108 242 92T257 50Q257 22 242 6T199 -11ZM199 274Q171 274 155 290T138
335Q138 361 154 376T199 392Q227 392 242 377T257 335Q257 274 199 274Z" />
<glyph unicode="&#xf8;" horiz-adv-x="477" d="M57 -16Q56 -18 50 -14T40 -4T37 4L423 401Q425 403 431 399T441 390T443 382L57 -16ZM237 -13Q174 -13 128 16T57 93T32 198Q32 250 52 288T105 350T177 387T254 399Q318 399 363 369T433 292T457 192Q457 131 427
85T346 13T237 -13ZM267 8Q307 8 327 47T347 157Q347 230 329 279T281 353T220 378Q181 378 161 343T140 235Q140 167 157 116T203 36T267 8Z" />
<glyph unicode="&#xf9;" horiz-adv-x="505" d="M192 -12Q137 -12 106 23T74 113V260Q74 293 67 309T43 325Q32 325 18 318Q14 317 12 323T12 330L146 394Q149 395 151 395Q156 395 161 391T167 382V161Q167 107 187 80T250 53Q279 53 308 69T354 111L360 99Q326
50 284 19T192 -12ZM428 382V116Q428 82 434 68T456 54Q463 54 473 57T497 65Q501 67 504 62T504 54L366 -13Q364 -14 361 -14Q351 -14 343 11T335 82V260Q335 293 328 309T304 325Q293 325 278 318Q275 317 273 323T273 330L407 394Q409 395 412 395Q417 395 422
391T428 382ZM142 727Q141 731 155 731T189 729T224 723T241 716L273 476Q273 474 269 473T263 474L142 727Z" />
<glyph unicode="&#xfa;" horiz-adv-x="505" d="M192 -12Q137 -12 106 23T74 113V260Q74 293 67 309T43 325Q32 325 18 318Q14 317 12 323T12 330L146 394Q149 395 151 395Q156 395 161 391T167 382V161Q167 107 187 80T250 53Q279 53 308 69T354 111L360 99Q326
50 284 19T192 -12ZM428 382V116Q428 82 434 68T456 54Q463 54 473 57T497 65Q501 67 504 62T504 54L366 -13Q364 -14 361 -14Q351 -14 343 11T335 82V260Q335 293 328 309T304 325Q293 325 278 318Q275 317 273 323T273 330L407 394Q409 395 412 395Q417 395 422
391T428 382ZM255 474Q254 471 249 472T244 476L277 716Q279 719 294 722T329 728T363 731T375 727L255 474Z" />
<glyph unicode="&#xfb;" horiz-adv-x="505" d="M192 -12Q137 -12 106 23T74 113V260Q74 293 67 309T43 325Q32 325 18 318Q14 317 12 323T12 330L146 394Q149 395 151 395Q156 395 161 391T167 382V161Q167 107 187 80T250 53Q279 53 308 69T354 111L360 99Q326
50 284 19T192 -12ZM428 382V116Q428 82 434 68T456 54Q463 54 473 57T497 65Q501 67 504 62T504 54L366 -13Q364 -14 361 -14Q351 -14 343 11T335 82V260Q335 293 328 309T304 325Q293 325 278 318Q275 317 273 323T273 330L407 394Q409 395 412 395Q417 395 422
391T428 382ZM336 476Q338 474 333 473T326 474L258 582L189 474Q188 471 183 472T178 476L246 725Q247 730 257 730T269 725L336 476Z" />
<glyph unicode="&#xfc;" horiz-adv-x="505" d="M192 -12Q137 -12 106 23T74 113V260Q74 293 67 309T43 325Q32 325 18 318Q14 317 12 323T12 330L146 394Q149 395 151 395Q156 395 161 391T167 382V161Q167 107 187 80T250 53Q279 53 308 69T354 111L360 99Q326
50 284 19T192 -12ZM428 382V116Q428 82 434 68T456 54Q463 54 473 57T497 65Q501 67 504 62T504 54L366 -13Q364 -14 361 -14Q351 -14 343 11T335 82V260Q335 293 328 309T304 325Q293 325 278 318Q275 317 273 323T273 330L407 394Q409 395 412 395Q417 395 422
391T428 382ZM171 464Q146 464 131 478T116 519Q116 543 131 557T171 571Q196 571 209 557T223 519Q223 464 171 464ZM345 464Q320 464 306 478T291 519Q291 543 305 556T345 570Q397 570 397 519Q397 464 345 464Z" />
<glyph unicode="&#xfd;" horiz-adv-x="427" d="M441 386Q443 386 443 380T441 374Q407 374 384 345T343 267L232 -28Q196 -124 163 -179T95 -258T23 -281Q-6 -281 -22 -269T-39 -232Q-39 -208 -25 -197T9 -185Q26 -185 36 -191T56 -204T82 -211Q106 -211 126 -191T169
-121T223 15L220 -40L50 303Q28 347 16 360T-15 374Q-18 374 -18 380T-15 386Q5 386 27 385T70 384Q106 384 133 385T182 386Q185 386 185 380T182 374Q147 374 137 366T138 335L265 75L229 16L316 268Q333 317 319 345T263 374Q261 374 261 380T263 386Q287 386
308 385T364 384Q388 384 403 385T441 386ZM220 474Q219 471 214 472T209 476L242 716Q244 719 259 722T294 728T328 731T340 727L220 474Z" />
<glyph unicode="&#xfe;" horiz-adv-x="496" d="M8 -275Q6 -275 6 -269T8 -263Q43 -263 53 -250T64 -194V589Q64 623 58 638T35 654Q22 654 -2 643Q-6 642 -9 648T-9 655L137 724Q139 725 142 725Q147 725 152 721T158 712V-194Q158 -222 164 -237T190 -257T247
-263Q249 -263 249 -269T247 -275Q218 -275 183 -274T110 -273Q81 -273 55 -274T8 -275ZM243 -13Q205 -13 178 -7T111 12L146 75Q168 48 193 30T262 12Q309 12 336 53T364 184Q364 264 327 303T240 343Q202 343 176 324T123 276L112 288Q163 347 210 373T305 399Q347
399 383 378T441 315T464 215Q464 151 444 107T391 37T319 -1T243 -13Z" />
<glyph unicode="&#xff;" horiz-adv-x="427" d="M441 386Q443 386 443 380T441 374Q407 374 384 345T343 267L232 -28Q196 -124 163 -179T95 -258T23 -281Q-6 -281 -22 -269T-39 -232Q-39 -208 -25 -197T9 -185Q26 -185 36 -191T56 -204T82 -211Q106 -211 126 -191T169
-121T223 15L220 -40L50 303Q28 347 16 360T-15 374Q-18 374 -18 380T-15 386Q5 386 27 385T70 384Q106 384 133 385T182 386Q185 386 185 380T182 374Q147 374 137 366T138 335L265 75L229 16L316 268Q333 317 319 345T263 374Q261 374 261 380T263 386Q287 386
308 385T364 384Q388 384 403 385T441 386ZM136 464Q111 464 96 478T81 519Q81 543 96 557T136 571Q161 571 174 557T188 519Q188 464 136 464ZM310 464Q285 464 271 478T256 519Q256 543 270 556T310 570Q362 570 362 519Q362 464 310 464Z" />
<glyph unicode="&#x2013;" horiz-adv-x="515" d="M34 165Q31 165 30 177T30 202T33 214H481Q484 214 485 202T485 178T481 165H34Z" />
<glyph unicode="&#x2014;" horiz-adv-x="830" d="M34 165Q31 165 30 177T30 202T33 214H796Q799 214 800 202T800 178T796 165H34Z" />
<glyph unicode="&#x2018;" horiz-adv-x="188" d="M98 341Q64 341 44 364T24 438Q24 494 51 542T124 636Q128 639 131 636T132 629Q104 595 94 562T84 491Q84 461 89 448T105 427L68 420Q67 437 78 446T108 455Q134 455 148 440T163 399Q163 371 145 356T98 341Z" />
<glyph unicode="&#x2019;" horiz-adv-x="186" d="M88 625Q123 625 142 602T162 528Q162 473 136 425T62 330Q58 327 55 330T54 337Q83 372 92 405T102 475Q102 505 97 518T81 539L118 546Q119 529 108 520T78 511Q52 511 38 526T23 567Q23 595 41 610T88 625Z" />
<glyph unicode="&#x201a;" horiz-adv-x="186" d="M88 106Q123 106 142 83T162 9Q162 -46 136 -94T62 -189Q58 -192 55 -189T54 -182Q83 -147 92 -114T102 -44Q102 -14 97 -1T81 20L118 27Q119 10 108 1T78 -8Q52 -8 38 7T23 48Q23 76 41 91T88 106Z" />
<glyph unicode="&#x201c;" horiz-adv-x="359" d="M98 341Q64 341 44 364T24 438Q24 494 51 542T124 636Q128 639 131 636T132 629Q104 595 94 562T84 491Q84 461 89 448T105 427L68 420Q67 437 78 446T108 455Q134 455 148 440T163 399Q163 371 145 356T98 341ZM271
341Q237 341 217 364T197 438Q197 494 224 542T297 636Q301 639 304 636T305 629Q277 595 267 562T257 491Q257 461 262 448T278 427L241 420Q240 437 251 446T281 455Q307 455 321 440T336 399Q336 371 318 356T271 341Z" />
<glyph unicode="&#x201d;" horiz-adv-x="359" d="M261 625Q296 625 315 602T335 528Q335 473 309 425T235 330Q231 327 228 330T227 337Q256 372 265 405T275 475Q275 505 270 518T254 539L291 546Q292 529 281 520T251 511Q225 511 211 526T196 567Q196 595 214
610T261 625ZM88 625Q123 625 142 602T162 528Q162 473 136 425T62 330Q58 327 55 330T54 337Q83 372 92 405T102 475Q102 505 97 518T81 539L118 546Q119 529 108 520T78 511Q52 511 38 526T23 567Q23 595 41 610T88 625Z" />
<glyph unicode="&#x201e;" horiz-adv-x="371" d="M261 106Q296 106 315 83T335 9Q335 -46 309 -94T235 -189Q231 -192 228 -189T227 -182Q256 -147 265 -114T275 -44Q275 -14 270 -1T254 20L291 27Q292 10 281 1T251 -8Q225 -8 211 7T196 48Q196 76 214 91T261
106ZM88 106Q123 106 142 83T162 9Q162 -46 136 -94T62 -189Q58 -192 55 -189T54 -182Q83 -147 92 -114T102 -44Q102 -14 97 -1T81 20L118 27Q119 10 108 1T78 -8Q52 -8 38 7T23 48Q23 76 41 91T88 106Z" />
<glyph unicode="&#x2022;" horiz-adv-x="324" d="M163 131Q131 131 104 146T60 188T44 248Q44 280 60 306T103 349T163 365Q195 365 221 349T264 307T280 248Q280 215 264 189T222 147T163 131Z" />
<glyph unicode="&#x2039;" horiz-adv-x="304" d="M241 40L53 189Q49 194 49 201T53 212L241 361Q243 364 246 361T248 356L156 201L248 46Q249 44 246 41T241 40Z" />
<glyph unicode="&#x203a;" horiz-adv-x="304" d="M63 361L251 212Q256 208 256 201T251 189L63 40Q62 37 59 40T56 46L149 200L56 356Q55 358 58 361T63 361Z" />
</font>
</defs>
</svg>
