<?xml version="1.0" standalone="no"?>
<!DOCTYPE svg PUBLIC "-//W3C//DTD SVG 1.1//EN" "http://www.w3.org/Graphics/SVG/1.1/DTD/svg11.dtd">
<svg xmlns="http://www.w3.org/2000/svg">
<defs >
<font id="CormorantGaramond" horiz-adv-x="450" ><font-face
    font-family="Cormorant Garamond Light SemiBold"
    units-per-em="1000"
    panose-1="0 0 0 0 0 0 0 0 0 0"
    ascent="924"
    descent="-287"
    alphabetic="0" />
<glyph unicode=" " horiz-adv-x="234" />
<glyph unicode="!" horiz-adv-x="219" d="M113 191Q112 186 107 187T102 192Q108 258 113 332T123 481T128 621Q128 625 147 629T186 633Q207 633 225 629T242 621Q216 555 193 481T150 332T113 191ZM86 -9Q63 -9 49 5T34 43Q34 66 48 79T86 93Q110 93 123 80T137
43Q137 -9 86 -9Z" />
<glyph unicode="&quot;" horiz-adv-x="331" d="M85 298L114 609Q114 617 130 623T166 634T202 640T215 637L100 299Q99 296 92 296T85 298ZM242 298L271 609Q271 617 287 623T323 634T359 640T372 637L257 299Q256 296 249 296T242 298Z" />
<glyph unicode="#" horiz-adv-x="441" d="M72 -83Q72 -86 62 -84T44 -78T35 -71L221 486Q222 489 231 486T250 479T258 472L72 -83ZM24 74Q22 74 21 85T21 107T24 118H353Q356 118 356 107T356 85T352 74H24ZM223 -83Q223 -86 213 -84T195 -78T186 -71L372 486Q373
489 382 486T401 479T409 472L223 -83ZM91 272Q89 272 88 283T88 306T91 317H420Q422 317 422 306T422 284T418 272H91Z" />
<glyph unicode="$" horiz-adv-x="394" d="M139 -100L256 564Q257 571 268 570T279 560L162 -103Q161 -110 150 -109T139 -100ZM159 384Q155 356 166 336T200 300T246 268Q273 253 296 234T332 188T338 123Q332 85 307 55T243 6T158 -12Q120 -12 88 0T39 27Q36
30 35 34T34 47L47 156Q47 159 52 159T57 156Q63 123 77 89T116 32T173 9Q192 9 211 17T244 44T263 92Q269 125 257 148T222 188T175 222Q151 238 129 256T95 300T89 360Q96 399 122 426T184 466T258 480Q286 480 313 473T358 455Q366 451 368 447T370 436L355
342Q354 338 350 339T345 344Q345 355 340 373T322 412T291 446T243 460Q206 460 185 438T159 384Z" />
<glyph unicode="%" horiz-adv-x="526" d="M67 -9Q66 -10 60 -7T48 2T43 8L472 552Q474 555 480 551T492 541T496 534L67 -9ZM353 -6Q306 -6 282 32T268 124Q274 159 293 188T339 234T398 252Q445 252 468 214T482 122Q472 68 436 31T353 -6ZM362 12Q388 12 399
41T416 115Q424 174 417 204T391 235Q364 235 351 204T332 128Q325 79 331 46T362 12ZM158 302Q111 302 87 339T73 432Q79 467 98 496T145 542T204 559Q251 559 274 521T287 429Q277 376 241 339T158 302ZM167 320Q193 320 204 349T221 422Q230 481 223 511T196
542Q170 542 157 511T138 435Q131 387 137 354T167 320Z" />
<glyph unicode="&amp;" horiz-adv-x="760" d="M313 -12Q251 -12 202 12T121 78T76 172T76 278Q88 333 121 375T202 441T302 465Q328 465 352 459T395 438L322 369Q309 410 288 423T249 436Q224 436 206 419T175 373T156 310Q146 248 158 198T199 113T266 58T349
39Q407 39 456 71T536 163T570 309L591 303Q583 199 546 129T448 23T313 -12ZM123 192L110 205Q143 233 185 266T272 337T353 411T414 483T438 548Q438 568 430 578T413 594T395 609T387 636Q387 656 399 668T430 681Q458 681 472 659T486 601Q486 555 464 512T403
427T318 346T220 268T123 192ZM390 217Q377 217 367 225T357 254Q357 283 376 309T425 353T487 370Q514 370 543 359T600 332T655 306T703 294Q717 294 725 299T733 312Q733 322 726 328T712 344T705 366Q705 378 713 385T737 392Q750 392 759 385T769 356Q769
329 753 302T711 257T655 239Q628 239 600 251T542 280T484 309T430 321Q414 321 406 315T398 300Q398 290 403 282T414 265T420 246Q420 237 414 227T390 217Z" />
<glyph unicode="&apos;" horiz-adv-x="136" d="M70 298L99 609Q99 617 115 623T151 634T187 640T200 637L85 299Q84 296 77 296T70 298Z" />
<glyph unicode="(" horiz-adv-x="287" d="M201 -117Q141 -80 107 -17T66 128T74 304Q91 398 129 480T224 625T349 725Q352 727 354 723T355 717Q284 645 239 544T169 304Q148 179 157 78T208 -109Q209 -111 206 -114T201 -117Z" />
<glyph unicode=")" horiz-adv-x="287" d="M126 725Q187 689 220 626T261 480T252 304Q236 211 198 129T103 -17T-22 -117Q-25 -118 -27 -115T-28 -109Q43 -37 88 64T157 304Q179 429 170 530T119 717Q118 719 121 723T126 725Z" />
<glyph unicode="*" horiz-adv-x="448" d="M198 367Q195 360 178 363T142 375T109 392T98 404L245 491Q247 493 251 490T254 485L198 367ZM310 315L273 481Q272 483 275 486T281 487L377 398Q382 392 374 377T350 346T323 320T310 315ZM243 511L113 528Q106 529
104 546T104 584T110 621T118 634L247 521Q249 520 248 515T243 511ZM461 488L291 503Q289 503 288 507T289 513L403 576Q409 580 420 567T443 536T460 503T461 488ZM265 529L241 660Q239 668 255 674T292 686T329 692T343 688L276 529Q275 526 271 526T265 529Z"
/>
<glyph unicode="+" horiz-adv-x="398" d="M34 167Q31 167 30 178T30 201T33 212H364Q367 212 368 201T368 179T364 167H34ZM221 25Q221 22 210 21T188 20T176 23V354Q176 357 187 358T210 358T221 354V25Z" />
<glyph unicode="," horiz-adv-x="231" d="M15 -180Q11 -183 8 -178T8 -171Q38 -139 56 -106T81 -42Q88 -10 83 3T75 19L106 34Q107 13 98 3T71 -8Q44 -8 32 10T23 49Q26 68 39 80T79 93Q113 93 129 66T136 -9Q126 -55 95 -99T15 -180Z" />
<glyph unicode="-" horiz-adv-x="305" d="M33 165Q30 165 29 177T27 201T29 214L279 261Q282 262 283 250T285 225T281 212L33 165Z" />
<glyph unicode="." horiz-adv-x="204" d="M74 -9Q51 -9 37 5T22 43Q22 66 36 79T74 93Q98 93 111 80T125 43Q125 -9 74 -9Z" />
<glyph unicode="/" horiz-adv-x="305" d="M-9 -169Q-10 -172 -20 -170T-40 -162T-48 -155L336 734Q338 738 348 735T367 727T374 718L-9 -169Z" />
<glyph unicode="0" horiz-adv-x="445" d="M186 -13Q132 -13 93 13T37 87T31 196Q42 256 75 301T157 373T261 399Q316 399 354 373T409 301T414 193Q403 132 370 86T289 13T186 -13ZM202 5Q235 5 259 28T300 92T324 181Q334 246 327 290T299 358T247 381Q202 381
167 333T119 204Q111 150 117 105T145 33T202 5Z" />
<glyph unicode="1" horiz-adv-x="291" d="M8 0Q4 0 4 6T8 12Q42 12 60 17T88 37T102 81L137 272Q141 299 140 312T120 324T57 301Q53 299 51 304T52 313L226 398Q228 400 231 398T233 393L176 81Q171 52 174 37T195 17T248 12Q252 12 252 6T248 0Q224 0 194 1T129
2Q95 2 64 1T8 0Z" />
<glyph unicode="2" horiz-adv-x="369" d="M2 15Q64 68 107 107T179 176T222 232T241 284Q247 318 234 344T187 371Q153 371 126 339T72 252Q71 250 66 251T61 257L119 410Q121 413 126 412T131 405Q124 389 127 384T136 378Q150 378 175 388T235 399Q285 399 307
371T322 298Q316 265 295 238T243 186T174 134T97 72Q95 71 95 70T98 69Q152 69 190 70T254 78T295 96T320 129Q321 132 326 131T330 125L292 8Q291 4 290 2T284 0Q220 0 148 0T9 0Q5 0 3 5T2 15Z" />
<glyph unicode="3" horiz-adv-x="350" d="M-32 -276Q-35 -277 -37 -272T-37 -264Q43 -234 92 -191T167 -102T198 -18Q205 18 199 45T173 89T120 106Q111 106 101 104T80 98Q76 97 74 104T76 113Q144 131 181 169T229 273Q238 320 228 346T187 373Q148 373 114
344T50 258Q48 254 43 256T38 263L97 405Q99 408 104 406T107 400Q101 385 105 381T116 377Q132 377 158 388T219 399Q257 399 278 382T308 338T311 281Q305 245 283 211T227 153T149 119L156 134Q211 132 241 111T282 55T285 -16Q278 -61 241 -109T135 -201T-32
-276Z" />
<glyph unicode="4" horiz-adv-x="430" d="M192 -188Q183 -193 184 -182L269 303L319 342L54 62Q47 55 58 55Q124 55 174 55T270 57T365 60Q368 60 367 46T363 18T357 4Q309 7 258 8T143 10T-8 11Q-12 11 -13 14T-11 22L349 403Q351 405 357 404T361 398L264 -158Q262
-169 255 -172L192 -188Z" />
<glyph unicode="5" horiz-adv-x="374" d="M-23 -275Q-27 -276 -29 -271T-28 -264Q52 -221 100 -179T172 -95T204 -8Q217 70 179 118T54 167Q44 167 48 179L108 357Q110 364 112 365T122 368Q203 378 248 384T314 395T342 406T354 423Q356 426 361 424T364 419L330
332Q324 319 318 317T301 314L125 309Q114 309 108 295L71 178L69 196Q161 196 213 172T284 105T293 9Q283 -47 246 -94T143 -184T-23 -275Z" />
<glyph unicode="6" horiz-adv-x="423" d="M195 -13Q105 -13 62 44T39 208Q52 276 86 344T174 474T296 583T446 661Q450 662 451 657T450 649Q358 605 290 535T181 385T126 226Q115 165 123 116T157 38T224 9Q255 9 277 35T308 116Q316 172 302 211T243 250Q227
250 212 244T176 223Q174 220 171 223T168 230Q218 282 286 282Q335 282 360 261T393 208T394 142Q386 98 357 63T286 8T195 -13Z" />
<glyph unicode="7" horiz-adv-x="390" d="M-9 -275Q-10 -276 -12 -273T-14 -268L334 313Q338 320 331 320Q238 320 185 318T105 309T66 288T43 251Q42 247 37 249T32 254L94 415Q95 418 101 416T106 412Q100 395 106 391T143 386Q157 386 185 386T248 386T318
386T382 386Q387 386 388 382T388 373L92 -220Q84 -237 69 -244L-9 -275Z" />
<glyph unicode="8" horiz-adv-x="440" d="M193 -13Q133 -13 93 10T35 70T25 149Q33 195 66 235T143 306T228 349L233 340Q184 317 153 274T113 175Q107 134 117 96T153 33T221 9Q259 9 290 42T329 132Q337 181 324 214T286 270T233 313T179 351T140 395T132 456Q139
496 164 522T223 561T291 574Q336 574 363 555T402 510T409 460Q402 423 365 391T275 333L271 339Q298 363 314 389T335 448Q339 476 333 500T311 539T274 555Q248 555 229 535T207 483Q203 447 218 422T259 376T315 337T370 294T407 239T411 161Q401 107 368 68T288
8T193 -13Z" />
<glyph unicode="9" horiz-adv-x="424" d="M-22 -275Q-26 -276 -27 -270T-26 -263Q43 -230 99 -181T196 -73T263 46T299 160Q309 214 301 263T268 344T201 376Q171 376 149 355T118 282Q112 243 119 210T144 157T189 136Q205 136 219 143T250 165Q253 167 257 165T259
159Q236 131 209 118T148 104Q100 104 72 128T34 188T30 256Q38 297 67 329T140 380T232 399Q288 399 326 373T381 298T384 178Q373 110 339 42T251 -88T129 -197T-22 -275Z" />
<glyph unicode=":" horiz-adv-x="204" d="M74 -9Q51 -9 37 5T22 43Q22 66 36 79T74 93Q98 93 111 80T125 43Q125 -9 74 -9ZM111 272Q88 272 74 286T59 324Q59 347 73 360T111 374Q135 374 148 361T162 324Q162 272 111 272Z" />
<glyph unicode=";" horiz-adv-x="222" d="M15 -180Q11 -183 8 -178T8 -171Q38 -139 56 -106T81 -42Q88 -10 83 3T75 19L106 34Q107 13 98 3T71 -8Q44 -8 32 10T23 49Q26 68 39 80T79 93Q113 93 129 66T136 -9Q126 -55 95 -99T15 -180ZM111 272Q88 272 74 286T59
324Q59 347 73 360T111 374Q135 374 148 361T162 324Q162 272 111 272Z" />
<glyph unicode="&lt;" horiz-adv-x="407" d="M369 354Q374 357 375 347T376 324T369 309L76 184V197L369 71Q374 69 375 57T376 34T369 25L35 173Q30 176 30 190T35 207L369 354Z" />
<glyph unicode="=" horiz-adv-x="468" d="M34 237Q31 237 30 248T30 271T33 282H434Q437 282 438 271T438 249T434 237H34ZM34 97Q31 97 30 108T30 131T33 142H434Q437 142 438 131T438 109T434 97H34Z" />
<glyph unicode="&gt;" horiz-adv-x="407" d="M37 25Q33 23 32 33T31 56T37 70L330 195V182L37 308Q33 310 32 322T31 346T37 354L371 206Q376 203 376 189T371 172L37 25Z" />
<glyph unicode="?" horiz-adv-x="295" d="M138 187Q120 215 113 250T109 306Q115 342 135 365T181 408T228 452T256 517Q259 540 256 560T242 594T212 607Q191 607 184 594T173 565Q171 555 167 542T153 520T124 510Q100 510 91 525T85 558Q90 580 110 595T160
617T220 625Q280 625 315 595T339 505Q332 472 316 449T280 407T239 372Q194 337 175 311T151 249Q149 237 149 223T151 192Q152 188 146 186T138 187ZM118 -9Q95 -9 81 5T66 43Q66 66 80 79T118 93Q142 93 155 80T169 43Q169 -9 118 -9Z" />
<glyph unicode="@" horiz-adv-x="726" d="M362 -103Q280 -103 213 -71T106 24T66 175Q66 248 93 307T168 410T275 476T402 500Q483 500 542 468T633 382T665 267Q665 209 638 161T566 83T465 54Q426 54 412 78T407 144L426 232L455 245Q432 190 399 146T331 77T263
52Q238 52 220 71T209 138Q215 180 236 219T287 289T351 339T416 358Q436 358 454 347T475 309L445 328Q458 330 474 340T493 365Q495 367 503 367T511 364L470 140Q465 112 471 95T505 78Q528 78 554 96T598 149T616 236Q616 303 584 357T496 444T368 477Q290
477 235 439T151 338T122 200Q122 118 156 58T252 -36T397 -69Q442 -69 480 -59T564 -20Q566 -18 569 -22T570 -28Q514 -75 461 -89T362 -103ZM305 108Q321 108 340 122T378 161T411 214T432 273Q436 299 429 317T401 335Q376 335 352 313T311 257T285 183Q278
155 281 132T305 108Z" />
<glyph unicode="A" horiz-adv-x="603" d="M-34 0Q-38 0 -38 6T-34 12Q-8 12 28 39T101 132L382 634Q384 638 391 637T400 633L502 84Q507 57 512 41T530 19T570 12Q574 12 574 6T570 0Q545 0 519 2T462 4Q432 4 408 2T359 0Q355 0 355 6T359 12Q400 12 411 27T415
84L333 523L379 583L130 130Q105 86 103 60T118 23T175 12Q179 12 179 6T174 0Q152 0 120 2T58 4Q29 4 11 2T-34 0ZM179 245L194 270H411L413 245H179Z" />
<glyph unicode="B" horiz-adv-x="547" d="M308 336L321 353Q387 353 431 330T494 268T504 177Q494 126 459 85T370 20T256 -4Q230 -4 193 -1T126 2Q94 2 65 1T13 0Q11 0 11 6T13 12Q42 12 58 18T83 39T97 83L179 546Q186 590 175 601T123 613Q119 613 120 619T123
625Q147 625 174 624T233 622Q259 622 288 625T344 628Q405 628 443 612T498 565T505 493Q493 438 443 396T308 336ZM327 610Q308 610 296 604T276 583T263 539L229 346L199 353Q228 352 247 352T267 351Q331 351 370 393T422 495Q430 531 422 556T391 596T327
610ZM241 16Q316 16 357 55T411 163Q426 236 396 281T281 326Q266 326 244 326T196 320L226 332L181 78Q175 45 185 31T241 16Z" />
<glyph unicode="C" horiz-adv-x="587" d="M319 -12Q231 -12 176 17T93 95T59 200T62 315Q76 390 112 449T200 550T312 614T435 636Q476 636 518 627T583 605Q590 601 591 597T591 582L577 456Q577 452 572 452T566 456Q552 531 507 571T395 611Q336 611 287 579T206
488T160 346Q149 277 156 216T184 107T241 33T325 6Q377 6 430 43T536 157Q539 161 543 159T547 154L519 41Q515 29 513 25T501 18Q452 1 405 -5T319 -12Z" />
<glyph unicode="D" horiz-adv-x="628" d="M246 -4Q222 -4 187 -1T120 2Q88 2 62 1T12 0Q9 0 9 6T12 12Q41 12 56 17T78 37T91 81L173 544Q181 587 171 600T119 613Q117 613 117 619T119 625Q142 625 169 624T229 622Q257 622 287 624T344 627Q439 627 504 588T598
481T611 323Q598 249 563 189T476 85T366 19T246 -4ZM241 14Q306 14 362 47T457 145T512 301Q522 358 518 412T495 511T437 582T339 609Q297 609 281 595T257 542L177 92Q170 52 182 33T241 14Z" />
<glyph unicode="E" horiz-adv-x="525" d="M19 0Q16 0 16 6T19 12Q47 12 62 17T84 37T96 81L178 544Q186 587 176 600T125 613Q123 613 123 619T125 625H515Q523 625 521 616Q518 597 514 572T507 524T500 485Q499 481 494 482T488 486Q488 541 458 573T378 606H337Q308
606 294 602T274 584T262 543L181 85Q174 44 184 32T233 20H288Q340 20 388 57T468 156Q470 159 475 158T479 154Q471 126 462 87T447 15Q444 0 431 0H19ZM426 225Q425 221 419 221T414 226Q422 271 403 291T342 312H183L186 338H349Q392 338 414 355T446 412Q447
417 453 417T458 411Q453 380 449 362T441 325Q437 301 434 277T426 225Z" />
<glyph unicode="F" horiz-adv-x="484" d="M14 0Q12 0 12 6T14 12Q43 12 58 17T80 37T93 81L175 544Q183 587 173 600T122 613Q119 613 119 619T122 625H512Q520 625 518 616Q515 597 511 572T503 524T497 485Q496 481 491 482T485 486Q485 541 455 573T374 606H335Q305
606 291 602T270 584T259 543L178 85Q173 55 177 40T203 18T266 12Q268 12 268 6T266 0Q245 0 209 1T120 2Q90 2 63 1T14 0ZM403 214Q402 210 396 210T391 215Q399 259 380 279T318 300H177L180 326H325Q368 326 391 343T422 401Q423 405 429 405T434 399Q429 368
426 350T418 313Q414 289 411 266T403 214Z" />
<glyph unicode="G" horiz-adv-x="632" d="M330 -12Q227 -12 162 31T72 149T63 316Q76 387 112 445T200 546T317 612T453 636Q496 636 536 627T600 605Q606 600 607 596T607 582L593 456Q592 452 587 452T582 456Q569 529 526 570T412 612Q346 612 295 581T210
491T162 353Q147 249 166 172T236 51T361 8Q396 8 418 18T453 53T472 126Q479 174 476 196T453 226T387 233Q382 233 382 241T387 249Q446 245 495 245T599 247Q602 247 603 240T599 233Q583 234 576 227T564 194T550 116Q545 83 544 67T543 44T541 28Q540 22 538
20T529 16Q480 4 428 -4T330 -12Z" />
<glyph unicode="H" horiz-adv-x="674" d="M12 0Q9 0 9 6T12 12Q41 12 56 17T78 37T91 81L173 544Q181 586 171 599T119 613Q117 613 117 619T119 625Q142 625 168 624T225 622Q256 622 285 623T335 625Q337 625 337 619T335 613Q306 613 292 607T270 586T257 542L175
81Q167 38 177 25T228 12Q231 12 231 6T228 0Q206 0 178 1T118 2Q88 2 61 1T12 0ZM163 312L166 338H549L546 312H163ZM380 0Q378 0 378 6T380 12Q409 12 423 17T445 37T458 81L539 542Q546 584 537 598T487 613Q484 613 484 619T487 625Q508 625 535 624T593 622Q623
622 651 623T701 625Q703 625 703 619T701 613Q674 613 659 608T637 587T624 544L542 81Q535 38 545 25T595 12Q598 12 598 6T595 0Q576 0 548 1T489 2Q459 2 431 1T380 0Z" />
<glyph unicode="I" horiz-adv-x="326" d="M23 0Q20 0 20 6T23 12Q52 12 66 17T88 37T100 81L182 544Q190 587 180 600T128 613Q125 613 125 619T128 625Q150 625 177 624T235 622Q269 622 296 623T345 625Q348 625 348 619T345 613Q317 613 302 607T280 586T268
542L186 81Q178 38 188 25T240 12Q242 12 242 6T240 0Q218 0 191 1T131 2Q101 2 74 1T23 0Z" />
<glyph unicode="J" horiz-adv-x="304" d="M-23 -193Q-25 -194 -28 -189T-29 -182Q18 -154 44 -98T85 40L174 544Q182 587 172 600T120 613Q117 613 117 619T120 625Q142 625 169 624T226 622Q261 622 288 623T336 625Q339 625 339 619T336 613Q308 613 293 607T271
586T259 542L175 67Q161 -11 137 -60T75 -139T-23 -193Z" />
<glyph unicode="K" horiz-adv-x="615" d="M12 0Q9 0 9 6T12 12Q41 12 56 17T78 37T91 81L173 544Q181 587 171 600T119 613Q117 613 117 619T119 625Q142 625 168 624T225 622Q256 622 285 623T335 625Q337 625 337 619T335 613Q306 613 292 607T270 586T257 542L175
81Q170 52 170 37T181 17T225 12Q228 12 228 6T225 0Q201 0 178 1T118 2Q88 2 61 1T12 0ZM485 0Q457 0 443 1T421 9T406 32T386 78T348 156L251 344L318 402L417 211Q453 142 475 102T514 43T543 18T576 12Q579 12 579 6T576 0Q540 0 518 0T485 0ZM157 271L438
531Q475 565 473 589T429 613Q427 613 427 619T429 625Q449 625 482 624T550 622Q585 622 605 623T645 625Q648 625 648 619T645 613Q608 613 559 591T462 525L181 270L157 271Z" />
<glyph unicode="L" horiz-adv-x="502" d="M13 0Q11 0 11 6T14 12Q42 12 56 17T78 37T91 81L173 544Q181 587 171 600T119 613Q117 613 117 619T120 625Q141 625 168 624T225 622Q256 622 285 623T335 625Q337 625 337 619T335 613Q306 613 292 608T270 587T257
543L176 85Q169 44 177 32T219 20H271Q340 20 389 56T475 164Q476 167 481 166T486 162Q478 132 468 91T452 15Q449 0 436 0H13Z" />
<glyph unicode="M" horiz-adv-x="739" d="M463 0Q460 0 460 6T463 12Q492 12 507 17T529 37T540 81L615 582L639 613L333 7Q331 3 326 3T319 8L206 542Q200 574 186 589T155 608T123 613Q121 613 121 619T123 625Q136 625 151 624T184 623Q208 623 226 624T255
625Q266 625 272 615T285 573L382 116L328 38L610 600Q623 625 645 625Q653 625 670 624T702 623Q724 623 738 624T768 625Q770 625 770 619T768 613Q735 613 717 601T693 546L624 81Q618 38 628 25T678 12Q681 12 681 6T678 0Q657 0 630 1T570 2Q539 2 512 1T463
0ZM15 0Q12 0 12 6T15 12Q49 12 73 40T107 121L197 602L218 600L132 123Q123 69 135 41T183 12Q186 12 186 6T183 0Q165 0 145 1T98 2Q75 2 55 1T15 0Z" />
<glyph unicode="N" horiz-adv-x="654" d="M488 -10L191 543Q169 584 149 598T108 613Q105 613 105 619T108 625Q126 625 149 624T188 623Q203 623 221 624T245 625Q256 625 259 614T277 573L519 122L513 -8Q512 -13 502 -14T488 -10ZM3 0Q0 0 0 6T3 12Q40 12 65
37T99 113L187 602L211 600L124 113Q116 63 132 38T185 12Q187 12 187 6T185 0Q165 0 144 1T94 2Q70 2 47 1T3 0ZM513 -8L496 45L580 512Q589 561 574 587T520 613Q517 613 517 619T520 625Q537 625 559 624T610 622Q635 622 658 623T702 625Q704 625 704 619T702
613Q665 613 640 587T605 512L513 -8Z" />
<glyph unicode="O" horiz-adv-x="654" d="M282 -12Q199 -12 145 31T69 149T63 313Q75 383 107 442T186 544T290 612T410 636Q496 636 551 593T629 476T634 313Q621 238 587 178T504 76T399 11T282 -12ZM325 14Q401 14 458 79T536 260Q549 331 544 394T518 506T459
583T371 612Q294 612 237 546T160 366Q148 298 153 235T178 122T236 43T325 14Z" />
<glyph unicode="P" horiz-adv-x="522" d="M14 0Q12 0 12 6T14 12Q43 12 58 17T80 37T93 81L175 544Q183 588 173 600T122 613Q119 613 119 619T122 625Q143 625 170 624T228 622Q248 622 282 625T349 628Q407 628 451 609T517 552T527 453Q518 402 492 366T429
307T354 273T281 262Q269 262 260 263T240 267Q237 268 239 277T245 285Q252 283 259 282T274 281Q308 281 341 297T398 346T431 433Q441 490 428 529T389 588T329 609Q305 609 292 605T271 586T258 542L177 81Q170 38 180 25T230 12Q233 12 233 6T230 0Q208 0
180 1T120 2Q90 2 63 1T14 0Z" />
<glyph unicode="Q" horiz-adv-x="654" d="M618 -199Q573 -199 528 -176T440 -107T364 3L446 43Q464 -5 490 -45T547 -116T607 -162T658 -178Q667 -178 675 -177T691 -174Q694 -173 695 -178T695 -185Q675 -191 655 -195T618 -199ZM282 -12Q199 -12 145 31T69 149T63
313Q75 383 107 442T186 544T290 612T410 636Q496 636 551 593T629 476T634 313Q621 238 587 178T504 76T399 11T282 -12ZM325 14Q401 14 458 79T536 260Q549 331 544 394T518 506T459 583T371 612Q294 612 237 546T160 366Q148 298 153 235T178 122T236 43T325
14Z" />
<glyph unicode="R" horiz-adv-x="628" d="M18 0Q14 0 14 6T18 12Q48 12 65 17T90 38T103 81L185 544Q190 573 188 587T173 607T129 613Q125 613 125 619T129 625Q151 625 179 624T240 622Q263 622 295 625T347 628Q442 628 480 593T507 491Q497 435 458 393T363
328T246 305Q240 305 231 305T218 307L223 336Q231 333 244 332T266 330Q332 330 367 361T415 466Q425 519 416 550T385 595T333 609Q311 609 300 606T282 589T269 542L187 81Q182 53 184 38T199 18T242 12Q246 12 246 6T243 0Q220 0 192 1T131 2Q100 2 70 1T18
0ZM467 0Q453 0 429 34T372 139T301 322L371 346Q422 221 461 148T534 44T603 12Q606 12 606 6T603 0Q549 0 516 0T467 0Z" />
<glyph unicode="S" horiz-adv-x="467" d="M189 -12Q154 -12 119 -5T44 22Q40 25 38 29T38 41L64 179Q64 184 69 184T75 179Q84 126 102 88T148 30T215 9Q244 9 268 21T310 57T332 117Q340 161 326 193T284 250T226 298Q195 321 167 346T125 403T118 481Q129 534
162 568T240 619T334 636Q360 636 389 631T448 612Q462 605 460 595L446 472Q445 468 440 468T434 472Q427 514 411 546T370 598T311 617Q278 617 256 602T222 565T205 520Q198 480 212 452T252 400T308 354Q341 330 371 303T417 241T426 159Q417 112 387 73T308
11T189 -12Z" />
<glyph unicode="T" horiz-adv-x="553" d="M123 0Q121 0 121 6T123 12Q158 12 176 17T204 37T218 81L299 544Q306 581 299 592T261 604H245Q210 604 179 585T123 532T85 452Q84 449 79 450T74 454Q78 468 84 492T98 546T111 602T120 647Q122 650 127 650T132 646Q130
631 145 628T171 625Q208 624 257 623T354 622Q414 622 455 623T530 625Q558 625 573 629T596 650Q598 653 603 653T607 648Q603 633 597 606T584 548T572 493T565 454Q564 451 558 451T553 456Q562 500 553 533T519 585T456 604H440Q409 604 400 591T384 542L303
81Q298 52 301 37T321 17T374 12Q376 12 376 6T374 0Q349 0 318 1T248 2Q213 2 181 1T123 0Z" />
<glyph unicode="U" horiz-adv-x="619" d="M560 507Q569 558 553 585T498 613Q495 613 495 619T498 625Q520 625 543 624T593 622Q617 622 640 623T680 625Q684 625 684 619T680 613Q644 613 620 583T586 501L534 203Q522 135 486 87T396 12T276 -14Q210 -14 164
13T97 90T89 208L149 546Q157 590 147 601T94 613Q90 613 91 619T93 625Q117 625 145 624T203 622Q238 622 266 623T316 625Q319 625 319 619T316 613Q286 613 270 607T246 584T233 539L179 237Q160 125 196 73T308 21Q387 21 440 71T507 208L560 507Z" />
<glyph unicode="V" horiz-adv-x="597" d="M261 1L134 542Q125 581 112 597T73 613Q70 613 70 619T73 625Q94 625 117 624T162 622Q200 622 227 623T278 625Q281 625 281 619T278 613Q247 613 231 601T222 552L328 97L269 18L526 520Q549 566 535 589T475 613Q472
613 472 619T475 625Q500 625 523 624T585 622Q611 622 628 623T669 625Q673 625 673 619T669 613Q651 613 633 607T595 580T554 516L286 1Q283 -4 273 -4T261 1Z" />
<glyph unicode="W" horiz-adv-x="830" d="M493 1L367 542Q357 581 347 597T314 613Q311 613 311 619T314 625Q333 625 354 624T394 622Q419 622 436 623T468 625Q472 625 472 619T468 613Q449 613 446 603T452 552L558 97L501 14L759 520Q780 561 771 587T722
613Q719 613 719 619T722 625Q744 625 764 624T817 622Q844 622 861 623T902 625Q905 625 905 619T902 613Q884 613 866 607T828 580T787 516L518 1Q515 -4 505 -4T493 1ZM261 1L134 542Q125 581 112 597T73 613Q70 613 70 619T73 625Q94 625 117 624T162 622Q195
622 218 623T260 625Q264 625 264 619T260 613Q239 613 226 600T219 552L326 97L268 14L444 359L459 335L286 1Q283 -4 273 -4T261 1ZM473 335L458 359L541 520Q565 568 564 590T531 613Q529 613 529 619T531 625Q547 625 561 624T599 622Q622 622 636 623T673
625Q676 625 676 619T673 613Q656 613 640 607T607 580T568 516L473 335Z" />
<glyph unicode="X" horiz-adv-x="580" d="M320 0Q316 0 316 6T320 12Q335 12 347 16T366 28T366 51L178 542Q164 580 147 596T102 613Q99 613 99 619T102 625Q119 625 138 624T173 622Q209 622 242 623T298 625Q301 625 301 619T298 613Q276 613 265 604T261 573L449
83Q463 44 482 28T535 12Q539 12 539 6T535 0Q516 0 493 1T444 2Q411 2 376 1T320 0ZM-25 0Q-29 0 -29 6T-25 12Q4 12 43 36T124 114L278 310L294 293L144 100Q118 68 116 49T128 21T169 12Q173 12 173 6T169 0Q147 0 115 1T49 2Q29 2 12 1T-25 0ZM321 315L305
331L453 523Q479 556 482 575T471 604T430 613Q426 613 426 619T430 625Q452 625 484 624T550 622Q570 622 587 623T624 625Q629 625 629 619T624 613Q594 613 555 588T473 508L321 315Z" />
<glyph unicode="Y" horiz-adv-x="533" d="M303 266L288 281L450 525Q475 563 468 588T425 613Q421 613 421 619T425 625Q448 625 476 624T536 622Q557 622 570 623T603 625Q607 625 607 619T603 613Q572 613 539 588T469 509L303 266ZM122 0Q118 0 118 6T122 12Q154
12 171 17T196 37T209 81L249 310L335 319L293 81Q285 38 295 25T355 12Q358 12 358 6T355 0Q331 0 302 1T239 2Q204 2 175 1T122 0ZM260 271L145 542Q129 579 112 596T72 613Q68 613 68 619T72 625Q91 625 114 624T159 622Q189 622 221 623T274 625Q278 625 278
619T273 613Q239 613 229 605T228 573L335 317L260 271Z" />
<glyph unicode="Z" horiz-adv-x="554" d="M469 -2Q399 -1 320 -1T161 0T12 0Q8 0 7 4T8 13L475 600Q480 605 480 606T473 608Q400 608 349 605T263 594T202 572T156 534T114 475Q112 472 107 473T104 479L174 655Q175 657 181 656T185 651Q180 634 188 630T230
625Q288 625 370 625T577 625Q582 625 583 620T582 612L120 27Q116 22 116 21T122 19Q168 19 204 19T262 19Q322 19 365 31T442 71T504 148Q506 152 511 151T516 146L478 8Q478 5 475 2T469 -2Z" />
<glyph unicode="[" horiz-adv-x="251" d="M20 -117Q15 -117 14 -115T15 -106L160 715Q161 722 162 723T169 725Q207 725 249 725T315 725Q319 725 319 719T315 713Q282 713 264 707T238 686T224 642L105 -34Q97 -77 108 -91T169 -105Q174 -105 174 -111T169 -117Q144
-117 102 -117T20 -117Z" />
<glyph unicode="\" horiz-adv-x="305" d="M183 -163L111 723Q111 728 121 731T141 734T152 728L225 -158Q226 -162 216 -165T195 -168T183 -163Z" />
<glyph unicode="]" horiz-adv-x="250" d="M270 725Q275 725 276 724T275 714L130 -107Q129 -114 128 -115T121 -117Q83 -117 42 -117T-25 -117Q-29 -117 -29 -111T-25 -105Q8 -105 26 -99T53 -78T66 -34L185 642Q193 685 181 699T121 713Q117 713 117 719T121
725Q146 725 189 725T270 725Z" />
<glyph unicode="^" horiz-adv-x="353" d="M96 375Q93 373 89 375T85 380L243 629Q245 634 253 634T263 629L333 380Q333 378 329 376T323 377L232 507L96 375Z" />
<glyph unicode="_" horiz-adv-x="363" d="M-7 -79Q-10 -79 -11 -68T-11 -45T-8 -34H311Q314 -34 315 -45T315 -67T311 -79H-7Z" />
<glyph unicode="`" horiz-adv-x="166" d="M172 475L118 727Q117 732 129 733T157 732T186 725T198 716L181 476Q181 474 177 473T172 475Z" />
<glyph unicode="a" horiz-adv-x="441" d="M82 -13Q49 -13 30 11T19 91Q26 143 53 197T120 297T205 371T291 399Q310 399 330 392T364 369T381 326L327 357Q342 359 360 373T388 407Q390 410 395 409T400 405L342 89Q333 38 355 38Q365 38 380 48T413 77Q416 80
420 76T421 69Q390 32 363 12T309 -9Q280 -9 270 14T268 89L293 229L313 246Q287 166 248 108T166 19T82 -13ZM137 52Q162 52 188 72T237 124T276 192T299 261Q307 304 293 329T246 355Q216 354 186 329T132 260T99 160Q90 101 101 77T137 52Z" />
<glyph unicode="b" horiz-adv-x="445" d="M152 -13Q96 -13 67 13T46 84L142 599Q149 643 136 653T80 642Q76 640 74 646T76 653L222 725Q226 727 230 723T233 717L122 96Q116 60 136 37T190 14Q221 14 250 38T304 108T338 220Q346 253 344 280T330 323T295 339Q257
339 222 309T162 223T122 96L113 116Q122 173 144 224T199 315T268 376T346 399Q393 399 415 358T425 251Q413 186 383 137T312 54T229 4T152 -13Z" />
<glyph unicode="c" horiz-adv-x="346" d="M159 -13Q115 -13 87 6T44 56T27 126T31 202Q43 263 78 307T160 375T252 399Q275 399 296 392T331 371T343 335Q342 317 331 306T298 294Q276 294 266 306T253 335Q249 349 241 361T211 373Q186 373 167 355T134 307T114
236Q104 181 110 134T142 59T213 31Q239 31 264 42T308 67Q310 69 314 65T316 58Q277 21 237 4T159 -13Z" />
<glyph unicode="d" horiz-adv-x="448" d="M107 -13Q81 -13 59 0T27 44T24 126Q34 181 61 230T127 317T209 377T294 399Q326 399 351 383T378 332L331 246Q301 171 266 113T190 21T107 -13ZM151 50Q180 50 207 73T257 130T295 202T314 266Q322 310 301 332T246
355Q193 354 155 308T101 175Q91 110 105 80T151 50ZM320 -9Q289 -9 281 15T281 89L376 599Q384 643 371 653T314 642Q310 640 308 646T310 653L456 725Q461 727 465 723T468 717L354 89Q349 60 354 49T368 38Q379 38 393 49T426 77Q429 81 433 77T434 69Q402 32
375 12T320 -9Z" />
<glyph unicode="e" horiz-adv-x="352" d="M158 -12Q102 -12 70 16T29 90T29 185Q36 223 57 261T109 331T181 380T267 399Q306 399 325 385T342 345Q339 320 316 297T254 255T168 223T71 204L73 217Q146 228 195 253T253 324Q258 348 247 360T217 372Q191 372 170
352T135 296T113 218Q104 165 111 123T144 55T210 29Q231 29 256 36T304 60Q306 62 309 58T311 52Q273 17 234 3T158 -12Z" />
<glyph unicode="f" horiz-adv-x="266" d="M-37 -275Q-78 -275 -99 -259T-117 -223Q-114 -205 -102 -196T-74 -186Q-53 -186 -45 -196T-35 -221T-29 -245T-12 -256Q-1 -256 6 -241T22 -180T43 -47L94 306Q98 331 96 342T81 356T43 360Q39 360 39 367T43 374Q76
374 91 383T110 418Q125 509 142 569T184 663T242 712T322 726Q364 726 386 710T405 671Q402 652 390 643T361 633Q338 633 329 644T318 670T311 695T291 707Q256 707 232 639T187 439L120 -21Q106 -117 86 -172T37 -251T-37 -275ZM250 340Q246 341 227 343T183
349T134 352L136 377Q159 377 188 379T243 383T276 385Q281 385 282 382T283 374Q281 366 271 353T250 340Z" />
<glyph unicode="g" horiz-adv-x="385" d="M109 -281Q55 -281 19 -265T-33 -223T-45 -165Q-36 -121 11 -86T121 -18L128 -26Q108 -38 88 -54T53 -90T34 -138Q29 -171 44 -196T90 -236T159 -251Q210 -251 233 -228T257 -175Q258 -147 243 -128T203 -93T151 -66T101
-40T65 -10T57 29Q62 54 85 76T141 123L149 116Q139 111 132 100T123 76Q120 54 135 39T175 11T228 -16T280 -47T317 -88T326 -146Q320 -186 289 -216T211 -263T109 -281ZM153 98Q112 98 87 119T52 173T51 246Q59 289 84 321T145 373T224 392Q266 392 291 372T325
318T326 246Q317 200 290 167T227 116T153 98ZM179 119Q203 119 224 149T251 231Q254 260 251 293T236 349T199 372Q175 372 154 340T126 259Q122 221 126 189T145 138T179 119ZM261 346L260 353Q290 372 326 383T391 395Q396 395 396 385T395 363T389 342T383
335Q359 351 325 354T261 346Z" />
<glyph unicode="h" horiz-adv-x="452" d="M61 -8Q43 -8 37 -6T31 -1Q31 3 36 25T46 74L143 599Q151 643 138 653T81 642Q77 640 75 646T77 653L223 725Q228 727 232 723T235 717L109 10Q104 -8 61 -8ZM318 -9Q288 -9 280 15T280 89L309 248Q319 299 311 323T279
348Q249 348 217 309T156 195T109 10L92 11Q113 130 147 217T227 351T323 399Q366 399 382 368T386 267L353 89Q348 60 352 49T367 38Q378 38 392 49T424 77Q428 81 432 77T432 69Q401 32 374 12T318 -9Z" />
<glyph unicode="i" horiz-adv-x="247" d="M107 -9Q77 -9 68 14T69 89L110 297Q120 349 94 349Q84 349 68 339T33 307Q29 303 25 307T24 316Q60 358 88 376T144 395Q174 395 183 373T183 306L141 89Q136 60 141 49T156 38Q167 38 181 48T214 76Q218 80 222 76T222
68Q190 31 163 11T107 -9ZM173 504Q149 504 135 517T120 557Q120 579 134 592T173 606Q197 606 210 593T223 557Q223 504 173 504Z" />
<glyph unicode="j" horiz-adv-x="246" d="M-22 -275Q-63 -275 -84 -259T-101 -223Q-98 -204 -86 -195T-60 -186Q-39 -186 -32 -196T-22 -221T-16 -246T0 -257Q12 -257 20 -240T37 -178T60 -52L121 297Q130 349 106 349Q83 349 44 307Q41 303 37 307T36 316Q71
358 100 376T156 395Q185 395 194 373T194 306L137 -27Q121 -120 101 -174T52 -251T-22 -275ZM187 504Q163 504 149 517T135 557Q135 579 149 592T187 606Q211 606 224 593T238 557Q238 504 187 504Z" />
<glyph unicode="k" horiz-adv-x="414" d="M61 -8Q43 -8 37 -6T31 -1Q31 3 36 25T46 74L143 599Q151 643 138 653T81 642Q77 640 75 646T77 653L223 725Q227 727 231 724T235 717L143 206L109 10Q104 -8 61 -8ZM314 -9Q289 -9 270 5T228 58L170 156Q159 174 150
178T120 176L220 213L289 99Q310 64 324 54T352 44Q363 44 378 51T411 75Q415 79 419 75T419 67Q353 -9 314 -9ZM120 176V192Q180 205 219 221T277 260T300 315Q303 336 296 348T272 360Q228 360 193 318T143 206L104 243Q128 287 164 322T243 378T329 399Q359
399 372 389T390 364T391 339Q386 308 352 276T259 218T120 176Z" />
<glyph unicode="l" horiz-adv-x="244" d="M93 -9Q62 -9 54 15T54 89L148 599Q156 643 143 653T87 642Q83 640 81 646T83 653L229 725Q234 727 238 723T241 717L128 89Q121 60 126 49T141 38Q152 38 166 49T198 77Q202 81 206 77T206 69Q175 32 148 12T93 -9Z" />
<glyph unicode="m" horiz-adv-x="682" d="M549 -9Q518 -9 510 15T510 89L540 248Q549 299 542 323T513 348Q487 348 456 310T397 197T349 10L334 11Q354 132 388 219T466 352T558 399Q597 399 612 368T616 267L584 89Q579 60 583 49T597 38Q609 38 623 49T654
77Q658 81 662 77T662 69Q631 32 604 12T549 -9ZM81 -8Q63 -8 57 -6T51 -1Q51 3 56 25T66 72L107 297Q116 349 92 349Q81 349 66 339T30 307Q27 303 23 307T22 316Q57 358 86 376T142 395Q171 395 180 373T180 306L128 10Q124 -8 81 -8ZM302 -8Q285 -8 279 -6T273
-1Q273 3 278 26T288 74L320 249Q329 301 321 324T291 348Q264 348 233 309T174 194T128 10L112 11Q131 130 165 217T243 351T337 399Q375 399 391 368T396 268L349 10Q347 -8 302 -8Z" />
<glyph unicode="n" horiz-adv-x="472" d="M338 -9Q308 -9 300 15T300 89L329 248Q349 348 299 348Q269 348 237 309T176 195T129 10L112 11Q133 130 167 217T247 351T343 399Q386 399 402 368T406 267L373 89Q368 60 372 49T387 38Q398 38 412 49T444 77Q447 81
451 77T452 69Q421 32 394 12T338 -9ZM81 -8Q63 -8 57 -6T51 -1Q51 3 56 25T66 74L107 297Q116 349 92 349Q81 349 66 339T30 307Q27 303 23 307T22 316Q57 358 86 376T142 395Q171 395 180 373T180 306L129 10Q124 -8 81 -8Z" />
<glyph unicode="o" horiz-adv-x="405" d="M157 -14Q104 -14 72 14T30 90T30 193Q41 253 73 299T150 372T247 399Q302 399 334 371T377 297T376 193Q364 127 329 80T249 10T157 -14ZM191 11Q226 11 253 48T292 149Q300 191 299 231T288 304T260 356T215 375Q182
375 155 340T114 236Q106 193 107 153T119 81T147 30T191 11Z" />
<glyph unicode="p" horiz-adv-x="406" d="M-64 -275Q-67 -276 -68 -270T-66 -263Q-45 -258 -35 -252T-20 -231T-9 -185L93 386Q93 389 103 395T127 411T153 434T169 462Q171 466 176 465T180 460L67 -178Q60 -218 70 -228T118 -235Q122 -234 123 -239T120 -246L-64
-275ZM145 -1Q116 -1 94 2T57 8L67 67Q87 52 113 40T179 28Q217 28 242 53T284 122T306 220Q310 253 305 282T282 329T225 348Q181 348 134 325T28 259Q24 255 21 260T20 268Q83 321 151 357T285 393Q344 393 369 357T385 253Q378 202 355 156T298 75T225 19T145
-1Z" />
<glyph unicode="q" horiz-adv-x="419" d="M162 -275Q158 -275 157 -270T159 -263Q182 -259 193 -253T211 -232T223 -185L287 183L305 194Q282 129 247 83T173 12T97 -13Q58 -13 36 16T21 103Q29 161 53 214T115 309T197 375T292 399Q312 399 332 392T366 369T383
326L329 357Q344 359 362 373T391 407Q393 410 398 409T403 405L296 -178Q289 -215 301 -230T356 -239Q359 -237 361 -243T358 -250L162 -275ZM149 52Q186 52 216 78T267 148T297 239Q308 299 293 327T236 355Q190 354 152 311T101 167Q99 149 99 129T103 92T118
63T149 52Z" />
<glyph unicode="r" horiz-adv-x="350" d="M125 10L115 11Q125 62 138 115T168 219T205 308T247 371T294 395Q309 395 325 387T351 366T358 336Q356 323 346 311T318 299Q303 299 294 307T276 323T257 331Q245 331 230 309T199 250T169 171T143 86T125 10ZM78 -8Q60
-8 54 -6T48 -1Q48 3 54 26T64 74L102 284Q107 309 106 323T99 343T86 349Q75 349 60 339T27 310Q24 307 20 311T19 319Q53 359 81 377T136 395Q157 395 167 385T180 352T176 292L125 10Q123 -8 78 -8Z" />
<glyph unicode="s" horiz-adv-x="311" d="M106 -11Q63 -11 33 9T7 58Q10 75 21 84T47 94Q64 94 73 83T91 57T112 31T147 19Q168 19 179 30T194 66Q198 98 184 120T147 161T101 198T66 240T59 296Q64 323 84 345T135 382T202 396Q245 396 271 381T294 340Q292 322
280 313T254 303Q234 303 225 313T209 336T194 360T162 370Q143 370 133 360T120 336Q115 307 129 285T166 245T212 206T248 162T257 106Q252 80 232 53T179 7T106 -11Z" />
<glyph unicode="t" horiz-adv-x="299" d="M124 -12Q102 -12 82 -4T53 25T51 87L91 306Q97 340 92 350T57 360Q53 360 53 367T57 374Q101 374 129 399T173 459Q174 462 183 461T191 456L129 109Q122 72 134 55T177 37Q200 37 221 47T265 77Q267 79 271 75T273 68Q228
25 193 7T124 -12ZM274 339Q272 339 253 341T208 347T154 350L156 377Q187 377 216 379T267 383T299 385Q304 385 305 382T306 374Q305 366 295 353T274 339Z" />
<glyph unicode="u" horiz-adv-x="472" d="M129 -13Q86 -13 70 19T67 119L102 297Q107 327 103 337T88 348Q77 348 63 337T31 309Q27 305 23 309T23 317Q55 355 81 375T136 395Q164 395 175 373T174 297L143 138Q132 87 140 63T173 38Q203 38 235 77T296 191T344
376L360 375Q340 257 305 170T225 35T129 -13ZM330 -9Q301 -9 293 13T292 80L344 376Q348 394 391 394Q409 394 415 392T421 387Q421 383 416 361T406 312L365 89Q356 37 381 37Q391 37 407 47T442 79Q445 83 449 79T450 70Q415 28 387 10T330 -9Z" />
<glyph unicode="v" horiz-adv-x="442" d="M188 -13Q156 -13 133 5T98 51T89 113Q93 155 117 200T162 292Q169 306 169 312T157 319H108Q83 319 69 315T47 300T33 273Q31 269 25 270T21 276Q36 319 48 343T77 377T124 387H216Q224 387 226 385T224 375Q204 327
185 273T159 178Q151 120 171 87T230 54Q259 54 286 72T335 122T364 198Q370 229 367 248T355 281T335 306Q326 315 318 326T310 352Q310 376 325 386T359 396Q381 396 393 382T408 337T407 261Q400 204 379 154T325 66T258 8T188 -13Z" />
<glyph unicode="w" horiz-adv-x="625" d="M188 -13Q153 -13 131 5T101 56T98 130Q105 169 123 211T162 292Q170 306 169 312T157 319H108Q83 319 69 315T47 300T33 273Q31 269 25 270T21 276Q36 319 48 343T77 377T124 387H216Q224 387 226 385T224 375Q204 327
185 273T160 178Q152 120 172 87T230 53Q255 53 279 71T324 118T359 182T379 251Q384 283 377 297T353 312Q339 312 330 300T316 262Q310 228 314 192T332 124T371 73T429 53Q454 53 478 71T521 121T545 198Q550 228 547 247T535 280T514 307Q505 317 498 327T491
352Q491 376 506 386T541 396Q562 396 574 382T590 337T589 261Q583 204 563 154T514 66T452 8T388 -13Q357 -13 335 7T300 63T285 146T293 249Q301 296 313 328T341 376T376 392Q402 392 411 366T412 291Q403 228 380 174T326 77T259 11T188 -13Z" />
<glyph unicode="x" horiz-adv-x="427" d="M281 -10Q257 -10 243 4T215 58L141 292Q131 326 118 334T93 343Q79 343 65 335T36 311Q33 307 29 311T28 319Q64 357 92 376T146 395Q170 395 185 381T213 325L287 90Q298 57 310 50T334 42Q349 42 362 50T391 74Q395
78 399 74T399 66Q363 28 335 9T281 -10ZM52 -10Q29 -10 10 8T-6 50Q-4 63 6 72T33 82Q49 82 57 76T72 63T90 56Q97 56 104 61T122 80L202 199L211 186L133 62Q114 32 102 17T78 -4T52 -10ZM216 185L206 198L286 323Q305 354 317 369T341 389T366 395Q389 395 408
377T425 336Q424 323 413 313T386 302Q370 302 362 309T347 322T329 329Q323 329 315 324T297 306L216 185Z" />
<glyph unicode="y" horiz-adv-x="449" d="M-16 -281Q-39 -281 -55 -270T-68 -227Q-60 -188 -16 -188Q5 -188 23 -194T59 -200T100 -187Q122 -172 151 -136T213 -52T273 43T322 133T348 198Q357 231 353 253T341 291T326 320T318 351Q318 371 331 383T368 396Q392
396 404 380T416 331Q416 298 400 249T355 142T291 25T214 -89T132 -187T52 -256T-16 -281ZM170 -128Q176 99 147 221T65 343Q52 343 40 335T18 310Q16 306 11 307T6 313Q25 351 56 373T114 395Q148 395 173 362T215 271T238 138T240 -23L170 -128Z" />
<glyph unicode="z" horiz-adv-x="344" d="M1 -7Q-1 -8 -6 -2T-10 5L308 360L302 349Q289 320 277 310T244 300Q223 300 195 306T141 317T98 323Q80 323 69 314T49 282Q47 278 42 280T38 287Q55 338 65 360T89 389T125 394Q160 392 206 381T291 367Q307 367 319
373T346 396Q349 398 354 393T357 386L40 29L38 40Q52 68 67 78T104 89Q130 89 162 84T224 72T274 66Q291 66 301 76T319 108Q320 110 325 109T330 104Q316 54 305 31T281 1T249 -5Q221 -4 188 2T120 14T56 22Q40 22 28 16T1 -7Z" />
<glyph unicode="{" horiz-adv-x="262" d="M177 -117Q131 -117 105 -110T69 -81T60 -22T73 80Q85 151 88 195T80 264T34 298Q32 298 32 304T34 311Q68 317 89 339T124 408T152 529Q163 592 176 631T207 690T254 718T323 725Q326 725 326 719T323 713Q293 713 274
685T246 607Q231 527 218 476T189 393T147 342T79 305Q123 287 142 267T165 214T161 131T139 1Q131 -49 142 -77T177 -105Q180 -105 180 -111T177 -117Z" />
<glyph unicode="|" horiz-adv-x="152" d="M36 -154Q35 -159 25 -159T6 -158T-4 -151L151 731Q152 736 162 736T183 735T192 727L36 -154Z" />
<glyph unicode="}" horiz-adv-x="263" d="M125 725Q171 725 197 718T233 689T242 630T229 528Q217 457 214 413T222 344T268 310Q270 310 270 304T268 297Q234 292 213 269T178 200T150 79Q139 16 126 -23T94 -82T47 -110T-21 -117Q-24 -117 -24 -111T-21 -105Q9
-105 28 -77T56 1Q71 81 84 132T113 215T155 266T223 303Q179 321 160 341T137 394T141 477T163 607Q171 657 160 685T125 713Q122 713 122 719T125 725Z" />
<glyph unicode="~" horiz-adv-x="443" d="M46 146Q45 144 42 147T39 153Q63 183 81 201T116 228T155 237Q178 237 207 229T266 213T318 204Q349 204 367 216T398 241Q400 243 403 240T405 234Q368 186 343 168T287 150Q264 150 235 158T177 174T121 183Q93 183
79 173T46 146Z" />
<glyph unicode="&#xa0;" horiz-adv-x="234" />
<glyph unicode="&#xa1;" horiz-adv-x="219" d="M111 163Q112 168 117 168T122 162Q117 96 111 22T101 -126T95 -267Q95 -271 76 -275T38 -279Q16 -279 -2 -275T-18 -267Q7 -201 30 -127T74 23T111 163ZM138 363Q161 363 175 349T189 311Q189 288 175 275T137 261Q113
261 100 274T87 311Q87 363 138 363Z" />
<glyph unicode="&#xa2;" horiz-adv-x="495" d="M211 -102L329 564Q330 571 341 570T351 561L234 -104Q233 -111 222 -110T211 -102ZM334 480Q367 480 405 472T466 449Q472 445 474 442T475 431L462 328Q462 324 458 324T453 328Q444 391 408 425T321 460Q276 460
239 433T175 357T137 247Q130 203 132 161T147 83T188 28T259 7Q309 7 347 37T424 139Q426 144 432 143T437 137L410 31Q407 23 406 20T396 13Q354 -1 316 -6T247 -12Q178 -12 135 12T71 74T44 157T46 241Q58 310 99 364T202 449T334 480Z" />
<glyph unicode="&#xa3;" horiz-adv-x="388" d="M-5 0Q-9 0 -9 6T-5 14Q32 23 52 39T82 76T94 120Q99 159 98 186T94 237T89 283T93 334Q103 388 132 419T200 465T281 480Q298 480 318 476T358 463Q374 458 372 445L361 341Q360 338 355 338T348 343Q343 375 334
402T309 445T266 462Q238 462 219 447T189 407T173 358Q167 321 171 287T178 219T174 143Q165 94 142 71T93 29L74 46H210Q248 46 269 51T304 75T329 128Q331 132 337 130T341 123Q334 104 326 71T313 10Q312 3 309 2T298 0H-5ZM55 216Q51 216 50 223T49 236T55
243H262Q267 243 268 237T269 223T263 216H55Z" />
<glyph unicode="&#xa4;" horiz-adv-x="381" d="M105 90L50 33L28 62L84 117L105 90ZM112 286L73 340L109 371L146 315L112 286ZM271 121L312 66L274 33L238 92L271 121ZM277 309L337 368L359 340L298 282L277 309ZM161 65Q121 65 97 86T65 139T62 207Q70 251 96
279T155 321T218 335Q271 335 300 295T319 196Q312 154 287 125T228 80T161 65ZM178 87Q205 87 226 112T255 185Q261 218 257 247T239 294T198 313Q171 313 151 289T123 219Q118 188 120 158T137 108T178 87Z" />
<glyph unicode="&#xa5;" horiz-adv-x="443" d="M246 194L230 198L344 369Q368 407 367 431T332 456Q328 456 328 462T332 468Q358 468 378 467T434 465Q452 465 462 466T486 468Q490 468 490 462T486 456Q457 456 427 432T366 364L246 194ZM80 0Q76 0 76 6T80
12Q111 12 127 18T151 39T165 83L174 133H254L244 78Q239 50 241 36T258 17T303 12Q307 12 307 6T303 0Q278 0 251 1T192 2Q161 2 132 1T80 0ZM84 121Q78 121 78 133T84 145H341Q348 145 348 133T342 121H84ZM96 189Q90 189 90 201T96 213H353Q359 213 360 201T354
189H96ZM186 201L190 228L272 237L266 201H186ZM197 194L119 387Q104 425 88 440T49 456Q46 456 46 462T49 468Q63 468 83 467T115 465Q137 465 163 466T211 467T247 468Q250 468 250 462T247 456Q219 456 205 444T203 403L273 235L197 194Z" />
<glyph unicode="&#xa6;" horiz-adv-x="152" d="M126 357Q126 352 116 352T96 353T86 360L151 731Q152 736 162 736T182 735T192 727L126 357ZM35 -158Q35 -162 25 -163T5 -162T-5 -154L59 216Q60 221 70 221T91 220T101 213L35 -158Z" />
<glyph unicode="&#xa7;" horiz-adv-x="402" d="M127 -188Q105 -188 84 -185T48 -174Q45 -171 43 -167T41 -157L58 -43Q59 -40 64 -40T69 -43Q73 -58 80 -78T98 -118T127 -151T168 -164Q190 -164 206 -148T228 -99Q234 -64 223 -39T190 9T145 51T100 94T69 146T65
216Q72 261 104 299T183 373L189 364Q167 346 155 319T137 260Q130 213 141 181T172 126T217 84T262 44T293 -4T296 -70Q289 -111 264 -137T204 -175T127 -188ZM244 11L238 20Q259 38 272 65T289 123Q296 171 286 203T254 257T209 300T164 340T133 388T130 454Q138
495 163 521T223 560T299 572Q323 572 343 568T379 557Q382 555 384 551T386 541L368 426Q368 424 363 424T358 426Q355 441 348 461T329 501T300 534T259 547Q237 547 221 532T199 482Q194 448 205 422T237 375T282 333T327 289T358 237T362 168Q355 126 325 88T244
11Z" />
<glyph unicode="&#xa8;" horiz-adv-x="275" d="M273 469Q222 469 222 519Q222 541 235 553T272 566Q295 566 307 554T320 519Q320 469 273 469ZM116 469Q67 469 67 519Q67 541 80 553T116 566Q139 566 151 554T164 519Q164 469 116 469Z" />
<glyph unicode="&#xa9;" horiz-adv-x="726" d="M377 -105Q317 -105 262 -86T162 -30T93 62T67 188Q67 258 95 315T171 414T281 478T407 501Q487 501 545 469T634 384T665 269Q665 209 632 157T541 72T407 39Q341 39 302 62T244 122T226 195Q226 249 252 287T318
344T400 364Q425 364 448 358T488 339T504 307Q504 290 495 280T466 269Q450 269 441 279T424 302Q416 317 405 329T370 342Q333 342 320 312T307 227Q307 185 321 148T368 89T454 66Q493 66 528 86T586 144T608 238Q608 305 578 359T494 445T373 478Q295 478 241
442T159 346T131 213Q131 146 153 93T213 4T301 -52T410 -71Q444 -71 474 -67T535 -52T599 -22Q602 -20 605 -23T605 -29Q545 -76 489 -90T377 -105Z" />
<glyph unicode="&#xaa;" horiz-adv-x="276" d="M94 361Q72 361 61 378T55 437Q60 470 77 504T120 568T173 615T227 633Q246 633 264 623T285 587L250 606Q260 608 271 616T288 638Q290 640 293 639T297 636L258 427Q252 394 267 394Q274 394 284 403T308 426Q310
428 314 425T317 419Q295 392 276 378T238 364Q219 364 213 379T212 427L228 524L246 535Q229 477 203 438T149 380T94 361ZM44 284Q42 284 41 291T40 306T43 313H269Q272 313 273 306T273 292T269 284H44ZM127 401Q142 401 159 415T191 450T218 497T233 545Q239
572 230 588T198 604Q178 604 159 588T126 543T106 480Q99 437 106 419T127 401Z" />
<glyph unicode="&#xab;" horiz-adv-x="430" d="M248 364Q251 366 255 362T257 356L137 201L203 47Q205 44 201 41T195 40L46 189Q43 194 43 200T50 212L248 364ZM396 364Q398 366 402 362T404 356L284 201L350 47Q352 44 348 41T342 40L194 189Q190 194 190 200T197
212L396 364Z" />
<glyph unicode="&#xac;" horiz-adv-x="404" d="M38 226Q35 226 34 237T34 259T37 270H368V226H38ZM324 80V270H368V81Q368 78 357 77T335 77T324 80Z" />
<glyph unicode="&#xad;" horiz-adv-x="305" d="M33 165Q30 165 29 177T27 201T29 214L279 261Q282 262 283 250T285 225T281 212L33 165Z" />
<glyph unicode="&#xae;" horiz-adv-x="755" d="M406 138Q351 138 298 157T202 213T134 303T108 422Q108 491 135 547T208 642T314 703T438 725Q526 725 590 689T690 590T725 451Q725 386 701 329T633 229T531 162T406 138ZM441 165Q516 165 566 197T643 287T669
419Q669 506 635 569T540 667T401 701Q320 701 268 667T190 576T164 455Q164 389 186 336T247 244T336 186T441 165ZM255 279Q253 279 254 284T257 290Q282 290 290 297T303 335L340 550Q345 577 340 585T310 594Q309 594 310 600T312 606Q327 606 346 606T383
605Q402 605 426 606T466 608Q514 608 536 593T551 541Q545 504 518 480T451 446T365 438L368 455Q424 447 450 460T484 519Q492 560 482 577T448 595Q427 595 417 589T401 548L363 335Q358 305 365 298T401 290Q403 290 402 285T399 279Q384 279 366 279T326 280Q309
280 288 280T255 279ZM490 279Q480 279 464 323T425 442L481 456Q497 403 511 370T543 317T583 287Q585 286 584 283T581 279Q547 279 524 279T490 279Z" />
<glyph unicode="&#xaf;" horiz-adv-x="333" d="M103 475Q98 475 96 484T96 502T103 511H335Q341 511 343 502T343 484T335 475H103Z" />
<glyph unicode="&#xb0;" horiz-adv-x="299" d="M184 373Q136 373 110 396T74 452T71 515Q77 545 98 571T153 614T226 630Q273 630 299 608T333 554T336 489Q325 438 283 406T184 373ZM195 391Q219 391 232 404T251 438T261 482Q270 544 261 578T217 613Q183 613
168 584T146 518Q141 485 142 456T156 409T195 391Z" />
<glyph unicode="&#xb1;" horiz-adv-x="398" d="M34 1Q31 1 30 11T30 31T33 42H364Q367 42 368 32T368 11T364 1H34ZM34 230Q31 230 30 241T30 263T33 275H364Q367 275 368 264T368 241T364 230H34ZM221 88Q221 85 210 84T188 84T176 87V418Q176 421 187 421T210
422T221 418V88Z" />
<glyph unicode="&#xb2;" horiz-adv-x="232" d="M67 403Q59 403 64 413Q82 457 106 488T154 544T195 594T217 650Q220 674 212 688T185 703Q165 703 146 688T117 647Q115 644 110 645T105 651Q120 683 144 706T209 729Q249 729 264 707T275 651Q269 621 248 597T200
550T147 506T109 457Q108 455 110 455Q150 455 175 457T214 464T235 478T247 503Q248 508 253 507T258 500L240 405Q240 403 237 403Q200 403 153 403T67 403Z" />
<glyph unicode="&#xb3;" horiz-adv-x="232" d="M178 568V577Q202 577 221 567T250 539T256 492Q252 470 238 448T199 412T141 397Q103 397 87 417T68 462Q67 466 72 467T79 464Q83 452 89 443T107 427T132 421Q152 421 170 438T196 496Q202 532 187 548T142 564Q138
564 138 570T142 576Q160 576 175 586T199 614T212 650Q217 677 208 689T181 702Q160 702 143 687T117 650Q116 647 111 648T106 655Q120 686 145 707T207 729Q246 729 261 706T272 650Q268 627 253 610T218 581T178 568Z" />
<glyph unicode="&#xb4;" horiz-adv-x="212" d="M119 473Q118 470 113 472T109 476L190 716Q192 720 206 724T237 730T267 732T278 727L119 473Z" />
<glyph unicode="&#xb6;" horiz-adv-x="594" d="M245 -193Q208 -193 189 -179T173 -142Q176 -124 187 -115T215 -106Q234 -106 240 -115T249 -137T258 -158T282 -168Q298 -168 307 -155T324 -104T346 8L367 125Q331 122 288 122Q244 122 203 135T129 179T83 260T82
386Q105 507 186 567T386 628Q417 628 448 625T519 622Q545 622 571 623T619 625Q624 625 624 619T619 613Q580 613 555 592T522 532L439 55Q416 -75 368 -134T245 -193Z" />
<glyph unicode="&#xb7;" horiz-adv-x="206" d="M107 163Q84 163 70 177T55 215Q55 238 69 251T107 265Q131 265 144 252T158 215Q158 163 107 163Z" />
<glyph unicode="&#xb8;" horiz-adv-x="196" d="M3 -275Q-28 -275 -50 -262T-68 -224Q-66 -209 -55 -202T-31 -195Q-14 -195 -7 -204T4 -225T13 -246T32 -256Q57 -256 62 -227Q64 -209 50 -186T16 -138Q3 -121 6 -102T21 -60L50 0H65Q54 -24 54 -41T64 -73T85 -104Q104
-128 112 -147T117 -187Q114 -204 101 -225T64 -260T3 -275Z" />
<glyph unicode="&#xb9;" horiz-adv-x="240" d="M79 403Q75 403 75 408T79 414Q106 414 119 418T138 437T149 483L170 601Q177 636 175 652T160 669T118 655Q114 653 112 658T113 665L242 730Q246 732 249 730T250 724L209 483Q203 452 204 437T215 418T251 414Q255
414 255 409T251 403Q234 403 214 404T168 405Q144 405 121 404T79 403Z" />
<glyph unicode="&#xba;" horiz-adv-x="269" d="M152 358Q117 358 96 377T67 428T67 497Q75 538 96 567T147 613T209 630Q245 630 266 612T295 563T295 495Q288 452 266 422T213 375T152 358ZM49 284Q46 284 45 291T45 306T48 313H269Q272 313 273 306T273 292T269
284H49ZM172 377Q196 377 214 401T241 470Q248 509 244 541T225 593T188 612Q166 612 148 591T122 522Q112 462 125 420T172 377Z" />
<glyph unicode="&#xbb;" horiz-adv-x="430" d="M185 37Q182 36 178 39T176 46L296 200L230 354Q229 357 233 360T238 361L386 212Q390 208 390 201T382 189L185 37ZM37 37Q35 36 31 39T29 46L148 200L83 354Q82 357 86 360T91 361L239 212Q242 208 242 201T235
189L37 37Z" />
<glyph unicode="&#xbc;" horiz-adv-x="555" d="M61 309Q57 309 57 314T61 320Q88 320 101 324T120 343T131 389L152 507Q159 542 157 558T142 575T100 561Q96 559 94 564T95 571L224 636Q228 638 231 636T232 630L191 389Q185 358 186 343T197 324T233 320Q237
320 237 315T233 309Q216 309 196 310T150 311Q126 311 103 310T61 309ZM158 -5Q157 -6 151 -4T138 3T131 8L469 626Q471 629 478 626T492 619T496 612L158 -5ZM362 -2Q358 -2 358 4T362 10Q392 10 401 15T414 41L449 243L475 270L359 119Q355 116 361 116Q394
116 419 117T469 119T519 122Q521 122 521 114T519 96T515 87Q477 90 430 91T314 93Q313 93 312 95T313 99L503 328Q505 330 511 328T517 321L470 41Q466 22 470 16T501 10Q506 10 506 4T501 -2Q487 -2 473 -1T439 0Q417 0 398 -1T362 -2Z" />
<glyph unicode="&#xbd;" horiz-adv-x="569" d="M61 309Q57 309 57 314T61 320Q88 320 101 324T120 343T131 389L152 507Q159 542 157 558T142 575T100 561Q96 559 94 564T95 571L224 636Q228 638 231 636T232 630L191 389Q185 358 186 343T197 324T233 320Q237
320 237 315T233 309Q216 309 196 310T150 311Q126 311 103 310T61 309ZM158 -5Q157 -6 151 -4T138 3T131 8L469 626Q471 629 478 626T492 619T496 612L158 -5ZM334 0Q326 0 331 10Q349 54 373 85T421 141T462 191T485 247Q487 271 479 285T452 300Q433 300 414
285T384 244Q383 241 377 242T372 248Q387 280 411 303T476 326Q516 326 532 304T542 248Q536 218 515 194T467 147T415 103T376 54Q375 52 377 52Q417 52 442 54T481 61T502 75T514 100Q515 105 520 104T525 97L507 2Q507 0 505 0Q468 0 421 0T334 0Z" />
<glyph unicode="&#xbe;" horiz-adv-x="546" d="M160 474V483Q184 483 203 473T232 445T238 398Q234 376 220 354T181 318T123 303Q85 303 69 323T50 368Q49 372 54 373T61 370Q65 358 71 349T89 333T114 327Q134 327 152 344T178 402Q184 438 169 454T124 470Q120
470 120 476T124 482Q142 482 157 492T181 520T194 556Q199 583 190 595T163 608Q142 608 125 593T99 556Q98 553 93 554T88 561Q102 592 127 613T189 635Q228 635 243 612T254 556Q250 533 235 516T200 487T160 474ZM150 -5Q149 -6 142 -4T129 3T123 8L461 626Q463
629 470 626T483 619T488 612L150 -5ZM354 -2Q350 -2 350 4T354 10Q384 10 393 15T406 41L441 243L467 270L351 119Q347 116 353 116Q386 116 411 117T460 119T511 122Q513 122 513 114T511 96T507 87Q469 90 422 91T306 93Q305 93 304 95T305 99L495 328Q497 330
503 328T509 321L462 41Q458 22 462 16T493 10Q498 10 498 4T493 -2Q479 -2 465 -1T431 0Q409 0 390 -1T354 -2Z" />
<glyph unicode="&#xbf;" horiz-adv-x="319" d="M186 163Q204 135 211 100T215 44Q209 8 189 -15T143 -58T96 -102T68 -167Q66 -190 69 -210T82 -244T112 -257Q133 -257 141 -244T151 -215Q153 -205 157 -192T171 -170T200 -160Q225 -160 234 -175T239 -208Q235
-230 215 -245T165 -267T104 -275Q44 -275 10 -245T-15 -155Q-8 -122 8 -99T45 -57T85 -22Q130 13 149 40T173 101Q175 113 175 127T173 158Q172 163 179 165T186 163ZM206 359Q229 359 243 345T258 307Q258 284 244 271T206 257Q181 257 168 270T155 307Q155 359
206 359Z" />
<glyph unicode="&#xc0;" horiz-adv-x="603" d="M-34 0Q-38 0 -38 6T-34 12Q-8 12 28 39T101 132L382 634Q384 638 391 637T400 633L502 84Q507 57 512 41T530 19T570 12Q574 12 574 6T570 0Q545 0 519 2T462 4Q432 4 408 2T359 0Q355 0 355 6T359 12Q400 12 411
27T415 84L333 523L379 583L130 130Q105 86 103 60T118 23T175 12Q179 12 179 6T174 0Q152 0 120 2T58 4Q29 4 11 2T-34 0ZM179 245L194 270H411L413 245H179ZM486 679Q435 702 383 721T264 756Q255 758 266 764T296 778T332 789T352 790Q385 766 418 740T490 689Q494
688 493 683T486 679Z" />
<glyph unicode="&#xc1;" horiz-adv-x="603" d="M-34 0Q-38 0 -38 6T-34 12Q-8 12 28 39T101 132L382 634Q384 638 391 637T400 633L502 84Q507 57 512 41T530 19T570 12Q574 12 574 6T570 0Q545 0 519 2T462 4Q432 4 408 2T359 0Q355 0 355 6T359 12Q400 12 411
27T415 84L333 523L379 583L130 130Q105 86 103 60T118 23T175 12Q179 12 179 6T174 0Q152 0 120 2T58 4Q29 4 11 2T-34 0ZM179 245L194 270H411L413 245H179ZM290 678Q286 677 284 682T285 689Q324 714 357 740T423 790Q427 792 444 788T480 777T509 764T512 756Q445
739 393 720T290 678Z" />
<glyph unicode="&#xc2;" horiz-adv-x="603" d="M-34 0Q-38 0 -38 6T-34 12Q-8 12 28 39T101 132L382 634Q384 638 391 637T400 633L502 84Q507 57 512 41T530 19T570 12Q574 12 574 6T570 0Q545 0 519 2T462 4Q432 4 408 2T359 0Q355 0 355 6T359 12Q400 12 411
27T415 84L333 523L379 583L130 130Q105 86 103 60T118 23T175 12Q179 12 179 6T174 0Q152 0 120 2T58 4Q29 4 11 2T-34 0ZM179 245L194 270H411L413 245H179ZM299 674Q297 673 294 676T293 681L406 790Q410 795 415 795T424 790L504 681Q506 679 503 676T497 674L406
719L299 674Z" />
<glyph unicode="&#xc3;" horiz-adv-x="603" d="M-34 0Q-38 0 -38 6T-34 12Q-8 12 28 39T101 132L382 634Q384 638 391 637T400 633L502 84Q507 57 512 41T530 19T570 12Q574 12 574 6T570 0Q545 0 519 2T462 4Q432 4 408 2T359 0Q355 0 355 6T359 12Q400 12 411
27T415 84L333 523L379 583L130 130Q105 86 103 60T118 23T175 12Q179 12 179 6T174 0Q152 0 120 2T58 4Q29 4 11 2T-34 0ZM179 245L194 270H411L413 245H179ZM274 712Q273 711 270 714T267 719Q276 733 290 750T323 781T362 794Q377 794 397 788T439 776T484 769Q506
769 518 775T543 796Q545 798 548 795T550 789Q520 744 502 730T460 715Q441 715 421 721T379 733T333 739Q308 739 298 732T274 712Z" />
<glyph unicode="&#xc4;" horiz-adv-x="603" d="M-34 0Q-38 0 -38 6T-34 12Q-8 12 28 39T101 132L382 634Q384 638 391 637T400 633L502 84Q507 57 512 41T530 19T570 12Q574 12 574 6T570 0Q545 0 519 2T462 4Q432 4 408 2T359 0Q355 0 355 6T359 12Q400 12 411
27T415 84L333 523L379 583L130 130Q105 86 103 60T118 23T175 12Q179 12 179 6T174 0Q151 0 120 2T58 4Q29 4 11 2T-34 0ZM179 245L194 270H411L413 245H179ZM324 708Q301 708 287 721T273 758Q273 780 287 793T324 806Q348 806 360 793T373 758Q373 708 324 708ZM499
708Q449 708 449 758Q449 780 462 792T499 805Q547 805 547 758Q547 708 499 708Z" />
<glyph unicode="&#xc5;" horiz-adv-x="603" d="M-34 0Q-38 0 -38 6T-34 12Q-8 12 28 39T101 132L382 634Q384 638 391 637T400 633L502 84Q507 57 512 41T530 19T570 12Q574 12 574 6T570 0Q545 0 519 2T462 4Q432 4 408 2T359 0Q355 0 355 6T359 12Q400 12 411
27T415 84L333 523L379 583L130 130Q105 86 103 60T118 23T175 12Q179 12 179 6T174 0Q151 0 120 2T58 4Q29 4 11 2T-34 0ZM179 245L194 270H411L413 245H179ZM393 664Q347 664 322 688T296 744Q296 770 312 787T353 812T402 821Q442 821 470 798T499 741Q499 717
484 700T444 673T393 664ZM408 676Q436 676 436 724Q436 758 420 783T382 808Q358 808 358 763Q358 744 364 724T381 690T408 676Z" />
<glyph unicode="&#xc6;" horiz-adv-x="771" d="M-56 0Q-60 0 -60 6T-56 12Q-31 12 -7 21T46 58T108 134L419 576Q432 595 432 602T416 611T362 613Q358 613 358 619T362 625H759Q768 625 766 616Q763 597 759 572T752 524T745 485Q744 482 739 483T734 486Q733
543 703 577T619 611H594Q570 611 555 604T533 583T522 543L464 85Q461 57 463 43T477 23T517 18H549Q597 18 641 56T714 156Q716 159 721 158T725 154Q716 126 707 87T692 15Q689 0 676 0H303Q299 0 299 6T303 12Q344 12 358 25T378 81L447 613L473 602L133 123Q99
74 110 43T179 12Q184 12 183 6T179 0Q161 0 137 1T88 3T40 4Q9 4 -10 2T-56 0ZM263 312L282 338H467L469 312H263ZM672 226Q671 222 666 222T661 227Q669 271 650 291T587 312H438L442 338H594Q637 338 660 355T692 413Q693 417 699 417T704 411Q699 380 696 362T688
325Q683 301 680 277T672 226Z" />
<glyph unicode="&#xc7;" horiz-adv-x="587" d="M319 -12Q231 -12 176 17T93 95T59 200T62 315Q76 390 112 449T200 550T312 614T435 636Q476 636 518 627T583 605Q590 601 591 597T591 582L577 456Q577 452 572 452T566 456Q552 531 507 571T395 611Q336 611 287
579T206 488T160 346Q149 277 156 216T184 107T241 33T325 6Q377 6 430 43T536 157Q539 161 543 159T547 154L519 41Q515 29 513 25T501 18Q452 1 405 -5T319 -12ZM264 -275Q233 -275 211 -262T193 -224Q195 -209 206 -202T230 -195Q247 -195 254 -204T265 -225T274
-246T293 -256Q318 -256 323 -227Q325 -209 311 -186T277 -138Q264 -121 267 -102T282 -60L311 0H326Q315 -24 315 -41T325 -73T346 -104Q364 -128 373 -147T378 -187Q375 -204 362 -225T325 -260T264 -275Z" />
<glyph unicode="&#xc8;" horiz-adv-x="525" d="M19 0Q16 0 16 6T19 12Q47 12 62 17T84 37T96 81L178 544Q186 587 176 600T125 613Q123 613 123 619T125 625H515Q523 625 521 616Q518 597 514 572T507 524T500 485Q499 481 494 482T488 486Q488 541 458 573T378
606H337Q308 606 294 602T274 584T262 543L181 85Q174 44 184 32T233 20H288Q340 20 388 57T468 156Q470 159 475 158T479 154Q471 126 462 87T447 15Q444 0 431 0H19ZM426 225Q425 221 419 221T414 226Q422 271 403 291T342 312H183L186 338H349Q392 338 414 355T446
412Q447 417 453 417T458 411Q453 380 449 362T441 325Q437 301 434 277T426 225ZM436 688Q402 703 373 714T314 735T246 756Q238 758 244 762T266 773T298 783T328 790T344 789Q369 764 391 745T445 698Q448 695 445 691T436 688Z" />
<glyph unicode="&#xc9;" horiz-adv-x="525" d="M19 0Q16 0 16 6T19 12Q47 12 62 17T84 37T96 81L178 544Q186 587 176 600T125 613Q123 613 123 619T125 625H515Q523 625 521 616Q518 597 514 572T507 524T500 485Q499 481 494 482T488 486Q488 541 458 573T378
606H337Q308 606 294 602T274 584T262 543L181 85Q174 44 184 32T233 20H288Q340 20 388 57T468 156Q470 159 475 158T479 154Q471 126 462 87T447 15Q444 0 431 0H19ZM426 225Q425 221 419 221T414 226Q422 271 403 291T342 312H183L186 338H349Q392 338 414 355T446
412Q447 417 453 417T458 411Q453 380 449 362T441 325Q437 301 434 277T426 225ZM295 679Q291 677 289 682T290 689Q330 714 362 740T428 790Q432 793 449 789T485 778T514 764T517 756Q450 740 398 721T295 679Z" />
<glyph unicode="&#xca;" horiz-adv-x="525" d="M19 0Q16 0 16 6T19 12Q47 12 62 17T84 37T96 81L178 544Q186 587 176 600T125 613Q123 613 123 619T125 625H515Q523 625 521 616Q518 597 514 572T507 524T500 485Q499 481 494 482T488 486Q488 541 458 573T378
606H337Q308 606 294 602T274 584T262 543L181 85Q174 44 184 32T233 20H288Q340 20 388 57T468 156Q470 159 475 158T479 154Q471 126 462 87T447 15Q444 0 431 0H19ZM426 225Q425 221 419 221T414 226Q422 271 403 291T342 312H183L186 338H349Q392 338 414 355T446
412Q447 417 453 417T458 411Q453 380 449 362T441 325Q437 301 434 277T426 225ZM257 674Q255 673 252 676T251 681L364 790Q368 795 373 795T382 790L462 681Q464 679 461 676T455 674L364 719L257 674Z" />
<glyph unicode="&#xcb;" horiz-adv-x="525" d="M19 0Q16 0 16 6T19 12Q47 12 62 17T84 37T96 81L178 544Q186 587 176 600T125 613Q123 613 123 619T125 625H515Q523 625 521 616Q518 597 514 572T507 524T500 485Q499 481 494 482T488 486Q488 541 458 573T378
606H337Q308 606 294 602T274 584T262 543L181 85Q174 44 184 32T233 20H288Q340 20 388 57T468 156Q470 159 475 158T479 154Q471 126 462 87T447 15Q444 0 431 0H19ZM426 225Q425 221 419 221T414 226Q422 271 403 291T342 312H183L186 338H349Q392 338 414 355T446
412Q447 417 453 417T458 411Q453 380 449 362T441 325Q437 301 434 277T426 225ZM446 708Q396 708 396 758Q396 780 409 792T446 805Q469 805 481 793T494 758Q494 708 446 708ZM290 708Q240 708 240 758Q240 780 253 792T290 805Q313 805 325 793T338 758Q338
708 290 708Z" />
<glyph unicode="&#xcc;" horiz-adv-x="326" d="M23 0Q20 0 20 6T23 12Q52 12 66 17T88 37T100 81L182 544Q190 587 180 600T128 613Q125 613 125 619T128 625Q151 625 178 624T235 622Q269 622 296 623T345 625Q348 625 348 619T345 613Q317 613 302 607T280 586T268
542L186 81Q178 38 188 25T240 12Q242 12 242 6T240 0Q219 0 192 1T131 2Q101 2 74 1T23 0ZM327 688Q293 703 264 714T205 735T137 756Q129 758 136 762T158 773T189 783T219 790T236 789Q261 764 282 745T336 698Q339 695 336 691T327 688Z" />
<glyph unicode="&#xcd;" horiz-adv-x="326" d="M23 0Q20 0 20 6T23 12Q52 12 66 17T88 37T100 81L182 544Q190 587 180 600T128 613Q125 613 125 619T128 625Q150 625 177 624T235 622Q269 622 296 623T345 625Q348 625 348 619T345 613Q317 613 302 607T280 586T268
542L186 81Q178 38 188 25T240 12Q242 12 242 6T240 0Q218 0 191 1T131 2Q101 2 74 1T23 0ZM186 679Q182 677 180 682T181 689Q221 714 254 740T319 790Q323 793 340 789T376 778T406 764T408 756Q341 740 289 721T186 679Z" />
<glyph unicode="&#xce;" horiz-adv-x="326" d="M23 0Q20 0 20 6T23 12Q52 12 66 17T88 37T100 81L182 544Q190 587 180 600T128 613Q125 613 125 619T128 625Q150 625 177 624T235 622Q269 622 296 623T345 625Q348 625 348 619T345 613Q317 613 302 607T280 586T268
542L186 81Q178 38 188 25T240 12Q242 12 242 6T240 0Q218 0 191 1T131 2Q101 2 74 1T23 0ZM148 674Q147 673 144 676T142 681L255 790Q259 795 264 795T273 790L353 681Q355 679 352 676T346 674L255 719L148 674Z" />
<glyph unicode="&#xcf;" horiz-adv-x="326" d="M23 0Q20 0 20 6T23 12Q52 12 66 17T88 37T100 81L182 544Q190 587 180 600T128 613Q125 613 125 619T128 625Q150 625 177 624T235 622Q269 622 296 623T345 625Q348 625 348 619T345 613Q317 613 302 607T280 586T268
542L186 81Q178 38 188 25T240 12Q242 12 242 6T240 0Q218 0 191 1T131 2Q101 2 74 1T23 0ZM188 708Q165 708 151 721T137 758Q137 780 151 793T188 806Q211 806 223 793T236 758Q236 708 188 708ZM334 708Q285 708 285 758Q285 805 334 805Q357 805 369 793T382
758Q382 708 334 708Z" />
<glyph unicode="&#xd0;" horiz-adv-x="628" d="M65 298Q62 298 61 304T61 317T65 324H327Q330 324 330 318T331 305T327 298H65ZM246 -4Q222 -4 187 -1T120 2Q88 2 62 1T12 0Q9 0 9 6T12 12Q41 12 56 17T78 37T91 81L173 544Q181 587 171 600T119 613Q117 613
117 619T119 625Q142 625 169 624T229 622Q257 622 287 624T344 627Q439 627 504 588T598 481T611 323Q598 249 563 189T476 85T366 19T246 -4ZM241 14Q306 14 362 47T457 145T512 301Q522 358 518 412T495 511T437 582T339 609Q297 609 281 595T257 542L177 92Q170
52 182 33T241 14Z" />
<glyph unicode="&#xd1;" horiz-adv-x="654" d="M488 -10L191 543Q169 584 149 598T108 613Q105 613 105 619T108 625Q126 625 149 624T188 623Q203 623 221 624T245 625Q256 625 259 614T277 573L519 122L513 -8Q512 -13 502 -14T488 -10ZM3 0Q0 0 0 6T3 12Q40
12 65 37T99 113L187 602L211 600L124 113Q116 63 132 38T185 12Q187 12 187 6T185 0Q165 0 144 1T94 2Q70 2 47 1T3 0ZM513 -8L496 45L580 512Q589 561 574 587T520 613Q517 613 517 619T520 625Q537 625 559 624T610 622Q635 622 658 623T702 625Q704 625 704
619T702 613Q665 613 640 587T605 512L513 -8ZM288 689Q287 687 284 690T281 696Q291 710 305 727T337 758T377 771Q392 771 411 765T453 753T498 746Q521 746 533 752T558 773Q560 775 563 772T565 766Q535 721 517 706T475 691Q456 691 436 697T393 710T348 716Q322
716 312 709T288 689Z" />
<glyph unicode="&#xd2;" horiz-adv-x="654" d="M282 -12Q199 -12 145 31T69 149T63 313Q75 383 107 442T186 544T290 612T410 636Q496 636 551 593T629 476T634 313Q621 238 587 178T504 76T399 11T282 -12ZM325 14Q401 14 458 79T536 260Q549 331 544 394T518
506T459 583T371 612Q294 612 237 546T160 366Q148 298 153 235T178 122T236 43T325 14ZM490 688Q456 703 427 714T368 735T300 756Q292 758 299 762T321 773T352 783T382 790T399 789Q423 764 445 745T499 698Q502 695 499 691T490 688Z" />
<glyph unicode="&#xd3;" horiz-adv-x="654" d="M282 -12Q199 -12 145 31T69 149T63 313Q75 383 107 442T186 544T290 612T410 636Q496 636 551 593T629 476T634 313Q621 238 587 178T504 76T399 11T282 -12ZM325 14Q401 14 458 79T536 260Q549 331 544 394T518
506T459 583T371 612Q294 612 237 546T160 366Q148 298 153 235T178 122T236 43T325 14ZM349 679Q345 677 343 682T344 689Q384 714 417 740T482 790Q486 793 503 789T539 778T569 764T571 756Q504 740 452 721T349 679Z" />
<glyph unicode="&#xd4;" horiz-adv-x="654" d="M282 -12Q199 -12 145 31T69 149T63 313Q75 383 107 442T186 544T290 612T410 636Q496 636 551 593T629 476T634 313Q621 238 587 178T504 76T399 11T282 -12ZM325 14Q401 14 458 79T536 260Q549 331 544 394T518
506T459 583T371 612Q294 612 237 546T160 366Q148 298 153 235T178 122T236 43T325 14ZM311 674Q309 673 306 676T305 681L418 790Q422 795 427 795T436 790L516 681Q518 679 515 676T509 674L418 719L311 674Z" />
<glyph unicode="&#xd5;" horiz-adv-x="654" d="M282 -12Q199 -12 145 31T69 149T63 313Q75 383 107 442T186 544T290 612T410 636Q496 636 551 593T629 476T634 313Q621 238 587 178T504 76T399 11T282 -12ZM325 14Q401 14 458 79T536 260Q549 331 544 394T518
506T459 583T371 612Q294 612 237 546T160 366Q148 298 153 235T178 122T236 43T325 14ZM289 689Q288 687 285 690T282 696Q292 710 306 727T338 758T378 771Q393 771 412 765T455 753T500 746Q522 746 534 752T560 773Q562 775 565 772T567 766Q537 721 519 706T476
691Q457 691 437 697T394 710T349 716Q324 716 314 709T289 689Z" />
<glyph unicode="&#xd6;" horiz-adv-x="654" d="M282 -12Q199 -12 145 31T69 149T63 313Q75 383 107 442T186 544T290 612T410 636Q496 636 551 593T629 476T634 313Q621 238 587 178T504 76T399 11T282 -12ZM325 14Q401 14 458 79T536 260Q549 331 544 394T518
506T459 583T371 612Q294 612 237 546T160 366Q148 298 153 235T178 122T236 43T325 14ZM501 708Q450 708 450 758Q450 780 463 792T501 805Q523 805 535 793T548 758Q548 708 501 708ZM344 708Q295 708 295 758Q295 780 308 792T344 805Q367 805 379 793T392 758Q392
708 344 708Z" />
<glyph unicode="&#xd7;" horiz-adv-x="399" d="M97 57Q96 55 88 62T72 77T65 87L299 322Q302 324 310 317T326 301T330 290L97 57ZM66 291Q64 293 71 301T87 317T96 323L331 89Q333 87 326 79T311 63T299 58L66 291Z" />
<glyph unicode="&#xd8;" horiz-adv-x="654" d="M47 -12Q45 -14 40 -10T31 -1T29 7L647 633Q649 635 654 632T664 624T666 617L47 -12ZM282 -12Q199 -12 145 31T69 149T63 313Q75 383 107 442T186 544T290 612T410 636Q496 636 551 593T629 476T634 313Q621 238
587 178T504 76T399 11T282 -12ZM325 14Q401 14 458 79T536 260Q549 331 544 394T518 506T459 583T371 612Q294 612 237 546T160 366Q148 298 153 235T178 122T236 43T325 14Z" />
<glyph unicode="&#xd9;" horiz-adv-x="619" d="M560 507Q569 558 553 585T498 613Q495 613 495 619T498 625Q520 625 543 624T593 622Q617 622 640 623T680 625Q684 625 684 619T680 613Q644 613 620 583T586 501L534 203Q522 135 486 87T396 12T276 -14Q210 -14
164 13T97 90T89 208L149 546Q157 590 147 601T94 613Q90 613 91 619T93 625Q117 625 145 624T203 622Q238 622 266 623T316 625Q319 625 319 619T316 613Q286 613 270 607T246 584T233 539L179 237Q160 125 196 73T308 21Q387 21 440 71T507 208L560 507ZM510
679Q458 702 406 721T287 756Q279 758 289 764T319 778T355 789T376 790Q408 766 441 740T514 689Q518 688 516 683T510 679Z" />
<glyph unicode="&#xda;" horiz-adv-x="619" d="M560 507Q569 558 553 585T498 613Q495 613 495 619T498 625Q520 625 543 624T593 622Q617 622 640 623T680 625Q684 625 684 619T680 613Q644 613 620 583T586 501L534 203Q522 135 486 87T396 12T276 -14Q210 -14
164 13T97 90T89 208L149 546Q157 590 147 601T94 613Q90 613 91 619T93 625Q117 625 145 624T203 622Q238 622 266 623T316 625Q319 625 319 619T316 613Q286 613 270 607T246 584T233 539L179 237Q160 125 196 73T308 21Q387 21 440 71T507 208L560 507ZM313
678Q309 677 307 682T308 689Q348 714 381 740T447 790Q450 792 467 788T503 777T533 764T535 756Q468 739 416 720T313 678Z" />
<glyph unicode="&#xdb;" horiz-adv-x="619" d="M560 507Q569 558 553 585T498 613Q495 613 495 619T498 625Q520 625 543 624T593 622Q617 622 640 623T680 625Q684 625 684 619T680 613Q644 613 620 583T586 501L534 203Q522 135 486 87T396 12T276 -14Q210 -14
164 13T97 90T89 208L149 546Q157 590 147 601T94 613Q90 613 91 619T93 625Q117 625 145 624T203 622Q238 622 266 623T316 625Q319 625 319 619T316 613Q286 613 270 607T246 584T233 539L179 237Q160 125 196 73T308 21Q387 21 440 71T507 208L560 507ZM322
674Q320 673 317 676T316 681L429 790Q433 795 438 795T447 790L527 681Q529 679 526 676T520 674L429 719L322 674Z" />
<glyph unicode="&#xdc;" horiz-adv-x="619" d="M560 507Q569 558 553 585T498 613Q495 613 495 619T498 625Q520 625 543 624T593 622Q617 622 640 623T680 625Q684 625 684 619T680 613Q644 613 620 583T586 501L534 203Q522 135 486 87T396 12T276 -14Q210 -14
164 13T97 90T89 208L149 546Q157 590 147 601T94 613Q90 613 91 619T93 625Q117 625 145 624T203 622Q238 622 266 623T316 625Q319 625 319 619T316 613Q286 613 270 607T246 584T233 539L179 237Q160 125 196 73T308 21Q387 21 440 71T507 208L560 507ZM348
708Q325 708 311 721T297 758Q297 780 311 793T348 806Q371 806 383 793T396 758Q396 708 348 708ZM522 708Q472 708 472 758Q472 780 485 792T522 805Q570 805 570 758Q570 708 522 708Z" />
<glyph unicode="&#xdd;" horiz-adv-x="533" d="M303 266L288 281L450 525Q475 563 468 588T425 613Q421 613 421 619T425 625Q448 625 476 624T536 622Q557 622 570 623T603 625Q607 625 607 619T603 613Q572 613 539 588T469 509L303 266ZM122 0Q118 0 118 6T122
12Q154 12 171 17T196 37T209 81L249 310L335 319L293 81Q285 38 295 25T355 12Q358 12 358 6T355 0Q331 0 302 1T239 2Q204 2 175 1T122 0ZM260 271L145 542Q129 579 112 596T72 613Q68 613 68 619T72 625Q91 625 114 624T159 622Q189 622 221 623T274 625Q278
625 278 619T273 613Q239 613 229 605T228 573L335 317L260 271ZM297 679Q293 677 291 682T292 689Q332 714 365 740T430 790Q435 793 452 789T487 778T517 764T519 756Q452 740 400 721T297 679Z" />
<glyph unicode="&#xde;" horiz-adv-x="542" d="M14 0Q12 0 12 6T14 12Q43 12 58 17T80 37T93 81L175 544Q183 587 173 600T122 613Q119 613 119 619T122 625Q143 625 170 624T228 622Q269 622 302 623T361 625Q364 625 364 619T361 613Q320 613 300 609T272 589T258
542L177 81Q172 52 175 37T196 17T254 12Q256 12 256 6T254 0Q227 0 194 1T120 2Q90 2 63 1T14 0ZM266 130Q254 130 244 131T225 135Q222 136 224 144T230 152Q243 148 260 148Q294 148 329 162T394 207T434 292Q445 344 432 386T383 454T291 480Q262 480 239 476T197
465L191 483Q220 492 255 495T323 499Q393 499 444 478T520 416T531 312Q521 263 492 229T425 173T345 141T266 130Z" />
<glyph unicode="&#xdf;" horiz-adv-x="466" d="M-41 -275Q-83 -275 -103 -260T-121 -223Q-119 -207 -108 -197T-77 -186Q-57 -186 -49 -196T-39 -221T-33 -245T-16 -256Q-7 -256 0 -238T17 -175T39 -47L111 426Q125 515 156 582T238 687T355 726Q391 726 415 714T449
681T456 632Q452 597 433 570T389 520T345 474T321 422Q317 395 328 369T356 316T392 261T419 200T423 131Q418 95 399 63T350 10T278 -11Q237 -11 217 8T197 47Q197 64 207 77T238 90Q259 90 268 79T281 54T292 29T317 18Q341 18 351 35T365 74Q369 105 359 133T331
188T296 244T269 302T264 366Q270 401 285 429T320 484T355 542T374 613Q377 639 373 660T356 693T322 705Q272 705 239 638T185 441L116 -21Q101 -117 82 -172T33 -251T-41 -275Z" />
<glyph unicode="&#xe0;" horiz-adv-x="441" d="M82 -13Q49 -13 30 11T19 91Q26 143 53 197T120 297T205 371T291 399Q310 399 330 392T364 369T381 326L327 357Q342 359 360 373T388 407Q390 410 395 409T400 405L342 89Q333 38 355 38Q365 38 380 48T413 77Q416
80 420 76T421 69Q390 32 363 12T309 -9Q280 -9 270 14T268 89L293 229L313 246Q287 166 248 108T166 19T82 -13ZM137 52Q162 52 188 72T237 124T276 192T299 261Q307 304 293 329T246 355Q216 354 186 329T132 260T99 160Q90 101 101 77T137 52ZM296 475L242 727Q241
732 253 733T281 732T310 725T322 716L305 476Q305 474 301 473T296 475Z" />
<glyph unicode="&#xe1;" horiz-adv-x="441" d="M82 -13Q49 -13 30 11T19 91Q26 143 53 197T120 297T205 371T291 399Q310 399 330 392T364 369T381 326L327 357Q342 359 360 373T388 407Q390 410 395 409T400 405L342 89Q333 38 355 38Q365 38 380 48T413 77Q416
80 420 76T421 69Q390 32 363 12T309 -9Q280 -9 270 14T268 89L293 229L313 246Q287 166 248 108T166 19T82 -13ZM137 52Q162 52 188 72T237 124T276 192T299 261Q307 304 293 329T246 355Q216 354 186 329T132 260T99 160Q90 101 101 77T137 52ZM285 473Q284 470
279 472T275 476L356 716Q358 720 372 724T403 730T433 732T444 727L285 473Z" />
<glyph unicode="&#xe2;" horiz-adv-x="441" d="M82 -13Q49 -13 30 11T19 91Q26 143 53 197T120 297T205 371T291 399Q310 399 330 392T364 369T381 326L327 357Q342 359 360 373T388 407Q390 410 395 409T400 405L342 89Q333 38 355 38Q365 38 380 48T413 77Q416
80 420 76T421 69Q390 32 363 12T309 -9Q280 -9 270 14T268 89L293 229L313 246Q287 166 248 108T166 19T82 -13ZM137 52Q162 52 188 72T237 124T276 192T299 261Q307 304 293 329T246 355Q216 354 186 329T132 260T99 160Q90 101 101 77T137 52ZM350 726L377 477Q377
475 372 475T365 476L320 600L228 474Q226 471 221 473T217 477L332 726Q334 731 342 731T350 726Z" />
<glyph unicode="&#xe3;" horiz-adv-x="441" d="M82 -13Q49 -13 30 11T19 91Q26 143 53 197T120 297T205 371T291 399Q310 399 330 392T364 369T381 326L327 357Q342 359 360 373T388 407Q390 410 395 409T400 405L342 89Q333 38 355 38Q365 38 380 48T413 77Q416
80 420 76T421 69Q390 32 363 12T309 -9Q280 -9 270 14T268 89L293 229L313 246Q287 166 248 108T166 19T82 -13ZM137 52Q162 52 188 72T237 124T276 192T299 261Q307 304 293 329T246 355Q216 354 186 329T132 260T99 160Q90 101 101 77T137 52ZM165 473Q164 472
161 475T158 480Q168 494 182 511T214 542T253 555Q268 555 288 549T331 537T376 530Q397 530 409 536T435 557Q437 559 440 556T442 550Q412 505 394 491T351 476Q332 476 312 482T270 494T225 500Q199 500 189 493T165 473Z" />
<glyph unicode="&#xe4;" horiz-adv-x="441" d="M82 -13Q49 -13 30 11T19 91Q26 143 53 197T120 297T205 371T291 399Q310 399 330 392T364 369T381 326L327 357Q342 359 360 373T388 407Q390 410 395 409T400 405L342 89Q333 38 355 38Q365 38 380 48T413 77Q416
80 420 76T421 69Q390 32 363 12T309 -9Q280 -9 270 14T268 89L293 229L313 246Q287 166 248 108T166 19T82 -13ZM137 52Q162 52 188 72T237 124T276 192T299 261Q307 304 293 329T246 355Q216 354 186 329T132 260T99 160Q90 101 101 77T137 52ZM380 469Q330 469
330 519Q330 541 343 553T380 566Q402 566 414 554T427 519Q427 469 380 469ZM223 469Q174 469 174 519Q174 541 187 553T223 566Q246 566 258 554T271 519Q271 469 223 469Z" />
<glyph unicode="&#xe5;" horiz-adv-x="441" d="M82 -13Q49 -13 30 11T19 91Q26 143 53 197T120 297T205 371T291 399Q310 399 330 392T364 369T381 326L327 357Q342 359 360 373T388 407Q390 410 395 409T400 405L342 89Q333 38 355 38Q365 38 380 48T413 77Q416
80 420 76T421 69Q390 32 363 12T309 -9Q280 -9 270 14T268 89L293 229L313 246Q287 166 248 108T166 19T82 -13ZM137 52Q162 52 188 72T237 124T276 192T299 261Q307 304 293 329T246 355Q216 354 186 329T132 260T99 160Q90 101 101 77T137 52ZM295 468Q249 468
224 492T199 547Q199 573 215 590T256 616T305 625Q345 625 373 602T401 545Q401 521 386 504T346 477T295 468ZM311 481Q339 481 339 527Q339 561 323 586T285 612Q261 612 261 567Q261 547 267 527T284 494T311 481Z" />
<glyph unicode="&#xe6;" horiz-adv-x="572" d="M86 -13Q50 -13 31 13T19 91Q26 141 50 194T112 294T194 370T286 399Q314 399 337 387T364 345Q351 320 336 296T307 246Q280 172 244 113T167 21T86 -13ZM140 55Q158 55 181 74T228 125T268 192T292 262Q301 306
287 336T242 367Q215 367 187 339T136 265T104 159Q98 118 101 96T116 64T140 55ZM384 -12Q313 -12 289 49T287 211L323 305Q359 352 406 375T504 399Q551 399 567 381T578 338Q575 316 553 293T476 246T325 191L326 203Q358 215 395 231T459 270T492 323Q495 334
493 346T482 366T458 375Q423 375 395 331T359 215Q347 124 370 77T437 30Q457 30 476 37T514 61Q517 64 521 60T522 53Q484 18 451 3T384 -12Z" />
<glyph unicode="&#xe7;" horiz-adv-x="346" d="M159 -13Q115 -13 87 6T44 56T27 126T31 202Q43 263 78 307T160 375T252 399Q275 399 296 392T331 371T343 335Q342 317 331 306T298 294Q276 294 266 306T253 335Q249 349 241 361T211 373Q186 373 167 355T134
307T114 236Q104 181 110 134T142 59T213 31Q239 31 264 42T308 67Q310 69 314 65T316 58Q277 21 237 4T159 -13ZM111 -275Q79 -275 57 -262T39 -224Q41 -209 52 -202T77 -195Q93 -195 100 -204T112 -225T121 -246T140 -256Q165 -256 170 -227Q172 -209 158 -186T123
-138Q110 -121 113 -102T128 -60L158 0H172Q161 -24 162 -41T171 -73T192 -104Q211 -128 220 -147T225 -187Q222 -204 209 -225T172 -260T111 -275Z" />
<glyph unicode="&#xe8;" horiz-adv-x="352" d="M158 -12Q102 -12 70 16T29 90T29 185Q36 223 57 261T109 331T181 380T267 399Q306 399 325 385T342 345Q339 320 316 297T254 255T168 223T71 204L73 217Q146 228 195 253T253 324Q258 348 247 360T217 372Q191
372 170 352T135 296T113 218Q104 165 111 123T144 55T210 29Q231 29 256 36T304 60Q306 62 309 58T311 52Q273 17 234 3T158 -12ZM250 475L195 727Q194 732 206 733T235 732T263 725T276 716L259 476Q259 474 255 473T250 475Z" />
<glyph unicode="&#xe9;" horiz-adv-x="352" d="M158 -12Q102 -12 70 16T29 90T29 185Q36 223 57 261T109 331T181 380T267 399Q306 399 325 385T342 345Q339 320 316 297T254 255T168 223T71 204L73 217Q146 228 195 253T253 324Q258 348 247 360T217 372Q191
372 170 352T135 296T113 218Q104 165 111 123T144 55T210 29Q231 29 256 36T304 60Q306 62 309 58T311 52Q273 17 234 3T158 -12ZM239 473Q238 470 233 472T229 476L310 716Q311 720 325 724T357 730T387 732T397 727L239 473Z" />
<glyph unicode="&#xea;" horiz-adv-x="352" d="M158 -12Q102 -12 70 16T29 90T29 185Q36 223 57 261T109 331T181 380T267 399Q306 399 325 385T342 345Q339 320 316 297T254 255T168 223T71 204L73 217Q146 228 195 253T253 324Q258 348 247 360T217 372Q191
372 170 352T135 296T113 218Q104 165 111 123T144 55T210 29Q231 29 256 36T304 60Q306 62 309 58T311 52Q273 17 234 3T158 -12ZM300 727L327 478Q327 475 322 475T315 477L270 600L178 474Q176 472 171 473T167 478L281 727Q284 732 292 732T300 727Z" />
<glyph unicode="&#xeb;" horiz-adv-x="352" d="M158 -12Q102 -12 70 16T29 90T29 185Q36 223 57 261T109 331T181 380T267 399Q306 399 325 385T342 345Q339 320 316 297T254 255T168 223T71 204L73 217Q146 228 195 253T253 324Q258 348 247 360T217 372Q191
372 170 352T135 296T113 218Q104 165 111 123T144 55T210 29Q231 29 256 36T304 60Q306 62 309 58T311 52Q273 17 234 3T158 -12ZM333 469Q283 469 283 519Q283 541 296 553T333 566Q356 566 368 554T381 519Q381 469 333 469ZM177 469Q127 469 127 519Q127 541
140 553T177 566Q200 566 212 554T225 519Q225 469 177 469Z" />
<glyph unicode="&#xec;" horiz-adv-x="247" d="M107 -9Q77 -9 68 14T69 89L110 297Q120 349 94 349Q84 349 68 339T33 307Q29 303 25 307T24 316Q60 358 88 376T144 395Q174 395 183 373T183 306L141 89Q136 60 141 49T156 38Q167 38 181 48T214 76Q218 80 222
76T222 68Q190 31 163 11T107 -9ZM158 475L104 727Q103 732 115 733T143 732T172 725T184 716L167 476Q167 474 163 473T158 475Z" />
<glyph unicode="&#xed;" horiz-adv-x="247" d="M107 -9Q77 -9 68 14T69 89L110 297Q120 349 94 349Q84 349 68 339T33 307Q29 303 25 307T24 316Q60 358 88 376T144 395Q174 395 183 373T183 306L141 89Q136 60 141 49T156 38Q167 38 181 48T214 76Q218 80 222
76T222 68Q190 31 163 11T107 -9ZM147 473Q146 470 141 472T137 476L218 716Q220 720 234 724T265 730T295 732T306 727L147 473Z" />
<glyph unicode="&#xee;" horiz-adv-x="247" d="M107 -9Q77 -9 68 14T69 89L110 297Q120 349 94 349Q84 349 68 339T33 307Q29 303 25 307T24 316Q60 358 88 376T144 395Q174 395 183 373T183 306L141 89Q136 60 141 49T156 38Q167 38 181 48T214 76Q218 80 222
76T222 68Q190 31 163 11T107 -9ZM212 726L239 477Q239 475 234 475T227 476L181 600L90 474Q88 471 83 473T79 477L194 726Q196 731 204 731T212 726Z" />
<glyph unicode="&#xef;" horiz-adv-x="247" d="M107 -9Q77 -9 68 14T69 89L110 297Q120 349 94 349Q84 349 68 339T33 307Q29 303 25 307T24 316Q60 358 88 376T144 395Q174 395 183 373T183 306L141 89Q136 60 141 49T156 38Q167 38 181 48T214 76Q218 80 222
76T222 68Q190 31 163 11T107 -9ZM92 469Q69 469 55 482T41 519Q41 541 55 554T92 567Q115 567 127 554T140 519Q140 469 92 469ZM238 469Q189 469 189 519Q189 566 238 566Q260 566 273 554T286 519Q286 469 238 469Z" />
<glyph unicode="&#xf0;" horiz-adv-x="401" d="M154 -13Q102 -13 70 14T26 87T23 186Q37 259 74 306T157 376T242 399Q276 399 305 382T349 333L298 204Q308 278 303 355T280 502T232 627T166 712Q163 715 167 719T177 725T186 725Q240 693 282 638T352 514T387
368T382 216Q368 140 333 89T251 13T154 -13ZM181 9Q220 9 251 54T298 204Q309 287 295 333T228 379Q190 379 156 337T109 215Q102 160 108 113T133 38T181 9ZM141 495Q138 494 133 503T131 515L405 645Q408 647 414 637T415 625L141 495Z" />
<glyph unicode="&#xf1;" horiz-adv-x="472" d="M338 -9Q308 -9 300 15T300 89L329 248Q349 348 299 348Q269 348 237 309T176 195T129 10L112 11Q133 130 167 217T247 351T343 399Q386 399 402 368T406 267L373 89Q368 60 372 49T387 38Q398 38 412 49T444 77Q447
81 451 77T452 69Q421 32 394 12T338 -9ZM81 -8Q63 -8 57 -6T51 -1Q51 3 56 25T66 74L107 297Q116 349 92 349Q81 349 66 339T30 307Q27 303 23 307T22 316Q57 358 86 376T142 395Q171 395 180 373T180 306L129 10Q124 -8 81 -8ZM151 473Q150 472 147 475T144 480Q153
494 167 511T200 542T239 555Q254 555 274 549T316 537T361 530Q383 530 395 536T420 557Q422 559 425 556T427 550Q397 505 379 491T337 476Q318 476 298 482T256 494T210 500Q185 500 175 493T151 473Z" />
<glyph unicode="&#xf2;" horiz-adv-x="405" d="M157 -14Q104 -14 72 14T30 90T30 193Q41 253 73 299T150 372T247 399Q302 399 334 371T377 297T376 193Q364 127 329 80T249 10T157 -14ZM191 11Q226 11 253 48T292 149Q300 191 299 231T288 304T260 356T215 375Q182
375 155 340T114 236Q106 193 107 153T119 81T147 30T191 11ZM250 475L196 727Q195 732 207 733T235 732T264 725T277 716L259 476Q259 474 255 473T250 475Z" />
<glyph unicode="&#xf3;" horiz-adv-x="405" d="M157 -14Q104 -14 72 14T30 90T30 193Q41 253 73 299T150 372T247 399Q302 399 334 371T377 297T376 193Q364 127 329 80T249 10T157 -14ZM191 11Q226 11 253 48T292 149Q300 191 299 231T288 304T260 356T215 375Q182
375 155 340T114 236Q106 193 107 153T119 81T147 30T191 11ZM239 473Q238 470 233 472T229 476L311 716Q312 720 326 724T358 730T388 732T398 727L239 473Z" />
<glyph unicode="&#xf4;" horiz-adv-x="405" d="M157 -14Q104 -14 72 14T30 90T30 193Q41 253 73 299T150 372T247 399Q302 399 334 371T377 297T376 193Q364 127 329 80T249 10T157 -14ZM191 11Q226 11 253 48T292 149Q300 191 299 231T288 304T260 356T215 375Q182
375 155 340T114 236Q106 193 107 153T119 81T147 30T191 11ZM301 727L328 478Q328 475 323 475T316 477L270 600L179 474Q177 472 172 473T168 478L282 727Q285 732 293 732T301 727Z" />
<glyph unicode="&#xf5;" horiz-adv-x="405" d="M157 -14Q104 -14 72 14T30 90T30 193Q41 253 73 299T150 372T247 399Q302 399 334 371T377 297T376 193Q364 127 329 80T249 10T157 -14ZM191 11Q226 11 253 48T292 149Q300 191 299 231T288 304T260 356T215 375Q182
375 155 340T114 236Q106 193 107 153T119 81T147 30T191 11ZM120 473Q118 472 115 475T113 480Q122 494 136 511T169 542T208 555Q223 555 242 549T285 537T330 530Q351 530 363 536T389 557Q391 559 394 556T396 550Q366 505 348 491T306 476Q286 476 266 482T224
494T179 500Q154 500 144 493T120 473Z" />
<glyph unicode="&#xf6;" horiz-adv-x="405" d="M157 -14Q104 -14 72 14T30 90T30 193Q41 253 73 299T150 372T247 399Q302 399 334 371T377 297T376 193Q364 127 329 80T249 10T157 -14ZM191 11Q226 11 253 48T292 149Q300 191 299 231T288 304T260 356T215 375Q182
375 155 340T114 236Q106 193 107 153T119 81T147 30T191 11ZM334 469Q284 469 284 519Q284 541 297 553T334 566Q357 566 369 554T382 519Q382 469 334 469ZM178 469Q128 469 128 519Q128 541 141 553T178 566Q200 566 212 554T225 519Q225 469 178 469Z" />
<glyph unicode="&#xf7;" horiz-adv-x="391" d="M34 176Q31 176 30 187T30 209T33 220H364Q367 220 368 210T368 188T364 176H34ZM199 -9Q175 -9 161 5T147 43Q147 66 161 79T199 93Q223 93 236 80T250 43Q250 -9 199 -9ZM198 312Q174 312 160 326T146 364Q146
387 160 400T198 413Q222 413 235 400T249 364Q249 312 198 312Z" />
<glyph unicode="&#xf8;" horiz-adv-x="408" d="M12 -17Q9 -19 1 -12T-4 0L386 401Q388 404 397 398T403 387L12 -17ZM157 -14Q104 -14 72 14T30 90T30 193Q41 253 73 299T150 372T247 399Q302 399 334 371T377 297T376 193Q364 127 329 80T249 10T157 -14ZM191
11Q226 11 253 48T292 149Q300 191 299 231T288 304T260 356T215 375Q182 375 155 340T114 236Q106 193 107 153T119 81T147 30T191 11Z" />
<glyph unicode="&#xf9;" horiz-adv-x="472" d="M129 -13Q86 -13 70 19T67 119L102 297Q107 327 103 337T88 348Q77 348 63 337T31 309Q27 305 23 309T23 317Q55 355 81 375T136 395Q164 395 175 373T174 297L143 138Q132 87 140 63T173 38Q203 38 235 77T296 191T344
376L360 375Q340 257 305 170T225 35T129 -13ZM330 -9Q301 -9 293 13T292 80L344 376Q348 394 391 394Q409 394 415 392T421 387Q421 383 416 361T406 312L365 89Q356 37 381 37Q391 37 407 47T442 79Q445 83 449 79T450 70Q415 28 387 10T330 -9ZM273 475L219
727Q218 732 230 733T258 732T287 725T300 716L282 476Q282 474 278 473T273 475Z" />
<glyph unicode="&#xfa;" horiz-adv-x="472" d="M129 -13Q86 -13 70 19T67 119L102 297Q107 327 103 337T88 348Q77 348 63 337T31 309Q27 305 23 309T23 317Q55 355 81 375T136 395Q164 395 175 373T174 297L143 138Q132 87 140 63T173 38Q203 38 235 77T296 191T344
376L360 375Q340 257 305 170T225 35T129 -13ZM330 -9Q301 -9 293 13T292 80L344 376Q348 394 391 394Q409 394 415 392T421 387Q421 383 416 361T406 312L365 89Q356 37 381 37Q391 37 407 47T442 79Q445 83 449 79T450 70Q415 28 387 10T330 -9ZM262 473Q261
470 256 472T252 476L334 716Q335 720 349 724T380 730T411 732T421 727L262 473Z" />
<glyph unicode="&#xfb;" horiz-adv-x="472" d="M129 -13Q86 -13 70 19T67 119L102 297Q107 327 103 337T88 348Q77 348 63 337T31 309Q27 305 23 309T23 317Q55 355 81 375T136 395Q164 395 175 373T174 297L143 138Q132 87 140 63T173 38Q203 38 235 77T296 191T344
376L360 375Q340 257 305 170T225 35T129 -13ZM330 -9Q301 -9 293 13T292 80L344 376Q348 394 391 394Q409 394 415 392T421 387Q421 383 416 361T406 312L365 89Q356 37 381 37Q391 37 407 47T442 79Q445 83 449 79T450 70Q415 28 387 10T330 -9ZM324 727L351
478Q351 475 345 475T339 477L293 600L201 474Q200 472 195 473T191 478L305 727Q307 732 315 732T324 727Z" />
<glyph unicode="&#xfc;" horiz-adv-x="472" d="M129 -13Q86 -13 70 19T67 119L102 297Q107 327 103 337T88 348Q77 348 63 337T31 309Q27 305 23 309T23 317Q55 355 81 375T136 395Q164 395 175 373T174 297L143 138Q132 87 140 63T173 38Q203 38 235 77T296 191T344
376L360 375Q340 257 305 170T225 35T129 -13ZM330 -9Q301 -9 293 13T292 80L344 376Q348 394 391 394Q409 394 415 392T421 387Q421 383 416 361T406 312L365 89Q356 37 381 37Q391 37 407 47T442 79Q445 83 449 79T450 70Q415 28 387 10T330 -9ZM357 469Q307
469 307 519Q307 541 320 553T357 566Q379 566 392 554T405 519Q405 469 357 469ZM201 469Q151 469 151 519Q151 541 164 553T201 566Q223 566 235 554T248 519Q248 469 201 469Z" />
<glyph unicode="&#xfd;" horiz-adv-x="449" d="M-16 -281Q-39 -281 -55 -270T-68 -227Q-60 -188 -16 -188Q5 -188 23 -194T59 -200T100 -187Q122 -172 151 -136T213 -52T273 43T322 133T348 198Q357 231 353 253T341 291T326 320T318 351Q318 371 331 383T368
396Q392 396 404 380T416 331Q416 298 400 249T355 142T291 25T214 -89T132 -187T52 -256T-16 -281ZM170 -128Q176 99 147 221T65 343Q52 343 40 335T18 310Q16 306 11 307T6 313Q25 351 56 373T114 395Q148 395 173 362T215 271T238 138T240 -23L170 -128ZM245
473Q244 470 239 472T235 476L317 716Q318 720 332 724T364 730T394 732T404 727L245 473Z" />
<glyph unicode="&#xfe;" horiz-adv-x="410" d="M-64 -275Q-67 -276 -68 -270T-66 -263Q-45 -258 -35 -252T-20 -231T-9 -185L132 599Q141 643 129 653T73 642Q69 640 67 646T68 653L215 725Q219 727 223 723T226 717L67 -178Q60 -218 70 -228T118 -235Q122 -234
123 -239T120 -246L-64 -275ZM145 -1Q116 -1 94 2T57 8L67 67Q87 52 113 40T179 28Q217 28 243 53T286 121T310 220Q315 253 309 282T283 329T227 348Q182 348 135 325T28 259Q24 255 21 260T21 268Q83 321 152 357T288 393Q346 393 373 356T391 252Q383 199 358
153T298 72T223 18T145 -1Z" />
<glyph unicode="&#xff;" horiz-adv-x="449" d="M-16 -281Q-39 -281 -55 -270T-68 -227Q-60 -188 -16 -188Q5 -188 23 -194T59 -200T100 -187Q122 -172 151 -136T213 -52T273 43T322 133T348 198Q357 231 353 253T341 291T326 320T318 351Q318 371 331 383T368
396Q392 396 404 380T416 331Q416 298 400 249T355 142T291 25T214 -89T132 -187T52 -256T-16 -281ZM170 -128Q176 99 147 221T65 343Q52 343 40 335T18 310Q16 306 11 307T6 313Q25 351 56 373T114 395Q148 395 173 362T215 271T238 138T240 -23L170 -128ZM340
469Q290 469 290 519Q290 541 303 553T340 566Q363 566 375 554T388 519Q388 469 340 469ZM184 469Q134 469 134 519Q134 541 147 553T184 566Q206 566 218 554T231 519Q231 469 184 469Z" />
<glyph unicode="&#x2013;" horiz-adv-x="515" d="M34 167Q31 167 30 178T30 201T33 212H481Q484 212 485 201T485 179T481 167H34Z" />
<glyph unicode="&#x2014;" horiz-adv-x="830" d="M34 167Q31 167 30 178T30 201T33 212H796Q799 212 800 201T800 179T796 167H34Z" />
<glyph unicode="&#x2018;" horiz-adv-x="187" d="M203 634Q207 637 210 632T210 625Q180 594 162 561T137 497Q130 465 135 452T143 436L112 421Q111 442 119 452T147 463Q175 463 186 445T195 405Q192 387 178 375T139 362Q105 362 89 389T82 464Q92 510 123
554T203 634Z" />
<glyph unicode="&#x2019;" horiz-adv-x="188" d="M92 362Q88 359 85 364T85 371Q116 403 134 436T158 500Q165 532 160 545T152 561L184 576Q185 555 176 545T148 534Q121 534 110 552T101 591Q103 610 117 622T156 635Q190 635 207 608T213 533Q204 487 172 443T92 362Z" />
<glyph unicode="&#x201a;" horiz-adv-x="154" d="M-16 -180Q-20 -183 -23 -178T-23 -171Q7 -139 25 -106T50 -42Q57 -10 52 3T44 19L75 34Q76 13 68 3T40 -8Q13 -8 1 10T-8 49Q-5 68 9 80T48 93Q82 93 99 66T105 -9Q96 -55 64 -99T-16 -180Z" />
<glyph unicode="&#x201c;" horiz-adv-x="344" d="M191 634Q195 637 198 632T198 625Q168 594 150 561T124 497Q118 465 123 452T131 436L99 421Q98 442 107 452T135 463Q163 463 174 445T182 405Q179 387 166 375T127 362Q93 362 76 389T70 464Q80 510 111 554T191
634ZM348 634Q352 637 355 632T355 625Q325 594 307 561T281 497Q274 465 279 452T287 436L256 421Q255 442 264 452T291 463Q319 463 331 445T339 405Q336 387 323 375T283 362Q249 362 233 389T226 464Q237 510 268 554T348 634Z" />
<glyph unicode="&#x201d;" horiz-adv-x="345" d="M261 362Q257 359 254 364T254 371Q285 403 303 436T327 500Q334 532 329 545T321 561L353 576Q354 555 345 545T317 534Q290 534 279 552T270 591Q272 610 286 622T325 635Q359 635 376 608T382 533Q373 487 341
443T261 362ZM104 362Q100 359 97 364T97 371Q128 403 146 436T171 500Q178 532 173 545T165 561L196 576Q197 555 188 545T160 534Q133 534 122 552T113 591Q116 610 129 622T168 635Q202 635 219 608T225 533Q216 487 185 443T104 362Z" />
<glyph unicode="&#x201e;" horiz-adv-x="344" d="M153 -180Q149 -183 146 -178T146 -171Q176 -139 194 -106T219 -42Q226 -10 221 3T213 19L244 34Q245 13 237 3T209 -8Q182 -8 170 10T161 49Q164 68 178 80T217 93Q251 93 268 66T274 -9Q265 -55 233 -99T153
-180ZM-4 -180Q-8 -183 -11 -178T-11 -171Q20 -139 38 -106T63 -42Q69 -10 64 3T56 19L88 34Q89 13 80 3T52 -8Q25 -8 14 10T5 49Q8 68 21 80T60 93Q94 93 111 66T117 -9Q108 -55 76 -99T-4 -180Z" />
<glyph unicode="&#x2022;" horiz-adv-x="315" d="M168 138Q138 138 113 152T72 192T57 248Q57 278 72 303T112 343T168 358Q198 358 222 343T262 303T278 248Q278 217 263 192T223 153T168 138Z" />
<glyph unicode="&#x2039;" horiz-adv-x="284" d="M248 364Q251 366 255 362T257 356L137 201L203 47Q205 44 201 41T195 40L46 189Q43 194 43 200T50 212L248 364Z" />
<glyph unicode="&#x203a;" horiz-adv-x="282" d="M37 37Q35 36 31 39T29 46L149 200L83 354Q82 357 86 360T91 361L239 212Q243 208 243 201T236 189L37 37Z" />
</font>
</defs>
</svg>
