<?xml version="1.0" standalone="no"?>
<!DOCTYPE svg PUBLIC "-//W3C//DTD SVG 1.1//EN" "http://www.w3.org/Graphics/SVG/1.1/DTD/svg11.dtd">
<svg xmlns="http://www.w3.org/2000/svg">
<defs >
<font id="CormorantGaramond" horiz-adv-x="490" ><font-face
    font-family="Cormorant Garamond Light SemiBold"
    units-per-em="1000"
    panose-1="0 0 0 0 0 0 0 0 0 0"
    ascent="924"
    descent="-287"
    alphabetic="0" />
<glyph unicode=" " horiz-adv-x="234" />
<glyph unicode="!" horiz-adv-x="257" d="M67 617Q66 621 76 623T101 627T129 629Q141 629 156 628T181 624T191 617Q175 553 166 479T151 331T140 189Q140 187 134 186T120 185T113 189Q109 256 104 330T91 479T67 617ZM123 -11Q98 -11 83 4T68 44Q68 67 83 81T123
96Q149 96 163 82T177 44Q177 19 163 4T123 -11Z" />
<glyph unicode="&quot;" horiz-adv-x="295" d="M56 365L33 607Q33 616 48 623T83 635T117 640T130 633L71 366Q70 364 63 363T56 365ZM205 365L182 607Q181 616 196 623T232 635T266 640T279 633L219 366Q218 364 212 363T205 365Z" />
<glyph unicode="#" horiz-adv-x="526" d="M147 -82Q147 -85 135 -84T112 -80T101 -75L200 482Q200 485 211 484T234 479T245 472L147 -82ZM334 -82Q334 -85 322 -84T299 -80T288 -75L387 482Q387 485 398 484T421 479T432 472L334 -82ZM63 75Q60 75 59 86T59 108T62
120H428Q431 120 432 109T432 86T428 75H63ZM98 274Q95 274 94 285T94 307T97 318H463Q466 318 467 308T467 286T463 274H98Z" />
<glyph unicode="$" horiz-adv-x="418" d="M204 -102V561Q204 566 211 567T224 568T231 561V-102Q231 -106 225 -107T211 -108T204 -102ZM132 390Q132 360 149 339T194 301T252 270Q284 254 314 235T363 191T382 128Q382 89 360 57T299 7T207 -12Q164 -12 125 -1T67
24Q63 26 61 31T59 45L52 153Q52 158 57 158T64 155Q79 122 102 88T156 32T224 9Q244 9 262 16T292 41T304 86Q304 121 286 144T239 186T180 221Q150 237 123 254T78 296T60 355Q60 396 83 423T144 465T226 480Q256 480 287 474T340 457Q350 454 352 450T355 438L358
346Q358 343 353 342T346 343Q343 354 332 373T304 412T263 446T208 460Q169 460 151 440T132 390Z" />
<glyph unicode="%" horiz-adv-x="574" d="M150 303Q94 303 58 340T21 433Q21 468 37 497T83 543T150 560Q207 560 242 522T277 430Q277 377 242 340T150 303ZM157 317Q187 317 195 347T203 423Q203 546 144 546Q113 546 104 514T94 436Q94 386 107 352T157 317ZM427
-5Q390 -5 361 12T315 59T298 125Q298 160 314 189T360 235T427 253Q465 253 493 236T537 189T554 123Q554 69 519 32T427 -5ZM434 10Q464 10 472 40T480 116Q480 238 421 238Q390 238 381 206T372 129Q372 79 385 45T434 10ZM109 -7Q108 -9 101 -5T87 4T81 11L451
555Q453 557 460 553T474 543T480 536L109 -7Z" />
<glyph unicode="&amp;" horiz-adv-x="709" d="M65 133Q65 174 86 206T141 267T213 322T285 380T340 446T361 527Q361 572 339 596T283 621Q252 621 237 601T222 541Q222 487 246 431T311 321T404 218T511 127Q580 76 633 48T715 12Q720 11 719 6T715 0Q687 0 649
0T571 0Q559 0 540 8T490 36T410 96Q366 132 319 176T233 268T169 362Q156 388 148 414T140 470Q140 520 162 560T226 623T323 646Q359 646 388 635T434 603T451 546Q451 505 430 474T374 417T302 366T230 315T175 256T153 182Q153 143 175 109T237 52T332 30Q375
30 408 45T464 88T498 154T510 239Q510 288 494 312T432 337Q430 337 430 343T432 349L660 350Q664 350 664 344T660 338Q629 338 613 331T590 309T575 268Q567 237 553 200T517 125T462 57T380 7T266 -12Q196 -12 152 9T86 63T65 133Z" />
<glyph unicode="&apos;" horiz-adv-x="147" d="M56 365L33 607Q33 616 48 623T83 635T117 640T130 633L71 366Q70 364 63 363T56 365Z" />
<glyph unicode="(" horiz-adv-x="309" d="M51 304Q51 398 77 480T153 625T274 725Q276 726 278 724T278 719Q210 647 180 543T149 304Q149 169 179 65T278 -111Q280 -112 278 -115T274 -117Q203 -80 154 -17T78 128T51 304Z" />
<glyph unicode=")" horiz-adv-x="309" d="M258 304Q258 211 232 129T156 -17T35 -117Q34 -118 32 -116T31 -111Q100 -39 130 65T160 304Q160 439 130 543T31 719Q29 721 31 723T35 725Q106 689 155 626T231 480T258 304Z" />
<glyph unicode="*" horiz-adv-x="448" d="M152 372Q149 366 132 370T95 382T62 399T53 409L206 491Q208 493 212 491T215 485L152 372ZM264 311L232 481Q231 483 235 486T241 488L330 393Q335 388 326 373T303 342T277 316T264 311ZM204 511L76 535Q69 537 68
554T68 593T74 629T81 641L207 520Q209 519 208 515T204 511ZM424 480L250 504Q248 504 247 508T248 513L365 569Q372 571 383 559T406 527T423 494T424 480ZM226 529L210 657Q209 665 224 671T261 683T298 689T312 685L236 529Q235 526 231 526T226 529Z" />
<glyph unicode="+" horiz-adv-x="398" d="M34 167Q31 167 30 178T30 201T33 212H364Q367 212 368 201T368 179T364 167H34ZM222 25Q222 22 211 21T188 20T176 23V354Q176 357 187 358T210 358T222 354V25Z" />
<glyph unicode="," horiz-adv-x="222" d="M101 94Q135 94 153 71T172 0Q172 -52 148 -97T81 -186Q77 -189 74 -186T73 -179Q100 -145 108 -114T117 -47Q117 -17 111 -3T94 20L131 27Q132 10 122 1T93 -8Q69 -8 56 6T43 42Q43 67 58 80T101 94Z" />
<glyph unicode="-" horiz-adv-x="323" d="M32 158Q29 158 28 170T27 195T30 208L291 255Q294 256 295 243T295 218T291 205L32 158Z" />
<glyph unicode="." horiz-adv-x="204" d="M103 -11Q78 -11 63 3T48 44Q48 67 63 81T103 96Q129 96 143 82T157 44Q157 18 143 4T103 -11Z" />
<glyph unicode="/" horiz-adv-x="348" d="M71 -164Q70 -167 59 -165T37 -159T26 -152L278 730Q280 733 291 731T312 724T322 717L71 -164Z" />
<glyph unicode="0" horiz-adv-x="477" d="M240 -13Q179 -13 131 14T56 88T29 195Q29 256 56 301T131 373T240 399Q302 399 349 373T422 300T448 193Q448 133 422 87T348 14T240 -13ZM250 6Q303 6 328 53T353 180Q353 251 336 295T292 359T231 380Q179 380 151
332T123 205Q123 147 138 102T183 32T250 6Z" />
<glyph unicode="1" horiz-adv-x="332" d="M126 305Q126 334 121 349T98 369T45 374Q43 374 43 380T45 386Q70 386 100 385T166 384Q200 384 231 385T286 386Q290 386 290 380T287 374Q254 374 237 369T213 349T206 305V81Q206 52 211 37T234 17T287 12Q290 12
290 6T287 0Q263 0 232 1T166 2Q132 2 101 1T45 0Q43 0 43 6T45 12Q79 12 96 17T119 37T126 81V305Z" />
<glyph unicode="2" horiz-adv-x="402" d="M37 23Q98 76 138 114T202 181T236 232T246 279Q246 317 226 344T168 371Q128 371 103 337T58 241Q57 239 51 240T46 244L88 408Q89 411 95 410T99 406Q95 388 100 383T113 378Q129 378 154 388T220 399Q274 399 304 372T335
303Q335 270 317 241T270 184T207 130T136 76Q133 73 135 71T141 69Q199 69 240 70T306 77T346 93T365 124Q366 128 371 127T377 124L358 11Q358 7 356 4T349 0Q279 0 198 0T43 0Q39 0 36 9T37 23Z" />
<glyph unicode="3" horiz-adv-x="392" d="M56 -275Q52 -276 50 -271T51 -264Q113 -241 153 -212T218 -149T252 -84T262 -23Q262 13 250 42T212 89T150 106Q140 106 130 105T107 100Q104 99 102 105T103 112Q175 131 207 167T240 268Q240 317 224 345T171 373Q129
373 96 345T42 258Q41 256 35 257T30 261L67 407Q69 410 74 409T79 405Q75 388 81 383T94 377Q110 377 137 388T204 399Q266 399 297 364T328 285Q328 248 311 214T260 154T179 119L185 134Q246 132 284 111T340 58T358 -11Q358 -56 326 -106T227 -200T56 -275Z"
/>
<glyph unicode="4" horiz-adv-x="454" d="M32 8Q28 8 25 12T25 20L329 396Q331 399 337 398T344 392V-141Q344 -152 336 -155L270 -188Q261 -193 261 -182V291L324 338L83 48Q80 44 82 43T88 41Q144 41 187 41T267 42T340 44T418 47Q421 47 421 36T421 13T416
1Q378 3 339 4T255 6T156 7T32 8Z" />
<glyph unicode="5" horiz-adv-x="409" d="M78 196Q179 196 240 172T329 106T357 9Q357 -48 327 -94T234 -184T68 -275Q64 -276 61 -271T62 -264Q142 -221 186 -179T249 -94T267 -8Q267 74 216 120T68 167Q56 167 58 179L90 357Q91 364 93 365T103 368Q189 378
237 384T307 395T335 406T345 423Q346 426 351 426T356 421L336 323Q333 311 327 308T308 305L118 301Q105 301 103 287L83 176L78 196Z" />
<glyph unicode="6" horiz-adv-x="465" d="M305 286Q353 286 381 267T423 219T437 159Q437 112 409 73T334 10T230 -13Q143 -13 92 45T40 207Q40 301 83 391T207 552T400 661Q404 662 406 657T405 650Q313 606 252 536T160 384T129 222Q129 164 144 116T189 38T257
9Q298 9 323 41T348 131Q348 182 327 215T258 249Q237 249 219 241T177 215Q175 212 170 215T167 222Q193 251 227 268T305 286Z" />
<glyph unicode="7" horiz-adv-x="429" d="M172 -214Q168 -224 164 -229T151 -238L80 -275Q78 -276 75 -273T73 -268L335 304Q339 311 331 311Q249 311 196 310T112 305T64 294T41 274T28 243Q27 240 22 241T17 246L58 413Q60 415 65 415T70 412Q66 395 75 391T117
386Q132 386 163 386T233 386T311 386T382 386Q387 386 390 382T391 373L172 -214Z" />
<glyph unicode="8" horiz-adv-x="489" d="M290 348Q307 373 317 399T327 453Q327 499 303 527T244 555Q214 555 195 536T176 487Q176 455 195 431T244 386T308 346Q346 324 380 300T437 243T460 163Q460 112 430 72T350 10T241 -13Q180 -13 135 10T65 70T40 152Q40
196 63 235T126 305T215 352L221 343Q179 320 155 277T130 179Q130 134 148 95T197 32T269 8Q303 8 328 24T366 67T380 126Q380 170 358 199T302 250T232 294Q199 314 169 336T119 386T100 450Q100 495 125 522T187 561T258 574Q304 574 336 558T385 518T402 470Q402
438 375 402T295 342L290 348Z" />
<glyph unicode="9" horiz-adv-x="465" d="M168 106Q118 106 87 127T43 180T29 243Q29 290 53 324T119 379T215 399Q280 399 327 371T399 291T425 170Q425 103 401 36T331 -93T218 -201T65 -275Q62 -276 60 -271T61 -264Q130 -233 181 -186T267 -82T319 35T336
151Q336 187 329 226T306 300T264 357T200 379Q158 379 138 349T117 266Q117 212 140 177T210 141Q231 141 249 149T288 174Q291 177 296 174T299 167Q250 106 168 106Z" />
<glyph unicode=":" horiz-adv-x="204" d="M103 -11Q78 -11 63 3T48 44Q48 67 63 81T103 96Q129 96 143 82T157 44Q157 18 143 4T103 -11ZM103 270Q78 270 63 284T48 325Q48 348 63 362T103 377Q129 377 143 363T157 325Q157 299 143 285T103 270Z" />
<glyph unicode=";" horiz-adv-x="229" d="M108 94Q141 94 159 71T178 0Q178 -52 154 -97T87 -186Q83 -189 80 -186T79 -179Q106 -145 114 -114T123 -47Q123 -17 117 -3T100 20L138 27Q139 10 128 1T99 -8Q76 -8 63 6T49 42Q49 67 65 80T108 94ZM105 270Q80 270
65 285T50 325Q50 348 65 362T105 377Q131 377 145 363T159 325Q159 300 145 285T105 270Z" />
<glyph unicode="&lt;" horiz-adv-x="407" d="M36 173Q31 176 31 190T36 207L370 354Q375 357 376 346T377 324T370 309L55 174V206L370 71Q375 69 376 57T377 34T370 25L36 173Z" />
<glyph unicode="=" horiz-adv-x="468" d="M34 97Q31 97 30 108T30 131T33 142H434Q437 142 438 131T438 109T434 97H34ZM34 237Q31 237 30 248T30 271T33 282H434Q437 282 438 271T438 249T434 237H34Z" />
<glyph unicode="&gt;" horiz-adv-x="407" d="M371 206Q376 203 376 189T371 172L37 25Q33 23 32 33T31 56T37 70L352 205V173L37 308Q33 310 32 322T31 346T37 354L371 206Z" />
<glyph unicode="?" horiz-adv-x="336" d="M163 608Q143 608 138 595T130 565Q128 554 125 540T111 515T79 505Q55 505 45 519T34 547Q34 580 71 602T164 625Q204 625 237 612T291 573T312 506Q312 472 298 449T263 408T222 371Q190 342 176 313T161 248Q161 236
162 224T167 194Q168 191 161 190T152 191Q140 219 133 254T126 311Q126 340 135 359T157 393T184 424T206 463T215 518Q215 557 201 582T163 608ZM151 -11Q126 -11 111 4T96 44Q96 67 111 81T151 96Q177 96 191 82T205 44Q205 19 191 4T151 -11Z" />
<glyph unicode="@" horiz-adv-x="726" d="M409 144L428 232L457 245Q434 190 401 146T332 77T264 52Q239 52 222 71T210 138Q216 180 237 219T289 289T353 339T418 358Q438 358 456 347T476 309L447 328Q460 330 476 340T495 365Q497 367 505 367T513 364L472
140Q467 112 473 95T506 78Q530 78 555 96T599 149T618 236Q618 303 586 357T497 444T370 477Q292 477 237 439T153 337T123 200Q123 118 157 58T254 -36T398 -69Q443 -69 482 -59T565 -20Q568 -18 571 -22T571 -28Q515 -75 463 -89T364 -103Q282 -103 215 -71T107
24T67 174Q67 247 94 306T169 409T278 476T404 500Q484 500 543 468T634 382T666 267Q666 209 640 161T568 83T467 54Q428 54 414 78T409 144ZM306 108Q322 108 341 122T379 161T412 214T433 273Q437 299 430 317T403 335Q378 335 354 313T312 257T286 183Q281
155 284 132T306 108Z" />
<glyph unicode="A" horiz-adv-x="711" d="M179 245L192 270H472L479 245H179ZM711 12Q715 12 715 6T711 0Q681 0 650 2T589 4Q556 4 532 2T477 0Q473 0 473 6T477 12Q522 12 531 28T516 91L307 516L348 583L150 137Q124 76 148 44T232 12Q237 12 237 6T232 0Q202
0 177 2T114 4Q76 4 54 2T-2 0Q-6 0 -6 6T-2 12Q25 12 44 23T83 63T125 146L340 631Q342 634 349 634T357 631L602 137Q625 89 643 62T677 23T711 12Z" />
<glyph unicode="B" horiz-adv-x="582" d="M304 337L315 353Q380 353 428 331T504 271T531 182Q531 130 503 88T424 21T311 -4Q282 -4 241 -1T166 2Q131 2 99 1T42 0Q39 0 39 6T42 12Q73 12 89 17T112 37T119 81V544Q119 573 113 587T91 607T43 613Q41 613 41 619T43
625Q68 625 99 624T166 622Q194 622 226 625T287 628Q347 628 387 613T449 568T470 498Q470 442 427 399T304 337ZM270 608Q250 608 238 603T220 584T215 542V346L179 353Q212 352 233 352T256 351Q318 351 347 391T376 489Q376 526 365 553T330 594T270 608ZM295
19Q366 19 398 55T430 158Q430 232 392 279T275 326Q260 326 235 326T183 320L215 332V81Q215 60 220 46T242 26T295 19Z" />
<glyph unicode="C" horiz-adv-x="683" d="M421 636Q456 636 488 633T549 623T601 605Q609 601 611 597T615 582L627 450Q627 447 622 446T615 449Q589 530 538 573T410 617Q336 617 279 581T190 477T158 316Q158 248 177 191T232 93T315 30T418 7Q493 7 541 46T625
168Q626 171 631 170T636 167L623 48Q622 36 620 33T609 25Q560 5 513 -3T417 -12Q310 -12 227 28T97 142T49 311Q49 383 77 443T155 546T274 612T421 636Z" />
<glyph unicode="D" horiz-adv-x="700" d="M318 -4Q287 -4 241 -1T157 2Q121 2 89 1T32 0Q30 0 30 6T32 12Q64 12 81 17T103 37T109 81V544Q109 573 104 587T82 607T33 613Q31 613 31 619T33 625Q59 625 90 624T157 622Q192 622 233 624T304 627Q409 627 487 587T608
478T651 323Q651 248 625 188T553 85T446 19T318 -4ZM308 16Q377 16 430 49T513 145T544 301Q544 387 516 456T437 566T314 607Q255 607 230 596T204 542V92Q204 53 224 35T308 16Z" />
<glyph unicode="E" horiz-adv-x="547" d="M476 0H42Q39 0 39 6T42 12Q75 12 91 17T112 37T118 81V544Q118 573 113 587T91 607T42 613Q39 613 39 619T42 625H458Q468 625 468 616L470 486Q470 484 465 484T458 486Q447 543 412 571T320 599H279Q254 599 240 594T219
576T213 542V85Q213 64 218 51T236 32T270 26H319Q387 26 429 58T489 155Q490 158 495 157T501 154Q497 126 494 87T491 15Q491 0 476 0ZM420 226Q420 268 392 290T308 312H168V338H309Q365 338 392 357T419 412Q419 415 424 415T430 412Q430 380 430 362T429 325Q429
301 430 278T432 226Q432 224 426 224T420 226Z" />
<glyph unicode="F" horiz-adv-x="518" d="M37 0Q34 0 34 6T37 12Q72 12 89 17T112 37T118 81V544Q118 573 113 587T91 607T42 613Q39 613 39 619T42 625H458Q468 625 468 616L470 486Q470 484 465 484T458 486Q447 543 412 571T320 599H279Q242 599 228 586T213
543V85Q213 55 221 40T253 18T325 12Q327 12 327 6T325 0Q291 0 252 1T163 2Q128 2 95 1T37 0ZM408 215Q408 256 380 278T293 300H168V326H295Q352 326 379 345T407 401Q407 403 413 403T419 401Q419 368 419 350T418 313Q418 289 419 266T420 215Q420 212 414
212T408 215Z" />
<glyph unicode="G" horiz-adv-x="725" d="M417 -12Q330 -12 262 13T146 83T74 186T49 311Q49 384 78 443T159 546T281 612T434 636Q483 636 530 628T608 605Q618 601 619 599T622 582L635 451Q635 448 630 447T623 449Q615 474 598 503T553 557T489 600T402 617Q333
617 277 582T188 483T155 330Q155 261 175 203T232 99T323 29T442 4Q483 4 508 14T544 50T555 126Q555 174 550 196T522 226T451 233Q445 233 445 241T450 249Q518 245 572 245T687 247Q691 247 691 240T687 233Q668 234 659 227T648 194T645 116Q645 83 647 67T650
44T652 28Q652 22 650 20T641 16Q588 4 529 -4T417 -12Z" />
<glyph unicode="H" horiz-adv-x="762" d="M553 542Q553 571 547 586T523 607T468 613Q465 613 465 619T468 625Q493 625 525 624T601 622Q636 622 670 623T729 625Q732 625 732 619T729 613Q694 613 677 608T653 588T647 544V81Q647 52 653 37T676 17T729 12Q732
12 732 6T729 0Q704 0 670 1T601 2Q558 2 526 1T468 0Q465 0 465 6T468 12Q505 12 523 17T547 37T553 81V542ZM158 312V338H596V312H158ZM114 81V544Q114 573 108 587T85 607T33 613Q31 613 31 619T33 625Q59 625 91 624T158 622Q201 622 234 623T293 625Q295 625
295 619T293 613Q257 613 239 607T215 586T209 542V81Q209 52 215 37T239 17T293 12Q295 12 295 6T293 0Q266 0 234 1T158 2Q123 2 90 1T32 0Q30 0 30 6T32 12Q67 12 84 17T107 37T114 81Z" />
<glyph unicode="I" horiz-adv-x="339" d="M217 81Q217 52 222 37T244 17T293 12Q296 12 296 6T293 0Q268 0 237 1T168 2Q133 2 101 1T44 0Q41 0 41 6T44 12Q76 12 93 17T115 37T121 81V544Q121 573 116 587T93 607T44 613Q41 613 41 619T44 625Q69 625 101 624T168
622Q206 622 237 623T293 625Q296 625 296 619T293 613Q261 613 245 607T223 586T217 542V81Z" />
<glyph unicode="J" horiz-adv-x="333" d="M292 625Q294 625 294 619T292 613Q264 613 251 607T233 586T228 542V-12Q228 -119 176 -181T28 -243Q-8 -243 -30 -229T-53 -189Q-53 -172 -42 -158T-7 -144Q15 -144 26 -155T45 -182T59 -210T79 -222Q105 -222 118 -186T131
-65V544Q131 573 125 587T99 607T42 613Q40 613 40 619T42 625Q72 625 106 624T178 622Q212 622 240 623T292 625Z" />
<glyph unicode="K" horiz-adv-x="653" d="M109 81V544Q109 573 104 587T83 607T33 613Q31 613 31 619T33 625Q59 625 90 624T156 622Q194 622 225 623T280 625Q283 625 283 619T280 613Q248 613 232 607T210 586T204 542V81Q204 52 209 37T231 17T280 12Q284 12
284 6T280 0Q255 0 225 1T156 2Q121 2 89 1T32 0Q30 0 30 6T32 12Q65 12 81 17T103 37T109 81ZM369 145L224 335L294 399L444 200Q485 144 514 109T562 53T596 24T625 14T656 12Q659 12 659 6T656 0Q612 0 585 0T544 0Q531 0 522 -1T506 -2Q492 -2 483 3T461 23T427
67T369 145ZM143 268L401 530Q438 567 430 590T371 613Q369 613 369 619T371 625Q398 625 425 624T496 622Q541 622 567 623T618 625Q621 625 621 619T618 613Q575 613 523 590T426 524L170 266L143 268Z" />
<glyph unicode="L" horiz-adv-x="541" d="M203 543V85Q203 60 208 47T227 30T268 26H328Q399 26 448 66T513 172Q514 175 519 174T524 170Q521 139 518 96T515 15Q515 0 500 0H32Q30 0 30 6T32 12Q64 12 80 17T102 37T108 81V544Q108 573 103 587T81 607T32 613Q30
613 30 619T32 625Q56 625 88 624T155 622Q192 622 223 623T279 625Q282 625 282 619T279 613Q247 613 231 608T209 587T203 543Z" />
<glyph unicode="M" horiz-adv-x="850" d="M118 121L128 602L155 600L144 121Q143 68 164 40T229 12Q232 12 232 6T229 0Q207 0 184 1T132 2Q102 2 78 1T31 0Q28 0 28 6T31 12Q72 12 94 40T118 121ZM826 12Q828 12 828 6T826 0Q800 0 768 1T701 2Q666 2 636 1T580
0Q578 0 578 6T580 12Q628 12 642 25T653 81L632 538L676 607L420 7Q419 3 412 3T403 7L132 542Q96 613 38 613Q35 613 35 619T38 625Q57 625 78 624T115 623Q137 623 154 624T182 625Q196 625 203 616T228 573L453 132L410 56L647 600Q653 613 660 619T677 625Q686
625 696 624T722 623Q752 623 773 624T814 625Q817 625 817 619T814 613Q768 613 746 596T726 538L748 81Q750 52 755 37T777 17T826 12Z" />
<glyph unicode="N" horiz-adv-x="732" d="M125 121V602L152 600V121Q152 68 173 40T233 12Q236 12 236 6T233 0Q212 0 190 1T140 2Q111 2 85 1T35 0Q32 0 32 6T35 12Q79 12 102 40T125 121ZM633 -14Q633 -17 628 -17T621 -17L140 543Q104 584 79 598T29 613Q26
613 26 619T29 625Q48 625 68 624T105 623Q135 623 159 624T197 625Q210 625 216 614T246 573L625 127L633 -14ZM633 503V-14L606 16V503Q606 556 586 584T525 613Q523 613 523 619T525 625Q546 625 569 624T619 622Q645 622 670 623T716 625Q719 625 719 619T716
613Q676 613 655 585T633 503Z" />
<glyph unicode="O" horiz-adv-x="766" d="M366 -12Q294 -12 236 13T136 84T72 187T49 312Q49 393 80 454T164 555T278 616T401 636Q475 636 533 610T633 538T695 436T717 319Q717 249 689 189T613 84T501 14T366 -12ZM400 12Q460 12 507 44T582 138T610 290Q610
383 580 455T494 568T360 610Q263 610 210 541T156 348Q156 276 174 215T224 107T301 37T400 12Z" />
<glyph unicode="P" horiz-adv-x="549" d="M208 85Q208 55 215 40T244 18T312 12Q315 12 315 6T312 0Q280 0 243 1T161 2Q126 2 94 1T37 0Q34 0 34 6T37 12Q70 12 86 17T107 37T113 81V544Q113 573 108 587T86 607T37 613Q34 613 34 619T37 625Q62 625 93 624T160
622Q184 622 222 625T297 628Q358 628 405 612T481 559T511 464Q512 412 493 374T442 312T370 275T292 262Q281 262 269 263T244 267Q241 268 242 274T247 280Q255 278 265 277T282 276Q315 276 343 294T388 349T406 442Q406 495 389 532T342 588T267 608Q244 608
231 604T213 585T208 542V85Z" />
<glyph unicode="Q" horiz-adv-x="766" d="M481 10Q508 -44 546 -86T628 -151T710 -175Q720 -175 729 -175T745 -173Q748 -171 749 -176T749 -183Q730 -188 710 -191T667 -195Q617 -195 563 -172T457 -106T365 2L481 10ZM366 -12Q294 -12 236 13T136 84T72 187T49
312Q49 393 80 454T164 555T278 616T401 636Q475 636 533 610T633 538T695 436T717 319Q717 249 689 189T613 84T501 14T366 -12ZM400 12Q460 12 507 44T582 138T610 290Q610 383 580 455T494 568T360 610Q263 610 210 541T156 348Q156 276 174 215T224 107T301
37T400 12Z" />
<glyph unicode="R" horiz-adv-x="689" d="M538 0Q523 0 488 38T404 147T293 318L373 342Q454 221 511 149T613 44T699 12Q701 12 701 6T699 0Q636 0 597 0T538 0ZM311 628Q398 628 445 594T493 499Q493 442 461 397T377 327T266 302Q254 302 240 302T215 304V81Q215
52 220 37T241 17T290 12Q293 12 293 6T290 0Q265 0 234 1T166 2Q131 2 99 1T42 0Q39 0 39 6T42 12Q75 12 91 17T113 37T119 81V544Q119 573 114 587T92 607T43 613Q41 613 41 619T43 625Q68 625 99 624T166 622Q198 622 238 625T311 628ZM394 464Q394 522 381
553T343 597T287 609Q248 609 232 595T215 542V331Q229 329 245 328T273 327Q340 327 367 360T394 464Z" />
<glyph unicode="S" horiz-adv-x="507" d="M164 518Q164 479 184 451T235 399T302 354Q340 331 374 305T431 246T454 164Q454 112 427 73T353 11T241 -12Q214 -12 185 -7T130 7T88 26Q84 29 82 33T78 45L72 196Q71 201 76 201T83 198Q95 168 111 135T150 73T200
28T266 10Q292 10 315 19T353 50T368 112Q368 159 347 192T292 251T223 298Q188 321 156 345T104 400T83 477Q83 532 113 567T189 619T285 636Q318 636 352 630T410 613Q419 610 422 605T425 594L427 459Q427 455 423 454T416 456Q411 471 401 497T373 551T328
597T262 616Q232 616 210 604T176 571T164 518Z" />
<glyph unicode="T" horiz-adv-x="640" d="M210 604Q149 604 111 566T50 454Q50 451 45 451T39 454Q41 468 43 492T47 546T51 602T53 647Q53 652 58 652T64 647Q64 637 74 633T98 627T120 625Q206 622 321 622Q392 622 433 623T514 625Q550 625 568 629T592 650Q593
654 598 654T603 650Q602 634 600 607T597 549T595 493T594 454Q594 452 589 452T582 454Q571 533 534 568T435 604Q408 604 394 599T375 581T370 542V81Q370 52 376 37T401 17T458 12Q461 12 461 6T458 0Q431 0 397 1T321 2Q282 2 248 1T185 0Q183 0 183 6T185
12Q223 12 242 17T267 37T274 81V544Q274 569 270 581T251 599T210 604Z" />
<glyph unicode="U" horiz-adv-x="701" d="M571 503Q571 555 548 584T480 613Q478 613 478 619T480 625Q505 625 530 624T586 622Q612 622 637 623T684 625Q686 625 686 619T684 613Q644 613 623 584T602 503V223Q602 150 572 97T486 15T357 -14Q284 -14 227 14T139
96T107 222V544Q107 573 102 587T80 607T31 613Q28 613 28 619T31 625Q56 625 87 624T154 622Q191 622 222 623T278 625Q281 625 281 619T278 613Q245 613 229 607T208 586T202 542V257Q202 135 252 78T390 21Q475 21 523 73T571 222V503Z" />
<glyph unicode="V" horiz-adv-x="662" d="M666 625Q669 625 669 619T666 613Q631 613 601 586T552 508L357 1Q356 -3 347 -3T335 1L82 542Q65 578 47 595T3 613Q0 613 0 619T3 625Q16 625 24 624T45 623T79 622Q127 622 157 622T208 624T245 625Q248 625 248 619T245
613Q203 613 189 592T193 532L386 114L345 45L525 512Q542 557 527 585T461 613Q458 613 458 619T461 625Q488 625 513 624T578 622Q606 622 623 623T666 625Z" />
<glyph unicode="W" horiz-adv-x="918" d="M482 329L357 1Q356 -3 347 -3T335 1L82 542Q69 571 59 586T36 607T3 613Q0 613 0 619T3 625Q16 625 24 624T45 623T79 622Q119 622 143 622T185 624T215 625Q218 625 218 619T215 613Q175 613 168 598T183 532L384 105L344
43L464 355L482 329ZM923 625Q925 625 925 619T923 613Q888 613 858 587T807 508L613 1Q612 -3 603 -3T591 1L338 542Q322 577 306 595T268 613Q265 613 265 619T268 625Q279 625 287 624T306 623T336 622Q384 622 406 623T445 625Q448 625 448 619T445 613Q417
613 416 599T439 532L641 105L601 43L778 505Q796 554 782 583T725 613Q722 613 722 619T725 625Q751 625 774 624T834 622Q862 622 880 623T923 625ZM470 355L530 512Q551 565 549 589T518 613Q515 613 515 619T518 625Q528 625 532 624T547 623T583 622Q609 622
625 623T664 625Q666 625 666 619T664 613Q631 613 605 589T557 508L488 329L470 355Z" />
<glyph unicode="X" horiz-adv-x="649" d="M407 0Q404 0 404 6T407 12Q432 12 442 20T437 51L123 535Q95 578 70 595T15 613Q12 613 12 619T15 625Q34 625 56 624T97 622Q139 622 175 623T238 625Q240 625 240 619T238 613Q213 613 202 606T207 573L526 83Q551
45 577 29T641 12Q644 12 644 6T641 0Q620 0 594 1T539 2Q497 2 466 1T407 0ZM9 0Q6 0 6 6T9 12Q40 12 81 40T167 131L300 311L316 298L195 127Q157 73 162 43T216 12Q218 12 218 6T216 0Q187 0 162 1T95 2Q68 2 51 1T9 0ZM334 313L318 326L437 495Q476 551 472
582T418 613Q416 613 416 619T418 625Q446 625 471 624T539 622Q567 622 584 623T625 625Q628 625 628 619T625 613Q594 613 553 584T464 490L334 313Z" />
<glyph unicode="Y" horiz-adv-x="616" d="M312 281L444 498Q476 550 469 581T414 613Q412 613 412 619T414 625Q445 625 472 624T543 622Q568 622 583 623T621 625Q623 625 623 619T621 613Q600 613 573 598T520 555T471 490L332 265L312 281ZM270 273L109 519Q73
574 49 593T3 613Q0 613 0 619T3 625Q19 625 36 624T68 622Q96 622 125 622T181 624T226 625Q228 625 228 619T226 613Q193 613 186 596T197 553L350 318L270 273ZM262 310L357 319V81Q357 52 362 37T383 17T432 12Q435 12 435 6T432 0Q407 0 377 1T309 2Q274 2
242 1T184 0Q182 0 182 6T184 12Q217 12 233 17T256 37T262 81V310Z" />
<glyph unicode="Z" horiz-adv-x="602" d="M58 13L424 600Q428 605 427 606T419 608Q345 608 292 606T203 598T142 578T100 542T67 485Q66 482 60 483T55 487L95 655Q96 657 102 656T107 653Q104 635 115 630T164 625Q224 625 311 625T529 625Q534 625 536 620T536
612L175 27Q171 22 172 21T179 19Q251 19 308 19T400 19Q439 19 471 35T526 80T554 147Q555 149 560 149T565 147L551 8Q551 5 549 2T542 -2Q468 -1 386 -1T221 0T64 0Q60 0 58 4T58 13Z" />
<glyph unicode="[" horiz-adv-x="274" d="M74 -106V715Q74 722 75 723T83 725Q107 725 137 725T194 725T236 725Q239 725 239 719T236 713Q203 713 187 707T165 686T159 642V-34Q159 -62 164 -77T186 -99T236 -105Q239 -105 239 -111T236 -117Q221 -117 194 -117T137
-117T83 -117Q77 -117 76 -115T74 -106Z" />
<glyph unicode="\" horiz-adv-x="348" d="M277 -164L26 717Q26 720 36 724T57 730T70 730L322 -152Q323 -154 312 -158T290 -165T277 -164Z" />
<glyph unicode="]" horiz-adv-x="274" d="M200 -106V715Q200 722 199 723T191 725Q168 725 138 725T80 725T38 725Q35 725 35 719T38 713Q71 713 87 707T109 686T115 642V-34Q115 -62 110 -77T88 -99T38 -105Q35 -105 35 -111T38 -117Q53 -117 80 -117T137 -117T191
-117Q197 -117 198 -115T200 -106Z" />
<glyph unicode="^" horiz-adv-x="392" d="M333 380Q335 378 331 376T324 375L196 522L68 375Q65 373 61 375T58 380L185 629Q186 634 196 634T207 629L333 380Z" />
<glyph unicode="_" horiz-adv-x="398" d="M34 -79Q31 -79 30 -68T30 -45T33 -33H364Q367 -33 368 -44T368 -67T364 -79H34Z" />
<glyph unicode="`" horiz-adv-x="213" d="M30 727Q29 731 41 731T70 729T101 723T115 716L154 476Q155 474 150 473T144 474L30 727Z" />
<glyph unicode="a" horiz-adv-x="420" d="M317 -6Q313 -8 308 -8Q292 -8 276 15T260 82V258Q260 321 248 349T208 377Q183 377 170 363T150 330T143 298Q140 273 128 260T92 247Q69 247 59 257T49 282Q49 304 69 324T121 361T187 386T247 396Q288 396 314 370T341
288V108Q341 77 351 61T380 45Q396 45 416 54Q421 56 423 51T420 43L317 -6ZM129 -7Q87 -7 67 13T46 64Q46 92 61 109T103 138T163 162L270 202L273 187L200 156Q188 152 174 145T151 125T141 93Q141 69 157 55T193 40Q202 40 211 42T232 53L286 89L287 74L216
24Q193 8 174 1T129 -7Z" />
<glyph unicode="b" horiz-adv-x="514" d="M263 -13Q221 -13 181 1T108 46L166 153Q166 99 187 67T237 21T289 7Q338 7 364 51T390 176Q390 267 358 310T274 353Q239 353 209 336T153 295L144 303Q165 325 189 347T245 384T316 399Q360 399 397 379T457 317T480
213Q480 138 449 88T367 12T263 -13ZM38 -6Q34 -7 32 -3T33 3Q58 19 71 41T85 103V592Q85 626 79 642T55 658Q40 658 15 646Q11 645 9 651T8 658L147 724Q150 725 152 725Q156 725 161 721T166 714V53L38 -6Z" />
<glyph unicode="c" horiz-adv-x="420" d="M233 -12Q164 -12 120 17T55 93T33 186Q33 236 53 275T108 340T182 381T263 395Q292 395 320 387T366 363T385 325Q385 309 373 297T337 284Q315 284 303 295T282 328Q274 350 263 362T226 374Q178 374 151 331T124 218Q124
167 139 125T190 58T283 32Q312 32 334 39T381 61Q383 63 386 59T388 53Q353 21 317 5T233 -12Z" />
<glyph unicode="d" horiz-adv-x="511" d="M190 -13Q148 -13 112 10T55 77T33 181Q33 240 55 281T111 349T186 387T262 399Q298 399 329 389T385 363L366 287Q344 330 316 352T243 375Q188 375 156 337T123 212Q123 155 138 115T180 53T240 31Q281 31 313 54T374
109L383 101Q362 77 334 51T270 6T190 -13ZM427 714V114Q427 79 434 65T458 50Q466 50 477 53T503 62Q506 64 509 59T509 51L381 -11Q378 -12 375 -12Q364 -12 355 12T346 82V592Q346 626 340 642T316 658Q308 658 298 655T276 646Q272 644 269 650T269 657L409
724Q411 725 413 725Q417 725 422 721T427 714Z" />
<glyph unicode="e" horiz-adv-x="414" d="M229 -12Q166 -12 122 15T56 86T33 181Q33 241 62 289T141 366T254 395Q313 395 346 367T379 280Q379 267 377 259T368 251H286Q289 309 273 342T218 375Q173 375 148 334T122 223Q122 165 140 123T193 56T279 32Q310
32 331 40T376 62Q378 64 381 60T383 53Q347 18 310 3T229 -12ZM93 250L92 267L314 271V251L93 250Z" />
<glyph unicode="f" horiz-adv-x="305" d="M29 0Q25 0 25 6T29 12Q68 12 80 25T92 81V306Q92 329 87 339T67 353T25 357Q22 357 22 365T25 374Q62 374 75 383T90 418Q95 584 152 655T319 726Q374 726 405 711T436 669Q436 648 422 637T391 626Q369 626 359 637T341
663Q332 681 320 693T281 705Q234 705 204 643T173 439V81Q173 52 179 37T205 17T265 12Q269 12 269 6T265 0Q231 0 199 1T131 2Q103 2 77 1T29 0ZM286 336Q247 345 212 348T136 352V376Q175 376 211 379T289 386Q292 386 294 379T296 362Q296 353 293 344T286
336Z" />
<glyph unicode="g" horiz-adv-x="449" d="M181 -281Q112 -281 70 -250T27 -169Q27 -131 57 -93T158 -11L168 -23Q151 -33 137 -46T114 -78T106 -123Q106 -165 123 -193T170 -235T235 -250Q291 -250 326 -217T362 -126Q362 -82 342 -63T288 -40T207 -35Q170 -35
135 -31T78 -10T55 41Q55 76 78 106T151 164L161 157Q139 142 129 127T119 92Q119 66 134 54T178 39T251 35Q282 35 313 33T372 22T416 -10T433 -71Q433 -113 413 -151T357 -218T277 -264T181 -281ZM202 133Q154 133 120 152T67 202T48 266Q48 307 72 335T136 378T217
393Q266 393 300 376T353 330T372 267Q372 227 348 197T286 150T202 133ZM226 150Q250 150 268 170T286 241Q286 286 272 315T234 360T187 375Q160 375 147 355T133 294Q133 250 147 218T182 168T226 150ZM302 315L303 347Q335 370 365 382T432 395Q436 395 437
388T439 369Q439 356 436 341T428 328Q413 335 395 339T356 344Q344 344 333 343T309 337L302 315Z" />
<glyph unicode="h" horiz-adv-x="505" d="M23 0Q20 0 20 6T23 12Q56 12 68 26T80 81V592Q80 627 74 642T50 658Q35 658 9 646Q6 645 3 650T3 658L142 724Q144 725 144 725T146 725Q151 725 155 721T160 714V81Q160 40 171 26T217 12Q221 12 221 6T217 0Q198 0
174 1T120 2Q92 2 67 1T23 0ZM292 0Q289 0 289 6T292 12Q325 12 337 26T349 81V230Q349 340 263 340Q231 340 197 322T142 273L137 285Q175 339 219 368T313 397Q368 397 398 364T429 274V81Q429 40 440 26T486 12Q490 12 490 6T486 0Q467 0 443 1T389 2Q361 2
336 1T292 0Z" />
<glyph unicode="i" horiz-adv-x="266" d="M44 0Q41 0 41 6T44 12Q78 12 89 26T101 81V263Q101 297 94 312T70 328Q62 328 52 325T30 316Q26 315 24 321T24 328L168 395Q170 396 171 396Q175 396 179 392T184 384Q184 373 183 344T182 264V81Q182 40 193 26T239
12Q242 12 242 6T239 0Q219 0 194 1T141 2Q114 2 89 1T44 0ZM136 501Q110 501 96 515T81 555Q81 579 95 593T136 607Q161 607 174 593T188 555Q188 501 136 501Z" />
<glyph unicode="j" horiz-adv-x="261" d="M181 384Q181 373 180 344T179 264V-48Q179 -114 164 -158T113 -232T14 -282Q12 -283 10 -278T9 -271Q59 -250 78 -203T98 -71V263Q98 297 92 312T68 328Q60 328 50 325T28 316Q24 315 21 321T21 328L165 395Q167 396
168 396Q172 396 176 392T181 384ZM131 501Q106 501 91 515T76 555Q76 579 91 593T131 607Q157 607 170 593T184 555Q184 501 131 501Z" />
<glyph unicode="k" horiz-adv-x="491" d="M23 0Q20 0 20 6T23 12Q56 12 68 26T80 81V592Q80 627 74 642T50 658Q35 658 9 646Q6 645 3 651T3 658L141 724Q144 725 146 725Q151 725 155 721T160 714V81Q160 40 171 26T217 12Q221 12 221 6T217 0Q198 0 174 1T120
2Q92 2 67 1T23 0ZM274 0Q272 0 272 6T274 12Q304 12 312 23T307 53L184 214L244 260L381 81Q410 43 437 28T492 12Q495 12 495 6T492 0Q473 0 448 1T395 2Q355 2 327 1T274 0ZM130 155L125 170L267 299Q299 326 295 350T251 374Q248 374 248 380T251 386Q276 386
302 385T371 384Q411 384 435 385T480 386Q483 386 483 380T480 374Q456 374 424 366T357 340T291 294L130 155Z" />
<glyph unicode="l" horiz-adv-x="265" d="M37 0Q34 0 34 6T37 12Q70 12 82 26T94 81V592Q94 627 88 642T65 658Q51 658 24 646Q21 645 18 651T17 658L158 724Q160 725 162 725Q166 725 171 721T176 714V81Q176 40 187 26T233 12Q236 12 236 6T233 0Q214 0 189
1T135 2Q107 2 82 1T37 0Z" />
<glyph unicode="m" horiz-adv-x="772" d="M559 0Q556 0 556 6T559 12Q592 12 604 26T616 81V230Q616 340 537 340Q504 340 473 322T421 273L416 285Q453 339 495 368T586 397Q638 397 667 367T696 274V81Q696 40 707 26T753 12Q757 12 757 6T753 0Q734 0 709 1T656
2Q628 2 603 1T559 0ZM298 0Q295 0 295 6T298 12Q332 12 343 26T355 81V230Q355 340 276 340Q244 340 213 322T160 273L155 285Q192 339 234 368T325 397Q378 397 406 368T435 282V81Q435 40 447 26T493 12Q496 12 496 6T493 0Q473 0 448 1T395 2Q368 2 343 1T298
0ZM41 0Q38 0 38 6T41 12Q75 12 86 26T97 81V272Q97 304 90 319T65 334Q56 334 43 330T15 319Q11 318 9 323T9 330L140 394Q145 396 147 396Q157 396 167 373T178 306V81Q178 40 189 26T235 12Q238 12 238 6T235 0Q216 0 191 1T138 2Q111 2 86 1T41 0Z" />
<glyph unicode="n" horiz-adv-x="523" d="M310 0Q307 0 307 6T310 12Q344 12 355 26T366 81V231Q366 287 346 313T281 340Q249 340 216 323T160 274L155 286Q194 339 237 368T331 398Q387 398 417 365T447 274V81Q447 40 458 26T504 12Q507 12 507 6T504 0Q485
0 460 1T407 2Q380 2 355 1T310 0ZM41 0Q38 0 38 6T41 12Q75 12 86 26T97 81V272Q97 304 90 319T65 334Q56 334 43 330T15 319Q11 318 9 323T9 330L140 394Q145 396 147 396Q157 396 167 373T178 306V81Q178 40 189 26T235 12Q238 12 238 6T235 0Q216 0 191 1T138
2Q111 2 86 1T41 0Z" />
<glyph unicode="o" horiz-adv-x="486" d="M235 -13Q173 -13 128 16T58 93T33 198Q33 250 53 288T105 350T176 387T252 399Q315 399 360 369T428 292T452 192Q452 130 422 84T343 13T235 -13ZM265 7Q309 7 333 45T357 160Q357 229 338 278T287 353T219 379Q175
379 151 343T127 233Q127 167 145 116T194 36T265 7Z" />
<glyph unicode="p" horiz-adv-x="512" d="M28 -275Q25 -275 25 -269T28 -263Q65 -263 75 -250T86 -194V271Q86 304 79 319T53 334Q44 334 32 331T5 320Q1 318 -2 323T-3 331L129 394Q131 395 134 395Q146 395 156 372T167 304V-194Q167 -222 173 -237T200 -257T260
-263Q262 -263 262 -269T260 -275Q232 -275 198 -274T126 -273Q99 -273 73 -274T28 -275ZM260 -13Q221 -13 193 -6T128 18L155 79Q179 49 207 30T282 11Q331 11 360 53T390 184Q390 266 353 307T264 349Q224 349 195 328T138 277L129 287Q180 346 226 372T322 399Q363
399 399 378T457 315T479 215Q479 152 458 109T404 38T333 -1T260 -13Z" />
<glyph unicode="q" horiz-adv-x="497" d="M196 -13Q154 -13 117 8T56 70T33 172Q33 231 52 273T104 344T176 385T255 399Q337 399 400 357L346 265Q346 305 329 329T285 366T231 379Q177 379 151 336T124 209Q124 120 155 77T238 33Q272 33 303 50T358 91L367
84Q347 62 322 40T266 2T196 -13ZM267 -275Q265 -275 265 -269T267 -263Q317 -263 331 -250T346 -194V343L471 388Q475 390 477 385T475 378Q450 365 438 346T426 295V-194Q426 -237 437 -250T485 -263Q487 -263 487 -269T485 -275Q465 -275 440 -274T386 -273Q354
-273 323 -274T267 -275Z" />
<glyph unicode="r" horiz-adv-x="374" d="M155 271L148 283Q186 328 212 352T257 386T291 396Q312 396 333 382T355 345Q355 327 344 315T313 303Q295 303 285 313T266 332T241 341Q233 341 224 337T199 317T155 271ZM41 0Q38 0 38 6T41 12Q75 12 86 26T97 81V272Q97
304 90 319T65 334Q56 334 43 330T15 319Q11 318 9 323T9 330L140 394Q145 396 147 396Q157 396 167 373T178 306V81Q178 54 186 39T214 18T270 12Q274 12 274 6T270 0Q244 0 211 1T138 2Q111 2 86 1T41 0Z" />
<glyph unicode="s" horiz-adv-x="337" d="M112 334Q112 311 124 294T155 264T196 238Q221 224 244 209T284 173T300 117Q300 85 284 56T235 8T153 -11Q128 -11 104 -5T52 17Q50 19 48 22T46 29L44 121Q44 124 49 124T56 122Q67 90 86 64T130 24T181 9Q206 9 220
22T234 64Q234 92 221 110T189 142T148 166Q124 179 102 192T64 227T49 284Q49 325 69 349T123 385T191 397Q212 397 230 394T271 382Q280 379 280 371Q280 352 279 332T278 287Q278 285 272 285T266 287Q266 307 250 328T210 363T158 378Q140 378 126 369T112
334Z" />
<glyph unicode="t" horiz-adv-x="337" d="M185 -12Q161 -12 138 -4T99 23T83 77V303Q83 325 79 337T63 353T32 358Q28 358 28 366T32 374Q79 376 108 396T150 455Q151 459 158 459T165 455V110Q165 69 185 51T239 33Q263 33 283 42T318 63Q321 65 325 61T325 53Q288
19 256 4T185 -12ZM294 336Q254 345 217 348T136 352V376Q177 376 215 379T298 386Q300 386 302 379T305 362Q305 353 302 344T294 336Z" />
<glyph unicode="u" horiz-adv-x="501" d="M189 -11Q136 -11 106 23T75 114V263Q75 298 68 314T44 331Q32 331 16 323Q12 322 10 328T10 335L136 394Q139 395 141 395Q145 395 150 391T155 384V157Q155 101 175 74T238 46Q270 46 302 64T356 113L362 101Q324 49
281 19T189 -11ZM417 384V113Q417 79 424 65T448 50Q456 50 467 53T493 62Q497 64 500 59T499 51L368 -12Q366 -13 364 -13Q355 -13 346 11T337 79V263Q337 298 330 314T306 331Q294 331 278 323Q274 322 272 328T273 335L399 394Q401 395 403 395Q408 395 412
391T417 384Z" />
<glyph unicode="v" horiz-adv-x="438" d="M446 386Q448 386 448 380T446 374Q418 374 398 354T358 290L234 0Q233 -4 224 -4T212 0L64 303Q42 349 27 361T-9 374Q-12 374 -12 380T-9 386Q7 386 27 385T78 384Q117 384 144 385T196 386Q199 386 199 380T196 374Q165
374 148 366T142 335L264 93L221 21L333 292Q349 332 332 353T271 374Q269 374 269 380T271 386Q295 386 316 385T372 384Q395 384 410 385T446 386Z" />
<glyph unicode="w" horiz-adv-x="680" d="M455 1L306 303Q285 347 273 360T241 374Q239 374 239 380T241 386Q256 386 274 385T321 384Q357 384 382 385T430 386Q432 386 432 380T430 374Q403 374 389 365T384 335L506 94L464 22L575 292Q591 332 574 353T514
374Q511 374 511 380T514 386Q537 386 558 385T614 384Q638 384 652 385T688 386Q691 386 691 380T688 374Q661 374 641 355T600 290L477 1Q476 -3 467 -3T455 1ZM212 1L64 303Q42 348 27 361T-9 374Q-12 374 -12 380T-9 386Q7 386 27 385T78 384Q113 384 139 385T187
386Q190 386 190 380T187 374Q160 374 144 366T139 335L265 94L221 22L330 285L354 280L234 1Q233 -3 224 -3T212 1Z" />
<glyph unicode="x" horiz-adv-x="440" d="M252 0Q249 0 249 6T252 12Q274 12 277 21T267 51L99 303Q76 338 54 356T15 374Q13 374 13 380T15 386Q30 386 46 385T77 384Q112 384 139 385T188 386Q190 386 190 380T188 374Q168 374 163 366T173 335L340 83Q366 44
390 28T433 12Q436 12 436 6T433 0Q417 0 398 1T363 2Q328 2 301 1T252 0ZM7 0Q4 0 4 6T7 12Q37 12 70 35T132 98L203 196L217 183L154 92Q138 67 134 49T141 21T181 12Q184 12 184 6T181 0Q158 0 137 1T81 2Q57 2 43 1T7 0ZM222 192L210 204L271 294Q298 333 293
353T244 374Q242 374 242 380T244 386Q268 386 289 385T345 384Q369 384 383 385T419 386Q422 386 422 380T419 374Q390 374 357 352T294 288L222 192Z" />
<glyph unicode="y" horiz-adv-x="430" d="M438 386Q440 386 440 380T438 374Q407 374 386 349T347 277L232 -28Q196 -124 163 -179T95 -258T21 -281Q-6 -281 -22 -270T-38 -235Q-38 -215 -25 -205T5 -194Q22 -194 32 -200T52 -213T78 -220Q103 -220 123 -199T168
-126T225 13L222 -33L57 303Q35 347 23 360T-9 374Q-11 374 -11 380T-9 386Q10 386 30 385T70 384Q105 384 131 385T179 386Q182 386 182 380T179 374Q145 374 133 366T132 335L262 68L231 15L322 277Q338 325 323 349T263 374Q261 374 261 380T263 386Q287 386
308 385T364 384Q387 384 402 385T438 386Z" />
<glyph unicode="z" horiz-adv-x="405" d="M36 12L265 365Q269 372 260 372Q200 372 157 362T86 331T47 272Q46 269 40 270T35 274L75 422Q76 424 82 423T86 419Q81 399 93 393T135 386Q173 386 229 386T359 386Q363 386 366 382T367 374L136 24Q133 17 141 17Q197
17 236 22T300 40T341 74T364 126Q365 128 370 128T376 126L374 11Q374 7 372 4T364 0Q316 0 260 0T148 0T43 0Q39 0 37 4T36 12Z" />
<glyph unicode="{" horiz-adv-x="289" d="M32 298Q29 298 29 304T32 311Q61 316 75 349T93 430T97 529Q97 592 104 631T127 690T174 717T250 725Q254 725 254 719T250 713Q221 713 205 686T187 607Q187 527 184 476T170 393T137 342T73 305Q114 287 137 267T170
214T183 131T187 1Q189 -50 205 -77T250 -105Q254 -105 254 -111T250 -117Q202 -117 172 -110T126 -81T104 -22T97 80Q97 131 93 179T75 261T32 298Z" />
<glyph unicode="|" horiz-adv-x="168" d="M63 -154V731Q63 736 74 737T97 738T108 731V-154Q108 -159 97 -160T75 -161T63 -154Z" />
<glyph unicode="}" horiz-adv-x="283" d="M251 298Q254 298 254 304T251 311Q222 316 208 349T190 430T186 529Q186 592 179 631T156 690T110 717T33 725Q29 725 29 719T33 713Q62 713 78 686T95 607Q98 527 100 476T113 393T146 342T210 305Q169 287 146 267T113
214T101 131T95 1Q94 -50 78 -77T33 -105Q29 -105 29 -111T33 -117Q81 -117 111 -110T157 -81T179 -22T186 80Q186 131 190 179T208 261T251 298Z" />
<glyph unicode="~" horiz-adv-x="443" d="M314 207Q346 207 362 219T389 245Q391 247 394 244T396 238Q371 200 353 180T318 152T283 144Q256 144 232 153T184 171T129 180Q100 180 87 170T55 142Q54 141 51 143T48 149Q60 166 78 188T119 226T168 243Q189 243
212 234T261 216T314 207Z" />
<glyph unicode="&#xa0;" horiz-adv-x="234" />
<glyph unicode="&#xa1;" horiz-adv-x="257" d="M191 -263Q192 -267 182 -269T157 -273T129 -275Q116 -275 101 -274T76 -270T67 -263Q83 -199 92 -125T107 24T117 165Q117 168 124 169T138 169T145 165Q148 99 153 24T166 -125T191 -263ZM134 365Q160 365 175
351T190 310Q190 287 175 273T134 258Q109 258 95 272T81 310Q81 336 95 350T134 365Z" />
<glyph unicode="&#xa2;" horiz-adv-x="533" d="M274 -102V561Q274 566 281 567T294 568T301 561V-102Q301 -106 295 -107T281 -108T274 -102ZM309 480Q344 480 388 473T461 451Q468 448 470 445T472 434L479 331Q479 328 474 327T467 330Q436 396 394 428T294
460Q244 460 209 434T154 360T135 251Q135 207 145 164T178 85T234 28T318 7Q373 7 410 39T477 140Q478 144 483 143T488 139L478 33Q477 25 475 22T464 15Q421 0 380 -6T304 -12Q228 -12 176 11T92 73T46 154T32 236Q32 306 68 361T167 448T309 480Z" />
<glyph unicode="&#xa3;" horiz-adv-x="432" d="M99 46H251Q294 46 316 52T350 75T368 127Q368 129 374 129T380 126Q376 104 374 73T371 15Q371 0 356 0H19Q17 0 17 5T19 12Q59 21 78 36T102 72T107 115Q106 153 99 181T84 233T70 278T64 329Q64 384 90 417T157
465T247 480Q264 480 287 477T336 466Q351 460 352 447L359 344Q359 340 354 340T347 344Q333 375 318 402T281 445T228 462Q198 462 181 448T156 411T149 363Q149 324 159 290T180 222T191 148Q191 115 181 93T156 57T122 30L99 46ZM46 243H274Q279 243 280 237T281
223T274 216H46Q42 216 41 223T40 236T46 243Z" />
<glyph unicode="&#xa4;" horiz-adv-x="414" d="M131 90L81 33L52 62L105 117L131 90ZM101 286L47 340L81 371L133 315L101 286ZM310 121L365 66L331 33L279 92L310 121ZM280 309L336 368L364 340L307 282L280 309ZM196 65Q153 65 123 85T77 137T61 202Q61 247
84 276T143 320T211 335Q250 335 281 318T330 270T349 201Q349 158 326 128T268 81T196 65ZM215 87Q244 87 262 111T280 180Q280 214 270 244T239 294T188 313Q161 313 144 291T127 223Q127 192 136 161T165 108T215 87Z" />
<glyph unicode="&#xa5;" horiz-adv-x="492" d="M109 146H392Q399 146 399 134T392 122H109Q102 122 102 134T109 146ZM109 213H392Q399 213 399 201T392 189H109Q102 189 102 201T109 213ZM254 196L349 367Q370 404 363 430T316 456Q313 456 313 462T316 468Q344
468 368 467T431 465Q450 465 461 466T489 468Q491 468 491 462T488 456Q457 456 428 433T374 366L274 190L254 196ZM222 191L96 385Q72 423 51 439T3 456Q0 456 0 462T3 468Q17 468 39 467T76 465Q100 465 128 466T182 467T222 468Q224 468 224 462T222 456Q191
456 179 445T186 404L296 235L222 191ZM296 131V81Q296 52 301 37T323 17T374 12Q376 12 376 6T374 0Q349 0 319 1T250 2Q217 2 185 1T128 0Q125 0 125 6T128 12Q161 12 178 17T201 37T207 81V131H296ZM207 200V228L296 237V199L207 200Z" />
<glyph unicode="&#xa6;" horiz-adv-x="168" d="M63 -154V216Q63 221 74 222T97 223T108 216V-154Q108 -159 97 -160T75 -161T63 -154ZM63 360V731Q63 736 74 737T97 738T108 731V360Q108 356 97 355T75 354T63 360Z" />
<glyph unicode="&#xa7;" horiz-adv-x="472" d="M316 11L308 20Q334 41 342 66T350 119Q350 164 333 196T289 251T231 293T174 332T130 379T112 441Q112 487 135 515T196 558T275 572Q302 572 324 567T362 553Q373 548 373 537L381 426Q381 424 375 424T369 426Q364
439 353 459T326 500T288 535T241 549Q217 549 201 533T184 480Q184 443 201 417T244 371T300 332T356 291T400 238T417 163Q417 139 409 116T380 67T316 11ZM221 -188Q195 -188 174 -183T135 -170Q131 -167 128 -163T124 -153L116 -43Q116 -40 121 -40T128 -43Q133
-55 144 -75T171 -116T208 -151T255 -165Q280 -165 296 -149T312 -96Q312 -59 295 -33T252 13T196 51T139 92T96 145T79 221Q79 246 87 269T116 317T178 373L186 364Q161 343 153 318T145 265Q145 219 162 188T207 133T265 90T323 51T367 5T385 -57Q385 -102 361
-131T300 -174T221 -188Z" />
<glyph unicode="&#xa8;" horiz-adv-x="322" d="M75 469Q51 469 38 482T24 519Q24 541 37 554T75 567Q98 567 110 554T123 519Q123 469 75 469ZM249 469Q226 469 213 482T199 519Q199 541 212 553T249 566Q297 566 297 519Q297 469 249 469Z" />
<glyph unicode="&#xa9;" horiz-adv-x="724" d="M377 -105Q318 -105 263 -86T163 -30T93 62T67 188Q67 258 95 315T172 414T281 478T407 501Q487 501 545 469T634 384T666 269Q666 209 633 157T541 72T408 39Q342 39 302 62T244 122T226 195Q226 249 252 287T318
344T401 364Q425 364 448 358T488 339T504 307Q504 290 495 280T466 269Q451 269 442 279T425 302Q416 317 405 329T370 342Q332 342 320 312T307 227Q307 185 321 148T368 89T454 66Q494 66 529 86T586 144T608 238Q608 305 578 359T494 445T373 478Q295 478 241
442T160 346T132 213Q132 146 153 93T213 4T302 -52T411 -71Q444 -71 474 -67T535 -52T599 -22Q602 -20 604 -23T605 -29Q545 -76 489 -90T377 -105Z" />
<glyph unicode="&#xaa;" horiz-adv-x="285" d="M38 284Q35 284 34 292T34 309T37 317H262Q265 317 266 309T266 293T262 284H38ZM211 366Q198 360 186 374T173 419V538Q173 572 168 587T153 607T134 612Q118 612 108 597T95 561Q94 550 88 539T62 528Q48 528 39
536T29 558Q29 571 43 584T78 607T121 623T161 630Q189 630 208 613T228 558V441Q228 407 237 401T273 407Q277 409 279 405T279 398L211 366ZM77 365Q54 365 42 376T29 404Q29 421 39 432T77 454L191 493L192 483L120 455Q107 450 100 443T93 423Q93 410 100 402T119
394Q126 394 132 395T143 399L197 427L198 416L140 385Q118 373 105 369T77 365Z" />
<glyph unicode="&#xab;" horiz-adv-x="468" d="M239 40L55 189Q51 194 51 201T55 212L239 361Q241 364 244 361T246 356L144 201L246 46Q247 44 244 41T239 40ZM404 40L219 189Q215 194 215 201T219 212L404 361Q406 364 409 361T411 356L308 201L410 46Q412 44
409 41T404 40Z" />
<glyph unicode="&#xac;" horiz-adv-x="395" d="M364 77Q364 74 353 73T331 73T319 76V270H364V77ZM34 226Q31 226 30 237T30 259T33 270H364V226H34Z" />
<glyph unicode="&#xad;" horiz-adv-x="600" />
<glyph unicode="&#xae;" horiz-adv-x="743" d="M365 138Q309 138 256 157T161 213T93 303T67 422Q67 491 94 547T167 642T273 703T397 725Q485 725 549 689T649 590T685 451Q685 386 660 329T592 229T490 162T365 138ZM235 273Q234 273 234 278T235 284Q261 284
267 291T273 329V544Q273 571 267 579T235 588Q234 588 234 594T235 600Q250 600 269 600T306 599Q325 599 348 601T388 603Q436 603 461 587T486 535Q486 498 464 474T403 440T317 432V449Q376 441 399 454T423 514Q423 554 409 572T372 590Q351 590 343 584T334
542V329Q334 299 342 292T379 284Q381 284 381 279T379 273Q364 273 347 273T306 274Q289 274 268 274T235 273ZM400 165Q475 165 525 197T601 287T627 419Q627 506 593 569T499 667T360 701Q279 701 226 667T148 576T123 455Q123 389 145 336T206 244T295 186T400
165ZM471 273Q461 273 437 317T376 436L430 450Q456 397 476 364T517 311T562 281Q564 281 564 277T562 273Q528 273 505 273T471 273Z" />
<glyph unicode="&#xaf;" horiz-adv-x="345" d="M47 477Q42 477 40 485T39 502T47 511H298Q304 511 306 503T306 486T298 477H47Z" />
<glyph unicode="&#xb0;" horiz-adv-x="332" d="M167 373Q105 373 67 410T29 503Q29 538 46 566T94 612T167 630Q229 630 266 593T303 501Q303 447 266 410T167 373ZM174 386Q201 386 213 399T229 437T233 494Q233 617 161 617Q135 617 122 603T105 564T100 506Q100
454 115 420T174 386Z" />
<glyph unicode="&#xb1;" horiz-adv-x="398" d="M34 1Q31 1 30 11T30 31T33 42H364Q367 42 368 32T368 11T364 1H34ZM34 230Q31 230 30 241T30 264T33 275H364Q367 275 368 264T368 242T364 230H34ZM222 88Q222 85 211 84T188 84T176 87V418Q176 421 187 421T210
422T222 418V88Z" />
<glyph unicode="&#xb2;" horiz-adv-x="252" d="M24 409Q33 445 48 471T80 518T111 558T136 598T146 646Q146 677 134 690T101 704Q79 704 62 689T38 651Q37 648 32 649T27 654Q37 685 58 707T126 730Q170 730 190 709T211 657Q211 625 192 600T147 553T96 508T63
459Q63 456 66 456Q111 456 139 457T182 463T204 477T212 500Q212 502 217 502T223 500L221 408Q221 403 217 403Q177 403 125 403T27 403Q22 403 24 409Z" />
<glyph unicode="&#xb3;" horiz-adv-x="251" d="M123 567V577Q164 576 194 556T225 497Q225 474 213 451T177 412T116 396Q74 396 53 416T22 465Q21 469 27 470T34 468Q42 448 59 434T102 420Q124 420 141 435T159 490Q159 526 140 545T84 564Q79 564 79 570T84
576Q105 576 118 585T139 610T146 645Q146 673 133 687T100 701Q78 701 61 686T40 650Q39 647 33 648T28 653Q36 685 59 707T126 729Q168 729 190 708T212 656Q212 632 199 613T165 581T123 567Z" />
<glyph unicode="&#xb4;" horiz-adv-x="212" d="M69 474Q68 471 63 472T58 476L98 716Q99 719 112 722T143 728T172 731T183 727L69 474Z" />
<glyph unicode="&#xb6;" horiz-adv-x="651" d="M346 -193Q309 -193 287 -179T264 -139Q264 -122 274 -110T308 -98Q332 -98 340 -109T351 -135T358 -161T378 -173Q393 -173 401 -157T414 -100T419 8V125Q406 124 392 123T362 122Q308 122 254 135T154 179T82 260T54
386Q54 507 130 567T335 628Q369 628 404 625T484 622Q512 622 540 623T594 625Q596 625 596 619T594 613Q551 613 528 592T505 532L506 55Q506 -73 468 -133T346 -193Z" />
<glyph unicode="&#xb7;" horiz-adv-x="195" d="M97 147Q72 147 57 161T42 201Q42 225 57 239T97 254Q124 254 137 240T151 201Q151 176 137 162T97 147Z" />
<glyph unicode="&#xb8;" horiz-adv-x="232" d="M118 -2Q111 -28 111 -44T121 -71T152 -95Q173 -108 190 -125T207 -173Q207 -196 196 -219T159 -259T91 -275Q58 -275 39 -264T20 -230Q20 -217 31 -206T56 -195Q75 -195 82 -203T93 -223T103 -243T128 -252Q154
-252 154 -224Q154 -198 136 -177T70 -130Q61 -126 60 -121T64 -101Q73 -79 78 -67T88 -41T102 -1L118 -2Z" />
<glyph unicode="&#xb9;" horiz-adv-x="262" d="M40 403Q38 403 38 409T40 415Q70 415 84 419T102 438T106 484V602Q106 643 102 660T84 676T35 659Q32 658 29 663T29 670L158 728Q162 730 165 727T168 721V484Q168 453 171 438T188 419T230 415Q232 415 232 409T230
403Q211 403 188 404T138 406Q111 406 86 405T40 403Z" />
<glyph unicode="&#xba;" horiz-adv-x="322" d="M40 284Q37 284 36 292T36 309T39 317H282Q285 317 286 309T286 293T282 284H40ZM156 359Q117 359 89 378T45 429T29 498Q29 543 50 572T104 615T168 630Q208 630 236 611T279 561T294 495Q294 457 275 426T225 377T156
359ZM171 374Q199 374 215 401T231 477Q231 534 208 574T149 614Q122 614 107 589T92 517Q92 480 102 447T130 394T171 374Z" />
<glyph unicode="&#xbb;" horiz-adv-x="468" d="M229 361L413 212Q418 208 418 201T413 189L229 40Q228 37 225 40T222 46L325 200L222 356Q221 358 224 361T229 361ZM65 361L249 212Q254 208 254 201T249 189L65 40Q64 37 61 40T58 46L161 200L58 356Q57 358 60
361T65 361Z" />
<glyph unicode="&#xbc;" horiz-adv-x="605" d="M40 309Q38 309 38 314T40 320Q70 320 84 324T102 343T106 389V508Q106 549 102 566T84 582T35 565Q31 563 29 568T29 575L158 634Q162 636 165 633T168 627V389Q168 358 171 343T188 324T230 320Q232 320 232 315T230
309Q211 309 188 310T138 311Q111 311 86 310T40 309ZM187 -1Q187 -3 179 0T165 7T158 13L437 629Q439 632 446 629T460 623T467 617L187 -1ZM540 41Q540 22 546 17T581 11Q582 11 582 5T581 -1Q566 -1 551 -1T514 0Q490 0 469 0T430 -1Q429 -1 429 5T430 11Q463
11 472 16T481 41V260L498 270L387 112Q384 109 389 109Q433 109 463 110T521 112T581 115Q584 115 584 102T581 88Q536 90 485 92T355 94Q352 94 350 97T351 103L514 321Q517 325 528 325T540 320V41Z" />
<glyph unicode="&#xbd;" horiz-adv-x="611" d="M40 309Q38 309 38 314T40 320Q70 320 84 324T102 343T106 389V508Q106 549 102 566T84 582T35 565Q31 563 29 568T29 575L158 634Q162 636 165 633T168 627V389Q168 358 171 343T188 324T230 320Q232 320 232 315T230
309Q211 309 188 310T138 311Q111 311 86 310T40 309ZM187 -1Q187 -3 179 0T165 7T158 13L437 629Q439 632 446 629T460 623T467 617L187 -1ZM383 6Q392 42 407 68T439 115T470 155T495 195T505 243Q505 274 493 287T460 300Q438 300 421 285T397 248Q396 244 391
245T386 250Q396 281 417 303T485 326Q529 326 549 305T570 254Q570 222 551 197T506 149T455 105T422 56Q422 53 425 53Q470 53 498 54T541 60T563 74T571 98Q571 100 576 100T582 98L580 5Q580 0 576 0Q536 0 484 0T386 0Q382 0 383 6Z" />
<glyph unicode="&#xbe;" horiz-adv-x="594" d="M123 473V483Q164 481 194 462T225 403Q225 379 213 356T177 318T116 302Q74 302 53 322T22 371Q21 375 27 376T34 373Q42 354 59 340T102 326Q124 326 141 341T159 396Q159 432 140 451T84 470Q79 470 79 476T84
482Q105 482 118 491T139 517T146 551Q146 579 133 593T100 607Q78 607 61 591T40 556Q39 552 33 553T28 558Q36 591 59 612T126 634Q168 634 190 613T212 561Q212 537 199 518T165 487T123 473ZM176 -1Q176 -3 168 0T154 7T147 13L426 629Q428 632 435 629T449
623T456 617L176 -1ZM529 41Q529 22 535 17T570 11Q571 11 571 5T570 -1Q555 -1 540 -1T503 0Q479 0 458 0T419 -1Q418 -1 418 5T419 11Q452 11 461 16T470 41V260L487 270L376 112Q373 109 378 109Q422 109 452 110T510 112T570 115Q573 115 573 102T570 88Q525
90 474 92T344 94Q341 94 339 97T340 103L503 321Q506 325 517 325T529 320V41Z" />
<glyph unicode="&#xbf;" horiz-adv-x="327" d="M164 -258Q184 -258 190 -244T197 -215Q199 -203 202 -189T217 -165T248 -155Q273 -155 283 -169T293 -197Q293 -229 256 -252T163 -275Q124 -275 91 -262T36 -223T15 -156Q15 -122 29 -99T64 -57T105 -21Q137 8
151 37T166 102Q166 114 165 126T160 156Q159 159 166 160T175 159Q187 131 194 96T201 39Q201 10 192 -9T170 -43T143 -74T121 -113T112 -168Q112 -207 126 -232T164 -258ZM176 361Q201 361 216 347T231 306Q231 283 216 269T176 254Q150 254 136 268T122 306Q122
332 136 346T176 361Z" />
<glyph unicode="&#xc0;" horiz-adv-x="711" d="M179 245L192 270H472L479 245H179ZM711 12Q715 12 715 6T711 0Q681 0 650 2T589 4Q556 4 532 2T477 0Q473 0 473 6T477 12Q522 12 531 28T516 91L307 516L348 583L150 137Q124 76 148 44T232 12Q237 12 237 6T232
0Q202 0 177 2T114 4Q76 4 54 2T-2 0Q-6 0 -6 6T-2 12Q25 12 44 23T83 63T125 146L340 631Q342 634 349 634T357 631L602 137Q625 89 643 62T677 23T711 12ZM449 679Q398 702 346 721T227 756Q218 758 229 764T259 777T295 789T315 790Q348 766 381 740T453 689Q457
688 456 683T449 679Z" />
<glyph unicode="&#xc1;" horiz-adv-x="711" d="M179 245L192 270H472L479 245H179ZM711 12Q715 12 715 6T711 0Q681 0 650 2T589 4Q556 4 532 2T477 0Q473 0 473 6T477 12Q522 12 531 28T516 91L307 516L348 583L150 137Q124 76 148 44T232 12Q237 12 237 6T232
0Q202 0 177 2T114 4Q76 4 54 2T-2 0Q-6 0 -6 6T-2 12Q25 12 44 23T83 63T125 146L340 631Q342 634 349 634T357 631L602 137Q625 89 643 62T677 23T711 12ZM253 678Q249 677 247 682T248 689Q287 714 320 740T386 790Q390 792 407 788T443 777T472 764T475 756Q408
739 356 720T253 678Z" />
<glyph unicode="&#xc2;" horiz-adv-x="711" d="M179 245L192 270H472L479 245H179ZM711 12Q715 12 715 6T711 0Q681 0 650 2T589 4Q555 4 531 2T477 0Q473 0 473 6T477 12Q522 12 531 28T516 91L307 516L348 583L150 137Q124 76 148 44T232 12Q237 12 237 6T232
0Q202 0 177 2T114 4Q77 4 54 2T-2 0Q-6 0 -6 6T-2 12Q24 12 44 23T83 63T125 146L340 631Q342 634 349 634T357 631L602 137Q625 89 643 62T677 23T711 12ZM235 686L338 795Q343 800 350 800T361 795L463 686Q466 685 463 682T458 679L350 724L241 679Q240 678
237 681T235 686Z" />
<glyph unicode="&#xc3;" horiz-adv-x="711" d="M179 245L192 270H472L479 245H179ZM711 12Q715 12 715 6T711 0Q681 0 650 2T589 4Q556 4 532 2T477 0Q473 0 473 6T477 12Q522 12 531 28T516 91L307 516L348 583L150 137Q124 76 148 44T232 12Q237 12 237 6T232
0Q202 0 177 2T114 4Q76 4 54 2T-2 0Q-6 0 -6 6T-2 12Q25 12 44 23T83 63T125 146L340 631Q342 634 349 634T357 631L602 137Q625 89 643 62T677 23T711 12ZM425 760Q443 760 453 766T476 787Q478 789 481 786T483 780Q456 735 439 721T401 706Q382 706 362 712T320
724T274 730Q253 730 244 723T224 703Q222 702 219 705T217 710Q225 724 238 741T267 772T303 785Q318 785 338 779T380 767T425 760Z" />
<glyph unicode="&#xc4;" horiz-adv-x="711" d="M179 245L192 270H472L479 245H179ZM711 12Q715 12 715 6T711 0Q681 0 650 2T589 4Q556 4 532 2T477 0Q473 0 473 6T477 12Q522 12 531 28T516 91L307 516L348 583L150 137Q124 76 148 44T232 12Q237 12 237 6T232
0Q202 0 177 2T114 4Q76 4 54 2T-2 0Q-6 0 -6 6T-2 12Q25 12 44 23T83 63T125 146L340 631Q342 634 349 634T357 631L602 137Q625 89 643 62T677 23T711 12ZM263 708Q240 708 226 721T212 758Q212 780 226 793T263 806Q286 806 298 793T311 758Q311 708 263 708ZM438
708Q415 708 401 721T387 758Q387 780 401 792T438 805Q486 805 486 758Q486 708 438 708Z" />
<glyph unicode="&#xc5;" horiz-adv-x="711" d="M179 245L192 270H472L479 245H179ZM711 12Q715 12 715 6T711 0Q681 0 650 2T589 4Q556 4 532 2T477 0Q473 0 473 6T477 12Q522 12 531 28T516 91L307 516L348 583L150 137Q124 76 148 44T232 12Q237 12 237 6T232
0Q202 0 177 2T114 4Q76 4 54 2T-2 0Q-6 0 -6 6T-2 12Q25 12 44 23T83 63T125 146L340 631Q342 634 349 634T357 631L602 137Q625 89 643 62T677 23T711 12ZM343 661Q295 661 269 685T242 741Q242 767 259 784T301 809T352 818Q393 818 422 795T452 739Q452 715
436 698T394 671T343 661ZM358 674Q388 674 388 721Q388 755 372 780T332 805Q306 805 306 761Q306 740 311 721T329 688T358 674Z" />
<glyph unicode="&#xc6;" horiz-adv-x="883" d="M-4 0Q-8 0 -8 6T-4 12Q35 12 70 40T148 132L441 574Q460 600 450 606T377 613Q375 613 375 619T377 625H795Q804 625 804 616L806 486Q806 484 801 484T795 486Q790 511 772 537T726 581T664 599H618Q594 599 580
594T559 576T553 543V85Q553 64 558 51T575 32T610 26H664Q699 26 732 43T791 90T825 155Q826 158 831 157T837 154Q833 126 831 87T828 15Q828 0 812 0H385Q383 0 383 6T385 12Q418 12 434 17T456 37T462 81V589L494 604L188 134Q151 76 163 44T236 12Q241 12
241 6T236 0Q201 0 174 2T101 4Q67 4 46 2T-4 0ZM290 312L305 338H528L535 312H290ZM756 226Q756 268 728 290T644 312H490V338H646Q701 338 728 357T755 412Q755 415 761 415T767 412Q767 380 767 362T766 325Q766 301 767 278T768 226Q768 224 762 224T756 226Z"
/>
<glyph unicode="&#xc7;" horiz-adv-x="683" d="M421 636Q456 636 488 633T549 623T601 605Q609 601 611 597T615 582L627 450Q627 447 622 446T615 449Q589 530 538 573T410 617Q336 617 279 581T190 477T158 316Q158 248 177 191T232 93T315 30T418 7Q493 7 541
46T625 168Q626 171 631 170T636 167L623 48Q622 36 620 33T609 25Q560 5 513 -3T417 -12Q310 -12 227 28T97 142T49 311Q49 383 77 443T155 546T274 612T421 636ZM416 -2Q409 -28 409 -44T419 -71T450 -95Q471 -108 488 -125T505 -173Q505 -196 494 -219T457 -259T389
-275Q356 -275 337 -264T318 -230Q318 -217 329 -206T354 -195Q373 -195 380 -203T391 -223T401 -243T426 -252Q452 -252 452 -224Q452 -198 434 -177T368 -130Q359 -126 358 -121T362 -101Q371 -79 376 -67T386 -41T400 -1L416 -2Z" />
<glyph unicode="&#xc8;" horiz-adv-x="547" d="M476 0H42Q39 0 39 6T42 12Q75 12 91 17T112 37T118 81V544Q118 573 113 587T91 607T42 613Q39 613 39 619T42 625H458Q468 625 468 616L470 486Q470 484 465 484T458 486Q447 543 412 571T320 599H279Q254 599 240
594T219 576T213 542V85Q213 64 218 51T236 32T270 26H319Q387 26 429 58T489 155Q490 158 495 157T501 154Q497 126 494 87T491 15Q491 0 476 0ZM420 226Q420 268 392 290T308 312H168V338H309Q365 338 392 357T419 412Q419 415 424 415T430 412Q430 380 430 362T429
325Q429 301 430 278T432 226Q432 224 426 224T420 226ZM396 679Q345 702 293 721T173 756Q165 758 175 764T205 777T241 789T262 790Q295 766 328 740T400 689Q404 688 402 683T396 679Z" />
<glyph unicode="&#xc9;" horiz-adv-x="547" d="M476 0H42Q39 0 39 6T42 12Q75 12 91 17T112 37T118 81V544Q118 573 113 587T91 607T42 613Q39 613 39 619T42 625H458Q468 625 468 616L470 486Q470 484 465 484T458 486Q447 543 412 571T320 599H279Q254 599 240
594T219 576T213 542V85Q213 64 218 51T236 32T270 26H319Q387 26 429 58T489 155Q490 158 495 157T501 154Q497 126 494 87T491 15Q491 0 476 0ZM420 226Q420 268 392 290T308 312H168V338H309Q365 338 392 357T419 412Q419 415 424 415T430 412Q430 380 430 362T429
325Q429 301 430 278T432 226Q432 224 426 224T420 226ZM199 679Q195 677 193 682T194 689Q234 714 266 740T332 790Q336 793 353 789T389 778T418 764T421 756Q354 740 302 721T199 679Z" />
<glyph unicode="&#xca;" horiz-adv-x="547" d="M476 0H42Q39 0 39 6T42 12Q75 12 91 17T112 37T118 81V544Q118 573 113 587T91 607T42 613Q39 613 39 619T42 625H458Q468 625 468 616L470 486Q470 484 465 484T458 486Q447 543 412 571T320 599H279Q254 599 240
594T219 576T213 542V85Q213 64 218 51T236 32T270 26H319Q387 26 429 58T489 155Q490 158 495 157T501 154Q497 126 494 87T491 15Q491 0 476 0ZM420 226Q420 268 392 290T308 312H168V338H309Q365 338 392 357T419 412Q419 415 424 415T430 412Q430 380 430 362T429
325Q429 301 430 278T432 226Q432 224 426 224T420 226ZM182 699L285 808Q290 813 297 813T308 808L410 699Q413 698 410 695T405 692L297 737L188 692Q187 691 184 694T182 699Z" />
<glyph unicode="&#xcb;" horiz-adv-x="547" d="M476 0H42Q39 0 39 6T42 12Q75 12 91 17T112 37T118 81V544Q118 573 113 587T91 607T42 613Q39 613 39 619T42 625H458Q468 625 468 616L470 486Q470 484 465 484T458 486Q447 543 412 571T320 599H279Q254 599 240
594T219 576T213 542V85Q213 64 218 51T236 32T270 26H319Q387 26 429 58T489 155Q490 158 495 157T501 154Q497 126 494 87T491 15Q491 0 476 0ZM420 226Q420 268 392 290T308 312H168V338H309Q365 338 392 357T419 412Q419 415 424 415T430 412Q430 380 430 362T429
325Q429 301 430 278T432 226Q432 224 426 224T420 226ZM210 708Q186 708 173 721T159 758Q159 780 172 793T210 806Q233 806 245 793T258 758Q258 708 210 708ZM384 708Q361 708 348 721T334 758Q334 780 347 792T384 805Q432 805 432 758Q432 708 384 708Z" />
<glyph unicode="&#xcc;" horiz-adv-x="339" d="M217 81Q217 52 222 37T244 17T293 12Q296 12 296 6T293 0Q268 0 237 1T168 2Q133 2 101 1T44 0Q41 0 41 6T44 12Q77 12 93 17T115 37T121 81V544Q121 573 116 587T94 607T44 613Q41 613 41 619T44 625Q69 625 101
624T168 622Q206 622 237 623T293 625Q296 625 296 619T293 613Q261 613 245 607T223 586T217 542V81ZM269 679Q218 702 166 721T47 756Q38 758 49 764T78 777T114 789T135 790Q168 766 201 740T273 689Q277 688 276 683T269 679Z" />
<glyph unicode="&#xcd;" horiz-adv-x="339" d="M217 81Q217 52 222 37T244 17T293 12Q296 12 296 6T293 0Q268 0 237 1T168 2Q133 2 101 1T44 0Q41 0 41 6T44 12Q76 12 93 17T115 37T121 81V544Q121 573 116 587T93 607T44 613Q41 613 41 619T44 625Q69 625 101
624T168 622Q206 622 237 623T293 625Q296 625 296 619T293 613Q261 613 245 607T223 586T217 542V81ZM72 679Q68 677 66 682T67 689Q107 714 140 740T206 790Q210 793 227 789T263 778T292 764T294 756Q227 740 175 721T72 679Z" />
<glyph unicode="&#xce;" horiz-adv-x="339" d="M217 81Q217 52 222 37T244 17T293 12Q296 12 296 6T293 0Q268 0 237 1T168 2Q133 2 101 1T44 0Q41 0 41 6T44 12Q76 12 93 17T115 37T121 81V544Q121 573 116 587T93 607T44 613Q41 613 41 619T44 625Q69 625 101
624T168 622Q206 622 237 623T293 625Q296 625 296 619T293 613Q261 613 245 607T223 586T217 542V81ZM55 699L158 808Q163 813 170 813T181 808L283 699Q286 698 283 695T278 692L170 737L61 692Q60 691 57 694T55 699Z" />
<glyph unicode="&#xcf;" horiz-adv-x="339" d="M217 81Q217 52 222 37T244 17T293 12Q296 12 296 6T293 0Q268 0 237 1T168 2Q133 2 101 1T44 0Q41 0 41 6T44 12Q76 12 93 17T115 37T121 81V544Q121 573 116 587T93 607T44 613Q41 613 41 619T44 625Q69 625 101
624T168 622Q206 622 237 623T293 625Q296 625 296 619T293 613Q261 613 245 607T223 586T217 542V81ZM95 708Q72 708 58 721T44 758Q44 780 58 793T95 806Q118 806 131 793T144 758Q144 734 131 721T95 708ZM244 708Q220 708 208 721T195 758Q195 780 207 792T244
805Q292 805 292 758Q292 708 244 708Z" />
<glyph unicode="&#xd0;" horiz-adv-x="700" d="M53 298Q50 298 49 304T49 317T53 324H340Q343 324 344 318T344 305T340 298H53ZM318 -4Q287 -4 241 -1T157 2Q121 2 89 1T32 0Q30 0 30 6T32 12Q64 12 81 17T103 37T109 81V544Q109 573 104 587T82 607T33 613Q31
613 31 619T33 625Q59 625 90 624T157 622Q192 622 233 624T304 627Q409 627 487 587T608 478T651 323Q651 248 625 188T553 85T446 19T318 -4ZM308 16Q377 16 430 49T513 145T544 301Q544 387 516 456T437 566T314 607Q255 607 230 596T204 542V92Q204 53 224
35T308 16Z" />
<glyph unicode="&#xd1;" horiz-adv-x="732" d="M125 121V602L152 600V121Q152 68 173 40T233 12Q236 12 236 6T233 0Q212 0 190 1T140 2Q111 2 85 1T35 0Q32 0 32 6T35 12Q79 12 102 40T125 121ZM633 -14Q633 -17 628 -17T621 -17L140 543Q104 584 79 598T29 613Q26
613 26 619T29 625Q48 625 68 624T105 623Q135 623 159 624T197 625Q210 625 216 614T246 573L625 127L633 -14ZM633 503V-14L606 16V503Q606 556 586 584T525 613Q523 613 523 619T525 625Q546 625 569 624T619 622Q645 622 670 623T716 625Q719 625 719 619T716
613Q676 613 655 585T633 503ZM455 760Q473 760 483 766T506 787Q508 789 511 786T513 780Q486 735 470 721T431 706Q412 706 392 712T350 724T304 730Q283 730 274 723T254 703Q252 702 249 705T247 710Q255 724 268 741T298 772T333 785Q348 785 368 779T410
767T455 760Z" />
<glyph unicode="&#xd2;" horiz-adv-x="766" d="M366 -12Q294 -12 236 13T136 84T72 187T49 312Q49 393 80 454T164 555T278 616T401 636Q475 636 533 610T633 538T695 436T717 319Q717 249 689 189T613 84T501 14T366 -12ZM400 12Q460 12 507 44T582 138T610 290Q610
383 580 455T494 568T360 610Q263 610 210 541T156 348Q156 276 174 215T224 107T301 37T400 12ZM487 679Q436 702 384 721T264 756Q256 758 266 764T296 777T332 789T353 790Q386 766 419 740T491 689Q495 688 493 683T487 679Z" />
<glyph unicode="&#xd3;" horiz-adv-x="766" d="M366 -12Q294 -12 236 13T136 84T72 187T49 312Q49 393 80 454T164 555T278 616T401 636Q475 636 533 610T633 538T695 436T717 319Q717 249 689 189T613 84T501 14T366 -12ZM400 12Q460 12 507 44T582 138T610 290Q610
383 580 455T494 568T360 610Q263 610 210 541T156 348Q156 276 174 215T224 107T301 37T400 12ZM290 679Q286 677 284 682T285 689Q325 714 358 740T424 790Q427 793 444 789T480 778T510 764T512 756Q445 740 393 721T290 679Z" />
<glyph unicode="&#xd4;" horiz-adv-x="766" d="M366 -12Q294 -12 236 13T136 84T72 187T49 312Q49 393 80 454T164 555T278 616T401 636Q475 636 533 610T633 538T695 436T717 319Q717 249 689 189T613 84T501 14T366 -12ZM400 12Q460 12 507 44T582 138T610 290Q610
383 580 455T494 568T360 610Q263 610 210 541T156 348Q156 276 174 215T224 107T301 37T400 12ZM273 699L376 808Q381 813 388 813T399 808L501 699Q504 698 501 695T496 692L388 737L279 692Q278 691 275 694T273 699Z" />
<glyph unicode="&#xd5;" horiz-adv-x="766" d="M366 -12Q294 -12 236 13T136 84T72 187T49 312Q49 393 80 454T164 555T278 616T401 636Q475 636 533 610T633 538T695 436T717 319Q717 249 689 189T613 84T501 14T366 -12ZM400 12Q460 12 507 44T582 138T610 290Q610
383 580 455T494 568T360 610Q263 610 210 541T156 348Q156 276 174 215T224 107T301 37T400 12ZM462 760Q480 760 490 766T513 787Q515 789 518 786T520 780Q493 735 477 721T438 706Q419 706 399 712T357 724T311 730Q290 730 281 723T261 703Q259 702 256 705T254
710Q262 724 275 741T305 772T340 785Q355 785 375 779T417 767T462 760Z" />
<glyph unicode="&#xd6;" horiz-adv-x="766" d="M366 -12Q294 -12 236 13T136 84T72 187T49 312Q49 393 80 454T164 555T278 616T401 636Q475 636 533 610T633 538T695 436T717 319Q717 249 689 189T613 84T501 14T366 -12ZM400 12Q460 12 507 44T582 138T610 290Q610
383 580 455T494 568T360 610Q263 610 210 541T156 348Q156 276 174 215T224 107T301 37T400 12ZM301 708Q277 708 264 721T250 758Q250 780 263 793T301 806Q324 806 336 793T349 758Q349 708 301 708ZM475 708Q452 708 439 721T425 758Q425 780 438 792T475 805Q523
805 523 758Q523 708 475 708Z" />
<glyph unicode="&#xd7;" horiz-adv-x="393" d="M97 56Q95 54 86 61T69 77T62 88L296 322Q299 324 308 317T324 301T329 290L97 56ZM64 290Q62 293 69 301T85 317T95 324L329 90Q332 88 325 79T308 63T297 57L64 290Z" />
<glyph unicode="&#xd8;" horiz-adv-x="783" d="M86 -8Q85 -10 80 -7T71 2T69 10L682 632Q685 634 694 627T700 615L86 -8ZM366 -12Q294 -12 236 13T136 84T72 187T49 312Q49 393 80 454T164 555T278 616T401 636Q475 636 533 610T633 538T695 436T717 319Q717
249 689 189T613 84T501 14T366 -12ZM400 12Q460 12 507 44T582 138T610 290Q610 383 580 455T494 568T360 610Q263 610 210 541T156 348Q156 276 174 215T224 107T301 37T400 12Z" />
<glyph unicode="&#xd9;" horiz-adv-x="701" d="M571 503Q571 555 548 584T480 613Q478 613 478 619T480 625Q505 625 530 624T586 622Q612 622 637 623T684 625Q686 625 686 619T684 613Q644 613 623 584T602 503V223Q602 150 572 97T486 15T357 -14Q284 -14 227
14T139 96T107 222V544Q107 573 102 587T80 607T31 613Q28 613 28 619T31 625Q56 625 87 624T154 622Q191 622 222 623T278 625Q281 625 281 619T278 613Q245 613 229 607T208 586T202 542V257Q202 135 252 78T390 21Q475 21 523 73T571 222V503ZM473 679Q422 702
370 721T251 756Q242 758 253 764T282 777T318 789T339 790Q372 766 405 740T477 689Q481 688 480 683T473 679Z" />
<glyph unicode="&#xda;" horiz-adv-x="701" d="M571 503Q571 555 548 584T480 613Q478 613 478 619T480 625Q505 625 530 624T586 622Q612 622 637 623T684 625Q686 625 686 619T684 613Q644 613 623 584T602 503V223Q602 150 572 97T486 15T357 -14Q284 -14 227
14T139 96T107 222V544Q107 573 102 587T80 607T31 613Q28 613 28 619T31 625Q56 625 87 624T154 622Q191 622 222 623T278 625Q281 625 281 619T278 613Q245 613 229 607T208 586T202 542V257Q202 135 252 78T390 21Q475 21 523 73T571 222V503ZM276 679Q272 677
270 682T271 689Q311 714 344 740T410 790Q414 793 431 789T466 778T496 764T498 756Q431 740 379 721T276 679Z" />
<glyph unicode="&#xdb;" horiz-adv-x="701" d="M571 503Q571 555 548 584T480 613Q478 613 478 619T480 625Q505 625 530 624T586 622Q612 622 637 623T684 625Q686 625 686 619T684 613Q644 613 623 584T602 503V223Q602 150 572 97T486 15T357 -14Q284 -14 227
14T139 96T107 222V544Q107 573 102 587T80 607T31 613Q28 613 28 619T31 625Q56 625 87 624T154 622Q191 622 222 623T278 625Q281 625 281 619T278 613Q245 613 229 607T208 586T202 542V257Q202 135 252 78T390 21Q475 21 523 73T571 222V503ZM259 699L362 808Q367
813 374 813T385 808L487 699Q490 698 487 695T482 692L374 737L265 692Q264 691 261 694T259 699Z" />
<glyph unicode="&#xdc;" horiz-adv-x="701" d="M571 503Q571 555 548 584T480 613Q478 613 478 619T480 625Q505 625 530 624T586 622Q612 622 637 623T684 625Q686 625 686 619T684 613Q644 613 623 584T602 503V223Q602 150 572 97T486 15T357 -14Q284 -14 227
14T139 96T107 222V544Q107 573 102 587T80 607T31 613Q28 613 28 619T31 625Q56 625 87 624T154 622Q191 622 222 623T278 625Q281 625 281 619T278 613Q245 613 229 607T208 586T202 542V257Q202 135 252 78T390 21Q475 21 523 73T571 222V503ZM287 708Q264 708
250 721T236 758Q236 780 250 793T287 806Q310 806 322 793T335 758Q335 708 287 708ZM461 708Q438 708 425 721T411 758Q411 780 424 792T461 805Q510 805 510 758Q510 708 461 708Z" />
<glyph unicode="&#xdd;" horiz-adv-x="616" d="M312 281L444 498Q476 550 469 581T414 613Q412 613 412 619T414 625Q445 625 472 624T543 622Q568 622 583 623T621 625Q623 625 623 619T621 613Q600 613 573 598T520 555T471 490L332 265L312 281ZM270 273L109
519Q73 574 49 593T3 613Q0 613 0 619T3 625Q19 625 36 624T68 622Q96 622 125 622T181 624T226 625Q228 625 228 619T226 613Q193 613 186 596T197 553L350 318L270 273ZM262 310L357 319V81Q357 52 362 37T383 17T432 12Q435 12 435 6T432 0Q407 0 377 1T309
2Q274 2 242 1T184 0Q182 0 182 6T184 12Q217 12 233 17T256 37T262 81V310ZM225 679Q221 677 219 682T220 689Q260 714 292 740T358 790Q362 793 379 789T415 778T444 764T447 756Q380 740 328 721T225 679Z" />
<glyph unicode="&#xde;" horiz-adv-x="545" d="M110 544Q110 573 105 587T86 607T42 613Q39 613 39 619T42 625Q66 625 95 624T158 622Q202 622 239 623T309 625Q311 625 311 619T309 613Q264 613 242 607T212 586T205 539V85Q205 55 212 40T241 18T309 12Q311
12 311 6T309 0Q276 0 239 1T158 2Q125 2 96 1T42 0Q39 0 39 6T42 12Q71 12 85 17T105 37T110 81V544ZM148 483Q183 492 224 495T295 499Q354 499 402 484T480 433T511 336Q513 283 494 245T442 182T373 145T299 133Q286 133 274 134T249 138Q246 139 247 145T252
151Q261 150 270 149T288 147Q319 147 346 165T390 220T407 316Q407 398 369 439T270 480Q240 480 211 476T157 464L148 483Z" />
<glyph unicode="&#xdf;" horiz-adv-x="555" d="M365 -11Q320 -11 293 8T266 61Q266 80 277 92T311 104Q329 104 338 95T353 71T363 43T376 20T401 10Q428 10 440 33T450 85Q447 124 421 155T362 215Q329 247 301 281T273 359Q273 390 286 415T318 466T349 520T363
589Q363 617 355 645T328 691T278 709Q221 709 195 639T169 446V81Q169 38 179 25T228 12Q230 12 230 6T228 0Q202 0 179 0T130 1Q101 1 74 1T25 0Q22 0 22 6T25 12Q64 12 76 25T88 81L87 310Q87 331 82 342T63 356T22 360Q18 360 18 367T22 375Q53 375 66 381T83
402T89 448Q97 585 150 655T315 726Q360 726 391 714T438 680T455 629Q455 600 442 578T409 538T371 503T339 468T325 426Q325 391 353 359T417 292Q444 267 468 241T509 187T525 127Q525 94 506 62T451 10T365 -11Z" />
<glyph unicode="&#xe0;" horiz-adv-x="420" d="M317 -6Q313 -8 308 -8Q292 -8 276 15T260 82V258Q260 321 248 349T208 377Q183 377 170 363T150 330T143 298Q140 273 128 260T92 247Q69 247 59 257T49 282Q49 304 69 324T121 361T187 386T247 396Q288 396 314
370T341 288V108Q341 77 351 61T380 45Q396 45 416 54Q421 56 423 51T420 43L317 -6ZM129 -7Q87 -7 67 13T46 64Q46 92 61 109T103 138T163 162L270 202L273 187L200 156Q188 152 174 145T151 125T141 93Q141 69 157 55T193 40Q202 40 211 42T232 53L286 89L287
74L216 24Q193 8 174 1T129 -7ZM105 727Q104 731 116 731T145 729T176 723T191 716L229 476Q230 474 225 473T219 474L105 727Z" />
<glyph unicode="&#xe1;" horiz-adv-x="420" d="M317 -6Q313 -8 308 -8Q292 -8 276 15T260 82V258Q260 321 248 349T208 377Q183 377 170 363T150 330T143 298Q140 273 128 260T92 247Q69 247 59 257T49 282Q49 304 69 324T121 361T187 386T247 396Q288 396 314
370T341 288V108Q341 77 351 61T380 45Q396 45 416 54Q421 56 423 51T420 43L317 -6ZM129 -7Q87 -7 67 13T46 64Q46 92 61 109T103 138T163 162L270 202L273 187L200 156Q188 152 174 145T151 125T141 93Q141 69 157 55T193 40Q202 40 211 42T232 53L286 89L287
74L216 24Q193 8 174 1T129 -7ZM211 474Q210 471 205 472T200 476L240 716Q242 719 255 722T285 728T314 731T325 727L211 474Z" />
<glyph unicode="&#xe2;" horiz-adv-x="420" d="M317 -6Q313 -8 308 -8Q292 -8 276 15T260 82V258Q260 321 248 349T208 377Q183 377 170 363T150 330T143 298Q140 273 128 260T92 247Q69 247 59 257T49 282Q49 304 69 324T121 361T187 386T247 396Q288 396 314
370T341 288V108Q341 77 351 61T380 45Q396 45 416 54Q421 56 423 51T420 43L317 -6ZM129 -7Q87 -7 67 13T46 64Q46 92 61 109T103 138T163 162L270 202L273 187L200 156Q188 152 174 145T151 125T141 93Q141 69 157 55T193 40Q202 40 211 42T232 53L286 89L287
74L216 24Q193 8 174 1T129 -7ZM292 476Q294 474 289 473T282 474L214 602L145 474Q144 471 139 472T134 476L202 725Q203 730 213 730T225 725L292 476Z" />
<glyph unicode="&#xe3;" horiz-adv-x="420" d="M317 -6Q313 -8 308 -8Q292 -8 276 15T260 82V258Q260 321 248 349T208 377Q183 377 170 363T150 330T143 298Q140 273 128 260T92 247Q69 247 59 257T49 282Q49 304 69 324T121 361T187 386T247 396Q288 396 314
370T341 288V108Q341 77 351 61T380 45Q396 45 416 54Q421 56 423 51T420 43L317 -6ZM129 -7Q87 -7 67 13T46 64Q46 92 61 109T103 138T163 162L270 202L273 187L200 156Q188 152 174 145T151 125T141 93Q141 69 157 55T193 40Q202 40 211 42T232 53L286 89L287
74L216 24Q193 8 174 1T129 -7ZM289 530Q307 530 317 536T339 557Q341 559 344 556T346 550Q319 505 303 491T265 476Q245 476 225 482T183 494T138 500Q116 500 108 493T87 473Q85 472 82 475T80 480Q88 494 101 511T131 542T166 555Q181 555 201 549T244 537T289
530Z" />
<glyph unicode="&#xe4;" horiz-adv-x="420" d="M317 -6Q313 -8 308 -8Q292 -8 276 15T260 82V258Q260 321 248 349T208 377Q183 377 170 363T150 330T143 298Q140 273 128 260T92 247Q69 247 59 257T49 282Q49 304 69 324T121 361T187 386T247 396Q288 396 314
370T341 288V108Q341 77 351 61T380 45Q396 45 416 54Q421 56 423 51T420 43L317 -6ZM129 -7Q87 -7 67 13T46 64Q46 92 61 109T103 138T163 162L270 202L273 187L200 156Q188 152 174 145T151 125T141 93Q141 69 157 55T193 40Q202 40 211 42T232 53L286 89L287
74L216 24Q193 8 174 1T129 -7ZM127 469Q104 469 90 482T76 519Q76 541 90 554T127 567Q150 567 162 554T175 519Q175 469 127 469ZM301 469Q278 469 265 482T251 519Q251 541 264 553T301 566Q350 566 350 519Q350 469 301 469Z" />
<glyph unicode="&#xe5;" horiz-adv-x="420" d="M317 -6Q313 -8 308 -8Q292 -8 276 15T260 82V258Q260 321 248 349T208 377Q183 377 170 363T150 330T143 298Q140 273 128 260T92 247Q69 247 59 257T49 282Q49 304 69 324T121 361T187 386T247 396Q288 396 314
370T341 288V108Q341 77 351 61T380 45Q396 45 416 54Q421 56 423 51T420 43L317 -6ZM129 -7Q87 -7 67 13T46 64Q46 92 61 109T103 138T163 162L270 202L273 187L200 156Q188 152 174 145T151 125T141 93Q141 69 157 55T193 40Q202 40 211 42T232 53L286 89L287
74L216 24Q193 8 174 1T129 -7ZM204 468Q157 468 131 492T105 547Q105 573 122 590T164 616T214 625Q255 625 284 602T314 545Q314 521 298 504T257 477T204 468ZM220 481Q249 481 249 527Q249 561 234 586T194 612Q167 612 167 567Q167 547 173 527T191 494T220
481Z" />
<glyph unicode="&#xe6;" horiz-adv-x="590" d="M421 -12Q372 -12 333 5T271 63T244 170Q243 239 239 284T226 352T194 375Q170 375 156 365T135 336T127 291Q127 277 119 262T81 246Q59 246 47 256T35 286Q35 303 52 322T96 357T155 384T216 395Q255 395 283 370T316
299Q318 287 321 275T328 247T331 215Q331 177 338 144T359 85T399 45T460 30Q490 30 516 37T565 62Q567 64 570 60T572 53Q536 18 501 3T421 -12ZM296 250L295 267L484 271V251L296 250ZM331 215L275 299Q303 343 349 369T452 395Q508 395 537 363T567 271Q567
261 565 256T554 251H472Q476 312 461 343T419 375Q377 375 354 332T331 215ZM117 -7Q76 -7 55 13T34 65Q34 92 48 109T87 138T144 161L251 201L255 187L180 156Q158 147 144 133T130 93Q130 68 144 54T181 40Q191 40 201 42T222 53L278 89L279 75L207 23Q184 8
163 1T117 -7Z" />
<glyph unicode="&#xe7;" horiz-adv-x="420" d="M233 -12Q164 -12 120 17T55 93T33 186Q33 236 53 275T108 340T182 381T263 395Q292 395 320 387T366 363T385 325Q385 309 373 297T337 284Q315 284 303 295T282 328Q274 350 263 362T226 374Q178 374 151 331T124
218Q124 167 139 125T190 58T283 32Q312 32 334 39T381 61Q383 63 386 59T388 53Q353 21 317 5T233 -12ZM230 -2Q223 -28 223 -44T234 -71T264 -95Q285 -108 302 -125T319 -173Q319 -196 308 -219T271 -259T203 -275Q171 -275 152 -264T132 -230Q132 -217 143 -206T169
-195Q187 -195 194 -203T205 -223T215 -243T240 -252Q267 -252 267 -224Q267 -198 249 -177T183 -130Q174 -126 173 -121T176 -101Q186 -79 190 -67T200 -41T215 -1L230 -2Z" />
<glyph unicode="&#xe8;" horiz-adv-x="414" d="M229 -12Q166 -12 122 15T56 86T33 181Q33 241 62 289T141 366T254 395Q313 395 346 367T379 280Q379 267 377 259T368 251H286Q289 309 273 342T218 375Q173 375 148 334T122 223Q122 165 140 123T193 56T279 32Q310
32 331 40T376 62Q378 64 381 60T383 53Q347 18 310 3T229 -12ZM93 250L92 267L314 271V251L93 250ZM124 727Q123 731 135 731T164 729T195 723T210 716L248 476Q249 474 244 473T238 474L124 727Z" />
<glyph unicode="&#xe9;" horiz-adv-x="414" d="M229 -12Q166 -12 122 15T56 86T33 181Q33 241 62 289T141 366T254 395Q313 395 346 367T379 280Q379 267 377 259T368 251H286Q289 309 273 342T218 375Q173 375 148 334T122 223Q122 165 140 123T193 56T279 32Q310
32 331 40T376 62Q378 64 381 60T383 53Q347 18 310 3T229 -12ZM93 250L92 267L314 271V251L93 250ZM230 474Q229 471 224 472T219 476L259 716Q261 719 274 722T304 728T333 731T344 727L230 474Z" />
<glyph unicode="&#xea;" horiz-adv-x="414" d="M229 -12Q166 -12 122 15T56 86T33 181Q33 241 62 289T141 366T254 395Q313 395 346 367T379 280Q379 267 377 259T368 251H286Q289 309 273 342T218 375Q173 375 148 334T122 223Q122 165 140 123T193 56T279 32Q310
32 331 40T376 62Q378 64 381 60T383 53Q347 18 310 3T229 -12ZM93 250L92 267L314 271V251L93 250ZM311 476Q313 474 308 473T301 474L233 602L164 474Q163 471 158 472T153 476L221 725Q222 730 232 730T244 725L311 476Z" />
<glyph unicode="&#xeb;" horiz-adv-x="414" d="M229 -12Q166 -12 122 15T56 86T33 181Q33 241 62 289T141 366T254 395Q313 395 346 367T379 280Q379 267 377 259T368 251H286Q289 309 273 342T218 375Q173 375 148 334T122 223Q122 165 140 123T193 56T279 32Q310
32 331 40T376 62Q378 64 381 60T383 53Q347 18 310 3T229 -12ZM93 250L92 267L314 271V251L93 250ZM146 469Q123 469 109 482T95 519Q95 541 109 554T146 567Q169 567 181 554T194 519Q194 469 146 469ZM320 469Q297 469 284 482T270 519Q270 541 283 553T320
566Q369 566 369 519Q369 469 320 469Z" />
<glyph unicode="&#xec;" horiz-adv-x="266" d="M44 0Q41 0 41 6T44 12Q78 12 89 26T101 81V263Q101 297 94 312T70 328Q62 328 52 325T30 316Q26 315 24 321T24 328L168 395Q170 396 171 396Q175 396 179 392T184 384Q184 373 183 344T182 264V81Q182 40 193 26T239
12Q242 12 242 6T239 0Q219 0 194 1T141 2Q114 2 89 1T44 0ZM27 727Q26 731 38 731T68 729T98 723T113 716L152 476Q152 474 148 473T142 474L27 727Z" />
<glyph unicode="&#xed;" horiz-adv-x="266" d="M44 0Q41 0 41 6T44 12Q78 12 89 26T101 81V263Q101 297 94 312T70 328Q62 328 52 325T30 316Q26 315 24 321T24 328L168 395Q170 396 171 396Q175 396 179 392T184 384Q184 373 183 344T182 264V81Q182 40 193 26T239
12Q242 12 242 6T239 0Q219 0 194 1T141 2Q114 2 89 1T44 0ZM134 474Q133 471 128 472T123 476L162 716Q164 719 177 722T208 728T237 731T247 727L134 474Z" />
<glyph unicode="&#xee;" horiz-adv-x="266" d="M44 0Q41 0 41 6T44 12Q78 12 89 26T101 81V263Q101 297 94 312T70 328Q62 328 52 325T30 316Q26 315 24 321T24 328L168 395Q170 396 171 396Q175 396 179 392T184 384Q184 373 183 344T182 264V81Q182 40 193 26T239
12Q242 12 242 6T239 0Q219 0 194 1T141 2Q114 2 89 1T44 0ZM215 476Q217 474 212 473T205 474L137 602L68 474Q67 471 62 472T57 476L125 725Q126 730 136 730T148 725L215 476Z" />
<glyph unicode="&#xef;" horiz-adv-x="266" d="M44 0Q41 0 41 6T44 12Q78 12 89 26T101 81V263Q101 297 94 312T70 328Q62 328 52 325T30 316Q26 315 24 321T24 328L168 395Q170 396 171 396Q175 396 179 392T184 384Q184 373 183 344T182 264V81Q182 40 193 26T239
12Q242 12 242 6T239 0Q219 0 194 1T141 2Q114 2 89 1T44 0ZM61 469Q39 469 25 482T11 519Q11 541 25 554T61 567Q85 567 98 554T111 519Q111 495 98 482T61 469ZM210 469Q187 469 174 482T161 519Q161 541 174 553T210 566Q259 566 259 519Q259 469 210 469Z"
/>
<glyph unicode="&#xf0;" horiz-adv-x="470" d="M378 225Q363 299 323 338T231 378Q180 378 146 337T111 215Q111 159 128 112T177 36T251 8Q283 8 307 24T345 80T358 191Q358 274 337 353T279 501T194 625T90 716Q86 718 89 722T96 725Q178 689 243 634T354 513T425
373T450 227Q450 142 419 89T336 12T223 -13Q161 -13 116 14T45 87T20 186Q20 241 40 281T94 347T166 386T240 399Q276 399 309 386T367 347L378 225ZM125 484Q122 483 118 489T112 503T113 513L387 643Q391 645 395 639T401 624T399 614L125 484Z" />
<glyph unicode="&#xf1;" horiz-adv-x="523" d="M310 0Q307 0 307 6T310 12Q344 12 355 26T366 81V231Q366 287 346 313T281 340Q249 340 216 323T160 274L155 286Q194 339 237 368T331 398Q387 398 417 365T447 274V81Q447 40 458 26T504 12Q507 12 507 6T504
0Q485 0 460 1T407 2Q380 2 355 1T310 0ZM41 0Q38 0 38 6T41 12Q75 12 86 26T97 81V272Q97 304 90 319T65 334Q56 334 43 330T15 319Q11 318 9 323T9 330L140 394Q145 396 147 396Q157 396 167 373T178 306V81Q178 40 189 26T235 12Q238 12 238 6T235 0Q216 0 191
1T138 2Q111 2 86 1T41 0ZM350 530Q368 530 378 536T401 557Q403 559 406 556T408 550Q381 505 365 491T326 476Q307 476 287 482T245 494T199 500Q178 500 169 493T149 473Q147 472 144 475T142 480Q150 494 163 511T193 542T228 555Q243 555 263 549T305 537T350
530Z" />
<glyph unicode="&#xf2;" horiz-adv-x="486" d="M235 -13Q173 -13 128 16T58 93T33 198Q33 250 53 288T105 350T176 387T252 399Q315 399 360 369T428 292T452 192Q452 130 422 84T343 13T235 -13ZM265 7Q309 7 333 45T357 160Q357 229 338 278T287 353T219 379Q175
379 151 343T127 233Q127 167 145 116T194 36T265 7ZM136 727Q135 731 147 731T176 729T207 723T221 716L260 476Q261 474 256 473T250 474L136 727Z" />
<glyph unicode="&#xf3;" horiz-adv-x="486" d="M235 -13Q173 -13 128 16T58 93T33 198Q33 250 53 288T105 350T176 387T252 399Q315 399 360 369T428 292T452 192Q452 130 422 84T343 13T235 -13ZM265 7Q309 7 333 45T357 160Q357 229 338 278T287 353T219 379Q175
379 151 343T127 233Q127 167 145 116T194 36T265 7ZM242 474Q241 471 236 472T231 476L271 716Q272 719 285 722T316 728T345 731T356 727L242 474Z" />
<glyph unicode="&#xf4;" horiz-adv-x="486" d="M235 -13Q173 -13 128 16T58 93T33 198Q33 250 53 288T105 350T176 387T252 399Q315 399 360 369T428 292T452 192Q452 130 422 84T343 13T235 -13ZM265 7Q309 7 333 45T357 160Q357 229 338 278T287 353T219 379Q175
379 151 343T127 233Q127 167 145 116T194 36T265 7ZM323 476Q325 474 320 473T313 474L245 602L176 474Q175 471 170 472T165 476L233 725Q234 730 244 730T256 725L323 476Z" />
<glyph unicode="&#xf5;" horiz-adv-x="486" d="M235 -13Q173 -13 128 16T58 93T33 198Q33 250 53 288T105 350T176 387T252 399Q315 399 360 369T428 292T452 192Q452 130 422 84T343 13T235 -13ZM265 7Q309 7 333 45T357 160Q357 229 338 278T287 353T219 379Q175
379 151 343T127 233Q127 167 145 116T194 36T265 7ZM320 530Q337 530 347 536T370 557Q372 559 375 556T377 550Q350 505 334 491T295 476Q276 476 256 482T214 494T169 500Q147 500 139 493T118 473Q116 472 113 475T111 480Q119 494 132 511T162 542T197 555Q212
555 232 549T275 537T320 530Z" />
<glyph unicode="&#xf6;" horiz-adv-x="486" d="M235 -13Q173 -13 128 16T58 93T33 198Q33 250 53 288T105 350T176 387T252 399Q315 399 360 369T428 292T452 192Q452 130 422 84T343 13T235 -13ZM265 7Q309 7 333 45T357 160Q357 229 338 278T287 353T219 379Q175
379 151 343T127 233Q127 167 145 116T194 36T265 7ZM158 469Q134 469 121 482T107 519Q107 541 120 554T158 567Q181 567 193 554T206 519Q206 469 158 469ZM332 469Q309 469 296 482T282 519Q282 541 295 553T332 566Q380 566 380 519Q380 469 332 469Z" />
<glyph unicode="&#xf7;" horiz-adv-x="398" d="M34 167Q31 167 30 178T30 201T33 212H364Q367 212 368 201T368 179T364 167H34ZM199 -11Q173 -11 159 3T144 44Q144 67 158 81T199 96Q224 96 237 82T251 44Q251 18 238 4T199 -11ZM199 287Q173 287 159 301T144
342Q144 365 158 379T199 393Q224 393 237 379T251 341Q251 287 199 287Z" />
<glyph unicode="&#xf8;" horiz-adv-x="477" d="M55 -15Q54 -17 49 -14T39 -5T37 3L423 400Q425 402 430 399T440 391T441 383L55 -15ZM235 -13Q173 -13 128 16T58 93T33 198Q33 250 53 288T105 350T176 387T252 399Q315 399 360 369T428 292T452 192Q452 130 422
84T343 13T235 -13ZM265 7Q309 7 333 45T357 160Q357 229 338 278T287 353T219 379Q175 379 151 343T127 233Q127 167 145 116T194 36T265 7Z" />
<glyph unicode="&#xf9;" horiz-adv-x="501" d="M189 -11Q136 -11 106 23T75 114V263Q75 298 68 314T44 331Q32 331 16 323Q12 322 10 328T10 335L136 394Q139 395 141 395Q145 395 150 391T155 384V157Q155 101 175 74T238 46Q270 46 302 64T356 113L362 101Q324
49 281 19T189 -11ZM417 384V113Q417 79 424 65T448 50Q456 50 467 53T493 62Q497 64 500 59T499 51L368 -12Q366 -13 364 -13Q355 -13 346 11T337 79V263Q337 298 330 314T306 331Q294 331 278 323Q274 322 272 328T273 335L399 394Q401 395 403 395Q408 395 412
391T417 384ZM142 727Q141 731 153 731T182 729T213 723T228 716L266 476Q267 474 262 473T256 474L142 727Z" />
<glyph unicode="&#xfa;" horiz-adv-x="501" d="M189 -11Q136 -11 106 23T75 114V263Q75 298 68 314T44 331Q32 331 16 323Q12 322 10 328T10 335L136 394Q139 395 141 395Q145 395 150 391T155 384V157Q155 101 175 74T238 46Q270 46 302 64T356 113L362 101Q324
49 281 19T189 -11ZM417 384V113Q417 79 424 65T448 50Q456 50 467 53T493 62Q497 64 500 59T499 51L368 -12Q366 -13 364 -13Q355 -13 346 11T337 79V263Q337 298 330 314T306 331Q294 331 278 323Q274 322 272 328T273 335L399 394Q401 395 403 395Q408 395 412
391T417 384ZM248 474Q247 471 242 472T237 476L277 716Q279 719 292 722T323 728T352 731T362 727L248 474Z" />
<glyph unicode="&#xfb;" horiz-adv-x="501" d="M189 -11Q136 -11 106 23T75 114V263Q75 298 68 314T44 331Q32 331 16 323Q12 322 10 328T10 335L136 394Q139 395 141 395Q145 395 150 391T155 384V157Q155 101 175 74T238 46Q270 46 302 64T356 113L362 101Q324
49 281 19T189 -11ZM417 384V113Q417 79 424 65T448 50Q456 50 467 53T493 62Q497 64 500 59T499 51L368 -12Q366 -13 364 -13Q355 -13 346 11T337 79V263Q337 298 330 314T306 331Q294 331 278 323Q274 322 272 328T273 335L399 394Q401 395 403 395Q408 395 412
391T417 384ZM329 476Q331 474 326 473T319 474L251 602L182 474Q181 471 176 472T171 476L239 725Q240 730 250 730T262 725L329 476Z" />
<glyph unicode="&#xfc;" horiz-adv-x="501" d="M189 -11Q136 -11 106 23T75 114V263Q75 298 68 314T44 331Q32 331 16 323Q12 322 10 328T10 335L136 394Q139 395 141 395Q145 395 150 391T155 384V157Q155 101 175 74T238 46Q270 46 302 64T356 113L362 101Q324
49 281 19T189 -11ZM417 384V113Q417 79 424 65T448 50Q456 50 467 53T493 62Q497 64 500 59T499 51L368 -12Q366 -13 364 -13Q355 -13 346 11T337 79V263Q337 298 330 314T306 331Q294 331 278 323Q274 322 272 328T273 335L399 394Q401 395 403 395Q408 395 412
391T417 384ZM164 469Q141 469 127 482T113 519Q113 541 127 554T164 567Q187 567 199 554T212 519Q212 469 164 469ZM338 469Q315 469 302 482T288 519Q288 541 301 553T338 566Q387 566 387 519Q387 469 338 469Z" />
<glyph unicode="&#xfd;" horiz-adv-x="430" d="M438 386Q440 386 440 380T438 374Q407 374 386 349T347 277L232 -28Q196 -124 163 -179T95 -258T21 -281Q-6 -281 -22 -270T-38 -235Q-38 -215 -25 -205T5 -194Q22 -194 32 -200T52 -213T78 -220Q103 -220 123 -199T168
-126T225 13L222 -33L57 303Q35 347 23 360T-9 374Q-11 374 -11 380T-9 386Q10 386 30 385T70 384Q105 384 131 385T179 386Q182 386 182 380T179 374Q145 374 133 366T132 335L262 68L231 15L322 277Q338 325 323 349T263 374Q261 374 261 380T263 386Q287 386
308 385T364 384Q387 384 402 385T438 386ZM221 474Q220 471 215 472T210 476L249 716Q251 719 264 722T295 728T324 731T334 727L221 474Z" />
<glyph unicode="&#xfe;" horiz-adv-x="494" d="M10 -275Q8 -275 8 -269T10 -263Q47 -263 58 -250T69 -194V592Q69 627 63 642T39 658Q25 658 -1 646Q-5 645 -8 651T-8 658L131 724Q133 725 136 725Q140 725 144 721T149 714V-194Q149 -222 156 -237T183 -257T242
-263Q245 -263 245 -269T242 -275Q214 -275 180 -274T109 -273Q81 -273 55 -274T10 -275ZM242 -13Q204 -13 176 -6T110 18L138 79Q161 49 189 30T264 11Q313 11 343 53T373 184Q373 266 336 307T247 349Q207 349 178 328T121 277L111 287Q162 346 209 372T304 399Q345
399 381 378T439 315T461 215Q461 152 441 109T387 38T316 -1T242 -13Z" />
<glyph unicode="&#xff;" horiz-adv-x="430" d="M438 386Q440 386 440 380T438 374Q407 374 386 349T347 277L232 -28Q196 -124 163 -179T95 -258T21 -281Q-6 -281 -22 -270T-38 -235Q-38 -215 -25 -205T5 -194Q22 -194 32 -200T52 -213T78 -220Q103 -220 123 -199T168
-126T225 13L222 -33L57 303Q35 347 23 360T-9 374Q-11 374 -11 380T-9 386Q10 386 30 385T70 384Q105 384 131 385T179 386Q182 386 182 380T179 374Q145 374 133 366T132 335L262 68L231 15L322 277Q338 325 323 349T263 374Q261 374 261 380T263 386Q287 386
308 385T364 384Q387 384 402 385T438 386ZM137 469Q113 469 100 482T86 519Q86 541 99 554T137 567Q160 567 172 554T185 519Q185 469 137 469ZM311 469Q288 469 275 482T261 519Q261 541 274 553T311 566Q359 566 359 519Q359 469 311 469Z" />
<glyph unicode="&#x2013;" horiz-adv-x="515" d="M34 167Q31 167 30 178T30 201T33 212H481Q484 212 485 201T485 179T481 167H34Z" />
<glyph unicode="&#x2014;" horiz-adv-x="830" d="M34 167Q31 167 30 178T30 201T33 212H796Q799 212 800 201T800 179T796 167H34Z" />
<glyph unicode="&#x2018;" horiz-adv-x="190" d="M100 355Q68 355 49 378T30 449Q30 501 54 546T121 635Q125 638 128 635T129 628Q103 594 94 563T85 496Q85 466 91 452T108 429L71 422Q70 439 80 448T109 457Q133 457 146 444T159 407Q159 382 143 369T100 355Z" />
<glyph unicode="&#x2019;" horiz-adv-x="188" d="M88 628Q121 628 139 605T158 534Q158 482 134 437T67 348Q63 345 60 348T59 355Q86 389 94 420T103 487Q103 517 97 531T80 554L117 561Q118 544 108 535T79 526Q56 526 43 540T29 576Q29 601 45 614T88 628Z" />
<glyph unicode="&#x201a;" horiz-adv-x="188" d="M88 94Q121 94 139 71T158 0Q158 -52 134 -97T67 -186Q63 -189 60 -186T59 -179Q86 -145 94 -114T103 -47Q103 -17 97 -3T80 20L117 27Q118 10 108 1T79 -8Q56 -8 43 6T29 42Q29 67 45 80T88 94Z" />
<glyph unicode="&#x201c;" horiz-adv-x="352" d="M101 355Q68 355 49 378T30 449Q30 501 54 546T122 635Q126 638 129 635T130 628Q103 594 94 563T85 496Q85 466 91 452T108 429L71 422Q70 439 80 448T109 457Q133 457 146 444T159 407Q159 382 144 369T101 355ZM265
355Q232 355 213 378T194 449Q194 501 218 546T285 635Q289 638 292 635T293 628Q267 594 258 563T249 496Q249 466 255 452T272 429L235 422Q234 439 244 448T273 457Q297 457 310 444T323 407Q323 382 307 369T265 355Z" />
<glyph unicode="&#x201d;" horiz-adv-x="352" d="M252 628Q285 628 303 605T322 534Q322 482 298 437T231 348Q227 345 224 348T223 355Q250 389 258 420T267 487Q267 517 261 531T244 554L281 561Q282 544 272 535T243 526Q219 526 206 540T193 576Q193 601 209
614T252 628ZM88 628Q121 628 139 605T158 534Q158 482 134 437T67 348Q63 345 60 348T59 355Q86 389 94 420T103 487Q103 517 97 531T80 554L117 561Q118 544 108 535T79 526Q56 526 43 540T29 576Q29 601 45 614T88 628Z" />
<glyph unicode="&#x201e;" horiz-adv-x="361" d="M252 94Q285 94 303 71T322 0Q322 -52 298 -97T231 -186Q227 -189 224 -186T223 -179Q250 -145 258 -114T267 -47Q267 -17 261 -3T244 20L281 27Q282 10 272 1T243 -8Q219 -8 206 6T193 42Q193 67 209 80T252 94ZM88
94Q121 94 139 71T158 0Q158 -52 134 -97T67 -186Q63 -189 60 -186T59 -179Q86 -145 94 -114T103 -47Q103 -17 97 -3T80 20L117 27Q118 10 108 1T79 -8Q56 -8 43 6T29 42Q29 67 45 80T88 94Z" />
<glyph unicode="&#x2022;" horiz-adv-x="318" d="M160 138Q129 138 104 152T63 192T48 248Q48 278 63 303T103 343T160 358Q190 358 214 343T254 303T270 248Q270 217 255 192T215 153T160 138Z" />
<glyph unicode="&#x2039;" horiz-adv-x="304" d="M239 40L55 189Q51 194 51 201T55 212L239 361Q241 364 244 361T246 356L144 201L246 46Q247 44 244 41T239 40Z" />
<glyph unicode="&#x203a;" horiz-adv-x="304" d="M65 361L249 212Q254 208 254 201T249 189L65 40Q64 37 61 40T58 46L161 200L58 356Q57 358 60 361T65 361Z" />
</font>
</defs>
</svg>
