<?xml version="1.0" standalone="no"?>
<!DOCTYPE svg PUBLIC "-//W3C//DTD SVG 1.1//EN" "http://www.w3.org/Graphics/SVG/1.1/DTD/svg11.dtd">
<svg xmlns="http://www.w3.org/2000/svg">
<defs >
<font id="CormorantGaramond" horiz-adv-x="447" ><font-face
    font-family="Cormorant Garamond Light Medium"
    units-per-em="1000"
    panose-1="0 0 0 0 0 0 0 0 0 0"
    ascent="924"
    descent="-287"
    alphabetic="0" />
<glyph unicode=" " horiz-adv-x="234" />
<glyph unicode="!" horiz-adv-x="219" d="M113 191Q112 186 107 187T102 192Q109 258 116 332T129 481T136 621Q136 625 152 629T186 633Q205 633 220 629T234 621Q210 555 189 481T148 332T113 191ZM83 -10Q61 -10 49 2T36 37Q36 58 48 70T83 82Q105 82 117 70T129
37Q129 -10 83 -10Z" />
<glyph unicode="&quot;" horiz-adv-x="325" d="M86 301L121 609Q122 617 136 623T167 634T198 640T210 637L99 303Q98 300 92 300T86 301ZM236 301L272 609Q273 617 287 623T318 634T349 640T361 637L250 303Q249 300 243 300T236 301Z" />
<glyph unicode="#" horiz-adv-x="438" d="M68 -82Q68 -85 60 -84T43 -79T36 -73L222 484Q223 487 231 485T247 479T254 472L68 -82ZM25 75Q23 75 23 85T23 106T25 117H348Q351 117 351 107T351 86T347 75H25ZM219 -82Q219 -85 211 -84T194 -79T187 -73L373 484Q374
487 382 485T398 479T405 472L219 -82ZM92 274Q90 274 89 284T89 305T92 315H415Q418 315 418 305T418 285T414 274H92Z" />
<glyph unicode="$" horiz-adv-x="384" d="M133 -100L250 563Q252 570 262 569T271 560L155 -103Q154 -110 143 -109T133 -100ZM150 383Q145 353 156 332T190 296T236 264Q261 248 284 230T320 186T326 121Q320 84 296 54T234 6T149 -12Q115 -12 86 -1T40 25Q35
28 34 32T34 45L44 149Q45 153 49 153T55 148Q58 114 72 81T110 27T167 6Q186 6 205 14T240 42T260 93Q267 126 255 149T221 189T174 224Q150 240 128 258T95 301T90 362Q97 400 121 426T180 466T252 480Q276 480 300 474T343 456Q351 452 353 448T355 437L344
347Q343 343 339 343T334 349Q334 363 328 382T310 419T280 450T236 462Q200 462 178 440T150 383Z" />
<glyph unicode="%" horiz-adv-x="522" d="M65 -8Q64 -9 58 -6T46 2T42 7L472 551Q474 554 480 551T491 542T494 535L65 -8ZM352 -5Q305 -5 281 32T266 124Q272 160 291 189T338 235T397 252Q443 252 466 214T480 123Q470 69 435 32T352 -5ZM360 10Q390 10 402
40T421 116Q430 176 422 206T389 237Q360 237 346 206T325 128Q316 78 323 44T360 10ZM157 303Q110 303 86 340T72 433Q78 468 97 497T144 543T203 560Q250 560 273 522T286 430Q276 377 240 340T157 303ZM165 317Q194 317 206 347T226 423Q236 483 228 514T195
545Q165 545 151 513T130 436Q122 386 129 352T165 317Z" />
<glyph unicode="&amp;" horiz-adv-x="755" d="M311 -12Q249 -12 201 12T121 77T78 171T77 278Q89 333 123 375T204 441T300 465Q325 465 348 458T390 434L327 376Q312 413 290 425T248 437Q222 437 201 420T166 374T144 310Q134 248 147 197T189 110T259 53T345
33Q406 33 455 64T535 157T569 309L588 303Q581 198 543 128T445 23T311 -12ZM120 194L109 205Q142 234 185 267T273 337T355 411T416 483T439 551Q439 571 433 581T417 598T401 611T394 635Q394 652 404 662T432 673Q457 673 471 652T485 597Q485 553 461 510T398
425T311 344T213 267T120 194ZM391 224Q380 224 371 231T362 258Q362 285 379 310T425 351T483 367Q510 367 538 356T595 329T650 302T699 290Q712 290 720 295T728 309Q728 318 722 325T710 341T703 361Q703 373 710 379T732 386Q744 386 752 380T761 352Q761
327 746 302T707 260T654 243Q629 243 601 255T543 284T485 312T431 325Q415 325 407 319T399 304Q399 294 404 286T414 269T419 250Q419 241 413 233T391 224Z" />
<glyph unicode="&apos;" horiz-adv-x="132" d="M68 301L103 609Q104 617 118 623T149 634T180 640T192 637L81 303Q80 300 74 300T68 301Z" />
<glyph unicode="(" horiz-adv-x="283" d="M197 -117Q140 -80 108 -17T69 128T78 304Q95 398 132 480T224 625T345 725Q348 727 351 723T351 717Q276 645 228 543T157 304Q134 175 145 74T204 -109Q206 -111 203 -114T197 -117Z" />
<glyph unicode=")" horiz-adv-x="283" d="M126 725Q183 689 215 626T254 480T246 304Q230 211 192 129T100 -17T-22 -117Q-25 -118 -27 -114T-28 -109Q48 -37 95 65T167 304Q189 433 178 534T119 717Q118 719 121 723T126 725Z" />
<glyph unicode="*" horiz-adv-x="448" d="M188 374Q184 368 169 370T136 380T107 394T99 404L245 491Q248 493 252 490T254 485L188 374ZM311 315L273 481Q272 483 276 486T281 488L367 390Q372 385 365 371T345 343T322 320T311 315ZM243 511L117 540Q110 541
108 556T107 591T111 623T118 633L247 521Q249 519 248 515T243 511ZM461 488L291 503Q289 503 288 507T288 513L407 564Q414 567 425 556T446 529T461 501T461 488ZM265 529L254 659Q253 667 267 673T299 684T331 690T343 687L276 529Q275 526 271 526T265 529Z"
/>
<glyph unicode="+" horiz-adv-x="398" d="M34 169Q31 169 30 179T30 200T33 210H364Q367 210 368 200T368 180T364 169H34ZM220 25Q220 22 210 21T189 20T178 23V354Q178 357 188 358T209 358T220 354V25Z" />
<glyph unicode="," horiz-adv-x="227" d="M12 -179Q8 -182 5 -177T5 -170Q37 -139 56 -106T81 -39Q87 -10 82 3T73 19L102 31Q103 12 94 2T67 -8Q44 -8 33 7T24 41Q26 59 39 70T75 81Q106 81 122 57T129 -14Q121 -60 90 -101T12 -179Z" />
<glyph unicode="-" horiz-adv-x="305" d="M33 166Q30 166 29 177T27 200T30 213L279 259Q282 260 283 249T284 226T281 213L33 166Z" />
<glyph unicode="." horiz-adv-x="200" d="M71 -10Q49 -10 37 2T24 37Q24 58 36 70T71 82Q93 82 105 70T117 37Q117 -10 71 -10Z" />
<glyph unicode="/" horiz-adv-x="305" d="M-8 -168Q-10 -171 -19 -169T-37 -162T-44 -155L340 732Q342 736 351 734T368 727T374 718L-8 -168Z" />
<glyph unicode="0" horiz-adv-x="441" d="M185 -13Q131 -13 93 14T39 88T32 196Q43 256 76 301T157 373T259 399Q314 399 351 373T404 301T409 193Q398 133 365 87T286 14T185 -13ZM200 3Q235 3 261 26T306 89T332 181Q342 248 334 293T302 360T247 383Q196 383
159 334T109 204Q100 149 107 103T137 30T200 3Z" />
<glyph unicode="1" horiz-adv-x="291" d="M11 0Q7 0 7 6T11 12Q46 12 65 17T93 37T108 81L142 271Q148 304 146 318T126 330T62 306Q58 304 56 309T58 317L219 397Q222 399 225 397T226 392L170 81Q165 52 168 37T190 17T245 12Q248 12 248 6T245 0Q221 0 192
1T129 2Q96 2 66 1T11 0Z" />
<glyph unicode="2" horiz-adv-x="366" d="M4 15Q66 65 110 103T184 173T229 232T250 286Q256 323 241 348T191 374Q156 374 128 343T73 254Q72 251 67 253T62 259L120 410Q122 413 127 412T130 406Q125 389 128 384T137 379Q151 379 175 389T234 399Q281 399 304
371T318 297Q312 267 294 241T245 189T176 132T89 62Q86 61 87 60T90 59Q150 59 189 60T254 68T293 87T316 122Q318 125 323 124T328 119L293 8Q292 5 290 3T284 0Q220 0 148 0T10 0Q6 0 4 5T4 15Z" />
<glyph unicode="3" horiz-adv-x="346" d="M-31 -276Q-34 -277 -36 -271T-36 -264Q47 -235 98 -192T174 -103T206 -17Q212 17 206 45T181 90T127 107Q118 107 107 105T85 100Q81 99 79 106T80 114Q152 133 189 170T236 272Q245 320 234 347T186 375Q147 375 113
346T52 257Q50 254 45 256T40 262L99 406Q101 409 106 407T109 401Q103 386 107 382T118 377Q133 377 158 388T218 399Q254 399 275 382T304 339T307 281Q301 245 279 212T224 153T148 119L158 133Q210 132 239 111T278 56T281 -15Q274 -60 237 -109T133 -203T-31
-276Z" />
<glyph unicode="4" horiz-adv-x="426" d="M197 -188Q187 -193 188 -182L275 311L314 340L45 55Q39 48 49 48Q116 48 168 49T266 51T363 54Q366 54 365 41T361 16T355 3Q307 6 256 7T141 9T-10 10Q-14 10 -15 13T-13 21L341 400Q343 403 349 402T354 396L256 -158Q254
-169 247 -172L197 -188Z" />
<glyph unicode="5" horiz-adv-x="374" d="M-23 -275Q-27 -276 -29 -271T-28 -264Q56 -221 105 -179T180 -95T212 -8Q226 72 186 119T54 167Q44 167 48 179L108 357Q110 364 112 365T122 368Q202 378 247 384T312 395T340 406T352 423Q354 426 359 424T362 419L330
341Q324 328 318 326T301 323L127 319Q116 319 110 304L68 176L69 196Q159 196 210 172T280 106T289 9Q279 -48 243 -94T142 -184T-23 -275Z" />
<glyph unicode="6" horiz-adv-x="422" d="M193 -13Q105 -13 63 44T41 208Q53 277 87 345T175 474T296 584T445 661Q449 662 450 657T448 649Q354 605 285 535T172 384T116 226Q104 165 113 116T150 37T223 8Q257 8 281 35T314 116Q323 173 308 213T246 253Q226
253 208 245T164 216Q162 214 159 217T156 223Q211 282 285 282Q331 282 356 261T388 208T389 142Q381 99 353 64T283 8T193 -13Z" />
<glyph unicode="7" horiz-adv-x="389" d="M-4 -275Q-6 -276 -8 -273T-9 -268L338 322Q343 329 336 329Q242 329 188 327T107 318T68 297T45 260Q44 256 38 258T33 264L93 415Q94 418 100 416T105 412Q98 395 105 391T142 386Q156 386 184 386T247 386T317 386T381
386Q385 386 386 382T386 373L88 -220Q79 -237 64 -244L-4 -275Z" />
<glyph unicode="8" horiz-adv-x="440" d="M193 -13Q134 -13 95 10T39 70T29 149Q37 196 69 236T144 306T228 349L233 340Q180 317 147 274T105 175Q98 133 109 95T148 32T221 7Q262 7 295 40T337 132Q346 180 333 213T294 270T239 312T183 350T143 395T135 456Q142
496 167 522T225 561T291 574Q335 574 361 555T399 510T405 460Q399 426 363 393T275 333L271 339Q302 364 319 390T342 448Q346 476 339 501T315 541T273 557Q245 557 224 537T199 483Q195 448 210 423T252 377T309 338T364 295T403 239T409 161Q399 109 366 70T288
9T193 -13Z" />
<glyph unicode="9" horiz-adv-x="422" d="M-22 -275Q-26 -276 -28 -270T-26 -263Q45 -230 101 -181T200 -74T268 45T306 160Q318 215 309 264T273 346T200 378Q168 378 144 356T109 282Q102 243 109 209T137 155T186 134Q204 134 221 143T258 170Q261 172 265
170T267 164Q243 134 213 119T149 104Q102 104 74 128T37 188T33 256Q41 296 70 328T141 380T230 399Q286 399 324 372T378 296T380 178Q369 110 335 42T248 -88T127 -198T-22 -275Z" />
<glyph unicode=":" horiz-adv-x="200" d="M71 -10Q49 -10 37 2T24 37Q24 58 36 70T71 82Q93 82 105 70T117 37Q117 -10 71 -10ZM108 271Q86 271 74 283T61 318Q61 339 73 351T108 363Q130 363 142 351T154 318Q154 271 108 271Z" />
<glyph unicode=";" horiz-adv-x="222" d="M12 -179Q8 -182 5 -177T5 -170Q37 -139 56 -106T81 -39Q87 -10 82 3T73 19L102 31Q103 12 94 2T67 -8Q44 -8 33 7T24 41Q26 59 39 70T75 81Q106 81 122 57T129 -14Q121 -60 90 -101T12 -179ZM108 271Q86 271 74 283T61
318Q61 339 73 351T108 363Q130 363 142 351T154 318Q154 271 108 271Z" />
<glyph unicode="&lt;" horiz-adv-x="407" d="M370 354Q375 357 376 347T377 326T370 311L77 186V194L370 68Q375 67 376 55T377 33T370 25L36 173Q31 176 31 190T36 207L370 354Z" />
<glyph unicode="=" horiz-adv-x="468" d="M34 239Q31 239 30 249T30 270T33 280H434Q437 280 438 270T438 250T434 239H34ZM34 99Q31 99 30 109T30 129T33 140H434Q437 140 438 130T438 109T434 99H34Z" />
<glyph unicode="&gt;" horiz-adv-x="407" d="M37 25Q33 23 32 32T31 54T37 68L330 193V185L37 310Q33 313 32 324T31 346T37 354L371 206Q376 203 376 189T371 172L37 25Z" />
<glyph unicode="?" horiz-adv-x="295" d="M137 189Q124 217 120 252T119 308Q125 344 145 366T191 408T237 451T265 517Q270 543 265 564T248 597T213 609Q188 609 179 595T165 565Q163 556 159 545T146 525T121 517Q101 517 94 529T89 558Q92 578 112 593T161
617T221 625Q280 625 313 594T335 505Q329 472 312 448T275 406T235 372Q193 338 175 311T151 248Q149 236 149 222T150 191Q150 187 144 186T137 189ZM115 -10Q93 -10 81 2T68 37Q68 58 80 70T115 82Q137 82 149 70T161 37Q161 -10 115 -10Z" />
<glyph unicode="@" horiz-adv-x="722" d="M361 -100Q280 -100 214 -68T109 26T70 175Q70 247 96 306T169 408T275 473T399 496Q478 496 535 465T624 381T656 266Q656 209 630 160T561 82T466 53Q428 53 415 77T411 141L429 231L452 244Q429 189 397 145T331 76T264
51Q240 51 223 69T212 133Q218 175 239 214T290 286T353 338T417 357Q437 357 455 346T475 308L446 327Q457 329 471 339T487 364Q489 366 497 366T505 363L464 139Q459 110 464 92T498 74Q524 74 550 92T595 147T614 236Q614 302 582 355T494 441T367 473Q287
473 232 436T148 337T119 199Q119 119 153 59T250 -34T395 -68Q440 -68 478 -58T561 -20Q564 -18 566 -22T567 -28Q512 -73 459 -86T361 -100ZM298 98Q317 98 338 113T378 153T413 210T435 272Q440 298 431 316T399 334Q374 333 348 310T303 251T276 171Q270 140
274 119T298 98Z" />
<glyph unicode="A" horiz-adv-x="602" d="M-34 0Q-38 0 -38 6T-34 12Q-8 12 27 37T98 127L382 635Q384 639 391 638T400 633L495 84Q499 57 505 41T524 19T566 12Q570 12 570 6T566 0Q542 0 517 2T462 4Q433 4 410 2T362 0Q359 0 359 6T362 12Q406 12 418 27T422
84L344 541L378 585L129 131Q103 84 101 58T115 22T168 12Q172 12 172 6T167 0Q147 0 117 2T58 4Q29 4 11 2T-34 0ZM186 261L201 283H418L420 261H186Z" />
<glyph unicode="B" horiz-adv-x="534" d="M304 339L316 353Q379 353 420 331T480 269T488 178Q479 128 445 87T360 21T252 -4Q225 -4 188 -1T121 2Q90 2 62 1T12 0Q9 0 9 6T12 12Q43 12 60 17T86 39T100 83L182 546Q189 589 178 601T121 613Q117 613 118 619T121
625Q144 625 171 624T228 622Q254 622 284 625T337 628Q398 628 434 611T483 564T488 492Q476 437 429 397T304 339ZM319 612Q299 612 286 607T264 586T251 539L217 346L189 354Q218 352 236 352T257 351Q327 351 367 392T418 493Q426 529 419 555T387 596T319
612ZM239 15Q314 15 355 56T409 164Q423 237 391 282T277 328Q258 329 235 328T187 323L214 334L170 79Q163 44 175 30T239 15Z" />
<glyph unicode="C" horiz-adv-x="586" d="M318 -13Q232 -13 177 16T95 95T61 201T64 316Q78 390 114 449T201 549T313 613T434 636Q475 636 516 627T581 603Q588 598 589 594T589 579L577 461Q576 457 571 457T566 461Q556 539 510 575T396 612Q333 612 282 580T196
488T148 346Q137 276 144 214T174 105T236 30T324 3Q378 3 431 40T534 154Q536 157 541 155T544 150L515 40Q512 28 509 24T497 17Q449 1 403 -6T318 -13Z" />
<glyph unicode="D" horiz-adv-x="620" d="M241 -4Q217 -4 182 -1T116 2Q85 2 59 1T12 0Q9 0 9 6T12 12Q42 12 57 17T81 37T94 81L176 544Q184 587 173 600T119 613Q117 613 117 619T119 625Q140 625 167 624T225 622Q253 622 283 624T339 627Q433 627 497 588T588
480T601 323Q588 248 553 188T467 85T359 19T241 -4ZM235 12Q303 12 360 45T458 143T516 301Q526 361 521 416T495 516T435 585T338 611Q293 611 274 597T246 542L167 92Q159 51 172 32T235 12Z" />
<glyph unicode="E" horiz-adv-x="519" d="M17 0Q15 0 15 6T17 12Q48 12 63 17T86 37T99 81L180 544Q188 587 178 600T124 613Q121 613 121 619T124 625H510Q518 625 516 616Q513 598 510 574T503 526T496 489Q495 485 490 486T484 490Q487 543 463 575T392 608H330Q300
608 285 603T263 585T251 543L170 85Q163 44 173 32T226 19H309Q354 19 396 56T463 152Q464 155 470 154T474 150Q466 123 457 85T442 15Q439 0 426 0H17ZM418 229Q417 225 411 225T406 230Q414 274 398 294T340 314H178L182 337H347Q388 337 408 353T436 409Q437
413 443 413T448 407Q444 378 440 361T433 325Q429 302 426 279T418 229Z" />
<glyph unicode="F" horiz-adv-x="484" d="M14 0Q11 0 11 6T14 12Q44 12 59 17T83 37T96 81L177 544Q185 586 175 599T121 613Q118 613 118 619T121 625H508Q516 625 513 616Q511 598 507 574T500 526T494 489Q493 485 487 486T482 490Q485 543 460 575T389 608H327Q297
608 282 603T260 585T247 543L167 85Q162 55 166 40T191 18T259 12Q261 12 261 6T259 0Q235 0 200 1T116 2Q88 2 62 1T14 0ZM398 217Q397 213 391 213T386 218Q394 262 378 282T320 302H169L172 325H327Q368 325 388 342T416 397Q417 402 423 401T428 396Q424 366
421 349T413 313Q409 290 406 267T398 217Z" />
<glyph unicode="G" horiz-adv-x="631" d="M330 -12Q229 -12 164 31T74 148T66 313Q79 384 115 443T204 546T322 612T459 636Q501 636 539 627T600 602Q607 596 607 592T606 579L595 461Q594 457 589 457T583 461Q574 534 532 573T418 613Q348 613 293 581T202
489T151 349Q134 247 155 170T228 50T358 7Q396 7 420 16T459 52T479 126Q487 174 485 196T463 226T397 233Q392 233 392 241T397 249Q453 245 500 245T599 247Q603 247 603 240T599 233Q582 234 573 227T559 194T544 116Q539 83 538 67T536 44T534 28Q533 22 531
20T523 16Q476 4 426 -4T330 -12Z" />
<glyph unicode="H" horiz-adv-x="672" d="M12 0Q9 0 9 6T12 12Q42 12 57 17T81 37T94 81L176 544Q184 587 173 600T119 613Q117 613 117 619T119 625Q140 625 166 624T221 622Q252 622 279 623T328 625Q330 625 330 619T328 613Q298 613 282 607T259 586T246 542L164
81Q157 38 167 25T221 12Q224 12 224 6T221 0Q200 0 173 1T114 2Q85 2 59 1T12 0ZM162 314L166 337H548L546 314H162ZM386 0Q384 0 384 6T386 12Q416 12 431 17T454 37T467 81L548 542Q556 585 547 599T493 613Q490 613 490 619T493 625Q513 625 540 624T596 622Q625
622 652 623T700 625Q703 625 703 619T700 613Q672 613 656 608T633 588T619 544L537 81Q530 38 541 25T595 12Q598 12 598 6T595 0Q576 0 549 1T492 2Q462 2 435 1T386 0Z" />
<glyph unicode="I" horiz-adv-x="317" d="M22 0Q19 0 19 6T22 12Q51 12 66 17T90 37T102 81L184 544Q192 587 181 600T127 613Q124 613 124 619T127 625Q148 625 174 624T230 622Q263 622 290 623T337 625Q340 625 340 619T337 613Q308 613 292 607T269 586T256
542L174 81Q166 38 176 25T232 12Q234 12 234 6T232 0Q211 0 185 1T126 2Q97 2 70 1T22 0Z" />
<glyph unicode="J" horiz-adv-x="292" d="M-22 -193Q-24 -194 -27 -189T-27 -182Q20 -154 45 -98T86 40L175 544Q183 587 172 600T117 613Q115 613 115 619T117 625Q138 625 164 624T221 622Q254 622 280 623T327 625Q330 625 330 619T327 613Q298 613 282 607T259
586T246 542L162 67Q148 -11 126 -59T69 -138T-22 -193Z" />
<glyph unicode="K" horiz-adv-x="604" d="M12 0Q9 0 9 6T12 12Q42 12 57 17T81 37T94 81L176 544Q184 587 173 600T119 613Q117 613 117 619T119 625Q140 625 166 624T221 622Q252 622 279 623T328 625Q330 625 330 619T328 613Q298 613 282 607T259 586T246 542L164
81Q159 52 159 37T170 17T215 12Q217 12 217 6T215 0Q192 0 170 1T114 2Q85 2 59 1T12 0ZM474 0Q451 0 439 1T419 8T404 30T382 75T343 152L238 346L296 394L397 207Q434 138 457 98T498 40T529 17T562 12Q565 12 565 6T562 0Q527 0 506 0T474 0ZM155 280L438 538Q476
574 474 593T429 613Q427 613 427 619T429 625Q449 625 477 624T540 622Q573 622 593 623T631 625Q634 625 634 619T631 613Q598 613 552 594T460 532L177 279L155 280Z" />
<glyph unicode="L" horiz-adv-x="499" d="M13 0Q10 0 10 6T13 12Q43 12 58 17T81 37T94 81L176 544Q184 587 173 600T119 613Q117 613 117 619T119 625Q140 625 166 624T221 622Q252 622 279 623T328 625Q330 625 330 619T328 613Q298 613 282 608T259 587T246
543L165 85Q158 44 167 32T215 19H293Q356 19 398 55T470 158Q470 160 476 159T481 155Q473 127 464 88T448 15Q445 0 432 0H13Z" />
<glyph unicode="M" horiz-adv-x="735" d="M464 0Q461 0 461 6T464 12Q495 12 510 17T533 37T545 81L621 585L646 613L332 7Q330 3 325 3T317 8L205 542Q198 574 184 589T155 608T125 613Q122 613 122 619T125 625Q137 625 152 624T183 623Q202 623 217 624T239
625Q250 625 256 615T270 573L370 100L327 37L617 600Q631 625 651 625Q658 625 673 624T701 623Q723 623 737 624T767 625Q769 625 769 619T767 613Q731 613 711 601T684 546L615 81Q609 38 619 25T673 12Q676 12 676 6T673 0Q653 0 626 1T569 2Q538 2 512 1T464
0ZM16 0Q13 0 13 6T16 12Q51 12 73 37T105 114L195 602L215 600L128 116Q119 63 130 38T177 12Q180 12 180 6T177 0Q160 0 141 1T96 2Q75 2 55 1T16 0Z" />
<glyph unicode="N" horiz-adv-x="652" d="M490 -10L197 543Q175 584 155 598T114 613Q111 613 111 619T114 625Q131 625 151 624T186 623Q201 623 216 624T236 625Q247 625 250 614T267 573L516 100L509 -9Q509 -13 501 -14T490 -10ZM7 0Q5 0 5 6T7 12Q44 12 67
35T98 109L186 602L207 600L122 109Q113 59 126 36T177 12Q179 12 179 6T177 0Q159 0 139 1T93 2Q70 2 49 1T7 0ZM509 -9L494 35L579 515Q588 565 575 589T524 613Q522 613 522 619T524 625Q541 625 562 624T609 622Q631 622 653 623T694 625Q696 625 696 619T694
613Q658 613 635 589T603 515L509 -9Z" />
<glyph unicode="O" horiz-adv-x="652" d="M283 -12Q201 -12 147 32T72 150T66 313Q78 384 110 443T188 545T291 612T410 636Q495 636 550 592T626 475T631 313Q618 239 585 180T503 77T399 11T283 -12ZM326 14Q407 14 467 78T549 260Q564 332 558 395T528 508T464
584T370 612Q286 612 227 546T147 366Q134 297 139 234T168 121T231 43T326 14Z" />
<glyph unicode="P" horiz-adv-x="512" d="M13 0Q11 0 11 6T13 12Q43 12 59 17T83 37T96 81L177 544Q185 587 175 600T121 613Q118 613 118 619T121 625Q142 625 167 624T223 622Q245 622 278 625T345 628Q401 628 443 610T507 552T517 453Q508 403 481 367T418
307T343 273T270 262Q259 262 249 263T229 267Q227 268 229 276T234 283Q242 281 249 280T264 279Q300 279 335 295T398 345T435 433Q445 490 431 529T389 590T325 611Q298 611 283 607T261 589T246 542L165 81Q158 38 168 25T223 12Q225 12 225 6T223 0Q202 0
175 1T116 2Q87 2 61 1T13 0Z" />
<glyph unicode="Q" horiz-adv-x="652" d="M609 -197Q568 -197 524 -174T439 -106T365 5L437 38Q456 -9 482 -48T538 -117T598 -161T652 -177Q661 -177 670 -176T686 -173Q689 -172 690 -177T690 -184Q669 -190 648 -193T609 -197ZM283 -12Q201 -12 147 32T72 150T66
313Q78 384 110 443T188 545T291 612T410 636Q495 636 550 592T626 475T631 313Q618 239 585 180T503 77T399 11T283 -12ZM326 14Q407 14 467 78T549 260Q564 332 558 395T528 508T464 584T370 612Q286 612 227 546T147 366Q134 297 139 234T168 121T231 43T326
14Z" />
<glyph unicode="R" horiz-adv-x="620" d="M16 0Q12 0 12 6T16 12Q48 12 65 17T92 37T106 81L187 544Q193 573 191 587T174 607T127 613Q123 613 123 619T127 625Q149 625 177 624T235 622Q258 622 290 625T342 628Q431 628 468 593T492 491Q482 436 445 394T355
329T242 305Q235 305 224 306T208 308L212 335Q223 332 237 331T261 330Q330 330 365 360T414 462Q425 518 415 551T382 597T325 611Q303 611 291 608T271 591T258 542L176 81Q171 52 173 37T189 17T235 12Q239 12 239 6T236 0Q213 0 186 1T127 2Q96 2 67 1T16
0ZM474 0Q459 0 433 36T373 143T297 322L356 342Q410 219 450 147T524 43T595 12Q599 12 599 6T595 0Q547 0 518 0T474 0Z" />
<glyph unicode="S" horiz-adv-x="465" d="M186 -12Q152 -12 119 -5T48 22Q44 25 43 29T42 41L62 176Q62 181 67 181T74 176Q78 128 94 90T139 29T211 7Q241 7 267 18T312 55T337 119Q346 164 332 196T289 253T230 300Q199 323 172 347T130 403T123 481Q133 533
165 567T241 619T332 636Q358 636 386 631T443 612Q456 605 455 595L441 478Q441 475 436 475T430 478Q425 515 412 547T375 599T312 619Q276 619 253 603T216 563T197 514Q190 473 204 444T245 393T302 348Q335 325 364 300T410 240T418 158Q410 111 381 73T303
11T186 -12Z" />
<glyph unicode="T" horiz-adv-x="553" d="M133 0Q130 0 130 6T133 12Q167 12 184 17T211 37T225 81L306 544Q313 582 305 594T262 606H241Q204 606 175 589T123 540T87 459Q86 456 80 457T75 461Q79 474 85 498T98 550T111 604T120 647Q122 650 127 650T132 646Q130
631 145 628T171 625Q208 624 257 623T354 622Q414 622 455 623T530 625Q558 625 573 629T596 650Q598 653 603 653T607 648Q603 633 597 607T584 552T573 498T566 461Q565 457 560 457T555 462Q563 510 556 541T525 589T460 606H441Q405 606 394 593T377 542L296
81Q291 52 294 37T313 17T365 12Q367 12 367 6T365 0Q341 0 313 1T248 2Q216 2 186 1T133 0Z" />
<glyph unicode="U" horiz-adv-x="619" d="M562 513Q570 562 555 587T500 613Q497 613 497 619T500 625Q522 625 544 624T592 622Q616 622 638 623T677 625Q681 625 681 619T677 613Q640 613 617 585T585 508L533 215Q521 142 485 91T395 14T276 -13Q209 -13 164
14T101 93T94 215L153 546Q161 589 150 601T93 613Q89 613 89 619T92 625Q115 625 143 624T200 622Q233 622 261 623T309 625Q312 625 312 619T309 613Q278 613 261 607T236 584T223 539L170 245Q150 129 188 74T304 19Q384 19 439 72T509 218L562 513Z" />
<glyph unicode="V" horiz-adv-x="595" d="M260 1L139 542Q130 581 117 597T77 613Q75 613 75 619T77 625Q96 625 118 624T160 622Q195 622 220 623T268 625Q271 625 271 619T268 613Q236 613 220 601T212 552L318 82L270 20L533 532Q554 573 541 593T483 613Q480
613 480 619T483 625Q505 625 526 624T583 622Q608 622 624 623T664 625Q668 625 668 619T664 613Q646 613 629 607T594 583T556 527L284 1Q281 -3 271 -3T260 1Z" />
<glyph unicode="W" horiz-adv-x="826" d="M492 1L369 542Q361 581 350 597T313 613Q310 613 310 619T313 625Q331 625 351 624T391 622Q414 622 431 623T461 625Q466 625 466 619T461 613Q439 613 436 603T441 552L547 82L499 13L765 532Q785 570 776 591T723
613Q719 613 719 619T723 625Q744 625 763 624T814 622Q839 622 855 623T895 625Q899 625 899 619T895 613Q877 613 860 607T825 583T788 527L514 1Q512 -3 503 -3T492 1ZM260 1L139 542Q130 581 117 597T77 613Q74 613 74 619T77 625Q96 625 118 624T160 622Q191
622 214 623T257 625Q261 625 261 619T257 613Q232 613 217 601T210 552L317 82L269 13L442 351L454 330L284 1Q281 -3 271 -3T260 1ZM466 330L452 351L545 532Q567 575 564 594T531 613Q528 613 528 619T531 625Q546 625 559 624T594 622Q617 622 632 623T668
625Q672 625 672 619T668 613Q651 613 636 607T604 583T567 527L466 330Z" />
<glyph unicode="X" horiz-adv-x="579" d="M326 0Q322 0 322 6T326 12Q345 12 357 15T374 28T373 51L185 542Q170 581 152 597T106 613Q102 613 102 619T106 625Q122 625 139 624T173 622Q209 622 240 623T294 625Q298 625 298 619T294 613Q268 613 257 604T254
573L442 83Q457 44 477 28T531 12Q535 12 535 6T531 0Q513 0 491 1T444 2Q411 2 380 1T326 0ZM-19 0Q-23 0 -23 6T-19 12Q11 12 47 35T121 106L282 309L296 295L141 97Q118 67 114 49T123 21T163 12Q167 12 167 6T163 0Q141 0 114 1T53 2Q32 2 17 1T-19 0ZM321
316L307 329L458 523Q483 555 487 574T479 603T439 613Q435 613 435 619T439 625Q461 625 488 624T550 622Q570 622 586 623T620 625Q625 625 625 619T620 613Q590 613 554 588T478 514L321 316Z" />
<glyph unicode="Y" horiz-adv-x="531" d="M295 268L282 280L449 525Q477 565 472 589T429 613Q426 613 426 619T429 625Q452 625 477 624T535 622Q556 622 569 623T602 625Q605 625 605 619T602 613Q571 613 538 589T469 514L295 268ZM127 0Q123 0 123 6T127 12Q159
12 176 17T201 37T214 81L254 310L326 319L284 81Q277 38 287 25T347 12Q350 12 350 6T347 0Q324 0 297 1T238 2Q205 2 177 1T127 0ZM265 271L150 542Q134 580 117 596T73 613Q69 613 69 619T73 625Q91 625 111 624T151 622Q182 622 213 623T266 625Q270 625 269
619T264 613Q230 613 221 604T220 573L326 317L265 271Z" />
<glyph unicode="Z" horiz-adv-x="550" d="M464 -2Q396 -1 319 -1T164 0T17 0Q13 0 12 4T13 13L480 600Q485 605 485 606T478 608Q396 608 342 606T251 597T192 577T152 541T115 485Q114 481 109 482T105 488L172 655Q174 657 180 656T184 651Q179 634 187 630T229
625Q285 625 365 625T568 625Q573 625 574 620T573 612L111 27Q107 22 107 21T113 19Q172 19 217 19T291 19Q344 19 382 30T447 69T498 141Q499 145 505 144T509 139L473 8Q473 5 471 2T464 -2Z" />
<glyph unicode="[" horiz-adv-x="250" d="M27 -117Q22 -117 21 -115T21 -106L166 715Q167 722 169 723T176 725Q211 725 250 725T311 725Q315 725 315 719T311 713Q277 713 259 707T232 686T217 642L98 -34Q91 -77 103 -91T165 -105Q170 -105 170 -111T165 -117Q143
-117 103 -117T27 -117Z" />
<glyph unicode="\" horiz-adv-x="305" d="M185 -163L113 723Q112 728 121 730T140 733T151 728L223 -159Q224 -163 215 -165T196 -168T185 -163Z" />
<glyph unicode="]" horiz-adv-x="249" d="M262 725Q267 725 268 724T268 714L123 -107Q122 -114 120 -115T113 -117Q78 -117 39 -117T-23 -117Q-27 -117 -27 -111T-23 -105Q12 -105 30 -99T58 -78T71 -34L190 642Q198 685 186 699T123 713Q119 713 119 719T123
725Q146 725 186 725T262 725Z" />
<glyph unicode="^" horiz-adv-x="353" d="M96 375Q93 373 89 375T85 380L243 629Q245 634 253 634T263 629L333 380Q333 378 329 376T323 377L235 526L96 375Z" />
<glyph unicode="_" horiz-adv-x="363" d="M-7 -77Q-10 -77 -11 -67T-11 -46T-8 -35H311Q314 -35 315 -45T315 -66T311 -77H-7Z" />
<glyph unicode="`" horiz-adv-x="166" d="M172 475L124 727Q123 732 133 732T157 731T181 724T192 716L181 476Q181 474 177 473T172 475Z" />
<glyph unicode="a" horiz-adv-x="437" d="M81 -13Q48 -13 31 11T20 91Q28 144 55 198T120 298T203 371T287 399Q306 399 325 392T357 370T373 328L325 357Q339 359 356 373T381 407Q383 410 388 409T393 405L335 89Q325 34 348 34Q359 34 375 46T411 77Q414 80
418 76T419 69Q387 32 360 12T307 -9Q280 -9 272 13T273 89L297 229L315 246Q288 168 249 110T166 19T81 -13ZM126 44Q153 44 181 64T234 119T278 193T304 269Q312 309 298 334T248 359Q215 359 182 331T123 256T88 147Q80 93 90 69T126 44Z" />
<glyph unicode="b" horiz-adv-x="439" d="M149 -13Q96 -13 68 12T48 80L147 610Q154 649 140 658T81 646Q77 645 75 651T77 658L214 725Q219 727 223 723T226 717L113 96Q107 60 129 37T189 13Q220 13 251 37T307 108T343 220Q351 255 349 283T334 329T294 347Q255
347 219 316T155 228T113 96L106 116Q115 173 137 224T192 315T263 376T340 399Q387 399 409 358T419 251Q406 186 376 137T307 54T226 4T149 -13Z" />
<glyph unicode="c" horiz-adv-x="346" d="M158 -13Q114 -13 87 6T45 57T28 127T33 202Q45 264 80 308T160 375T250 399Q274 399 295 392T328 371T339 337Q338 322 328 312T300 301Q282 301 273 312T260 337Q256 350 246 362T212 375Q184 375 162 357T126 306T104
234Q95 179 101 132T133 55T206 26Q235 26 261 39T306 67Q309 69 313 65T314 58Q275 21 235 4T158 -13Z" />
<glyph unicode="d" horiz-adv-x="446" d="M106 -13Q81 -13 60 0T28 44T26 126Q36 181 63 230T128 317T209 377T295 399Q324 399 348 384T376 332L332 246Q302 171 266 113T189 21T106 -13ZM144 42Q175 42 204 66T257 128T297 205T319 273Q327 315 307 337T253
359Q195 359 151 311T91 171Q81 105 96 74T144 42ZM318 -9Q290 -9 283 14T285 89L382 610Q389 649 375 658T316 646Q312 645 310 651T312 658L450 725Q454 727 458 723T461 717L346 89Q340 59 345 47T361 34Q372 34 388 46T423 77Q427 81 431 77T431 69Q398 32
372 12T318 -9Z" />
<glyph unicode="e" horiz-adv-x="347" d="M157 -12Q102 -12 71 16T31 89T30 185Q37 223 58 261T110 330T180 380T263 399Q301 399 319 385T335 345Q331 321 308 298T247 257T164 226T70 208L72 221Q147 232 198 256T257 324Q263 349 250 360T216 372Q186 372 163
351T125 295T103 218Q93 164 101 121T134 51T201 25Q224 25 249 32T299 58Q301 60 304 56T306 49Q268 16 231 2T157 -12Z" />
<glyph unicode="f" horiz-adv-x="264" d="M-38 -275Q-77 -275 -95 -261T-110 -227Q-108 -212 -97 -203T-70 -194Q-52 -194 -45 -203T-35 -225T-28 -246T-11 -256Q0 -256 8 -241T25 -181T47 -47L98 306Q102 331 100 342T84 357T44 360Q40 360 41 367T45 374Q80
374 95 383T114 418Q129 509 146 568T187 662T243 711T321 726Q360 726 380 710T398 672Q395 656 384 648T359 639Q339 639 332 649T320 674T311 698T289 709Q252 709 226 641T180 439L113 -21Q99 -116 80 -172T33 -251T-38 -275ZM245 341Q237 342 219 345T178
350T133 352L135 376Q157 376 186 378T239 382T271 384Q276 384 277 381T278 374Q277 366 267 353T245 341Z" />
<glyph unicode="g" horiz-adv-x="382" d="M108 -281Q54 -281 18 -265T-33 -221T-43 -163Q-34 -119 12 -85T120 -18L127 -26Q105 -39 83 -55T44 -90T23 -138Q19 -170 34 -196T82 -237T157 -252Q210 -252 236 -229T263 -175Q264 -148 249 -128T209 -93T157 -65T106
-38T70 -7T61 34Q66 57 86 78T137 123L147 115Q136 110 128 98T117 72Q114 50 129 35T168 6T221 -21T273 -51T311 -91T321 -146Q317 -184 287 -214T210 -263T108 -281ZM152 98Q112 98 87 118T53 172T52 246Q60 288 85 321T146 373T222 392Q264 392 288 372T321
319T321 246Q312 201 286 168T224 117T152 98ZM177 118Q204 118 227 146T257 224Q262 256 258 290T240 348T198 373Q170 373 147 343T117 266Q111 229 116 195T137 140T177 118ZM260 346L259 353Q289 372 324 383T387 394Q392 394 392 385T391 365T385 346T379
340Q356 354 323 355T260 346Z" />
<glyph unicode="h" horiz-adv-x="448" d="M62 -8Q46 -8 41 -6T35 -1Q35 2 40 25T50 74L150 610Q157 649 143 658T85 646Q81 645 79 651T80 658L217 725Q222 727 226 723T229 717L101 9Q98 -8 62 -8ZM317 -9Q289 -9 282 14T284 89L313 248Q323 302 315 328T280
355Q249 355 215 315T151 197T101 9L87 10Q108 127 143 214T223 350T318 399Q361 399 375 368T378 267L345 89Q340 59 344 47T360 34Q372 34 387 46T423 77Q426 81 430 77T431 69Q399 32 372 12T317 -9Z" />
<glyph unicode="i" horiz-adv-x="247" d="M108 -9Q81 -9 73 13T75 89L116 297Q127 353 99 353Q88 353 71 342T34 309Q31 305 27 309T26 317Q61 357 89 376T143 395Q171 395 179 373T177 302L136 89Q130 59 135 47T151 34Q162 34 178 45T214 76Q218 80 222 76T222
68Q190 30 163 11T108 -9ZM172 509Q150 509 138 521T125 556Q125 577 137 589T172 601Q195 601 207 589T219 556Q219 509 172 509Z" />
<glyph unicode="j" horiz-adv-x="242" d="M-22 -275Q-59 -275 -77 -261T-92 -227Q-90 -211 -79 -203T-55 -194Q-38 -194 -32 -203T-23 -226T-17 -248T-1 -258Q13 -258 22 -240T40 -178T64 -56L125 297Q135 353 109 353Q85 353 43 309Q40 305 36 309T35 317Q70
357 98 376T154 395Q181 395 188 373T187 302L129 -33Q113 -125 94 -178T48 -253T-22 -275ZM185 509Q163 509 150 521T137 556Q137 577 150 589T185 601Q207 601 219 589T231 556Q231 509 185 509Z" />
<glyph unicode="k" horiz-adv-x="415" d="M62 -8Q46 -8 41 -6T35 -1Q35 2 40 25T50 74L150 610Q157 649 143 658T85 646Q81 645 79 651T80 658L217 725Q221 727 225 724T229 717L137 207L101 9Q98 -8 62 -8ZM310 -9Q287 -9 269 5T228 58L170 157Q159 176 150 180T116
179L212 213L281 95Q302 60 316 50T345 39Q356 39 372 48T407 75Q411 79 415 75T416 67Q349 -9 310 -9ZM116 179V194Q180 208 219 224T279 263T305 318Q309 340 301 352T276 365Q229 365 191 322T137 207L104 243Q128 288 163 323T241 378T327 399Q355 399 367
389T383 364T385 339Q380 308 346 277T253 221T116 179Z" />
<glyph unicode="l" horiz-adv-x="240" d="M92 -9Q63 -9 56 14T58 89L155 610Q162 649 149 658T91 646Q87 645 85 651T86 658L223 725Q228 727 232 723T235 717L120 89Q114 59 119 47T135 34Q146 34 161 46T197 77Q201 81 205 77T205 69Q173 32 146 12T92 -9Z" />
<glyph unicode="m" horiz-adv-x="679" d="M548 -9Q520 -9 513 14T515 89L544 248Q553 302 546 328T514 355Q485 355 453 316T391 199T341 9L327 10Q347 128 381 216T460 351T552 399Q592 399 606 368T608 267L576 89Q571 59 575 47T591 34Q602 34 617 46T653 77Q657
81 661 77T661 69Q629 32 602 12T548 -9ZM81 -8Q65 -8 60 -6T55 -1Q55 2 60 24T70 71L111 297Q121 353 95 353Q84 353 67 342T29 309Q26 305 22 309T21 317Q56 357 84 376T140 395Q167 395 174 373T173 302L121 9Q117 -8 81 -8ZM302 -8Q286 -8 281 -6T276 -1Q276
2 281 26T291 74L324 249Q332 303 325 329T293 355Q264 355 231 314T169 196T121 9L106 10Q126 127 160 214T239 350T332 399Q370 399 385 369T388 268L341 9Q339 -8 302 -8Z" />
<glyph unicode="n" horiz-adv-x="468" d="M337 -9Q309 -9 302 14T304 89L333 248Q355 355 300 355Q269 355 235 315T171 197T121 9L107 10Q128 127 162 214T242 350T338 399Q381 399 396 368T398 267L365 89Q360 59 365 47T381 34Q392 34 407 46T443 77Q446 81
450 77T451 69Q419 32 392 12T337 -9ZM82 -8Q66 -8 61 -6T55 -1Q55 2 60 25T70 74L111 297Q121 353 95 353Q84 353 67 342T29 309Q26 305 22 309T21 317Q56 357 84 376T140 395Q167 395 174 373T173 302L121 9Q118 -8 82 -8Z" />
<glyph unicode="o" horiz-adv-x="401" d="M155 -14Q105 -14 74 14T32 89T31 193Q43 252 74 298T149 372T245 399Q298 399 330 371T372 296T372 193Q359 128 325 82T246 11T155 -14ZM190 11Q228 11 259 47T302 149Q309 189 308 228T295 301T264 355T214 375Q177
375 146 339T101 236Q93 195 95 156T108 83T140 31T190 11Z" />
<glyph unicode="p" horiz-adv-x="406" d="M-60 -275Q-64 -276 -65 -270T-62 -263Q-41 -259 -31 -253T-14 -231T-3 -185L99 386Q99 389 107 395T128 410T149 433T163 461Q164 465 169 464T174 459L61 -178Q54 -218 65 -229T115 -236Q119 -235 121 -240T118 -247L-60
-275ZM145 -1Q112 -1 92 2T57 8L67 63Q87 49 112 39T176 28Q217 28 245 53T291 121T315 220Q320 254 316 284T293 333T235 353Q189 353 143 328T35 257Q32 255 28 259T28 267Q89 320 155 356T285 393Q342 393 367 357T382 253Q375 202 352 156T296 75T224 19T145
-1Z" />
<glyph unicode="q" horiz-adv-x="417" d="M165 -275Q161 -276 160 -270T163 -263Q186 -259 197 -253T214 -232T226 -185L292 191L306 197Q283 130 248 83T174 12T98 -13Q59 -13 38 18T23 103Q30 162 54 215T116 309T197 375T289 399Q308 399 327 392T359 370T375
328L327 357Q340 359 357 373T383 407Q385 410 390 409T395 405L289 -178Q282 -215 294 -230T349 -239Q352 -237 354 -243T351 -250L165 -275ZM139 44Q178 44 211 72T268 146T302 246Q312 305 297 333T242 359Q189 359 146 310T89 156Q88 135 88 115T94 79T110
54T139 44Z" />
<glyph unicode="r" horiz-adv-x="345" d="M118 9L108 10Q117 57 131 110T163 213T202 305T245 370T292 395Q306 395 320 388T344 367T350 338Q348 325 339 316T314 307Q299 307 291 315T276 331T258 339Q245 339 229 316T196 256T164 175T136 87T118 9ZM79 -8Q63
-8 58 -6T53 -1Q53 2 58 26T68 74L104 271Q110 304 109 321T101 345T86 353Q74 353 59 342T27 315Q24 312 20 316T19 323Q51 360 78 377T131 395Q150 395 160 384T172 347T166 276L118 9Q115 -8 79 -8Z" />
<glyph unicode="s" horiz-adv-x="306" d="M103 -11Q63 -11 34 8T9 54Q11 70 21 78T44 86Q59 86 67 75T82 51T102 26T139 15Q163 15 177 28T194 69Q199 100 185 122T149 163T104 200T70 242T63 297Q68 326 88 348T138 383T201 396Q240 396 265 381T287 343Q284
327 273 319T252 311Q234 311 226 320T211 342T194 363T162 372Q144 372 131 362T116 335Q111 306 124 284T160 243T205 205T241 161T249 105Q244 77 224 50T173 6T103 -11Z" />
<glyph unicode="t" horiz-adv-x="297" d="M123 -12Q102 -12 84 -5T56 23T53 80L95 306Q102 342 96 351T61 360Q57 360 58 367T62 374Q101 374 127 397T166 454Q167 458 175 457T183 453L121 106Q114 67 125 49T168 31Q194 31 216 43T261 73Q263 75 267 71T269
65Q223 24 189 6T123 -12ZM269 340Q267 340 248 343T202 348T150 351L152 376Q180 376 209 378T262 382T295 384Q299 384 301 381T302 374Q300 366 290 353T269 340Z" />
<glyph unicode="u" horiz-adv-x="468" d="M130 -13Q88 -13 72 18T70 119L106 297Q111 327 107 339T90 352Q80 352 64 340T29 309Q25 305 21 309T21 317Q54 355 80 375T134 395Q160 395 169 373T167 297L135 138Q123 83 132 57T169 31Q200 31 233 71T297 189T347
377L361 376Q342 259 307 172T226 36T130 -13ZM329 -9Q302 -9 295 13T296 84L347 377Q350 394 387 394Q403 394 408 392T413 387Q413 384 408 361T398 312L357 89Q348 33 373 33Q384 33 401 44T439 77Q442 81 446 77T447 69Q412 29 384 10T329 -9Z" />
<glyph unicode="v" horiz-adv-x="437" d="M186 -13Q154 -13 132 6T99 55T92 119Q98 163 121 209T166 301Q172 315 171 321T158 328H108Q83 328 70 324T48 309T33 278Q31 274 26 275T22 282Q37 325 48 347T77 378T123 387H213Q222 387 223 385T221 375Q199 325
179 268T153 167Q145 110 165 78T221 45Q251 45 279 63T329 116T362 196Q371 235 368 257T355 293T337 315Q331 322 322 332T313 357Q313 378 327 387T357 396Q379 396 390 378T403 327T401 253Q394 194 372 146T319 62T253 7T186 -13Z" />
<glyph unicode="w" horiz-adv-x="621" d="M186 -13Q152 -13 130 6T100 58T98 130Q105 172 125 217T166 301Q173 316 171 322T158 328H108Q83 328 70 324T48 309T33 278Q31 274 26 275T22 282Q37 325 48 347T77 378T123 387H213Q222 387 223 385T221 375Q199 325
180 268T155 167Q147 110 166 77T221 43Q247 43 271 60T318 107T357 174T378 253Q383 287 376 304T353 322Q339 322 330 304T317 261Q310 222 314 183T332 112T369 62T424 43Q448 43 474 62T520 115T547 196Q552 233 549 255T537 292T518 319Q510 327 504 336T498
357Q498 378 512 387T542 396Q564 396 574 378T587 327T585 253Q578 194 558 146T509 62T450 7T389 -13Q359 -13 338 7T304 63T289 145T295 242Q303 288 315 321T343 373T376 392Q401 392 409 363T410 287Q399 220 375 165T320 70T254 9T186 -13Z" />
<glyph unicode="x" horiz-adv-x="424" d="M283 -10Q261 -10 247 3T220 55L148 292Q137 330 123 339T98 348Q85 348 70 339T36 311Q33 307 29 311T28 319Q63 357 90 376T141 395Q163 395 178 381T207 325L279 87Q290 53 302 46T326 38Q340 38 355 47T387 75Q391
78 395 74T396 66Q361 29 334 10T283 -10ZM51 -10Q29 -10 12 6T-4 45Q-2 56 7 64T30 72Q44 72 51 67T65 56T81 50Q90 50 99 55T119 76L200 197L209 185L132 63Q113 32 100 17T77 -4T51 -10ZM213 186L204 198L284 323Q303 354 315 369T339 389T364 395Q386 395 404
379T419 341Q417 329 408 321T385 313Q372 313 365 319T351 330T334 336Q327 336 317 330T296 309L213 186Z" />
<glyph unicode="y" horiz-adv-x="446" d="M-17 -281Q-38 -281 -52 -271T-63 -234Q-56 -201 -17 -201Q4 -201 23 -203T62 -203T100 -187Q122 -172 151 -136T213 -52T274 44T323 136T350 205Q357 236 355 259T345 299T332 330T325 358Q325 375 337 385T368 396Q390
396 400 380T411 336Q411 302 395 252T351 144T287 26T211 -89T130 -187T51 -255T-17 -281ZM177 -120Q182 104 152 225T67 347Q54 347 41 339T19 312Q17 308 12 309T7 315Q25 353 52 374T107 395Q141 395 167 362T211 270T234 135T236 -29L177 -120Z" />
<glyph unicode="z" horiz-adv-x="344" d="M1 -7Q-1 -8 -5 -3T-9 3L308 360L302 349Q289 326 278 318T245 309Q224 309 196 315T142 327T99 333Q81 333 71 322T51 288Q50 284 44 286T40 294Q56 341 67 362T90 389T125 394Q160 392 206 381T291 367Q307 367 319
373T346 396Q349 398 353 394T356 387L40 29L41 40Q54 63 68 71T103 80Q128 80 160 75T223 63T272 57Q289 57 299 67T317 101Q319 103 324 102T328 97Q314 50 304 28T281 1T249 -5Q221 -4 188 2T120 14T56 22Q40 22 28 16T1 -7Z" />
<glyph unicode="{" horiz-adv-x="261" d="M176 -117Q132 -117 108 -110T73 -81T64 -22T77 80Q89 144 92 190T84 263T39 298Q36 298 36 304T39 311Q74 316 95 342T131 416T157 529Q168 592 180 631T211 690T255 717T322 725Q325 725 325 719T322 713Q289 713 268
686T238 607Q223 527 211 476T182 393T142 342T78 305Q116 287 134 267T156 214T152 131T131 1Q123 -49 135 -77T176 -105Q178 -105 178 -111T176 -117Z" />
<glyph unicode="|" horiz-adv-x="152" d="M35 -154Q34 -159 24 -159T6 -158T-2 -151L152 731Q154 736 163 736T182 735T190 727L35 -154Z" />
<glyph unicode="}" horiz-adv-x="262" d="M125 725Q169 725 193 718T228 689T236 630T223 528Q212 465 209 419T217 345T262 310Q264 310 264 304T262 297Q227 293 206 266T170 192T144 79Q133 16 121 -23T90 -82T45 -109T-21 -117Q-24 -117 -24 -111T-21 -105Q12
-105 33 -78T63 1Q78 81 90 132T118 215T158 266T223 303Q184 321 166 341T145 394T149 477T170 607Q178 658 166 685T125 713Q123 713 123 719T125 725Z" />
<glyph unicode="~" horiz-adv-x="443" d="M50 149Q49 148 46 151T43 156Q61 180 79 197T116 225T156 235Q179 235 207 226T263 209T316 200Q347 200 364 212T394 238Q396 240 399 237T401 231Q365 185 342 169T289 152Q263 152 236 161T180 178T125 187Q95 187
82 177T50 149Z" />
<glyph unicode="&#xa0;" horiz-adv-x="234" />
<glyph unicode="&#xa1;" horiz-adv-x="219" d="M109 163Q110 168 115 168T120 162Q114 96 106 22T93 -126T86 -267Q86 -271 70 -275T36 -279Q18 -279 3 -275T-12 -267Q12 -201 34 -127T75 23T109 163ZM140 364Q161 364 174 352T187 317Q187 296 174 284T139 272Q117
272 105 284T93 317Q93 364 140 364Z" />
<glyph unicode="&#xa2;" horiz-adv-x="492" d="M205 -101L322 564Q323 571 333 570T343 560L226 -104Q225 -111 215 -110T205 -101ZM332 480Q364 480 402 472T463 450Q470 446 471 443T472 432L461 330Q460 325 456 325T451 330Q445 395 408 429T315 463Q268 463
228 435T160 358T121 247Q113 204 116 161T134 82T179 26T254 4Q306 4 347 36T423 140Q425 144 431 143T436 137L406 31Q405 24 403 21T392 14Q350 0 312 -6T244 -12Q175 -12 132 12T68 74T41 157T43 241Q55 310 96 363T200 448T332 480Z" />
<glyph unicode="&#xa3;" horiz-adv-x="388" d="M-2 0Q-6 0 -6 6T-2 13Q34 22 54 36T83 71T96 116Q102 154 101 182T97 233T92 281T96 335Q105 387 133 419T200 465T278 480Q296 480 316 476T356 463Q370 457 369 444L357 342Q356 339 351 339T345 344Q343 373
335 400T311 446T265 464Q234 464 214 449T182 409T165 359Q158 321 161 287T168 219T165 144Q155 95 132 71T83 29L70 44H207Q245 44 266 50T300 73T326 126Q328 130 333 129T337 122Q331 102 323 71T309 11Q308 4 305 2T294 0H-2ZM56 218Q52 218 50 224T49 236T55
242H260Q265 242 266 236T267 224T261 218H56Z" />
<glyph unicode="&#xa4;" horiz-adv-x="378" d="M103 91L48 35L28 61L85 116L103 91ZM113 287L74 341L106 370L143 314L113 287ZM268 120L308 65L275 35L238 93L268 120ZM279 309L338 367L356 341L297 286L279 309ZM160 65Q120 65 96 85T63 139T60 207Q68 251 94
279T154 321T216 335Q269 335 298 296T318 197Q311 155 285 126T226 81T160 65ZM176 85Q206 85 228 111T260 185Q266 218 261 247T240 296T196 315Q168 315 147 291T116 219Q111 189 114 158T132 106T176 85Z" />
<glyph unicode="&#xa5;" horiz-adv-x="438" d="M237 195L223 201L337 369Q364 408 362 432T329 456Q325 456 325 462T329 468Q353 468 373 467T426 465Q444 465 455 466T480 468Q484 468 484 462T480 456Q451 456 420 432T358 365L237 195ZM79 0Q75 0 75 6T79
12Q111 12 128 17T153 39T167 83L177 139H244L234 79Q229 50 231 36T249 17T295 12Q299 12 299 6T295 0Q272 0 246 1T187 2Q158 2 129 1T79 0ZM84 125Q77 125 77 136T83 148H335Q341 148 341 137T336 125H84ZM94 190Q88 190 88 201T94 213H347Q353 213 353 202T347
190H94ZM189 203L192 228L262 237L256 203H189ZM199 196L122 386Q106 425 90 440T49 456Q45 456 45 462T49 468Q63 468 81 467T110 465Q133 465 156 466T200 467T234 468Q237 468 237 462T234 456Q205 456 193 445T191 407L263 235L199 196Z" />
<glyph unicode="&#xa6;" horiz-adv-x="152" d="M125 357Q125 352 116 352T97 353T88 360L152 731Q153 736 162 736T181 735T190 727L125 357ZM34 -158Q33 -162 24 -163T6 -162T-3 -154L61 216Q62 221 71 221T90 220T99 213L34 -158Z" />
<glyph unicode="&#xa7;" horiz-adv-x="396" d="M124 -188Q100 -188 80 -184T46 -172Q42 -170 40 -166T39 -156L53 -49Q54 -47 59 -47T64 -49Q66 -65 73 -85T92 -122T122 -152T163 -164Q186 -164 204 -148T230 -95Q235 -61 224 -36T191 10T146 50T102 93T71 146T66
219Q73 262 101 298T178 373L184 364Q158 344 145 317T127 259Q120 213 130 182T162 127T207 85T252 46T283 -1T287 -65Q279 -108 255 -135T196 -175T124 -188ZM239 11L233 20Q258 39 271 66T289 125Q296 171 286 202T255 257T210 299T164 338T133 385T129 449Q137
492 162 519T221 559T293 572Q317 572 337 568T371 556Q374 554 376 550T378 540L363 433Q363 430 358 430T353 433Q351 448 344 468T325 506T294 536T253 548Q230 548 212 532T187 479Q182 444 193 419T225 374T270 334T315 291T346 238T350 165Q344 124 317 88T239
11Z" />
<glyph unicode="&#xa8;" horiz-adv-x="275" d="M271 473Q225 473 225 519Q225 540 237 551T271 563Q293 563 304 552T316 519Q316 473 271 473ZM118 473Q72 473 72 519Q72 540 84 551T118 563Q139 563 150 552T162 519Q162 473 118 473Z" />
<glyph unicode="&#xa9;" horiz-adv-x="725" d="M373 -103Q319 -103 265 -85T167 -30T97 61T71 189Q71 259 98 316T173 414T279 477T403 500Q482 500 538 468T626 384T657 269Q657 209 625 156T535 71T405 39Q340 39 301 62T243 122T225 195Q225 249 251 287T317
344T398 364Q423 364 445 358T482 340T498 311Q498 297 490 287T464 277Q451 277 442 287T426 307Q417 322 406 333T370 345Q328 345 313 313T297 224Q297 182 311 146T358 88T445 66Q487 66 524 85T586 143T610 239Q610 305 579 358T493 444T370 477Q292 477 237
441T154 345T126 213Q126 143 149 90T213 1T302 -53T403 -71Q439 -71 469 -68T531 -54T597 -23Q600 -22 602 -25T603 -31Q544 -76 488 -89T373 -103Z" />
<glyph unicode="&#xaa;" horiz-adv-x="276" d="M94 361Q72 361 61 378T56 434Q61 468 78 503T120 567T173 615T227 633Q246 633 263 623T283 587L252 605Q261 607 271 616T286 638Q287 640 291 639T295 636L257 427Q250 392 266 392Q273 392 283 401T307 425Q309
427 313 423T316 417Q294 391 276 378T239 364Q221 364 216 378T217 427L233 522L249 534Q230 479 204 440T150 381T94 361ZM44 286Q42 286 41 293T40 306T43 313H269Q272 313 273 307T273 293T269 286H44ZM121 397Q137 397 155 411T191 448T220 497T239 549Q244
574 235 591T202 607Q180 607 159 589T121 539T99 470Q93 432 99 415T121 397Z" />
<glyph unicode="&#xab;" horiz-adv-x="427" d="M245 364Q247 366 251 362T253 356L124 201L199 47Q201 44 197 41T191 40L50 189Q46 194 46 200T53 212L245 364ZM392 364Q395 366 399 362T400 356L271 201L347 47Q349 44 345 41T338 40L197 189Q194 194 194 200T201
212L392 364Z" />
<glyph unicode="&#xac;" horiz-adv-x="400" d="M37 227Q34 227 33 237T33 258T36 269H367V227H37ZM325 78V269H367V79Q367 76 357 75T336 75T325 78Z" />
<glyph unicode="&#xad;" horiz-adv-x="305" d="M33 166Q30 166 29 177T27 200T30 213L279 259Q282 260 283 249T284 226T281 213L33 166Z" />
<glyph unicode="&#xae;" horiz-adv-x="759" d="M409 138Q355 138 302 157T207 213T139 303T113 425Q113 492 139 547T211 642T315 703T438 725Q526 725 590 688T688 589T723 451Q723 385 699 328T631 229T531 162T409 138ZM439 166Q514 166 567 198T648 287T676
421Q676 504 641 567T545 666T404 702Q323 702 269 668T189 577T162 454Q162 387 185 333T249 242T338 186T439 166ZM255 278Q254 278 255 284T257 290Q286 290 295 297T309 334L347 550Q352 577 346 585T311 594Q310 594 311 600T313 606Q328 606 347 606T384
605Q402 605 426 606T467 608Q513 608 534 592T549 541Q543 505 518 481T453 446T365 437L369 456Q425 447 454 460T491 519Q499 560 487 577T448 595Q425 595 415 589T398 547L361 334Q356 305 363 298T401 290Q403 290 402 284T399 278Q384 278 367 278T326 279Q309
279 289 279T255 278ZM497 278Q487 278 470 323T428 442L478 456Q496 400 510 365T542 311T583 286Q585 286 585 282T582 278Q549 278 528 278T497 278Z" />
<glyph unicode="&#xaf;" horiz-adv-x="333" d="M102 477Q97 477 95 485T95 501T102 509H336Q342 509 343 501T344 485T336 477H102Z" />
<glyph unicode="&#xb0;" horiz-adv-x="299" d="M184 373Q136 373 109 396T74 452T71 515Q78 545 99 571T153 613T226 630Q273 630 299 608T334 554T336 489Q325 438 283 406T184 373ZM194 389Q221 389 236 402T259 436T271 482Q282 546 271 580T218 615Q179 615
161 586T136 518Q130 484 132 455T148 407T194 389Z" />
<glyph unicode="&#xb1;" horiz-adv-x="398" d="M34 1Q31 1 30 10T30 29T33 39H364Q367 39 368 30T368 11T364 1H34ZM34 232Q31 232 30 242T30 263T33 273H364Q367 273 368 263T368 243T364 232H34ZM220 88Q220 85 210 84T189 84T178 87V418Q178 421 188 421T209
422T220 418V88Z" />
<glyph unicode="&#xb2;" horiz-adv-x="230" d="M70 403Q63 403 68 412Q83 448 107 478T155 536T198 593T222 652Q226 676 217 690T188 705Q167 705 148 689T119 648Q117 645 112 646T107 652Q121 682 145 705T209 729Q247 729 262 707T272 652Q267 624 246 598T198
547T146 498T108 450Q107 447 109 447Q150 447 174 448T211 455T231 471T244 499Q246 504 251 503T256 496L238 405Q238 403 236 403Q199 403 154 403T70 403Z" />
<glyph unicode="&#xb3;" horiz-adv-x="230" d="M176 568V577Q199 575 218 566T247 538T252 491Q248 469 234 448T196 412T141 397Q103 397 88 417T69 464Q68 468 73 469T80 466Q83 455 89 444T106 426T134 418Q156 418 175 435T200 492Q207 531 191 548T146 565Q143
565 143 571T146 577Q165 577 180 588T204 616T217 652Q222 677 212 690T183 704Q162 704 145 688T117 651Q116 647 111 649T107 655Q120 685 144 707T206 729Q242 729 258 707T268 652Q264 630 250 612T217 583T176 568Z" />
<glyph unicode="&#xb4;" horiz-adv-x="212" d="M119 473Q118 470 113 472T109 476L197 716Q198 720 210 723T237 729T263 732T271 727L119 473Z" />
<glyph unicode="&#xb6;" horiz-adv-x="594" d="M252 -193Q217 -193 200 -180T186 -146Q188 -129 199 -121T224 -112Q241 -112 247 -120T256 -140T264 -160T288 -169Q306 -169 317 -156T337 -104T359 8L380 125Q344 122 301 122Q254 122 210 135T132 179T84 260T82
386Q105 507 186 567T386 628Q417 628 448 625T519 622Q545 622 571 623T619 625Q624 625 624 619T619 613Q580 613 555 592T522 532L439 55Q416 -74 370 -133T252 -193Z" />
<glyph unicode="&#xb7;" horiz-adv-x="203" d="M104 162Q82 162 70 174T57 209Q57 230 69 242T104 254Q126 254 138 242T150 209Q150 162 104 162Z" />
<glyph unicode="&#xb8;" horiz-adv-x="196" d="M2 -275Q-26 -275 -45 -263T-61 -226Q-59 -214 -50 -208T-28 -201Q-13 -201 -7 -209T4 -228T13 -247T31 -256Q58 -256 64 -223Q66 -205 54 -183T22 -138Q9 -122 10 -102T22 -60L51 0H64Q53 -24 53 -41T59 -73T78
-104Q96 -127 105 -146T110 -188Q108 -205 95 -225T59 -260T2 -275Z" />
<glyph unicode="&#xb9;" horiz-adv-x="239" d="M80 403Q77 403 77 408T80 414Q108 414 121 418T140 437T153 483L174 601Q181 641 181 658T167 674T119 657Q115 656 113 661T114 668L236 729Q240 731 242 729T244 723L202 483Q197 452 197 437T209 418T247 414Q250
414 250 409T247 403Q230 403 211 404T167 405Q143 405 121 404T80 403Z" />
<glyph unicode="&#xba;" horiz-adv-x="269" d="M151 359Q118 359 97 378T69 429T68 498Q75 540 97 569T149 614T209 630Q244 630 265 611T293 562T295 495Q287 454 265 423T212 376T151 359ZM49 286Q46 286 45 293T45 306T48 313H269Q272 313 273 307T273 293T269
286H49ZM171 377Q197 377 218 401T247 472Q255 512 250 543T228 594T188 613Q162 613 143 591T115 520Q105 461 120 419T171 377Z" />
<glyph unicode="&#xbb;" horiz-adv-x="426" d="M184 37Q181 36 177 39T176 46L305 200L229 354Q228 357 232 360T238 361L379 212Q383 208 383 201T376 189L184 37ZM36 37Q34 36 30 39T28 46L158 200L82 354Q81 357 85 360T90 361L232 212Q236 208 236 201T229
189L36 37Z" />
<glyph unicode="&#xbc;" horiz-adv-x="551" d="M62 309Q59 309 59 314T62 320Q90 320 103 324T122 343T135 389L156 507Q163 547 163 564T149 580T101 563Q97 562 95 567T96 574L218 635Q222 637 224 635T226 629L184 389Q179 358 179 343T191 324T229 320Q232
320 232 315T229 309Q212 309 193 310T149 311Q125 311 103 310T62 309ZM155 -4Q154 -5 148 -3T135 3T130 8L468 626Q470 628 476 626T489 620T493 613L155 -4ZM364 -2Q360 -2 360 4T364 10Q395 10 404 15T418 41L454 256L477 277L357 117Q353 113 359 113Q393
113 418 114T465 116T515 119Q517 119 516 111T514 95T510 87Q473 90 429 91T316 93Q315 93 314 95T315 99L500 326Q502 329 507 327T511 320L464 41Q460 22 464 16T496 10Q501 10 501 4T496 -2Q483 -2 470 -1T438 0Q417 0 398 -1T364 -2Z" />
<glyph unicode="&#xbd;" horiz-adv-x="566" d="M62 309Q59 309 59 314T62 320Q90 320 103 324T122 343T135 389L156 507Q163 547 163 564T149 580T101 563Q97 562 95 567T96 574L218 635Q222 637 224 635T226 629L184 389Q179 358 179 343T191 324T229 320Q232
320 232 315T229 309Q212 309 193 310T149 311Q125 311 103 310T62 309ZM155 -4Q154 -5 148 -3T135 3T130 8L468 626Q470 628 476 626T489 620T493 613L155 -4ZM336 0Q328 0 333 9Q348 45 372 75T421 133T464 190T488 249Q491 273 482 287T454 302Q433 302 414
286T385 245Q383 242 378 243T373 249Q387 279 411 302T475 326Q513 326 528 304T538 249Q532 221 511 195T463 144T411 95T374 47Q373 44 375 44Q416 44 440 45T476 52T496 68T510 96Q511 101 516 100T521 93L504 2Q504 0 501 0Q465 0 420 0T336 0Z" />
<glyph unicode="&#xbe;" horiz-adv-x="543" d="M158 474V483Q181 481 200 472T229 444T234 397Q230 375 216 354T178 318T123 303Q85 303 70 323T51 370Q50 374 55 375T62 372Q65 361 71 350T88 332T116 324Q138 324 157 341T182 398Q189 437 173 454T128 471Q125
471 125 477T128 483Q147 483 162 494T186 522T199 558Q204 583 194 596T165 610Q144 610 127 594T99 557Q98 553 93 555T89 561Q102 591 126 613T188 635Q224 635 240 613T250 558Q246 536 232 518T199 489T158 474ZM146 -4Q145 -5 139 -3T127 3T121 8L459 626Q461
628 468 626T480 620T484 613L146 -4ZM355 -2Q351 -2 351 4T355 10Q386 10 395 15T409 41L446 256L468 277L349 117Q345 113 351 113Q384 113 409 114T457 116T506 119Q508 119 508 111T506 95T502 87Q464 90 420 91T307 93Q306 93 305 95T306 99L491 326Q493 329
498 327T503 320L455 41Q451 22 455 16T488 10Q493 10 493 4T488 -2Q474 -2 461 -1T429 0Q408 0 390 -1T355 -2Z" />
<glyph unicode="&#xbf;" horiz-adv-x="311" d="M184 161Q197 133 201 98T202 42Q196 6 176 -16T130 -58T84 -101T56 -167Q52 -192 56 -213T73 -247T108 -259Q133 -259 142 -245T156 -215Q158 -206 162 -195T175 -175T200 -167Q220 -167 228 -179T232 -208Q229
-228 209 -243T161 -266T100 -275Q42 -275 9 -244T-14 -155Q-8 -121 9 -98T46 -56T86 -22Q129 13 146 40T170 102Q173 114 173 128T171 159Q171 164 177 164T184 161ZM206 360Q228 360 240 348T253 313Q253 292 241 280T206 268Q184 268 172 280T160 313Q160 360
206 360Z" />
<glyph unicode="&#xc0;" horiz-adv-x="602" d="M-34 0Q-38 0 -38 6T-34 12Q-8 12 27 37T98 127L382 635Q384 639 391 638T400 633L495 84Q499 57 505 41T524 19T566 12Q570 12 570 6T566 0Q542 0 517 2T462 4Q433 4 410 2T362 0Q359 0 359 6T362 12Q406 12 418
27T422 84L344 541L378 585L129 131Q103 84 101 58T115 22T168 12Q172 12 172 6T167 0Q147 0 117 2T58 4Q29 4 11 2T-34 0ZM186 261L201 283H418L420 261H186ZM487 679Q435 701 382 720T264 756Q257 758 266 763T291 776T321 786T340 787Q375 763 411 738T491 689Q495
688 493 683T487 679Z" />
<glyph unicode="&#xc1;" horiz-adv-x="602" d="M-34 0Q-38 0 -38 6T-34 12Q-8 12 27 37T98 127L382 635Q384 639 391 638T400 633L495 84Q499 57 505 41T524 19T566 12Q570 12 570 6T566 0Q542 0 517 2T462 4Q433 4 410 2T362 0Q359 0 359 6T362 12Q406 12 418
27T422 84L344 541L378 585L129 131Q103 84 101 58T115 22T168 12Q172 12 172 6T167 0Q147 0 117 2T58 4Q29 4 11 2T-34 0ZM186 261L201 283H418L420 261H186ZM290 678Q286 677 284 682T285 689Q329 713 364 738T436 786Q440 789 454 786T485 776T510 763T512 756Q445
739 393 720T290 678Z" />
<glyph unicode="&#xc2;" horiz-adv-x="602" d="M-34 0Q-38 0 -38 6T-34 12Q-8 12 27 37T98 127L382 635Q384 639 391 638T400 633L495 84Q499 57 505 41T524 19T566 12Q570 12 570 6T566 0Q542 0 517 2T462 4Q433 4 410 2T362 0Q359 0 359 6T362 12Q406 12 418
27T422 84L344 541L378 585L129 131Q103 84 101 58T115 22T168 12Q172 12 172 6T167 0Q147 0 117 2T58 4Q29 4 11 2T-34 0ZM186 261L201 283H418L420 261H186ZM301 669Q300 668 297 671T295 676L405 778Q409 783 414 783T423 778L500 676Q502 674 499 671T493 669L405
720L301 669Z" />
<glyph unicode="&#xc3;" horiz-adv-x="602" d="M-34 0Q-38 0 -38 6T-34 12Q-8 12 27 37T98 127L382 635Q384 639 391 638T400 633L495 84Q499 57 505 41T524 19T566 12Q570 12 570 6T566 0Q542 0 517 2T462 4Q433 4 410 2T362 0Q359 0 359 6T362 12Q406 12 418
27T422 84L344 541L378 585L129 131Q103 84 101 58T115 22T168 12Q172 12 172 6T167 0Q147 0 117 2T58 4Q29 4 11 2T-34 0ZM186 261L201 283H418L420 261H186ZM278 716Q276 715 273 717T271 723Q280 735 293 751T324 778T361 790Q378 790 397 784T439 772T485 766Q506
766 517 773T541 793Q543 795 546 792T548 786Q519 745 501 732T462 718Q441 718 421 724T379 737T333 743Q310 743 300 735T278 716Z" />
<glyph unicode="&#xc4;" horiz-adv-x="602" d="M-34 0Q-38 0 -38 6T-34 12Q-8 12 27 37T98 127L382 635Q384 639 391 638T400 633L495 84Q499 57 505 41T524 19T566 12Q570 12 570 6T566 0Q542 0 517 2T462 4Q433 4 410 2T362 0Q359 0 359 6T362 12Q406 12 418
27T422 84L344 541L378 585L129 131Q103 84 101 58T115 22T168 12Q172 12 172 6T167 0Q146 0 117 2T58 4Q29 4 11 2T-34 0ZM186 261L201 283H418L420 261H186ZM325 712Q304 712 291 724T278 758Q278 779 291 790T325 802Q346 802 357 791T369 758Q369 712 325 712ZM500
712Q453 712 453 758Q453 779 465 790T500 802Q544 802 544 758Q544 712 500 712Z" />
<glyph unicode="&#xc5;" horiz-adv-x="602" d="M-34 0Q-38 0 -38 6T-34 12Q-8 12 27 37T98 127L382 635Q384 639 391 638T400 633L495 84Q499 57 505 41T524 19T566 12Q570 12 570 6T566 0Q542 0 517 2T462 4Q433 4 410 2T362 0Q359 0 359 6T362 12Q406 12 418
27T422 84L344 541L378 585L129 131Q103 84 101 58T115 22T168 12Q172 12 172 6T167 0Q146 0 117 2T58 4Q29 4 11 2T-34 0ZM186 261L201 283H418L420 261H186ZM394 668Q352 668 330 692T307 748Q307 774 322 791T359 816T403 825Q440 825 465 802T491 745Q491 721
477 704T440 677T394 668ZM409 679Q438 679 438 728Q438 762 422 787T384 813Q359 813 359 767Q359 747 365 727T382 693T409 679Z" />
<glyph unicode="&#xc6;" horiz-adv-x="770" d="M-56 0Q-60 0 -60 6T-56 12Q-31 12 -7 22T44 58T107 133L426 575Q439 594 440 601T425 611T371 613Q367 613 367 619T371 625H759Q767 625 765 616Q762 598 759 574T752 526T746 489Q745 485 740 486T734 490Q737
545 711 578T634 611H602Q570 611 552 605T526 584T515 543L457 85Q454 57 456 43T472 23T515 18H567Q610 18 649 55T713 152Q715 155 720 154T724 150Q716 123 707 85T692 15Q689 0 676 0H303Q299 0 299 6T303 12Q348 12 364 25T385 81L454 613L480 602L130 123Q92
71 100 42T166 12Q171 12 171 6T166 0Q148 0 128 1T85 3T40 4Q9 4 -10 2T-56 0ZM264 314L282 337H467L470 314H264ZM670 229Q669 226 664 227T658 231Q666 275 649 294T588 314H448L451 337H595Q638 337 659 354T689 410Q689 415 695 414T700 409Q696 378 692 361T685
325Q681 302 678 279T670 229Z" />
<glyph unicode="&#xc7;" horiz-adv-x="586" d="M318 -13Q232 -13 177 16T95 95T61 201T64 316Q78 390 114 449T201 549T313 613T434 636Q475 636 516 627T581 603Q588 598 589 594T589 579L577 461Q576 457 571 457T566 461Q556 539 510 575T396 612Q333 612 282
580T196 488T148 346Q137 276 144 214T174 105T236 30T324 3Q378 3 431 40T534 154Q536 157 541 155T544 150L515 40Q512 28 509 24T497 17Q449 1 403 -6T318 -13ZM262 -275Q234 -275 215 -263T199 -226Q201 -214 210 -208T232 -201Q246 -201 253 -209T264 -228T273
-247T291 -256Q317 -256 324 -223Q326 -205 314 -183T282 -138Q269 -122 269 -102T281 -60L311 0H324Q313 -24 313 -41T319 -73T338 -104Q356 -127 365 -146T370 -188Q368 -205 355 -225T319 -260T262 -275Z" />
<glyph unicode="&#xc8;" horiz-adv-x="519" d="M17 0Q15 0 15 6T17 12Q48 12 63 17T86 37T99 81L180 544Q188 587 178 600T124 613Q121 613 121 619T124 625H510Q518 625 516 616Q513 598 510 574T503 526T496 489Q495 485 490 486T484 490Q487 543 463 575T392
608H330Q300 608 285 603T263 585T251 543L170 85Q163 44 173 32T226 19H309Q354 19 396 56T463 152Q464 155 470 154T474 150Q466 123 457 85T442 15Q439 0 426 0H17ZM418 229Q417 225 411 225T406 230Q414 274 398 294T340 314H178L182 337H347Q388 337 408 353T436
409Q437 413 443 413T448 407Q444 378 440 361T433 325Q429 302 426 279T418 229ZM431 685Q400 700 371 712T311 734T242 756Q236 757 242 761T261 771T288 780T314 786T329 787Q356 762 380 742T439 694Q442 693 439 688T431 685Z" />
<glyph unicode="&#xc9;" horiz-adv-x="519" d="M17 0Q15 0 15 6T17 12Q48 12 63 17T86 37T99 81L180 544Q188 587 178 600T124 613Q121 613 121 619T124 625H510Q518 625 516 616Q513 598 510 574T503 526T496 489Q495 485 490 486T484 490Q487 543 463 575T392
608H330Q300 608 285 603T263 585T251 543L170 85Q163 44 173 32T226 19H309Q354 19 396 56T463 152Q464 155 470 154T474 150Q466 123 457 85T442 15Q439 0 426 0H17ZM418 229Q417 225 411 225T406 230Q414 274 398 294T340 314H178L182 337H347Q388 337 408 353T436
409Q437 413 443 413T448 407Q444 378 440 361T433 325Q429 302 426 279T418 229ZM290 679Q286 677 284 682T285 689Q328 713 364 738T435 787Q439 790 453 786T484 776T509 763T512 756Q445 740 393 721T290 679Z" />
<glyph unicode="&#xca;" horiz-adv-x="519" d="M17 0Q15 0 15 6T17 12Q48 12 63 17T86 37T99 81L180 544Q188 587 178 600T124 613Q121 613 121 619T124 625H510Q518 625 516 616Q513 598 510 574T503 526T496 489Q495 485 490 486T484 490Q487 543 463 575T392
608H330Q300 608 285 603T263 585T251 543L170 85Q163 44 173 32T226 19H309Q354 19 396 56T463 152Q464 155 470 154T474 150Q466 123 457 85T442 15Q439 0 426 0H17ZM418 229Q417 225 411 225T406 230Q414 274 398 294T340 314H178L182 337H347Q388 337 408 353T436
409Q437 413 443 413T448 407Q444 378 440 361T433 325Q429 302 426 279T418 229ZM254 669Q253 668 250 671T248 676L358 778Q362 783 367 783T376 778L453 676Q455 674 452 671T446 669L358 720L254 669Z" />
<glyph unicode="&#xcb;" horiz-adv-x="519" d="M17 0Q15 0 15 6T17 12Q48 12 63 17T86 37T99 81L180 544Q188 587 178 600T124 613Q121 613 121 619T124 625H510Q518 625 516 616Q513 598 510 574T503 526T496 489Q495 485 490 486T484 490Q487 543 463 575T392
608H330Q300 608 285 603T263 585T251 543L170 85Q163 44 173 32T226 19H309Q354 19 396 56T463 152Q464 155 470 154T474 150Q466 123 457 85T442 15Q439 0 426 0H17ZM418 229Q417 225 411 225T406 230Q414 274 398 294T340 314H178L182 337H347Q388 337 408 353T436
409Q437 413 443 413T448 407Q444 378 440 361T433 325Q429 302 426 279T418 229ZM440 712Q394 712 394 758Q394 779 406 790T440 802Q461 802 472 791T484 758Q484 712 440 712ZM286 712Q241 712 241 758Q241 779 253 790T286 802Q308 802 319 791T331 758Q331
712 286 712Z" />
<glyph unicode="&#xcc;" horiz-adv-x="317" d="M22 0Q19 0 19 6T22 12Q51 12 66 17T89 37T102 81L184 544Q192 587 181 600T127 613Q124 613 124 619T127 625Q148 625 174 624T230 622Q263 622 290 623T337 625Q340 625 340 619T337 613Q307 613 292 607T269 586T256
542L174 81Q166 38 177 25T232 12Q234 12 234 6T232 0Q211 0 185 1T126 2Q97 2 70 1T22 0ZM323 685Q291 700 262 712T203 734T134 756Q128 757 133 761T152 771T179 780T206 786T220 787Q247 762 272 742T330 694Q334 693 331 688T323 685Z" />
<glyph unicode="&#xcd;" horiz-adv-x="317" d="M22 0Q19 0 19 6T22 12Q51 12 66 17T90 37T102 81L184 544Q192 587 181 600T127 613Q124 613 124 619T127 625Q148 625 174 624T230 622Q263 622 290 623T337 625Q340 625 340 619T337 613Q308 613 292 607T269 586T256
542L174 81Q166 38 176 25T232 12Q234 12 234 6T232 0Q211 0 185 1T126 2Q97 2 70 1T22 0ZM181 679Q177 677 175 682T176 689Q220 713 255 738T327 787Q331 790 345 786T376 776T401 763T403 756Q336 740 284 721T181 679Z" />
<glyph unicode="&#xce;" horiz-adv-x="317" d="M22 0Q19 0 19 6T22 12Q51 12 66 17T90 37T102 81L184 544Q192 587 181 600T127 613Q124 613 124 619T127 625Q148 625 174 624T230 622Q263 622 290 623T337 625Q340 625 340 619T337 613Q308 613 292 607T269 586T256
542L174 81Q166 38 176 25T232 12Q234 12 234 6T232 0Q211 0 185 1T126 2Q97 2 70 1T22 0ZM146 669Q144 668 141 671T140 676L249 778Q253 783 258 783T267 778L344 676Q346 674 343 671T337 669L249 720L146 669Z" />
<glyph unicode="&#xcf;" horiz-adv-x="317" d="M22 0Q19 0 19 6T22 12Q51 12 66 17T90 37T102 81L184 544Q192 587 181 600T127 613Q124 613 124 619T127 625Q148 625 174 624T230 622Q263 622 290 623T337 625Q340 625 340 619T337 613Q308 613 292 607T269 586T256
542L174 81Q166 38 176 25T232 12Q234 12 234 6T232 0Q211 0 185 1T126 2Q97 2 70 1T22 0ZM186 712Q164 712 152 724T139 758Q139 779 151 790T186 802Q208 802 219 791T231 758Q231 712 186 712ZM325 712Q280 712 280 758Q280 802 325 802Q346 802 357 791T369
758Q369 712 325 712Z" />
<glyph unicode="&#xd0;" horiz-adv-x="620" d="M60 300Q57 300 56 305T56 316T60 322H322Q325 322 326 317T326 306T322 300H60ZM241 -4Q217 -4 182 -1T116 2Q85 2 59 1T12 0Q9 0 9 6T12 12Q42 12 57 17T81 37T94 81L176 544Q184 587 173 600T119 613Q117 613
117 619T119 625Q140 625 167 624T225 622Q253 622 283 624T339 627Q433 627 497 588T588 480T601 323Q588 248 553 188T467 85T359 19T241 -4ZM235 12Q303 12 360 45T458 143T516 301Q526 361 521 416T495 516T435 585T338 611Q293 611 274 597T246 542L167 92Q159
51 172 32T235 12Z" />
<glyph unicode="&#xd1;" horiz-adv-x="652" d="M490 -10L197 543Q175 584 155 598T114 613Q111 613 111 619T114 625Q131 625 151 624T186 623Q201 623 216 624T236 625Q247 625 250 614T267 573L516 100L509 -9Q509 -13 501 -14T490 -10ZM7 0Q5 0 5 6T7 12Q44
12 67 35T98 109L186 602L207 600L122 109Q113 59 126 36T177 12Q179 12 179 6T177 0Q159 0 139 1T93 2Q70 2 49 1T7 0ZM509 -9L494 35L579 515Q588 565 575 589T524 613Q522 613 522 619T524 625Q541 625 562 624T609 622Q631 622 653 623T694 625Q696 625 696
619T694 613Q658 613 635 589T603 515L509 -9ZM287 692Q286 691 283 694T280 699Q289 712 303 728T334 755T372 767Q388 767 407 761T449 749T495 742Q516 742 527 749T551 769Q553 771 556 768T558 762Q529 721 511 708T472 695Q451 695 431 701T389 713T343 719Q320
719 310 711T287 692Z" />
<glyph unicode="&#xd2;" horiz-adv-x="652" d="M283 -12Q201 -12 147 32T72 150T66 313Q78 384 110 443T188 545T291 612T410 636Q495 636 550 592T626 475T631 313Q618 239 585 180T503 77T399 11T283 -12ZM326 14Q407 14 467 78T549 260Q564 332 558 395T528
508T464 584T370 612Q286 612 227 546T147 366Q134 297 139 234T168 121T231 43T326 14ZM491 685Q459 700 430 712T371 734T302 756Q296 757 301 761T320 771T347 780T374 786T388 787Q415 762 440 742T498 694Q502 693 499 688T491 685Z" />
<glyph unicode="&#xd3;" horiz-adv-x="652" d="M283 -12Q201 -12 147 32T72 150T66 313Q78 384 110 443T188 545T291 612T410 636Q495 636 550 592T626 475T631 313Q618 239 585 180T503 77T399 11T283 -12ZM326 14Q407 14 467 78T549 260Q564 332 558 395T528
508T464 584T370 612Q286 612 227 546T147 366Q134 297 139 234T168 121T231 43T326 14ZM349 679Q345 677 343 682T344 689Q388 713 423 738T495 787Q499 790 513 786T544 776T569 763T571 756Q504 740 452 721T349 679Z" />
<glyph unicode="&#xd4;" horiz-adv-x="652" d="M283 -12Q201 -12 147 32T72 150T66 313Q78 384 110 443T188 545T291 612T410 636Q495 636 550 592T626 475T631 313Q618 239 585 180T503 77T399 11T283 -12ZM326 14Q407 14 467 78T549 260Q564 332 558 395T528
508T464 584T370 612Q286 612 227 546T147 366Q134 297 139 234T168 121T231 43T326 14ZM313 669Q312 668 309 671T307 676L417 778Q421 783 426 783T435 778L512 676Q514 674 511 671T505 669L417 720L313 669Z" />
<glyph unicode="&#xd5;" horiz-adv-x="652" d="M283 -12Q201 -12 147 32T72 150T66 313Q78 384 110 443T188 545T291 612T410 636Q495 636 550 592T626 475T631 313Q618 239 585 180T503 77T399 11T283 -12ZM326 14Q407 14 467 78T549 260Q564 332 558 395T528
508T464 584T370 612Q286 612 227 546T147 366Q134 297 139 234T168 121T231 43T326 14ZM292 692Q290 691 287 694T285 699Q294 712 308 728T339 755T376 767Q392 767 411 761T453 749T499 742Q521 742 532 749T555 769Q557 771 560 768T562 762Q533 721 516 708T477
695Q456 695 436 701T394 713T348 719Q324 719 314 711T292 692Z" />
<glyph unicode="&#xd6;" horiz-adv-x="652" d="M283 -12Q201 -12 147 32T72 150T66 313Q78 384 110 443T188 545T291 612T410 636Q495 636 550 592T626 475T631 313Q618 239 585 180T503 77T399 11T283 -12ZM326 14Q407 14 467 78T549 260Q564 332 558 395T528
508T464 584T370 612Q286 612 227 546T147 366Q134 297 139 234T168 121T231 43T326 14ZM499 712Q453 712 453 758Q453 779 465 790T499 802Q521 802 532 791T544 758Q544 712 499 712ZM346 712Q300 712 300 758Q300 779 312 790T346 802Q367 802 378 791T390 758Q390
712 346 712Z" />
<glyph unicode="&#xd7;" horiz-adv-x="398" d="M96 58Q95 56 87 62T72 77T66 86L300 321Q303 323 310 316T325 302T330 291L96 58ZM67 292Q65 294 71 302T86 317T96 322L330 88Q332 86 325 78T311 64T300 59L67 292Z" />
<glyph unicode="&#xd8;" horiz-adv-x="652" d="M48 -10Q46 -12 41 -9T33 0T31 7L648 632Q650 634 654 631T663 624T665 617L48 -10ZM283 -12Q201 -12 147 32T72 150T66 313Q78 384 110 443T188 545T291 612T410 636Q495 636 550 592T626 475T631 313Q618 239 585
180T503 77T399 11T283 -12ZM326 14Q407 14 467 78T549 260Q564 332 558 395T528 508T464 584T370 612Q286 612 227 546T147 366Q134 297 139 234T168 121T231 43T326 14Z" />
<glyph unicode="&#xd9;" horiz-adv-x="619" d="M562 513Q570 562 555 587T500 613Q497 613 497 619T500 625Q522 625 544 624T592 622Q616 622 638 623T677 625Q681 625 681 619T677 613Q640 613 617 585T585 508L533 215Q521 142 485 91T395 14T276 -13Q209 -13
164 14T101 93T94 215L153 546Q161 589 150 601T93 613Q89 613 89 619T92 625Q115 625 143 624T200 622Q233 622 261 623T309 625Q312 625 312 619T309 613Q278 613 261 607T236 584T223 539L170 245Q150 129 188 74T304 19Q384 19 439 72T509 218L562 513ZM506
679Q455 701 402 720T284 756Q277 758 286 763T311 776T341 786T360 787Q395 763 431 738T510 689Q514 688 513 683T506 679Z" />
<glyph unicode="&#xda;" horiz-adv-x="619" d="M562 513Q570 562 555 587T500 613Q497 613 497 619T500 625Q522 625 544 624T592 622Q616 622 638 623T677 625Q681 625 681 619T677 613Q640 613 617 585T585 508L533 215Q521 142 485 91T395 14T276 -13Q209 -13
164 14T101 93T94 215L153 546Q161 589 150 601T93 613Q89 613 89 619T92 625Q115 625 143 624T200 622Q233 622 261 623T309 625Q312 625 312 619T309 613Q278 613 261 607T236 584T223 539L170 245Q150 129 188 74T304 19Q384 19 439 72T509 218L562 513ZM310
678Q306 677 304 682T305 689Q349 713 384 738T456 786Q460 789 474 786T505 776T530 763T532 756Q465 739 413 720T310 678Z" />
<glyph unicode="&#xdb;" horiz-adv-x="619" d="M562 513Q570 562 555 587T500 613Q497 613 497 619T500 625Q522 625 544 624T592 622Q616 622 638 623T677 625Q681 625 681 619T677 613Q640 613 617 585T585 508L533 215Q521 142 485 91T395 14T276 -13Q209 -13
164 14T101 93T94 215L153 546Q161 589 150 601T93 613Q89 613 89 619T92 625Q115 625 143 624T200 622Q233 622 261 623T309 625Q312 625 312 619T309 613Q278 613 261 607T236 584T223 539L170 245Q150 129 188 74T304 19Q384 19 439 72T509 218L562 513ZM321
669Q320 668 317 671T315 676L425 778Q429 783 434 783T443 778L520 676Q522 674 519 671T513 669L425 720L321 669Z" />
<glyph unicode="&#xdc;" horiz-adv-x="619" d="M562 513Q570 562 555 587T500 613Q497 613 497 619T500 625Q522 625 544 624T592 622Q616 622 638 623T677 625Q681 625 681 619T677 613Q640 613 617 585T585 508L533 215Q521 142 485 91T395 14T276 -13Q209 -13
164 14T101 93T94 215L153 546Q161 589 150 601T93 613Q89 613 89 619T92 625Q115 625 143 624T200 622Q233 622 261 623T309 625Q312 625 312 619T309 613Q278 613 261 607T236 584T223 539L170 245Q150 129 188 74T304 19Q384 19 439 72T509 218L562 513ZM344
712Q323 712 311 724T298 758Q298 779 310 790T344 802Q366 802 377 791T389 758Q389 712 344 712ZM520 712Q473 712 473 758Q473 779 485 790T520 802Q564 802 564 758Q564 712 520 712Z" />
<glyph unicode="&#xdd;" horiz-adv-x="531" d="M295 268L282 280L449 525Q477 565 472 589T429 613Q426 613 426 619T429 625Q452 625 477 624T535 622Q556 622 569 623T602 625Q605 625 605 619T602 613Q571 613 538 589T469 514L295 268ZM127 0Q123 0 123 6T127
12Q159 12 176 17T201 37T214 81L254 310L326 319L284 81Q277 38 287 25T347 12Q350 12 350 6T347 0Q324 0 297 1T238 2Q205 2 177 1T127 0ZM265 271L150 542Q134 580 117 596T73 613Q69 613 69 619T73 625Q91 625 111 624T151 622Q182 622 213 623T266 625Q270
625 269 619T264 613Q230 613 221 604T220 573L326 317L265 271ZM296 679Q292 677 290 682T291 689Q334 713 370 738T442 787Q445 790 460 786T491 776T516 763T518 756Q451 740 399 721T296 679Z" />
<glyph unicode="&#xde;" horiz-adv-x="538" d="M13 0Q11 0 11 6T13 12Q43 12 59 17T83 37T96 81L177 544Q185 587 175 600T121 613Q118 613 118 619T121 625Q142 625 167 624T223 622Q264 622 296 623T354 625Q356 625 356 619T354 613Q311 613 291 609T261 589T246
542L165 81Q160 52 163 37T185 17T246 12Q248 12 248 6T246 0Q220 0 188 1T116 2Q87 2 61 1T13 0ZM252 127Q241 127 231 128T211 131Q209 132 210 140T216 147Q230 144 245 144Q284 144 325 158T398 205T440 292Q452 348 437 391T384 458T293 483Q258 483 235 479T193
467L187 483Q216 492 251 495T321 499Q387 499 437 479T512 418T523 312Q513 263 484 228T415 171T333 138T252 127Z" />
<glyph unicode="&#xdf;" horiz-adv-x="456" d="M-46 -275Q-84 -275 -101 -261T-117 -227Q-116 -213 -105 -204T-77 -194Q-59 -194 -52 -203T-42 -225T-35 -246T-18 -256Q-8 -256 0 -239T17 -177T40 -47L115 434Q129 523 160 588T239 690T349 726Q387 726 409 712T439
677T443 630Q438 595 419 568T376 516T333 468T309 416Q305 387 315 360T343 307T378 252T404 194T409 126Q404 93 386 62T339 10T269 -11Q231 -11 212 7T193 44Q193 60 202 71T230 82Q247 82 255 72T267 49T279 26T305 16Q328 16 341 33T357 78Q361 111 351 139T324
193T290 247T264 303T259 366Q265 401 281 428T317 481T353 536T374 606Q377 631 374 654T359 692T320 708Q270 708 234 640T177 443L105 -21Q91 -116 72 -172T25 -251T-46 -275Z" />
<glyph unicode="&#xe0;" horiz-adv-x="437" d="M81 -13Q48 -13 31 11T20 91Q28 144 55 198T120 298T203 371T287 399Q306 399 325 392T357 370T373 328L325 357Q339 359 356 373T381 407Q383 410 388 409T393 405L335 89Q325 34 348 34Q359 34 375 46T411 77Q414
80 418 76T419 69Q387 32 360 12T307 -9Q280 -9 272 13T273 89L297 229L315 246Q288 168 249 110T166 19T81 -13ZM126 44Q153 44 181 64T234 119T278 193T304 269Q312 309 298 334T248 359Q215 359 182 331T123 256T88 147Q80 93 90 69T126 44ZM294 475L246 727Q245
732 255 732T279 731T303 724T314 716L303 476Q303 474 299 473T294 475Z" />
<glyph unicode="&#xe1;" horiz-adv-x="437" d="M81 -13Q48 -13 31 11T20 91Q28 144 55 198T120 298T203 371T287 399Q306 399 325 392T357 370T373 328L325 357Q339 359 356 373T381 407Q383 410 388 409T393 405L335 89Q325 34 348 34Q359 34 375 46T411 77Q414
80 418 76T419 69Q387 32 360 12T307 -9Q280 -9 272 13T273 89L297 229L315 246Q288 168 249 110T166 19T81 -13ZM126 44Q153 44 181 64T234 119T278 193T304 269Q312 309 298 334T248 359Q215 359 182 331T123 256T88 147Q80 93 90 69T126 44ZM283 473Q282 470
277 472T273 476L361 716Q362 720 374 723T402 729T427 732T436 727L283 473Z" />
<glyph unicode="&#xe2;" horiz-adv-x="437" d="M81 -13Q48 -13 31 11T20 91Q28 144 55 198T120 298T203 371T287 399Q306 399 325 392T357 370T373 328L325 357Q339 359 356 373T381 407Q383 410 388 409T393 405L335 89Q325 34 348 34Q359 34 375 46T411 77Q414
80 418 76T419 69Q387 32 360 12T307 -9Q280 -9 272 13T273 89L297 229L315 246Q288 168 249 110T166 19T81 -13ZM126 44Q153 44 181 64T234 119T278 193T304 269Q312 309 298 334T248 359Q215 359 182 331T123 256T88 147Q80 93 90 69T126 44ZM348 726L370 477Q370
475 365 475T359 476L320 616L230 474Q229 471 224 473T220 477L330 726Q332 731 340 731T348 726Z" />
<glyph unicode="&#xe3;" horiz-adv-x="437" d="M81 -13Q48 -13 31 11T20 91Q28 144 55 198T120 298T203 371T287 399Q306 399 325 392T357 370T373 328L325 357Q339 359 356 373T381 407Q383 410 388 409T393 405L335 89Q325 34 348 34Q359 34 375 46T411 77Q414
80 418 76T419 69Q387 32 360 12T307 -9Q280 -9 272 13T273 89L297 229L315 246Q288 168 249 110T166 19T81 -13ZM126 44Q153 44 181 64T234 119T278 193T304 269Q312 309 298 334T248 359Q215 359 182 331T123 256T88 147Q80 93 90 69T126 44ZM167 477Q165 476
162 478T160 484Q169 496 183 512T214 539T251 551Q267 551 286 545T328 533T374 527Q395 527 406 534T430 554Q432 556 435 553T437 547Q408 506 390 493T351 479Q330 479 310 485T268 498T222 504Q199 504 189 496T167 477Z" />
<glyph unicode="&#xe4;" horiz-adv-x="437" d="M81 -13Q48 -13 31 11T20 91Q28 144 55 198T120 298T203 371T287 399Q306 399 325 392T357 370T373 328L325 357Q339 359 356 373T381 407Q383 410 388 409T393 405L335 89Q325 34 348 34Q359 34 375 46T411 77Q414
80 418 76T419 69Q387 32 360 12T307 -9Q280 -9 272 13T273 89L297 229L315 246Q288 168 249 110T166 19T81 -13ZM126 44Q153 44 181 64T234 119T278 193T304 269Q312 309 298 334T248 359Q215 359 182 331T123 256T88 147Q80 93 90 69T126 44ZM376 473Q330 473
330 519Q330 540 342 551T376 563Q398 563 409 552T421 519Q421 473 376 473ZM223 473Q177 473 177 519Q177 540 189 551T223 563Q244 563 255 552T267 519Q267 473 223 473Z" />
<glyph unicode="&#xe5;" horiz-adv-x="437" d="M81 -13Q48 -13 31 11T20 91Q28 144 55 198T120 298T203 371T287 399Q306 399 325 392T357 370T373 328L325 357Q339 359 356 373T381 407Q383 410 388 409T393 405L335 89Q325 34 348 34Q359 34 375 46T411 77Q414
80 418 76T419 69Q387 32 360 12T307 -9Q280 -9 272 13T273 89L297 229L315 246Q288 168 249 110T166 19T81 -13ZM126 44Q153 44 181 64T234 119T278 193T304 269Q312 309 298 334T248 359Q215 359 182 331T123 256T88 147Q80 93 90 69T126 44ZM293 468Q252 468
229 492T206 547Q206 573 221 590T259 616T303 625Q339 625 364 602T390 545Q390 521 376 504T339 477T293 468ZM309 479Q338 479 338 527Q338 562 322 587T283 613Q258 613 258 567Q258 546 264 526T281 493T309 479Z" />
<glyph unicode="&#xe6;" horiz-adv-x="556" d="M84 -13Q49 -13 31 12T20 91Q27 143 51 197T112 297T190 371T276 399Q302 399 324 386T349 340Q337 316 324 293T299 246Q272 172 237 113T162 21T84 -13ZM128 46Q149 46 173 66T220 120T261 193T287 270Q295 310
282 339T237 367Q208 366 178 337T124 259T91 147Q85 110 88 88T102 56T128 46ZM371 -12Q304 -12 281 48T279 211L315 305Q350 352 395 375T488 399Q533 399 547 380T557 337Q554 315 532 293T458 248T314 198L315 209Q348 221 385 236T450 272T484 323Q487 334
485 346T473 368T447 377Q409 377 380 332T341 215Q328 121 349 74T415 26Q438 26 457 33T496 58Q499 60 503 56T504 49Q468 16 437 2T371 -12Z" />
<glyph unicode="&#xe7;" horiz-adv-x="346" d="M158 -13Q114 -13 87 6T45 57T28 127T33 202Q45 264 80 308T160 375T250 399Q274 399 295 392T328 371T339 337Q338 322 328 312T300 301Q282 301 273 312T260 337Q256 350 246 362T212 375Q184 375 162 357T126
306T104 234Q95 179 101 132T133 55T206 26Q235 26 261 39T306 67Q309 69 313 65T314 58Q275 21 235 4T158 -13ZM108 -275Q81 -275 62 -263T46 -226Q48 -214 57 -208T78 -201Q93 -201 99 -209T110 -228T119 -247T137 -256Q164 -256 170 -223Q172 -205 160 -183T128
-138Q115 -122 116 -102T128 -60L157 0H171Q160 -24 159 -41T165 -73T185 -104Q202 -127 211 -146T217 -188Q214 -205 201 -225T165 -260T108 -275Z" />
<glyph unicode="&#xe8;" horiz-adv-x="347" d="M157 -12Q102 -12 71 16T31 89T30 185Q37 223 58 261T110 330T180 380T263 399Q301 399 319 385T335 345Q331 321 308 298T247 257T164 226T70 208L72 221Q147 232 198 256T257 324Q263 349 250 360T216 372Q186
372 163 351T125 295T103 218Q93 164 101 121T134 51T201 25Q224 25 249 32T299 58Q301 60 304 56T306 49Q268 16 231 2T157 -12ZM248 475L200 727Q199 732 209 732T233 731T257 724T267 716L257 476Q257 474 253 473T248 475Z" />
<glyph unicode="&#xe9;" horiz-adv-x="347" d="M157 -12Q102 -12 71 16T31 89T30 185Q37 223 58 261T110 330T180 380T263 399Q301 399 319 385T335 345Q331 321 308 298T247 257T164 226T70 208L72 221Q147 232 198 256T257 324Q263 349 250 360T216 372Q186
372 163 351T125 295T103 218Q93 164 101 121T134 51T201 25Q224 25 249 32T299 58Q301 60 304 56T306 49Q268 16 231 2T157 -12ZM237 473Q236 470 231 472T227 476L314 716Q316 720 328 723T355 729T380 732T389 727L237 473Z" />
<glyph unicode="&#xea;" horiz-adv-x="347" d="M157 -12Q102 -12 71 16T31 89T30 185Q37 223 58 261T110 330T180 380T263 399Q301 399 319 385T335 345Q331 321 308 298T247 257T164 226T70 208L72 221Q147 232 198 256T257 324Q263 349 250 360T216 372Q186
372 163 351T125 295T103 218Q93 164 101 121T134 51T201 25Q224 25 249 32T299 58Q301 60 304 56T306 49Q268 16 231 2T157 -12ZM294 727L317 478Q317 475 311 475T305 477L266 616L177 474Q175 472 170 473T166 478L275 727Q278 732 286 732T294 727Z" />
<glyph unicode="&#xeb;" horiz-adv-x="347" d="M157 -12Q102 -12 71 16T31 89T30 185Q37 223 58 261T110 330T180 380T263 399Q301 399 319 385T335 345Q331 321 308 298T247 257T164 226T70 208L72 221Q147 232 198 256T257 324Q263 349 250 360T216 372Q186
372 163 351T125 295T103 218Q93 164 101 121T134 51T201 25Q224 25 249 32T299 58Q301 60 304 56T306 49Q268 16 231 2T157 -12ZM330 473Q284 473 284 519Q284 540 296 551T330 563Q351 563 362 552T374 519Q374 473 330 473ZM176 473Q131 473 131 519Q131 540
143 551T176 563Q198 563 209 552T221 519Q221 473 176 473Z" />
<glyph unicode="&#xec;" horiz-adv-x="247" d="M108 -9Q81 -9 73 13T75 89L116 297Q127 353 99 353Q88 353 71 342T34 309Q31 305 27 309T26 317Q61 357 89 376T143 395Q171 395 179 373T177 302L136 89Q130 59 135 47T151 34Q162 34 178 45T214 76Q218 80 222
76T222 68Q190 30 163 11T108 -9ZM158 475L110 727Q109 732 119 732T143 731T167 724T178 716L167 476Q167 474 163 473T158 475Z" />
<glyph unicode="&#xed;" horiz-adv-x="247" d="M108 -9Q81 -9 73 13T75 89L116 297Q127 353 99 353Q88 353 71 342T34 309Q31 305 27 309T26 317Q61 357 89 376T143 395Q171 395 179 373T177 302L136 89Q130 59 135 47T151 34Q162 34 178 45T214 76Q218 80 222
76T222 68Q190 30 163 11T108 -9ZM147 473Q146 470 141 472T137 476L225 716Q226 720 238 723T265 729T291 732T299 727L147 473Z" />
<glyph unicode="&#xee;" horiz-adv-x="247" d="M108 -9Q81 -9 73 13T75 89L116 297Q127 353 99 353Q88 353 71 342T34 309Q31 305 27 309T26 317Q61 357 89 376T143 395Q171 395 179 373T177 302L136 89Q130 59 135 47T151 34Q162 34 178 45T214 76Q218 80 222
76T222 68Q190 30 163 11T108 -9ZM212 726L234 477Q234 475 229 475T223 476L184 616L94 474Q93 471 88 473T84 477L194 726Q196 731 204 731T212 726Z" />
<glyph unicode="&#xef;" horiz-adv-x="247" d="M108 -9Q81 -9 73 13T75 89L116 297Q127 353 99 353Q88 353 71 342T34 309Q31 305 27 309T26 317Q61 357 89 376T143 395Q171 395 179 373T177 302L136 89Q130 59 135 47T151 34Q162 34 178 45T214 76Q218 80 222
76T222 68Q190 30 163 11T108 -9ZM95 473Q73 473 61 485T48 519Q48 540 60 551T95 563Q117 563 128 552T139 519Q139 473 95 473ZM234 473Q189 473 189 519Q189 563 234 563Q255 563 266 552T278 519Q278 473 234 473Z" />
<glyph unicode="&#xf0;" horiz-adv-x="401" d="M154 -13Q103 -13 71 14T28 87T27 186Q40 259 76 306T158 376T242 399Q276 399 305 382T349 333L307 204Q319 278 314 355T287 502T234 627T159 712Q156 715 161 719T175 725T186 725Q239 693 281 638T349 514T383
368T378 216Q365 140 331 89T250 13T154 -13ZM181 8Q223 8 256 53T307 204Q320 287 304 333T228 380Q187 380 150 337T100 215Q92 159 98 112T126 37T181 8ZM141 496Q137 494 132 503T131 514L405 644Q409 646 414 637T414 626L141 496Z" />
<glyph unicode="&#xf1;" horiz-adv-x="468" d="M337 -9Q309 -9 302 14T304 89L333 248Q355 355 300 355Q269 355 235 315T171 197T121 9L107 10Q128 127 162 214T242 350T338 399Q381 399 396 368T398 267L365 89Q360 59 365 47T381 34Q392 34 407 46T443 77Q446
81 450 77T451 69Q419 32 392 12T337 -9ZM82 -8Q66 -8 61 -6T55 -1Q55 2 60 25T70 74L111 297Q121 353 95 353Q84 353 67 342T29 309Q26 305 22 309T21 317Q56 357 84 376T140 395Q167 395 174 373T173 302L121 9Q118 -8 82 -8ZM153 477Q151 476 148 478T146 484Q155
496 169 512T200 539T237 551Q253 551 272 545T314 533T360 527Q381 527 393 534T416 554Q418 556 421 553T423 547Q394 506 376 493T337 479Q316 479 296 485T254 498T208 504Q185 504 175 496T153 477Z" />
<glyph unicode="&#xf2;" horiz-adv-x="401" d="M155 -14Q105 -14 74 14T32 89T31 193Q43 252 74 298T149 372T245 399Q298 399 330 371T372 296T372 193Q359 128 325 82T246 11T155 -14ZM190 11Q228 11 259 47T302 149Q309 189 308 228T295 301T264 355T214 375Q177
375 146 339T101 236Q93 195 95 156T108 83T140 31T190 11ZM247 475L199 727Q198 732 208 732T232 731T256 724T267 716L256 476Q256 474 252 473T247 475Z" />
<glyph unicode="&#xf3;" horiz-adv-x="401" d="M155 -14Q105 -14 74 14T32 89T31 193Q43 252 74 298T149 372T245 399Q298 399 330 371T372 296T372 193Q359 128 325 82T246 11T155 -14ZM190 11Q228 11 259 47T302 149Q309 189 308 228T295 301T264 355T214 375Q177
375 146 339T101 236Q93 195 95 156T108 83T140 31T190 11ZM236 473Q235 470 230 472T226 476L313 716Q315 720 327 723T354 729T380 732T388 727L236 473Z" />
<glyph unicode="&#xf4;" horiz-adv-x="401" d="M155 -14Q105 -14 74 14T32 89T31 193Q43 252 74 298T149 372T245 399Q298 399 330 371T372 296T372 193Q359 128 325 82T246 11T155 -14ZM190 11Q228 11 259 47T302 149Q309 189 308 228T295 301T264 355T214 375Q177
375 146 339T101 236Q93 195 95 156T108 83T140 31T190 11ZM294 727L316 478Q316 475 310 475T304 477L266 616L176 474Q175 472 170 473T166 478L275 727Q277 732 285 732T294 727Z" />
<glyph unicode="&#xf5;" horiz-adv-x="401" d="M155 -14Q105 -14 74 14T32 89T31 193Q43 252 74 298T149 372T245 399Q298 399 330 371T372 296T372 193Q359 128 325 82T246 11T155 -14ZM190 11Q228 11 259 47T302 149Q309 189 308 228T295 301T264 355T214 375Q177
375 146 339T101 236Q93 195 95 156T108 83T140 31T190 11ZM119 477Q118 476 115 478T112 484Q121 496 135 512T166 539T203 551Q219 551 239 545T281 533T327 527Q348 527 359 534T382 554Q384 556 387 553T389 547Q360 506 343 493T304 479Q283 479 263 485T221
498T175 504Q152 504 142 496T119 477Z" />
<glyph unicode="&#xf6;" horiz-adv-x="401" d="M155 -14Q105 -14 74 14T32 89T31 193Q43 252 74 298T149 372T245 399Q298 399 330 371T372 296T372 193Q359 128 325 82T246 11T155 -14ZM190 11Q228 11 259 47T302 149Q309 189 308 228T295 301T264 355T214 375Q177
375 146 339T101 236Q93 195 95 156T108 83T140 31T190 11ZM329 473Q283 473 283 519Q283 540 295 551T329 563Q350 563 362 552T374 519Q374 473 329 473ZM176 473Q130 473 130 519Q130 540 142 551T176 563Q197 563 208 552T220 519Q220 473 176 473Z" />
<glyph unicode="&#xf7;" horiz-adv-x="389" d="M34 174Q31 174 30 184T30 205T33 216H364Q367 216 368 206T368 185T364 174H34ZM199 -10Q177 -10 164 2T151 37Q151 58 164 70T199 82Q221 82 233 70T245 37Q245 -10 199 -10ZM197 315Q176 315 163 327T150 362Q150
383 163 395T197 407Q220 407 232 395T244 362Q244 315 197 315Z" />
<glyph unicode="&#xf8;" horiz-adv-x="408" d="M13 -16Q10 -18 2 -11T-2 0L386 400Q388 402 396 396T402 386L13 -16ZM155 -14Q105 -14 74 14T32 89T31 193Q43 252 74 298T149 372T245 399Q298 399 330 371T372 296T372 193Q359 128 325 82T246 11T155 -14ZM190
11Q228 11 259 47T302 149Q309 189 308 228T295 301T264 355T214 375Q177 375 146 339T101 236Q93 195 95 156T108 83T140 31T190 11Z" />
<glyph unicode="&#xf9;" horiz-adv-x="468" d="M130 -13Q88 -13 72 18T70 119L106 297Q111 327 107 339T90 352Q80 352 64 340T29 309Q25 305 21 309T21 317Q54 355 80 375T134 395Q160 395 169 373T167 297L135 138Q123 83 132 57T169 31Q200 31 233 71T297 189T347
377L361 376Q342 259 307 172T226 36T130 -13ZM329 -9Q302 -9 295 13T296 84L347 377Q350 394 387 394Q403 394 408 392T413 387Q413 384 408 361T398 312L357 89Q348 33 373 33Q384 33 401 44T439 77Q442 81 446 77T447 69Q412 29 384 10T329 -9ZM271 475L223
727Q222 732 232 732T256 731T280 724T290 716L280 476Q280 474 276 473T271 475Z" />
<glyph unicode="&#xfa;" horiz-adv-x="468" d="M130 -13Q88 -13 72 18T70 119L106 297Q111 327 107 339T90 352Q80 352 64 340T29 309Q25 305 21 309T21 317Q54 355 80 375T134 395Q160 395 169 373T167 297L135 138Q123 83 132 57T169 31Q200 31 233 71T297 189T347
377L361 376Q342 259 307 172T226 36T130 -13ZM329 -9Q302 -9 295 13T296 84L347 377Q350 394 387 394Q403 394 408 392T413 387Q413 384 408 361T398 312L357 89Q348 33 373 33Q384 33 401 44T439 77Q442 81 446 77T447 69Q412 29 384 10T329 -9ZM260 473Q259
470 254 472T250 476L337 716Q339 720 351 723T378 729T403 732T412 727L260 473Z" />
<glyph unicode="&#xfb;" horiz-adv-x="468" d="M130 -13Q88 -13 72 18T70 119L106 297Q111 327 107 339T90 352Q80 352 64 340T29 309Q25 305 21 309T21 317Q54 355 80 375T134 395Q160 395 169 373T167 297L135 138Q123 83 132 57T169 31Q200 31 233 71T297 189T347
377L361 376Q342 259 307 172T226 36T130 -13ZM329 -9Q302 -9 295 13T296 84L347 377Q350 394 387 394Q403 394 408 392T413 387Q413 384 408 361T398 312L357 89Q348 33 373 33Q384 33 401 44T439 77Q442 81 446 77T447 69Q412 29 384 10T329 -9ZM317 727L339
478Q339 475 334 475T327 477L289 616L200 474Q198 472 193 473T189 478L298 727Q301 732 309 732T317 727Z" />
<glyph unicode="&#xfc;" horiz-adv-x="468" d="M130 -13Q88 -13 72 18T70 119L106 297Q111 327 107 339T90 352Q80 352 64 340T29 309Q25 305 21 309T21 317Q54 355 80 375T134 395Q160 395 169 373T167 297L135 138Q123 83 132 57T169 31Q200 31 233 71T297 189T347
377L361 376Q342 259 307 172T226 36T130 -13ZM329 -9Q302 -9 295 13T296 84L347 377Q350 394 387 394Q403 394 408 392T413 387Q413 384 408 361T398 312L357 89Q348 33 373 33Q384 33 401 44T439 77Q442 81 446 77T447 69Q412 29 384 10T329 -9ZM353 473Q306
473 306 519Q306 540 318 551T353 563Q374 563 385 552T397 519Q397 473 353 473ZM199 473Q153 473 153 519Q153 540 165 551T199 563Q221 563 232 552T244 519Q244 473 199 473Z" />
<glyph unicode="&#xfd;" horiz-adv-x="446" d="M-17 -281Q-38 -281 -52 -271T-63 -234Q-56 -201 -17 -201Q4 -201 23 -203T62 -203T100 -187Q122 -172 151 -136T213 -52T274 44T323 136T350 205Q357 236 355 259T345 299T332 330T325 358Q325 375 337 385T368
396Q390 396 400 380T411 336Q411 302 395 252T351 144T287 26T211 -89T130 -187T51 -255T-17 -281ZM177 -120Q182 104 152 225T67 347Q54 347 41 339T19 312Q17 308 12 309T7 315Q25 353 52 374T107 395Q141 395 167 362T211 270T234 135T236 -29L177 -120ZM242
473Q241 470 236 472T232 476L319 716Q321 720 333 723T360 729T386 732T394 727L242 473Z" />
<glyph unicode="&#xfe;" horiz-adv-x="409" d="M-60 -275Q-64 -276 -65 -270T-62 -263Q-41 -259 -31 -253T-15 -231T-3 -185L140 610Q148 649 135 658T77 646Q73 645 71 651T72 658L210 725Q214 727 218 723T221 717L61 -178Q54 -218 65 -229T115 -236Q119 -235
121 -240T118 -247L-60 -275ZM145 -1Q112 -1 92 2T57 8L67 63Q87 49 112 39T176 28Q217 28 245 52T291 119T318 220Q323 254 318 284T293 334T238 353Q193 353 145 328T35 257Q32 255 29 259T28 266Q90 319 157 356T291 393Q347 393 373 355T389 252Q379 195 354
149T293 69T219 17T145 -1Z" />
<glyph unicode="&#xff;" horiz-adv-x="446" d="M-17 -281Q-38 -281 -52 -271T-63 -234Q-56 -201 -17 -201Q4 -201 23 -203T62 -203T100 -187Q122 -172 151 -136T213 -52T274 44T323 136T350 205Q357 236 355 259T345 299T332 330T325 358Q325 375 337 385T368
396Q390 396 400 380T411 336Q411 302 395 252T351 144T287 26T211 -89T130 -187T51 -255T-17 -281ZM177 -120Q182 104 152 225T67 347Q54 347 41 339T19 312Q17 308 12 309T7 315Q25 353 52 374T107 395Q141 395 167 362T211 270T234 135T236 -29L177 -120ZM335
473Q289 473 289 519Q289 540 301 551T335 563Q356 563 368 552T380 519Q380 473 335 473ZM182 473Q136 473 136 519Q136 540 148 551T182 563Q203 563 214 552T226 519Q226 473 182 473Z" />
<glyph unicode="&#x2013;" horiz-adv-x="515" d="M34 169Q31 169 30 179T30 200T33 210H481Q484 210 485 200T485 180T481 169H34Z" />
<glyph unicode="&#x2014;" horiz-adv-x="830" d="M34 169Q31 169 30 179T30 200T33 210H796Q799 210 800 200T800 180T796 169H34Z" />
<glyph unicode="&#x2018;" horiz-adv-x="186" d="M204 634Q208 637 211 632T211 625Q179 593 160 560T135 493Q129 464 134 452T143 435L113 423Q112 443 121 452T148 462Q172 462 183 447T191 413Q190 396 177 385T140 373Q109 373 93 397T86 468Q96 515 126
556T204 634Z" />
<glyph unicode="&#x2019;" horiz-adv-x="186" d="M92 374Q88 371 85 376T85 383Q117 414 136 447T161 514Q167 543 162 556T153 572L182 584Q183 565 174 555T147 545Q124 545 113 560T104 594Q106 612 119 623T155 634Q186 634 202 610T209 539Q201 493 170 452T92 374Z" />
<glyph unicode="&#x201a;" horiz-adv-x="165" d="M-14 -179Q-18 -182 -21 -177T-21 -170Q12 -139 31 -106T55 -39Q61 -10 56 3T47 19L77 31Q78 12 69 2T42 -8Q19 -8 8 7T-1 41Q0 59 13 70T50 81Q81 81 97 57T104 -14Q95 -60 64 -101T-14 -179Z" />
<glyph unicode="&#x201c;" horiz-adv-x="336" d="M196 634Q200 637 203 632T203 625Q171 593 152 560T127 493Q121 464 126 452T135 435L106 423Q105 443 114 452T141 462Q164 462 175 447T184 413Q182 396 169 385T133 373Q102 373 86 397T79 468Q88 515 118
556T196 634ZM346 634Q350 637 353 632T353 625Q321 593 302 560T277 493Q272 464 276 452T286 435L256 423Q255 443 264 452T291 462Q315 462 325 447T334 413Q332 396 320 385T283 373Q252 373 236 397T229 468Q238 515 269 556T346 634Z" />
<glyph unicode="&#x201d;" horiz-adv-x="337" d="M250 374Q246 371 243 376T243 383Q275 414 294 447T319 514Q325 543 320 556T311 572L340 584Q341 565 332 555T305 545Q282 545 271 560T262 594Q264 612 277 623T313 634Q344 634 360 610T367 539Q359 493 328
452T250 374ZM100 374Q96 371 93 376T93 383Q125 414 144 447T169 514Q174 543 170 556T160 572L190 584Q191 565 182 555T155 545Q132 545 121 560T112 594Q114 612 126 623T163 634Q194 634 210 610T217 539Q209 493 178 452T100 374Z" />
<glyph unicode="&#x201e;" horiz-adv-x="336" d="M145 -179Q141 -182 138 -177T138 -170Q170 -139 189 -106T213 -39Q219 -10 214 3T205 19L235 31Q236 12 227 2T200 -8Q177 -8 166 7T157 41Q158 59 171 70T208 81Q239 81 255 57T262 -14Q253 -60 222 -101T145
-179ZM-6 -179Q-10 -182 -13 -177T-13 -170Q19 -139 38 -106T63 -39Q69 -10 64 3T55 19L84 31Q85 12 76 2T50 -8Q26 -8 15 7T6 41Q8 59 21 70T58 81Q88 81 104 57T111 -14Q103 -60 72 -101T-6 -179Z" />
<glyph unicode="&#x2022;" horiz-adv-x="309" d="M164 145Q136 145 113 158T75 195T61 248Q61 276 75 299T112 336T164 351Q193 351 216 337T253 300T267 248Q267 219 253 196T216 159T164 145Z" />
<glyph unicode="&#x2039;" horiz-adv-x="280" d="M245 364Q247 366 251 362T253 356L124 201L199 47Q201 44 197 41T191 40L50 189Q46 194 46 200T53 212L245 364Z" />
<glyph unicode="&#x203a;" horiz-adv-x="279" d="M37 37Q35 36 31 39T29 46L158 200L83 354Q82 357 86 360T91 361L233 212Q236 208 236 201T229 189L37 37Z" />
</font>
</defs>
</svg>
