<?xml version="1.0" standalone="no"?>
<!DOCTYPE svg PUBLIC "-//W3C//DTD SVG 1.1//EN" "http://www.w3.org/Graphics/SVG/1.1/DTD/svg11.dtd">
<svg xmlns="http://www.w3.org/2000/svg">
<defs >
<font id="CormorantGaramond" horiz-adv-x="443" ><font-face
    font-family="Cormorant Garamond Light Light"
    units-per-em="1000"
    panose-1="0 0 0 0 0 0 0 0 0 0"
    ascent="924"
    descent="-287"
    alphabetic="0" />
<glyph unicode=" " horiz-adv-x="234" />
<glyph unicode="!" horiz-adv-x="219" d="M113 191Q112 186 107 187T102 192Q111 258 121 332T140 481T150 621Q150 625 161 629T186 633Q200 633 211 629T221 621Q199 555 180 481T145 332T113 191ZM77 -11Q59 -11 49 -1T38 28Q38 45 48 55T77 65Q96 65 106 55T116
28Q116 -11 77 -11Z" />
<glyph unicode="&quot;" horiz-adv-x="315" d="M86 306L134 609Q135 617 145 623T169 634T193 640T202 637L96 308Q95 305 91 305T86 306ZM227 306L275 609Q276 617 286 623T310 634T334 640T343 637L237 308Q236 305 232 305T227 306Z" />
<glyph unicode="#" horiz-adv-x="433" d="M63 -82Q63 -85 56 -84T42 -80T36 -75L222 482Q223 485 230 484T243 479T249 473L63 -82ZM28 77Q26 77 25 86T25 105T28 115H340Q343 115 343 106T343 87T339 77H28ZM214 -82Q214 -85 207 -84T193 -80T187 -75L373 482Q374
485 381 484T394 479T400 473L214 -82ZM95 276Q93 276 92 285T92 304T95 313H407Q410 313 410 304T410 286T406 276H95Z" />
<glyph unicode="$" horiz-adv-x="367" d="M124 -101L241 563Q243 570 251 569T258 560L142 -103Q141 -110 132 -109T124 -101ZM135 380Q130 349 141 327T173 289T218 256Q243 241 265 223T299 180T305 117Q299 82 276 53T218 6T135 -12Q108 -12 85 -4T40 23Q35
26 34 30T34 42L40 137Q40 142 45 142T50 136Q50 98 63 68T101 20T156 2Q175 2 196 10T233 39T256 94Q263 128 252 151T219 192T174 226Q150 242 128 260T95 302T90 364Q97 402 120 428T175 467T241 480Q258 480 278 475T320 456Q328 452 330 450T332 440L325 354Q324
350 320 351T315 357Q315 377 309 396T292 431T263 457T225 467Q189 467 166 443T135 380Z" />
<glyph unicode="%" horiz-adv-x="517" d="M60 -5Q59 -6 54 -4T45 1T42 6L471 550Q473 552 478 550T487 544T489 538L60 -5ZM350 -5Q303 -5 279 33T264 125Q270 160 289 189T335 235T394 253Q441 253 464 215T478 123Q468 69 433 32T350 -5ZM358 6Q393 6 407 37T429
116Q440 178 430 210T387 242Q353 242 337 209T312 129Q302 77 310 42T358 6ZM154 303Q107 303 83 340T69 433Q75 468 94 497T141 543T200 560Q247 560 270 522T283 430Q273 377 237 340T154 303ZM163 313Q197 313 211 344T234 423Q245 485 235 517T192 550Q158
550 142 517T117 436Q107 384 115 349T163 313Z" />
<glyph unicode="&amp;" horiz-adv-x="747" d="M306 -12Q247 -12 201 12T123 77T81 171T80 278Q92 333 126 375T206 441T296 465Q321 465 343 457T382 429L335 386Q318 418 293 428T246 439Q219 439 195 422T153 375T126 310Q114 248 128 196T173 104T248 44T338
22Q403 22 453 54T533 149T568 309L584 303Q576 197 539 127T441 23T306 -12ZM115 196L106 205Q142 235 186 269T275 339T357 412T418 485T441 557Q441 576 436 586T424 603T412 616T407 633Q407 646 414 653T434 661Q454 661 468 643T482 591Q482 549 457 506T390
421T299 339T202 263T115 196ZM394 234Q384 234 377 240T370 264Q370 290 385 312T426 347T478 361Q504 361 532 350T588 323T642 297T691 285Q705 285 712 290T720 303Q720 313 716 320T706 336T701 354Q701 365 707 370T724 375Q734 375 740 370T747 346Q747
322 735 300T701 264T654 250Q629 250 601 262T544 290T486 318T433 330Q418 330 410 324T402 309Q402 299 405 291T412 274T416 256Q416 249 412 242T394 234Z" />
<glyph unicode="&apos;" horiz-adv-x="127" d="M63 306L111 609Q112 617 122 623T146 634T170 640T179 637L73 308Q72 305 68 305T63 306Z" />
<glyph unicode="(" horiz-adv-x="278" d="M192 -117Q140 -80 110 -17T74 128T83 304Q100 398 135 480T223 625T340 725Q343 727 346 723T346 717Q262 645 211 542T136 304Q112 169 126 66T199 -109Q201 -111 198 -114T192 -117Z" />
<glyph unicode=")" horiz-adv-x="278" d="M126 725Q178 689 208 626T245 480T235 304Q219 211 183 129T95 -17T-22 -117Q-25 -118 -28 -114T-28 -109Q56 -37 107 66T182 304Q206 439 192 542T119 717Q118 719 121 723T126 725Z" />
<glyph unicode="*" horiz-adv-x="448" d="M171 387Q167 381 154 382T127 387T105 397T99 404L246 491Q248 493 252 490T254 485L171 387ZM311 315L273 481Q272 483 276 486T281 488L350 378Q354 372 349 360T335 336T319 318T311 315ZM243 511L124 559Q117 562
114 574T111 602T113 626T118 633L247 520Q249 519 248 515T243 511ZM461 488L291 503Q289 503 288 507T288 513L414 544Q421 546 431 538T449 518T462 497T461 488ZM265 529L275 657Q275 665 286 671T311 682T335 688T343 685L276 529Q275 526 270 526T265 529Z"
/>
<glyph unicode="+" horiz-adv-x="398" d="M34 171Q31 171 30 180T30 199T33 208H364Q367 208 368 199T368 181T364 171H34ZM218 25Q218 22 209 21T190 20T180 23V354Q180 357 189 358T208 358T218 354V25Z" />
<glyph unicode="," horiz-adv-x="222" d="M8 -179Q4 -182 1 -177T1 -170Q36 -138 56 -105T81 -34Q85 -9 81 3T69 20L96 27Q97 10 87 1T62 -8Q45 -8 36 1T26 27Q26 44 37 53T70 63Q96 63 111 42T119 -21Q112 -69 82 -106T8 -179Z" />
<glyph unicode="-" horiz-adv-x="305" d="M32 168Q29 168 28 178T27 199T30 211L280 257Q283 258 283 248T284 227T280 215L32 168Z" />
<glyph unicode="." horiz-adv-x="195" d="M65 -11Q47 -11 37 -1T26 28Q26 45 36 55T65 65Q84 65 94 55T104 28Q104 -11 65 -11Z" />
<glyph unicode="/" horiz-adv-x="305" d="M-8 -166Q-9 -169 -17 -168T-33 -162T-39 -156L345 730Q347 734 355 733T370 727T374 718L-8 -166Z" />
<glyph unicode="0" horiz-adv-x="436" d="M182 -13Q130 -13 93 14T41 88T35 196Q46 256 78 301T156 373T256 399Q309 399 345 373T396 300T401 193Q391 133 359 87T281 14T182 -13ZM195 -1Q235 -1 265 22T315 86T344 181Q356 252 346 297T309 365T246 387Q187
387 146 335T91 204Q81 146 90 100T125 26T195 -1Z" />
<glyph unicode="1" horiz-adv-x="291" d="M16 0Q12 0 12 6T16 12Q53 12 73 17T102 37T117 81L151 269Q158 311 156 327T135 340T71 315Q67 313 65 318T67 325L209 395Q212 397 215 395T216 391L161 81Q156 52 159 37T182 17T240 12Q243 12 243 6T240 0Q217 0 189
1T129 2Q98 2 69 1T16 0Z" />
<glyph unicode="2" horiz-adv-x="360" d="M6 14Q68 60 114 98T192 170T242 232T264 291Q271 330 253 354T199 379Q162 379 132 349T75 258Q74 254 68 256T63 262L120 409Q122 412 126 411T130 406Q125 390 128 385T138 380Q152 380 176 389T232 399Q276 399 298
371T312 296Q307 271 293 246T251 192T180 128T75 46Q71 44 72 43T77 41Q148 41 190 42T255 50T290 71T311 111Q313 115 318 114T323 108L294 9Q293 6 291 3T284 0Q220 0 149 0T11 0Q7 0 5 5T6 14Z" />
<glyph unicode="3" horiz-adv-x="339" d="M-28 -276Q-32 -277 -33 -271T-33 -264Q54 -238 106 -195T185 -104T218 -15Q223 15 219 43T196 90T138 109Q128 109 117 107T92 102Q89 101 87 108T88 116Q166 136 202 173T248 271Q257 319 243 349T184 379Q144 379 112
351T54 257Q52 254 47 256T42 262L102 408Q104 411 109 409T112 402Q105 386 109 382T120 377Q134 377 159 388T215 399Q250 399 270 383T298 340T299 282Q293 246 272 212T219 153T145 119L163 131Q210 131 236 111T272 58T275 -12Q267 -58 231 -109T130 -204T-28
-276Z" />
<glyph unicode="4" horiz-adv-x="421" d="M204 -188Q194 -193 195 -182L285 325L305 338L30 44Q25 37 34 37Q104 37 158 38T260 40T360 43Q363 43 362 33T358 12T352 1Q304 4 253 5T138 7T-13 8Q-17 8 -18 12T-16 20L329 396Q331 399 337 398T342 392L244 -158Q242
-169 235 -172L204 -188Z" />
<glyph unicode="5" horiz-adv-x="374" d="M-23 -275Q-27 -276 -29 -271T-28 -264Q61 -221 114 -179T193 -94T226 -8Q240 74 197 120T54 167Q44 167 48 179L108 357Q110 364 112 365T122 368Q201 378 245 384T309 395T337 406T349 423Q351 426 356 424T359 419L330
357Q324 344 318 342T301 339L130 335Q119 335 113 320L64 172L69 196Q156 196 206 172T274 106T282 9Q272 -48 237 -94T139 -184T-23 -275Z" />
<glyph unicode="6" horiz-adv-x="419" d="M191 -13Q106 -13 64 44T44 208Q56 277 90 345T176 475T295 584T442 661Q446 662 447 657T446 649Q348 605 275 535T158 384T99 226Q86 165 96 115T137 35T220 5Q261 5 288 34T325 116Q335 175 318 216T251 257Q226 257
202 245T146 206Q144 203 141 206T138 213Q201 282 282 282Q326 282 349 262T380 209T381 142Q374 99 347 64T278 8T191 -13Z" />
<glyph unicode="7" horiz-adv-x="386" d="M4 -275Q2 -276 0 -273T-1 -268L346 338Q352 345 344 345Q248 345 193 343T111 334T71 313T48 276Q47 272 41 274T36 280L90 415Q91 418 97 416T102 412Q96 395 102 391T139 386Q153 386 181 386T244 386T314 386T378
386Q383 386 384 382T384 373L80 -220Q71 -237 56 -244L4 -275Z" />
<glyph unicode="8" horiz-adv-x="440" d="M193 -13Q136 -13 98 10T43 70T34 149Q42 196 73 236T147 306T228 349L233 340Q175 317 138 274T91 175Q83 131 96 92T141 29T221 4Q267 4 304 37T351 132Q360 180 347 213T307 269T249 312T191 350T149 395T140 456Q147
496 171 522T229 561T292 574Q333 574 358 556T395 511T400 460Q393 430 359 395T275 333L271 339Q308 365 327 391T352 448Q358 477 350 502T321 543T271 559Q239 559 216 540T187 483Q181 448 196 423T239 378T298 339T356 296T397 240T404 161Q395 111 363 72T287
10T193 -13Z" />
<glyph unicode="9" horiz-adv-x="419" d="M-23 -275Q-27 -276 -29 -270T-27 -263Q47 -230 105 -182T207 -76T278 42T319 160Q332 215 322 265T282 348T199 381Q162 381 134 358T94 282Q86 242 94 207T125 151T180 129Q204 129 225 141T271 179Q274 181 278 179T281
173Q253 139 219 122T150 104Q104 104 77 128T41 188T37 256Q45 296 73 328T141 380T228 399Q284 399 321 371T372 294T374 178Q362 109 329 41T243 -89T124 -198T-23 -275Z" />
<glyph unicode=":" horiz-adv-x="195" d="M65 -11Q47 -11 37 -1T26 28Q26 45 36 55T65 65Q84 65 94 55T104 28Q104 -11 65 -11ZM102 270Q84 270 74 280T63 309Q63 326 73 336T102 346Q121 346 131 336T141 309Q141 270 102 270Z" />
<glyph unicode=";" horiz-adv-x="222" d="M8 -179Q4 -182 1 -177T1 -170Q36 -138 56 -105T81 -34Q85 -9 81 3T69 20L96 27Q97 10 87 1T62 -8Q45 -8 36 1T26 27Q26 44 37 53T70 63Q96 63 111 42T119 -21Q112 -69 82 -106T8 -179ZM102 270Q84 270 74 280T63 309Q63
326 73 336T102 346Q121 346 131 336T141 309Q141 270 102 270Z" />
<glyph unicode="&lt;" horiz-adv-x="407" d="M370 354Q375 357 376 348T377 329T370 316L77 191V190L370 64Q375 62 376 52T377 32T370 25L36 173Q31 176 31 190T36 207L370 354Z" />
<glyph unicode="=" horiz-adv-x="468" d="M34 241Q31 241 30 250T30 269T33 278H434Q437 278 438 269T438 251T434 241H34ZM34 101Q31 101 30 110T30 128T33 138H434Q437 138 438 129T438 110T434 101H34Z" />
<glyph unicode="&gt;" horiz-adv-x="407" d="M37 25Q33 23 32 31T31 50T37 63L330 188V189L37 315Q33 317 32 327T31 347T37 354L371 206Q376 203 376 189T371 172L37 25Z" />
<glyph unicode="?" horiz-adv-x="295" d="M137 191Q131 219 131 254T135 310Q141 346 161 368T206 408T252 451T281 517Q287 547 281 568T258 601T215 613Q183 613 171 598T153 565Q150 557 146 548T135 533T117 527Q104 527 98 536T94 558Q97 576 115 591T162
616T222 625Q279 625 310 593T330 505Q323 471 306 447T268 405T230 372Q190 338 174 311T151 248Q148 236 148 222T147 191Q147 187 142 187T137 191ZM109 -11Q91 -11 81 -1T70 28Q70 45 80 55T109 65Q128 65 138 55T148 28Q148 -11 109 -11Z" />
<glyph unicode="@" horiz-adv-x="717" d="M360 -95Q281 -95 217 -63T114 29T76 175Q76 246 102 304T173 404T275 468T394 491Q470 491 525 460T611 378T641 264Q641 208 617 159T554 80T467 50Q433 50 422 74T416 136L434 228L448 241Q425 186 394 142T330 73T267
48Q243 48 228 66T218 125Q224 166 244 206T294 280T356 334T418 354Q438 354 456 343T476 305L447 324Q455 326 465 336T478 361Q480 363 488 363T496 360L455 136Q450 107 453 88T488 68Q516 68 543 87T590 145T609 236Q609 300 577 352T489 436T364 468Q283
468 228 432T144 334T115 198Q115 119 150 60T247 -32T391 -65Q438 -65 474 -56T557 -20Q559 -18 562 -22T563 -28Q508 -71 454 -83T360 -95ZM288 81Q310 81 333 97T379 141T417 202T441 269Q446 295 435 313T394 331Q369 331 341 307T291 242T261 153Q256 117
261 99T288 81Z" />
<glyph unicode="A" horiz-adv-x="599" d="M-34 0Q-38 0 -38 6T-34 12Q-8 12 24 33T94 120L382 635Q384 639 391 638T400 633L483 84Q487 57 493 41T515 19T561 12Q565 12 565 6T561 0Q538 0 514 2T462 4Q434 4 413 2T367 0Q364 0 364 6T367 12Q416 12 428 27T434
84L361 570L378 587L129 133Q100 80 97 54T111 20T158 12Q162 12 162 6T157 0Q138 0 111 2T58 4Q29 4 11 2T-34 0ZM199 287L214 305H428L430 287H199Z" />
<glyph unicode="B" horiz-adv-x="511" d="M297 344L309 353Q365 353 402 331T455 270T462 181Q453 131 422 89T345 21T246 -4Q216 -4 180 -1T113 2Q84 2 57 1T9 0Q6 0 6 6T9 12Q44 12 62 17T90 38T104 82L186 545Q193 588 181 600T118 613Q114 613 114 619T118
625Q140 625 166 624T221 622Q245 622 276 625T327 628Q385 628 417 610T459 560T461 491Q448 435 405 398T297 344ZM306 615Q284 615 270 612T247 592T232 540L198 346L172 354Q201 352 219 352T240 351Q320 351 361 392T413 491Q419 524 413 552T381 597T306
615ZM234 12Q311 12 353 55T406 164Q418 240 383 285T270 332Q244 333 220 332T171 327L196 338L151 80Q144 42 159 27T234 12Z" />
<glyph unicode="C" horiz-adv-x="585" d="M316 -13Q232 -13 179 16T98 95T64 202T68 319Q81 390 116 448T203 548T313 613T433 636Q474 636 514 627T577 599Q584 594 585 590T585 575L577 470Q576 466 571 466T566 470Q561 551 515 583T396 615Q329 615 274 582T181
488T129 346Q116 274 124 211T159 101T226 26T322 -1Q380 -1 435 36T530 149Q532 152 537 150T540 145L510 39Q506 26 504 22T492 15Q445 0 400 -6T316 -13Z" />
<glyph unicode="D" horiz-adv-x="606" d="M232 -4Q208 -4 174 -1T110 2Q80 2 56 1T11 0Q8 0 8 6T11 12Q43 12 60 17T86 37T99 81L181 544Q189 587 178 600T118 613Q116 613 116 619T118 625Q138 625 164 624T219 622Q246 622 277 624T331 627Q422 627 484 587T572
478T584 323Q571 248 537 188T454 85T348 19T232 -4ZM226 9Q297 9 358 42T462 141T522 301Q534 367 527 423T496 523T432 590T337 614Q285 614 261 602T228 542L149 92Q141 49 155 29T226 9Z" />
<glyph unicode="E" horiz-adv-x="510" d="M15 0Q13 0 13 6T15 12Q48 12 65 17T90 37T103 81L185 544Q193 587 182 600T122 613Q119 613 119 619T122 625H503Q511 625 509 616Q506 598 503 575T496 530T490 494Q489 490 483 491T478 495Q487 547 471 579T416 611H317Q286
611 269 606T245 587T232 543L151 85Q144 43 155 31T213 18H344Q377 18 407 54T454 147Q455 150 461 149T465 145Q457 119 449 83T435 15Q432 0 419 0H15ZM405 234Q404 230 398 230T393 235Q401 280 389 298T336 316H171L174 335H343Q381 335 398 350T421 404Q422
408 428 408T433 402Q429 374 425 359T419 325Q415 303 413 282T405 234Z" />
<glyph unicode="F" horiz-adv-x="483" d="M13 0Q10 0 10 6T13 12Q45 12 62 17T87 37T101 81L182 544Q190 586 179 599T119 613Q117 613 117 619T119 625H501Q509 625 506 616Q504 598 501 575T494 530T488 494Q487 490 481 491T476 495Q485 547 469 579T414 611H315Q283
611 267 606T243 587T229 543L149 85Q144 55 147 40T173 18T247 12Q249 12 249 6T247 0Q220 0 186 1T110 2Q83 2 58 1T13 0ZM391 222Q390 218 384 218T379 223Q387 268 375 286T322 304H157L160 323H329Q367 323 384 339T407 392Q408 397 414 396T419 391Q415 363
412 347T405 313Q401 291 398 270T391 222Z" />
<glyph unicode="G" horiz-adv-x="630" d="M330 -12Q231 -12 167 30T79 145T70 308Q83 380 119 440T210 544T330 612T468 636Q509 636 544 627T601 598Q607 591 607 587T606 575L598 470Q597 466 592 466T586 470Q583 542 542 578T429 615Q350 615 289 582T188
487T132 344Q114 243 137 167T216 48T354 5Q397 5 424 14T468 49T492 126Q501 174 500 196T479 226T414 233Q409 233 409 241T414 249Q466 245 509 245T600 247Q604 247 604 240T600 233Q579 234 568 227T550 194T533 116Q528 83 527 67T525 44T524 28Q523 22 521
20T512 16Q468 4 421 -4T330 -12Z" />
<glyph unicode="H" horiz-adv-x="670" d="M11 0Q8 0 8 6T11 12Q43 12 60 17T86 37T99 81L181 544Q189 587 178 600T118 613Q116 613 116 619T118 625Q138 625 162 624T215 622Q244 622 270 623T316 625Q318 625 318 619T316 613Q284 613 267 607T242 586T228 542L146
81Q139 38 149 25T209 12Q212 12 212 6T209 0Q189 0 163 1T108 2Q80 2 55 1T11 0ZM161 316L165 335H547L545 316H161ZM395 0Q393 0 393 6T395 12Q428 12 445 17T470 37T483 81L564 542Q572 585 562 599T502 613Q499 613 499 619T502 625Q521 625 546 624T600 622Q627
622 653 623T699 625Q702 625 702 619T699 613Q668 613 651 608T625 588T612 544L530 81Q523 38 534 25T594 12Q597 12 597 6T594 0Q575 0 550 1T496 2Q468 2 442 1T395 0Z" />
<glyph unicode="I" horiz-adv-x="301" d="M19 0Q16 0 16 6T19 12Q51 12 68 17T93 37T106 81L188 544Q196 587 184 600T124 613Q121 613 121 619T124 625Q144 625 169 624T222 622Q254 622 279 623T324 625Q326 625 326 619T324 613Q292 613 275 607T250 586T236
542L154 81Q147 38 158 25T219 12Q221 12 221 6T219 0Q199 0 174 1T118 2Q90 2 65 1T19 0Z" />
<glyph unicode="J" horiz-adv-x="271" d="M-19 -193Q-21 -194 -24 -189T-25 -182Q22 -154 48 -98T89 40L178 544Q186 587 174 600T113 613Q111 613 111 619T113 625Q133 625 158 624T212 622Q244 622 269 623T313 625Q316 625 316 619T313 613Q281 613 264 607T239
586T226 542L142 67Q128 -11 109 -59T59 -138T-19 -193Z" />
<glyph unicode="K" horiz-adv-x="587" d="M11 0Q8 0 8 6T11 12Q43 12 60 17T86 37T99 81L181 544Q189 587 178 600T118 613Q116 613 116 619T118 625Q138 625 162 624T215 622Q244 622 270 623T316 625Q318 625 318 619T316 613Q284 613 267 607T242 586T228 542L146
81Q141 52 141 37T152 17T198 12Q200 12 200 6T198 0Q178 0 158 1T108 2Q80 2 55 1T11 0ZM457 0Q440 0 431 0T415 7T400 28T376 71T335 145L218 349L260 380L364 199Q403 130 428 92T472 37T505 16T540 12Q543 12 543 6T540 0Q507 0 487 0T457 0ZM150 294L437 550Q477
588 475 600T428 613Q426 613 426 619T428 625Q448 625 468 624T523 622Q555 622 573 623T609 625Q612 625 612 619T609 613Q580 613 540 599T456 544L171 295L150 294Z" />
<glyph unicode="L" horiz-adv-x="494" d="M12 0Q9 0 9 6T12 12Q44 12 61 17T86 37T99 81L181 544Q189 587 178 600T118 613Q116 613 116 619T118 625Q138 625 162 624T215 622Q244 622 270 623T316 625Q318 625 318 619T316 613Q284 613 267 608T242 587T228 543L147
85Q140 43 151 31T209 18H329Q383 18 414 54T461 147Q461 150 467 149T473 145Q465 119 456 83T442 15Q439 0 426 0H12Z" />
<glyph unicode="M" horiz-adv-x="730" d="M467 0Q464 0 464 6T467 12Q500 12 517 17T542 37T554 81L630 589L656 613L329 7Q327 3 322 3T315 8L202 542Q196 574 183 589T155 608T127 613Q125 613 125 619T127 625Q140 625 155 624T180 623Q192 623 200 624T214
625Q225 625 231 615T244 573L351 74L325 35L630 600Q645 625 661 625Q666 625 677 624T698 623Q720 623 734 624T764 625Q766 625 766 619T764 613Q723 613 700 601T670 546L601 81Q595 38 606 25T665 12Q668 12 668 6T665 0Q646 0 621 1T566 2Q537 2 512 1T467
0ZM19 0Q16 0 16 6T19 12Q55 12 73 32T102 104L193 602L209 600L120 104Q112 53 121 33T167 12Q170 12 170 6T167 0Q151 0 134 1T94 2Q74 2 55 1T19 0Z" />
<glyph unicode="N" horiz-adv-x="650" d="M492 -11L207 543Q186 584 166 598T124 613Q121 613 121 619T124 625Q138 625 154 624T184 623Q196 623 206 624T222 625Q233 625 235 614T251 573L510 65L504 -11Q503 -14 499 -14T492 -11ZM15 0Q13 0 13 6T15 12Q51
12 70 32T98 104L186 602L202 600L117 104Q108 53 118 33T164 12Q166 12 166 6T164 0Q148 0 131 1T90 2Q70 2 51 1T15 0ZM504 -11L492 20L579 520Q588 571 578 592T532 613Q530 613 530 619T532 625Q548 625 565 624T606 622Q626 622 645 623T681 625Q683 625 683
619T681 613Q645 613 626 592T598 520L504 -11Z" />
<glyph unicode="O" horiz-adv-x="650" d="M285 -12Q204 -12 151 32T77 150T71 313Q83 384 115 443T192 545T293 612T409 636Q494 636 547 592T621 474T626 313Q613 241 581 182T502 79T400 12T285 -12ZM327 14Q416 14 481 76T571 260Q587 335 580 399T546 511T473
585T368 612Q274 612 211 546T125 366Q111 295 118 232T151 119T221 42T327 14Z" />
<glyph unicode="P" horiz-adv-x="496" d="M12 0Q9 0 9 6T12 12Q44 12 61 17T87 37T101 81L182 544Q190 587 179 600T119 613Q117 613 117 619T119 625Q139 625 163 624T216 622Q239 622 271 625T340 628Q390 628 430 610T490 553T499 453Q490 403 464 367T401
307T326 273T253 262Q241 262 232 263T212 267Q209 268 211 274T216 280Q224 278 231 277T246 276Q286 276 326 293T398 344T440 433Q451 491 436 531T389 593T318 615Q286 615 269 612T244 593T228 542L147 81Q140 38 151 25T211 12Q213 12 213 6T211 0Q191 0
165 1T109 2Q82 2 57 1T12 0Z" />
<glyph unicode="Q" horiz-adv-x="650" d="M595 -195Q559 -195 518 -172T437 -103T366 9L423 29Q442 -16 467 -53T523 -119T583 -162T641 -177Q650 -177 660 -176T677 -173Q680 -172 681 -177T681 -184Q658 -189 636 -192T595 -195ZM285 -12Q204 -12 151 32T77
150T71 313Q83 384 115 443T192 545T293 612T409 636Q494 636 547 592T621 474T626 313Q613 241 581 182T502 79T400 12T285 -12ZM327 14Q416 14 481 76T571 260Q587 335 580 399T546 511T473 585T368 612Q274 612 211 546T125 366Q111 295 118 232T151 119T221
42T327 14Z" />
<glyph unicode="R" horiz-adv-x="608" d="M14 0Q10 0 10 6T14 12Q48 12 67 17T95 37T110 81L192 544Q197 573 194 587T176 607T125 613Q121 613 121 619T125 625Q146 625 172 624T228 622Q251 622 283 625T335 628Q414 628 447 593T468 491Q458 439 424 397T340
331T235 306Q226 306 213 307T193 309L195 333Q209 331 225 330T254 329Q325 329 361 358T412 457Q425 517 414 551T376 600T311 615Q289 615 276 612T254 593T239 542L157 81Q152 52 154 37T172 17T222 12Q226 12 226 6T223 0Q201 0 176 1T119 2Q91 2 63 1T14
0ZM485 0Q469 0 441 39T374 150T291 322L331 337Q389 216 431 145T508 43T582 12Q586 12 586 6T582 0Q545 0 521 0T485 0Z" />
<glyph unicode="S" horiz-adv-x="460" d="M181 -12Q150 -12 120 -5T56 22Q52 25 51 29T50 41L60 171Q60 176 65 176T71 171Q69 131 81 92T123 28T205 2Q235 2 264 13T315 51T346 122Q355 170 341 202T298 259T237 304Q206 325 179 348T138 402T131 481Q141 533
171 567T244 619T329 636Q353 636 379 631T434 612Q447 605 446 595L434 489Q434 485 428 485T422 489Q422 518 414 549T384 601T315 623Q274 623 247 605T205 560T184 504Q176 462 190 433T232 381T291 338Q324 317 353 294T397 238T405 157Q397 111 369 73T293
11T181 -12Z" />
<glyph unicode="T" horiz-adv-x="553" d="M149 0Q146 0 146 6T149 12Q181 12 198 17T223 37T236 81L318 544Q325 585 315 597T262 609H235Q193 609 167 596T122 553T89 469Q88 466 82 467T77 471Q81 483 87 506T99 555T111 606T120 647Q122 650 127 650T132 646Q130
631 145 628T171 625Q208 624 257 623T354 622Q414 622 455 623T530 625Q558 625 573 629T596 650Q598 653 603 653T607 648Q603 634 597 610T585 558T575 507T568 471Q567 468 562 468T557 473Q566 525 562 554T536 596T468 609H441Q399 609 386 596T365 542L284
81Q279 52 282 37T300 17T349 12Q351 12 351 6T349 0Q329 0 304 1T248 2Q220 2 195 1T149 0Z" />
<glyph unicode="U" horiz-adv-x="618" d="M564 522Q572 569 558 591T504 613Q500 613 500 619T504 625Q524 625 545 624T591 622Q613 622 634 623T671 625Q675 625 675 619T671 613Q634 613 613 590T582 519L532 233Q518 154 482 99T393 16T275 -13Q209 -13 166
16T106 99T102 226L158 545Q166 588 154 600T91 613Q88 613 88 619T91 625Q113 625 139 624T194 622Q226 622 252 623T298 625Q302 625 302 619T298 613Q264 613 246 607T219 585T205 540L154 258Q133 137 173 77T296 16Q379 16 437 74T512 234L564 522Z" />
<glyph unicode="V" horiz-adv-x="591" d="M260 1L146 542Q139 581 125 597T84 613Q82 613 82 619T84 625Q101 625 120 624T156 622Q186 622 209 623T251 625Q255 625 255 619T251 613Q219 613 203 601T194 552L302 56L271 25L544 550Q561 584 552 598T495 613Q492
613 492 619T495 625Q514 625 532 624T579 622Q603 622 618 623T655 625Q659 625 659 619T655 613Q638 613 622 608T591 588T561 544L280 1Q277 -3 269 -3T260 1Z" />
<glyph unicode="W" horiz-adv-x="821" d="M489 1L374 542Q366 581 353 597T312 613Q309 613 309 619T312 625Q329 625 348 624T385 622Q406 622 422 623T450 625Q455 625 455 619T450 613Q423 613 419 603T423 552L530 56L497 11L774 550Q793 585 782 599T723
613Q719 613 719 619T723 625Q743 625 761 624T808 622Q832 622 847 623T884 625Q888 625 888 619T884 613Q867 613 851 608T821 588T791 544L508 1Q506 -3 498 -3T489 1ZM260 1L146 542Q139 581 125 597T84 613Q81 613 81 619T84 625Q101 625 120 624T156 622Q186
622 209 623T251 625Q255 625 255 619T251 613Q219 613 203 601T194 552L302 56L269 11L437 339L447 323L280 1Q277 -3 269 -3T260 1ZM453 323L443 339L551 550Q569 585 565 599T530 613Q526 613 526 619T530 625Q543 625 554 624T585 622Q608 622 623 623T661
625Q664 625 664 619T661 613Q644 613 628 608T597 588T567 544L453 323Z" />
<glyph unicode="X" horiz-adv-x="579" d="M337 0Q333 0 333 6T337 12Q361 12 373 15T388 28T385 51L195 542Q180 581 161 597T111 613Q107 613 107 619T111 625Q126 625 142 624T173 622Q209 622 238 623T289 625Q293 625 293 619T289 613Q254 613 244 604T242
573L432 83Q446 43 467 28T526 12Q530 12 530 6T526 0Q509 0 488 1T444 2Q411 2 385 1T337 0ZM-8 0Q-12 0 -12 6T-8 12Q21 12 53 32T117 92L289 309L299 299L137 92Q117 66 111 48T115 21T153 12Q157 12 157 6T153 0Q131 0 111 1T58 2Q37 2 25 1T-8 0ZM320 316L311
325L465 524Q488 553 494 573T492 603T455 613Q451 613 451 619T455 625Q477 625 496 624T550 622Q570 622 583 623T615 625Q620 625 620 619T615 613Q585 613 553 589T485 523L320 316Z" />
<glyph unicode="Y" horiz-adv-x="527" d="M282 270L273 278L449 524Q481 568 478 590T437 613Q434 613 434 619T437 625Q460 625 480 624T532 622Q553 622 566 623T599 625Q603 625 603 619T599 613Q568 613 535 590T469 523L282 270ZM135 0Q131 0 131 6T135 12Q167
12 184 17T210 37T223 81L263 310L312 319L270 81Q263 38 273 25T333 12Q337 12 337 6T333 0Q313 0 289 1T235 2Q205 2 180 1T135 0ZM274 271L159 542Q143 580 125 596T76 613Q72 613 72 619T76 625Q90 625 106 624T138 622Q171 622 201 623T253 625Q256 625 255
619T250 613Q216 613 207 604T206 573L312 317L274 271Z" />
<glyph unicode="Z" horiz-adv-x="545" d="M456 -2Q390 -1 316 -1T167 0T26 0Q22 0 21 4T22 13L489 600Q494 605 494 606T487 608Q391 608 330 607T233 601T177 584T145 553T118 501Q117 497 112 498T108 504L170 655Q171 657 177 656T181 651Q176 634 184 630T226
625Q280 625 358 625T554 625Q559 625 560 620T559 612L97 27Q93 22 93 21T99 19Q179 19 239 19T338 19Q380 19 408 30T456 65T488 131Q489 135 495 134T499 129L465 8Q465 5 463 2T456 -2Z" />
<glyph unicode="[" horiz-adv-x="247" d="M37 -117Q32 -117 31 -115T32 -106L177 715Q178 722 179 723T186 725Q218 725 252 725T306 725Q310 725 310 719T306 713Q270 713 250 707T221 686T207 642L88 -34Q80 -77 93 -91T160 -105Q165 -105 165 -111T160 -117Q140
-117 105 -117T37 -117Z" />
<glyph unicode="\" horiz-adv-x="305" d="M187 -163L115 723Q114 728 122 730T139 733T149 727L221 -159Q222 -163 214 -165T197 -168T187 -163Z" />
<glyph unicode="]" horiz-adv-x="247" d="M250 725Q255 725 256 724T255 714L110 -107Q109 -114 108 -115T101 -117Q70 -117 36 -117T-19 -117Q-23 -117 -23 -111T-19 -105Q17 -105 37 -99T66 -78T80 -34L199 642Q207 685 194 699T127 713Q123 713 123 719T127
725Q147 725 182 725T250 725Z" />
<glyph unicode="^" horiz-adv-x="353" d="M96 375Q93 373 89 375T85 380L243 629Q245 634 253 634T263 629L333 380Q333 378 329 376T323 377L241 557L96 375Z" />
<glyph unicode="_" horiz-adv-x="363" d="M-7 -75Q-10 -75 -11 -66T-11 -47T-8 -37H311Q314 -37 315 -46T315 -65T311 -75H-7Z" />
<glyph unicode="`" horiz-adv-x="166" d="M172 475L135 727Q134 731 141 731T157 729T174 723T181 716V476Q181 474 177 473T172 475Z" />
<glyph unicode="a" horiz-adv-x="432" d="M80 -13Q48 -13 32 11T22 91Q30 146 56 200T120 300T200 372T282 399Q300 399 317 393T346 371T360 332L322 357Q333 359 349 373T368 407Q370 410 375 409T380 406L322 89Q312 28 338 28Q350 28 368 41T408 77Q411 80
415 76T416 69Q383 32 357 12T304 -9Q281 -9 276 12T280 89L304 229L320 246Q289 172 249 113T165 21T80 -13ZM109 30Q138 30 169 52T230 112T282 194T313 283Q321 318 306 343T251 367Q215 366 177 334T109 249T69 127Q62 80 71 55T109 30Z" />
<glyph unicode="b" horiz-adv-x="430" d="M145 -13Q97 -13 71 10T51 75L156 627Q162 659 147 668T84 654Q80 652 78 658T80 665L202 725Q206 727 210 723T213 717L99 96Q93 59 117 36T187 12Q220 12 253 36T313 107T352 220Q360 258 358 289T340 340T294 359Q251
359 212 326T144 234T99 96L94 116Q103 173 126 224T182 315T253 376T331 399Q378 399 400 358T408 251Q395 186 366 137T298 54T219 4T145 -13Z" />
<glyph unicode="c" horiz-adv-x="345" d="M156 -13Q114 -13 87 6T46 58T30 128T36 202Q50 266 84 309T162 376T248 399Q272 399 292 392T323 371T332 342Q331 331 325 322T304 313Q293 313 285 320T271 342Q268 353 255 366T215 379Q179 379 154 359T113 305T89
232Q79 177 85 128T118 49T193 18Q230 18 256 33T304 67Q307 69 311 65T312 58Q270 21 232 4T156 -13Z" />
<glyph unicode="d" d="M104 -13Q80 -13 60 0T30 44T28 126Q38 182 64 231T127 318T208 377T295 399Q322 399 345 384T373 332L333 246Q302 171 266 113T189 21T104 -13ZM132 30Q166 30 198 57T257 125T302 209T326 283Q334 324 317 346T264 367Q197 366 145 314T75
163Q64 96 81 63T132 30ZM315 -9Q291 -9 286 12T290 89L392 627Q398 659 383 668T320 654Q316 652 314 658T316 665L439 725Q442 727 446 723T449 717L332 89Q326 58 331 43T350 28Q361 28 379 41T419 77Q422 81 426 77T427 69Q393 32 367 12T315 -9Z" />
<glyph unicode="e" horiz-adv-x="339" d="M154 -12Q102 -12 72 15T33 88T33 185Q39 222 59 260T110 329T178 380T258 399Q293 399 310 385T322 345Q317 322 295 301T237 262T158 232T67 213L69 226Q147 237 200 261T264 324Q272 352 254 362T215 372Q179 372 152
351T109 295T85 218Q74 161 82 117T117 46T187 20Q212 20 238 27T290 53Q293 55 296 51T297 44Q259 14 224 1T154 -12Z" />
<glyph unicode="f" horiz-adv-x="260" d="M-41 -275Q-74 -275 -87 -263T-98 -235Q-97 -224 -88 -216T-64 -207Q-50 -207 -44 -214T-34 -232T-26 -249T-9 -257Q3 -257 12 -242T30 -182T53 -47L104 306Q108 331 106 342T90 357T47 361Q43 361 44 367T48 373Q85 373
100 383T120 418Q135 509 152 568T191 662T244 711T318 726Q352 726 369 711T385 675Q382 661 374 655T354 649Q341 649 335 658T324 680T311 702T287 712Q247 712 217 644T167 439L101 -21Q87 -116 70 -172T26 -251T-41 -275ZM236 343Q222 345 206 347T170 351T130
353L132 375Q153 375 181 377T233 380T263 382Q268 382 269 380T270 374Q269 366 258 354T236 343Z" />
<glyph unicode="g" horiz-adv-x="377" d="M106 -281Q52 -281 17 -264T-33 -218T-41 -159Q-30 -115 15 -83T117 -18L124 -26Q99 -41 74 -56T30 -91T6 -138Q1 -170 17 -196T69 -238T153 -254Q209 -254 240 -232T273 -175Q274 -148 259 -128T218 -93T166 -63T114
-34T77 -1T68 41Q73 63 89 82T131 123L142 115Q130 108 120 94T108 65Q105 44 119 28T158 -1T210 -29T262 -59T301 -96T313 -146Q311 -180 282 -211T207 -261T106 -281ZM150 98Q112 98 88 118T55 172T55 246Q63 288 87 321T146 373T220 392Q259 392 282 372T314
319T313 246Q304 201 279 168T219 117T150 98ZM175 116Q206 116 232 142T268 214Q274 248 269 285T246 348T195 375Q163 375 136 347T101 276Q94 241 100 204T125 141T175 116ZM257 346L256 353Q286 371 320 382T382 393Q387 393 387 386T386 369T380 354T374 349Q351
360 319 358T257 346Z" />
<glyph unicode="h" d="M63 -8Q50 -8 46 -7T42 -2Q42 1 47 24T57 74L161 627Q168 659 153 668T90 654Q86 652 84 658T85 665L208 725Q212 727 216 723T219 717L89 6Q87 -8 63 -8ZM316 -9Q292 -9 287 12T291 89L320 248Q331 307 322 336T281 365Q248 365 212 323T143
201T89 6L78 7Q99 123 134 211T215 349T309 399Q352 399 365 369T366 267L333 89Q328 58 332 43T350 28Q362 28 380 41T420 77Q424 81 428 77T428 69Q395 32 369 12T316 -9Z" />
<glyph unicode="i" horiz-adv-x="247" d="M110 -9Q88 -9 81 11T84 89L125 297Q137 358 108 358Q96 358 77 346T36 311Q33 307 29 311T28 319Q62 357 89 376T142 395Q166 395 172 374T167 297L127 89Q121 58 126 43T144 28Q155 28 174 40T215 75Q219 79 223 75T223
67Q190 29 163 10T110 -9ZM172 517Q153 517 143 527T132 556Q132 573 142 583T172 593Q191 593 201 583T211 556Q211 517 172 517Z" />
<glyph unicode="j" horiz-adv-x="237" d="M-23 -275Q-54 -275 -67 -263T-78 -235Q-76 -221 -67 -214T-48 -207Q-37 -207 -32 -215T-25 -234T-17 -253T-2 -261Q14 -261 25 -241T47 -178T70 -64L132 297Q142 358 115 358Q88 358 43 311Q40 307 36 311T35 319Q69
357 97 376T150 395Q173 395 178 374T174 297L116 -42Q100 -133 83 -184T41 -255T-23 -275ZM182 517Q163 517 153 527T142 556Q142 573 152 583T182 593Q201 593 211 583T221 556Q221 517 182 517Z" />
<glyph unicode="k" horiz-adv-x="418" d="M63 -8Q50 -8 46 -7T42 -2Q42 1 47 24T57 74L161 627Q168 659 153 668T90 654Q86 652 84 658T85 665L208 725Q212 727 216 723T219 717L126 208L89 6Q87 -8 63 -8ZM305 -9Q283 -9 267 5T228 58L170 160Q158 180 148 185T111
184L198 212L267 90Q288 53 302 42T332 30Q345 30 362 41T402 75Q406 79 410 75T411 67Q344 -9 305 -9ZM111 184V196Q179 212 220 228T284 267T313 324Q318 347 310 359T284 372Q231 372 188 328T126 208L104 243Q128 288 162 323T238 378T323 399Q348 399 359
388T374 363T374 339Q369 309 334 280T242 226T111 184Z" />
<glyph unicode="l" horiz-adv-x="235" d="M90 -9Q66 -9 60 12T64 89L165 627Q171 659 157 668T96 654Q92 652 90 658T91 665L214 725Q218 727 222 723T225 717L108 89Q101 58 106 43T125 28Q136 28 154 41T194 77Q198 81 202 77T202 69Q169 32 143 12T90 -9Z" />
<glyph unicode="m" horiz-adv-x="674" d="M546 -9Q523 -9 518 12T522 89L551 248Q561 307 553 336T515 365Q483 365 447 323T380 201T327 6L317 7Q337 123 372 211T451 349T543 399Q583 399 595 369T596 267L564 89Q559 58 563 43T580 28Q592 28 610 41T650 77Q654
81 658 77T658 69Q625 32 599 12T546 -9ZM82 -8Q69 -8 66 -7T62 -2Q62 1 67 23T76 68L118 297Q128 358 101 358Q89 358 70 346T29 311Q26 307 22 311T21 319Q54 357 82 376T136 395Q159 395 164 374T160 297L108 6Q105 -8 82 -8ZM302 -8Q289 -8 286 -7T282 -2Q282
1 287 26T297 74L329 248Q337 307 330 336T295 365Q264 365 228 323T161 201T108 6L97 7Q117 123 152 211T231 349T323 399Q361 399 374 369T374 267L327 6Q325 -8 302 -8Z" />
<glyph unicode="n" horiz-adv-x="463" d="M336 -9Q312 -9 307 12T311 89L340 248Q364 365 301 365Q268 365 232 323T163 201T109 6L98 7Q119 123 154 211T234 349T329 399Q372 399 386 369T386 267L353 89Q348 58 353 43T371 28Q382 28 400 41T440 77Q443 81 447
77T448 69Q415 32 389 12T336 -9ZM83 -8Q70 -8 66 -7T62 -2Q62 1 67 24T77 74L118 297Q128 358 101 358Q89 358 70 346T29 311Q26 307 22 311T21 319Q54 357 82 376T136 395Q159 395 164 374T160 297L109 6Q107 -8 83 -8Z" />
<glyph unicode="o" horiz-adv-x="396" d="M153 -14Q107 -14 77 13T35 88T34 193Q45 251 75 297T149 371T242 399Q293 399 324 371T365 295T364 193Q352 131 319 84T242 12T153 -14ZM188 11Q232 11 269 47T318 149Q325 184 323 223T308 296T272 353T213 375Q168
375 131 337T80 236Q72 199 75 160T91 87T129 32T188 11Z" />
<glyph unicode="p" horiz-adv-x="407" d="M-55 -275Q-59 -276 -60 -270T-57 -263Q-34 -259 -23 -253T-5 -232T6 -185L108 386Q108 389 114 395T128 410T143 431T153 458Q154 462 159 461T164 456L51 -178Q44 -219 56 -232T111 -239Q115 -237 116 -243T113 -250L-55
-275ZM145 -1Q105 -1 88 2T57 8L67 58Q86 45 110 36T171 27Q218 27 250 52T303 121T330 220Q335 255 332 287T310 339T250 360Q203 360 157 332T48 255Q45 254 41 258T40 264Q99 317 162 355T285 393Q340 393 364 357T378 253Q371 202 349 156T294 75T223 19T145
-1Z" />
<glyph unicode="q" horiz-adv-x="413" d="M171 -275Q167 -276 166 -270T168 -263Q191 -259 202 -253T220 -232T232 -185L301 205L309 202Q284 133 249 85T174 12T98 -13Q61 -13 41 21T25 103Q32 162 56 215T117 310T196 375T283 399Q301 399 318 393T347 371T361
332L323 357Q334 359 350 373T370 407Q371 410 376 409T381 406L276 -178Q269 -215 281 -230T336 -239Q339 -237 341 -243T338 -250L171 -275ZM122 30Q164 30 202 60T270 143T310 258Q320 316 305 343T253 367Q189 366 137 308T71 139Q69 112 71 92T79 58T96 37T122
30Z" />
<glyph unicode="r" horiz-adv-x="336" d="M105 6L95 7Q103 50 118 102T153 205T195 300T241 369T287 395Q300 395 312 388T332 369T337 343Q334 330 327 325T308 319Q293 319 287 327T276 344T261 353Q246 353 229 329T192 266T156 181T126 88T105 6ZM80 -8Q67
-8 64 -7T60 -2Q60 1 65 26T75 74L106 249Q115 295 113 318T104 349T87 358Q72 358 56 346T26 322Q24 320 20 323T18 330Q46 362 71 378T122 395Q139 395 148 383T159 340T149 249L105 6Q103 -8 80 -8Z" />
<glyph unicode="s" horiz-adv-x="298" d="M99 -11Q63 -11 36 6T12 49Q14 61 22 67T39 73Q50 73 55 63T67 41T87 18T125 8Q154 8 172 24T195 74Q200 105 187 127T152 168T109 204T76 245T69 299Q75 332 95 353T143 385T198 396Q231 396 254 382T274 349Q272 336
264 331T247 325Q235 325 228 332T213 350T194 367T163 375Q144 375 128 366T108 333Q103 303 116 281T150 240T193 202T227 158T235 102Q230 72 211 46T162 5T99 -11Z" />
<glyph unicode="t" horiz-adv-x="294" d="M120 -12Q102 -12 86 -5T61 20T58 68L102 306Q109 344 104 352T68 361Q64 361 65 367T69 373Q101 373 124 394T154 447Q154 450 162 450T170 447L108 102Q100 60 111 41T153 21Q185 21 208 35T253 68Q255 70 259 66T261
60Q216 21 183 5T120 -12ZM262 343Q259 343 239 345T193 350T142 353L144 375Q167 375 198 377T255 380T287 382Q291 382 293 380T294 374Q292 366 282 355T262 343Z" />
<glyph unicode="u" horiz-adv-x="462" d="M133 -13Q90 -13 76 18T76 119L112 297Q118 328 113 343T95 358Q84 358 66 345T26 309Q22 305 18 309T18 317Q51 355 78 375T130 395Q153 395 159 374T154 297L122 138Q109 78 119 50T161 21Q194 21 230 63T299 185T353
380L364 379Q344 263 309 175T228 37T133 -13ZM326 -9Q303 -9 298 12T302 89L353 380Q355 394 379 394Q392 394 396 393T400 388Q400 385 395 362T385 312L344 89Q334 28 361 28Q373 28 392 40T433 75Q436 79 440 75T441 67Q407 29 380 10T326 -9Z" />
<glyph unicode="v" horiz-adv-x="428" d="M184 -13Q150 -13 129 8T101 63T98 130Q106 176 129 225T171 317Q177 331 174 336T160 342H108Q82 342 69 339T49 324T33 287Q31 283 26 285T22 292Q37 335 48 355T75 381T120 387H208Q217 387 218 385T216 375Q192 320
170 259T142 149Q135 92 153 61T207 29Q237 29 267 49T321 107T360 194Q374 244 371 272T357 314T342 331Q338 335 329 343T319 366Q319 383 331 389T354 396Q377 396 386 371T396 309T392 239Q383 179 361 133T308 54T245 4T184 -13Z" />
<glyph unicode="w" horiz-adv-x="616" d="M184 -13Q150 -13 129 8T101 63T98 130Q106 176 129 226T171 317Q177 331 174 336T160 342H108Q82 342 69 339T49 324T33 287Q31 283 26 285T22 292Q37 335 48 355T75 381T120 387H208Q217 387 218 385T216 375Q192 320
172 259T146 149Q139 92 155 59T207 25Q233 25 259 42T310 89T352 162T377 256Q382 293 376 315T354 337Q338 337 330 312T318 261Q311 212 314 169T331 94T365 43T415 25Q439 25 466 46T517 105T549 194Q557 241 554 268T541 311T523 337Q517 344 513 350T508
366Q508 383 520 389T543 396Q566 396 575 371T584 309T580 239Q571 179 550 133T502 54T445 4T392 -13Q364 -13 343 8T309 64T293 143T298 232Q305 276 317 312T344 370T375 392Q398 392 405 359T405 282Q392 206 367 151T311 59T246 5T184 -13Z" />
<glyph unicode="x" horiz-adv-x="419" d="M285 -9Q268 -9 253 2T227 51L158 292Q146 335 132 345T106 356Q94 356 76 345T36 311Q33 307 29 311T28 319Q62 357 87 376T133 395Q151 395 167 382T196 325L265 83Q276 46 289 38T312 30Q325 30 342 41T382 75Q386
79 390 75T391 67Q357 29 331 10T285 -9ZM48 -9Q29 -9 14 4T1 36Q3 46 9 51T26 56Q36 56 41 52T52 44T67 39Q78 39 90 46T115 71L196 193L204 184L129 63Q110 33 98 18T74 -3T48 -9ZM208 188L201 198L281 323Q300 354 312 369T336 389T361 395Q380 395 395 382T408
350Q407 340 400 335T384 330Q374 330 369 334T358 343T343 347Q333 347 320 340T295 315L208 188Z" />
<glyph unicode="y" horiz-adv-x="440" d="M-19 -281Q-35 -281 -45 -272T-54 -244Q-48 -222 -19 -222Q2 -222 23 -219T65 -207T101 -188Q123 -173 152 -137T213 -53T274 45T324 141T352 216Q358 243 357 267T351 312T342 346T338 368Q338 380 346 388T368 396Q388
396 395 382T402 345Q402 308 387 257T344 147T281 27T207 -88T127 -187T49 -255T-19 -281ZM187 -108Q193 112 162 233T71 354Q58 354 44 346T19 316Q17 312 12 313T7 319Q26 357 46 376T94 395Q130 395 157 361T202 266T227 128T229 -40L187 -108Z" />
<glyph unicode="z" horiz-adv-x="344" d="M1 -7Q-1 -8 -4 -4T-6 1L308 360L302 349Q289 335 279 330T247 325Q226 325 198 331T143 343T101 349Q84 349 75 337T55 298Q54 294 48 296T44 304Q59 347 69 366T92 390T125 394Q160 392 206 381T291 367Q307 367 319
373T346 396Q349 398 352 394T353 388L40 29L46 41Q59 55 69 59T101 64Q126 64 158 59T221 47T270 41Q287 41 296 52T315 89Q316 91 321 90T326 85Q312 43 302 24T281 0T249 -5Q221 -4 188 2T120 14T56 22Q40 22 28 16T1 -7Z" />
<glyph unicode="{" horiz-adv-x="260" d="M173 -117Q134 -117 112 -110T80 -81T72 -22T85 80Q94 131 97 179T91 261T47 298Q44 298 44 304T47 311Q83 316 106 349T142 430T165 529Q176 592 188 631T216 690T257 717T319 725Q322 725 322 719T319 713Q282 713 258
686T225 607Q209 527 197 476T171 393T135 342T75 305Q106 287 121 267T140 214T137 131T118 1Q109 -50 123 -77T173 -105Q176 -105 176 -111T173 -117Z" />
<glyph unicode="|" horiz-adv-x="152" d="M33 -154Q32 -159 23 -159T7 -158T0 -151L154 731Q156 736 164 736T181 735T188 727L33 -154Z" />
<glyph unicode="}" horiz-adv-x="260" d="M126 725Q165 725 187 718T219 689T227 630T214 528Q205 477 202 429T208 348T252 310Q255 310 255 304T252 297Q216 293 194 260T157 178T134 79Q123 16 111 -23T83 -82T42 -109T-20 -117Q-23 -117 -23 -111T-20 -105Q17
-105 41 -78T74 1Q90 81 102 132T128 215T164 266T224 303Q193 321 178 341T159 394T162 477T181 607Q190 658 176 685T126 713Q123 713 123 719T126 725Z" />
<glyph unicode="~" d="M55 154Q54 153 51 156T48 161Q59 174 75 190T113 218T159 230Q182 230 206 221T258 203T313 194Q345 194 361 206T389 233Q391 235 394 232T396 226Q361 184 340 171T292 157Q263 157 238 166T187 184T130 193Q100 193 87 183T55 154Z" />
<glyph unicode="&#xa0;" horiz-adv-x="234" />
<glyph unicode="&#xa1;" horiz-adv-x="220" d="M107 163Q108 168 113 168T118 162Q109 96 99 22T80 -126T70 -267Q70 -271 59 -275T34 -279Q20 -279 9 -275T-1 -267Q21 -201 40 -127T76 23T107 163ZM143 365Q161 365 171 355T182 326Q182 309 172 299T143 289Q124
289 114 299T104 326Q104 365 143 365Z" />
<glyph unicode="&#xa2;" horiz-adv-x="487" d="M194 -101L311 563Q312 570 321 569T329 560L212 -103Q211 -110 202 -109T194 -101ZM327 480Q360 480 397 472T458 450Q466 446 467 444T467 433L458 332Q458 327 453 327T447 332Q447 403 409 435T305 467Q256 467
212 439T137 361T94 248Q86 204 90 160T113 80T164 22T247 0Q302 0 348 33T421 140Q423 145 428 144T433 138L401 32Q400 24 398 22T387 14Q345 0 307 -6T239 -12Q170 -12 128 11T64 73T37 156T39 240Q51 309 92 363T195 448T327 480Z" />
<glyph unicode="&#xa3;" horiz-adv-x="388" d="M2 0Q-2 0 -2 6T2 13Q36 22 55 34T85 64T99 110Q106 147 105 175T101 228T96 279T101 337Q110 387 136 418T199 465T273 480Q291 480 311 476T351 462Q364 455 364 443L352 343Q351 339 345 339T339 344Q342 370
337 398T314 447T263 467Q228 467 205 452T169 412T151 360Q144 322 147 288T153 220T149 144Q140 96 117 72T68 29L64 40H201Q239 40 260 46T295 71T320 123Q322 126 327 125T331 119Q325 99 317 69T304 12Q303 5 300 3T289 0H2ZM56 220Q52 220 51 225T50 235T56
240H257Q261 240 262 235T263 225T257 220H56Z" />
<glyph unicode="&#xa4;" horiz-adv-x="373" d="M98 94L43 37L28 58L85 113L98 94ZM113 290L74 344L102 367L138 311L113 290ZM263 117L303 62L275 37L239 96L263 117ZM283 310L338 364L352 344L297 292L283 310ZM157 65Q117 65 93 85T61 138T58 206Q66 250 92
278T152 321T214 335Q267 335 297 296T316 198Q309 156 283 126T224 81T157 65ZM174 81Q208 81 233 107T267 184Q273 218 267 248T243 299T194 319Q162 319 138 295T105 220Q100 189 104 157T125 103T174 81Z" />
<glyph unicode="&#xa5;" horiz-adv-x="429" d="M221 198L213 205L327 368Q356 409 353 432T324 456Q320 456 320 462T324 468Q346 468 364 467T412 465Q431 465 443 466T471 468Q475 468 475 462T471 456Q440 456 408 432T344 365L221 198ZM77 0Q74 0 74 6T77
12Q112 12 130 17T157 38T171 82L182 149H229L216 80Q211 51 214 37T233 17T283 12Q287 12 287 6T283 0Q261 0 236 1T180 2Q152 2 125 1T77 0ZM83 133Q77 133 77 143T83 153H325Q331 153 331 143T325 133H83ZM92 193Q86 193 86 203T92 213H336Q342 213 342 203T336
193H92ZM193 205L196 228L244 237L239 205H193ZM204 198L126 386Q110 424 94 440T48 456Q44 456 44 462T48 468Q62 468 76 467T103 465Q125 465 144 466T181 467T211 468Q214 468 214 462T211 456Q182 456 172 446T171 415L246 235L204 198Z" />
<glyph unicode="&#xa6;" horiz-adv-x="152" d="M123 357Q123 352 115 352T98 353T90 360L154 731Q155 736 163 736T180 735T188 727L123 357ZM32 -158Q31 -162 23 -163T7 -162T-1 -154L63 216Q64 221 72 221T89 220T97 213L32 -158Z" />
<glyph unicode="&#xa7;" horiz-adv-x="386" d="M118 -188Q93 -188 75 -183T42 -170Q38 -167 36 -163T35 -153L44 -60Q46 -57 51 -57T55 -60Q54 -77 61 -95T81 -129T114 -155T156 -165Q181 -165 202 -148T232 -90Q238 -55 227 -31T194 12T149 50T104 92T73 147T69
225Q75 265 96 297T170 373L175 364Q144 341 130 314T111 256Q103 212 113 181T144 128T189 87T234 49T266 4T271 -56Q264 -102 240 -131T183 -174T118 -188ZM230 11L225 20Q255 42 269 69T289 127Q296 172 286 203T255 256T210 297T165 335T132 380T127 440Q136
486 160 515T217 558T282 572Q308 572 326 567T357 553Q360 551 362 547T364 537L354 443Q354 441 349 441T344 443Q345 460 339 478T319 513T286 539T243 549Q219 549 198 532T168 474Q162 439 173 415T205 372T251 335T296 293T327 238T331 159Q325 119 304 87T230
11Z" />
<glyph unicode="&#xa8;" horiz-adv-x="275" d="M269 481Q229 481 229 519Q229 537 239 547T269 557Q288 557 298 547T308 519Q308 481 269 481ZM120 481Q81 481 81 519Q81 537 91 547T120 557Q139 557 149 547T159 519Q159 481 120 481Z" />
<glyph unicode="&#xa9;" horiz-adv-x="724" d="M368 -101Q321 -101 271 -84T176 -30T105 61T78 191Q78 259 104 315T175 412T277 475T396 497Q473 497 528 466T613 384T643 270Q643 208 611 155T525 71T402 39Q339 39 300 62T243 122T225 195Q225 249 251 287T316
344T395 364Q418 364 438 358T473 342T488 317Q488 307 481 299T462 291Q451 291 442 299T428 315Q418 329 406 339T370 349Q321 349 301 313T281 219Q281 178 294 143T341 87T430 65Q476 65 517 83T585 140T612 242Q612 306 580 358T492 442T366 474Q286 474 230
439T146 344T117 213Q117 139 144 85T213 -3T304 -54T393 -71Q431 -71 462 -68T524 -55T594 -26Q596 -25 598 -28T599 -33Q542 -76 486 -88T368 -101Z" />
<glyph unicode="&#xaa;" horiz-adv-x="276" d="M94 361Q72 361 62 376T56 429Q61 465 78 501T120 567T173 615T227 633Q245 633 261 623T278 588L254 605Q261 607 269 616T281 639Q282 641 287 640T292 637L254 428Q247 388 264 388Q272 388 282 397T306 422Q308
424 313 421T316 415Q294 390 277 377T242 364Q226 364 223 378T226 428L242 520L254 531Q233 482 206 444T150 383T94 361ZM44 288Q42 288 41 294T40 307T43 313H269Q272 313 273 307T273 295T269 288H44ZM112 389Q128 389 148 404T189 443T225 497T248 557Q253
579 243 596T207 612Q184 612 158 590T113 533T87 454Q83 423 88 406T112 389Z" />
<glyph unicode="&#xab;" horiz-adv-x="421" d="M240 364Q242 366 246 362T248 356L103 201L194 47Q196 44 192 41T186 40L55 189Q51 194 51 200T58 212L240 364ZM387 364Q390 366 394 362T395 356L250 201L342 47Q344 44 340 41T333 40L202 189Q199 194 199 200T206
212L387 364Z" />
<glyph unicode="&#xac;" horiz-adv-x="395" d="M34 229Q31 229 30 238T30 257T33 267H364V229H34ZM326 76V267H364V77Q364 74 355 73T336 73T326 76Z" />
<glyph unicode="&#xad;" horiz-adv-x="305" d="M32 168Q29 168 28 178T27 199T30 211L280 257Q283 258 283 248T284 227T280 215L32 168Z" />
<glyph unicode="&#xae;" horiz-adv-x="765" d="M413 138Q361 138 309 156T215 212T146 303T120 430Q120 494 146 548T217 641T319 703T439 725Q526 725 589 687T686 587T720 451Q720 385 696 328T629 229T531 162T413 138ZM437 167Q512 167 569 198T657 286T689
423Q689 501 652 564T552 665T408 702Q328 702 272 668T188 576T159 453Q159 382 184 329T251 239T342 185T437 167ZM256 277Q255 277 256 283T258 289Q294 289 304 296T320 333L359 549Q364 576 356 584T311 593Q310 593 311 599T313 605Q328 605 347 605T385
604Q403 604 427 605T468 607Q511 607 531 592T545 542Q539 508 516 483T456 446T366 436L370 456Q425 446 459 458T503 518Q510 559 495 576T449 594Q423 594 411 588T393 546L356 333Q351 304 359 297T402 289Q404 289 403 283T400 277Q385 277 368 277T327 278Q310
278 290 278T256 277ZM509 277Q499 277 480 322T434 441L474 455Q495 394 509 357T540 302T584 285Q586 285 585 281T582 277Q554 277 536 277T509 277Z" />
<glyph unicode="&#xaf;" horiz-adv-x="333" d="M99 480Q96 480 95 486T94 499T99 506H339Q343 506 344 500T344 487T339 480H99Z" />
<glyph unicode="&#xb0;" horiz-adv-x="299" d="M184 373Q136 373 109 396T73 452T71 515Q78 545 99 571T153 613T226 630Q273 630 299 608T334 554T336 489Q324 438 282 406T184 373ZM193 385Q226 385 244 398T272 433T287 482Q300 551 286 585T221 619Q171 619
150 589T120 518Q113 483 115 453T135 404T193 385Z" />
<glyph unicode="&#xb1;" horiz-adv-x="398" d="M34 1Q31 1 30 9T30 26T33 35H364Q367 35 368 27T368 10T364 1H34ZM34 234Q31 234 30 243T30 262T33 271H364Q367 271 368 262T368 244T364 234H34ZM218 88Q218 85 209 84T190 84T180 87V418Q180 421 189 421T208
422T218 418V88Z" />
<glyph unicode="&#xb2;" horiz-adv-x="227" d="M76 403Q69 403 74 411Q84 432 107 461T157 523T204 589T231 654Q235 680 225 694T194 709Q171 709 152 692T122 648Q121 646 115 647T110 652Q124 682 148 705T209 729Q245 729 259 708T268 655Q263 630 242 601T194
542T143 485T106 437Q105 434 107 434Q150 434 173 435T206 441T223 459T240 493Q242 498 247 497T252 490L236 406Q236 403 233 403Q198 403 155 403T76 403Z" />
<glyph unicode="&#xb3;" horiz-adv-x="227" d="M174 568L173 576Q194 573 212 564T241 537T246 490Q242 468 228 447T192 411T140 397Q103 397 89 418T70 468Q69 472 75 472T82 469Q84 459 88 446T105 423T138 413Q163 413 182 430T207 485Q214 529 196 547T154
565Q152 565 152 571T154 577Q174 577 189 590T213 621T226 654Q230 676 220 692T187 709Q166 709 148 692T118 652Q117 648 112 650T108 655Q121 685 144 707T204 729Q237 729 252 708T263 654Q259 634 247 617T216 586T174 568Z" />
<glyph unicode="&#xb4;" horiz-adv-x="212" d="M119 473Q118 470 113 472T109 476L207 716Q209 719 217 722T237 728T255 731T261 727L119 473Z" />
<glyph unicode="&#xb6;" horiz-adv-x="594" d="M262 -193Q232 -193 218 -181T206 -153Q208 -138 218 -131T239 -123Q253 -123 258 -130T266 -146T275 -163T299 -170Q320 -170 333 -156T356 -104T380 8L401 125Q365 122 322 122Q271 122 223 135T137 179T84 260T82
386Q105 507 186 567T386 628Q417 628 448 625T519 622Q545 622 571 623T619 625Q624 625 624 619T619 613Q580 613 555 592T522 532L439 55Q416 -74 373 -133T262 -193Z" />
<glyph unicode="&#xb7;" horiz-adv-x="198" d="M98 161Q80 161 70 171T59 200Q59 217 69 227T98 237Q117 237 127 227T137 200Q137 161 98 161Z" />
<glyph unicode="&#xb8;" horiz-adv-x="196" d="M0 -275Q-21 -275 -36 -264T-48 -230Q-46 -222 -40 -217T-23 -212Q-12 -212 -6 -218T4 -234T13 -249T28 -256Q58 -256 67 -215Q69 -198 61 -179T33 -138Q20 -122 16 -102T23 -60L53 0H64Q53 -24 50 -41T51 -73T68
-104Q84 -125 94 -145T99 -188Q97 -205 85 -225T51 -260T0 -275Z" />
<glyph unicode="&#xb9;" horiz-adv-x="236" d="M83 403Q79 403 79 408T83 414Q112 414 125 418T145 437T158 483L179 601Q187 648 189 667T178 684T122 662Q118 661 116 666T117 673L226 728Q230 730 232 727T233 721L192 483Q186 452 187 437T200 418T239 414Q242
414 242 409T239 403Q223 403 205 404T164 405Q142 405 121 404T83 403Z" />
<glyph unicode="&#xba;" horiz-adv-x="269" d="M151 359Q120 359 99 378T70 429T68 498Q76 543 99 572T153 615T209 630Q242 630 262 611T291 561T294 495Q287 457 265 426T212 377T151 359ZM49 288Q46 288 45 294T45 307T48 313H269Q272 313 273 307T273 295T269
288H49ZM170 377Q199 377 224 401T258 477Q265 517 258 547T233 595T188 613Q157 613 134 590T103 517Q93 459 111 418T170 377Z" />
<glyph unicode="&#xbb;" horiz-adv-x="421" d="M184 37Q181 36 177 39T175 46L320 200L229 354Q228 357 232 360T237 361L368 212Q372 208 372 201T365 189L184 37ZM36 37Q34 36 30 39T28 46L173 200L82 354Q81 357 85 360T90 361L221 212Q225 208 225 201T218
189L36 37Z" />
<glyph unicode="&#xbc;" horiz-adv-x="546" d="M65 309Q61 309 61 314T65 320Q94 320 107 324T127 343T140 389L161 507Q169 554 171 573T160 590T104 568Q100 567 98 572T99 579L208 634Q212 636 214 633T215 627L174 389Q168 358 169 343T182 324T221 320Q224
320 224 315T221 309Q205 309 187 310T146 311Q124 311 103 310T65 309ZM149 -2Q148 -4 143 -2T132 3T127 7L465 625Q467 627 473 626T484 621T487 614L149 -2ZM366 -2Q362 -2 362 4T366 10Q399 10 409 15T423 41L463 276L480 290L354 112Q350 108 356 108Q391
108 415 109T460 111T507 114Q509 114 508 108T506 94T502 87Q466 90 425 91T318 93Q317 93 316 95T317 99L495 324Q497 326 500 325T502 320L453 41Q449 22 453 16T488 10Q493 10 493 4T488 -2Q476 -2 464 -1T435 0Q416 0 398 -1T366 -2Z" />
<glyph unicode="&#xbd;" horiz-adv-x="560" d="M65 309Q61 309 61 314T65 320Q94 320 107 324T127 343T140 389L161 507Q169 554 171 573T160 590T104 568Q100 567 98 572T99 579L208 634Q212 636 214 633T215 627L174 389Q168 358 169 343T182 324T221 320Q224
320 224 315T221 309Q205 309 187 310T146 311Q124 311 103 310T65 309ZM149 -2Q148 -4 143 -2T132 3T127 7L465 625Q467 627 473 626T484 621T487 614L149 -2ZM339 0Q332 0 337 8Q347 29 370 58T420 120T467 186T494 251Q498 277 488 291T457 306Q434 306 415
289T385 245Q384 243 378 244T373 249Q387 279 411 302T472 326Q508 326 522 305T531 252Q526 227 505 198T457 139T406 82T369 34Q368 31 370 31Q413 31 436 32T469 38T486 56T503 90Q505 95 510 94T515 87L499 3Q499 0 496 0Q461 0 418 0T339 0Z" />
<glyph unicode="&#xbe;" horiz-adv-x="537" d="M156 474L155 482Q176 479 194 470T223 443T228 396Q224 374 210 353T174 317T122 303Q85 303 71 324T52 374Q51 378 57 378T64 375Q66 365 70 352T87 329T120 319Q145 319 164 336T189 391Q196 435 178 453T136
471Q134 471 134 477T136 483Q156 483 171 496T195 527T208 560Q212 582 202 598T169 615Q148 615 130 598T100 558Q99 554 94 556T90 561Q103 591 126 613T186 635Q219 635 234 614T245 560Q241 540 229 523T198 492T156 474ZM140 -2Q139 -4 134 -2T123 3T118
7L456 625Q458 627 464 626T475 621T478 614L140 -2ZM357 -2Q353 -2 353 4T357 10Q390 10 400 15T414 41L454 276L471 290L345 112Q341 108 347 108Q382 108 406 109T451 111T498 114Q500 114 499 108T497 94T493 87Q457 90 416 91T309 93Q308 93 307 95T308 99L486
324Q488 326 491 325T493 320L444 41Q440 22 444 16T479 10Q484 10 484 4T479 -2Q467 -2 455 -1T426 0Q407 0 389 -1T357 -2Z" />
<glyph unicode="&#xbf;" horiz-adv-x="298" d="M179 159Q185 131 185 96T181 40Q175 4 155 -18T110 -58T64 -101T35 -167Q30 -197 36 -218T58 -251T101 -263Q133 -263 145 -247T163 -215Q166 -207 170 -198T182 -183T199 -177Q213 -177 218 -186T222 -208Q220
-226 201 -241T154 -265T94 -275Q37 -275 6 -243T-14 -155Q-7 -120 10 -96T48 -54T86 -22Q126 13 142 40T165 102Q168 114 168 128T169 159Q169 164 174 164T179 159ZM207 361Q225 361 235 351T246 322Q246 305 236 295T207 285Q188 285 178 295T168 322Q168 361
207 361Z" />
<glyph unicode="&#xc0;" horiz-adv-x="599" d="M-34 0Q-38 0 -38 6T-34 12Q-8 12 24 33T94 120L382 635Q384 639 391 638T400 633L483 84Q487 57 493 41T515 19T561 12Q565 12 565 6T561 0Q538 0 514 2T462 4Q434 4 413 2T367 0Q364 0 364 6T367 12Q416 12 428
27T434 84L361 570L378 587L129 133Q100 80 97 54T111 20T158 12Q162 12 162 6T157 0Q138 0 111 2T58 4Q29 4 11 2T-34 0ZM199 287L214 305H428L430 287H199ZM487 679Q435 701 382 720T264 756Q259 758 265 762T283 772T305 781T319 782Q358 758 399 735T491 689Q495
688 493 683T487 679Z" />
<glyph unicode="&#xc1;" horiz-adv-x="599" d="M-34 0Q-38 0 -38 6T-34 12Q-8 12 24 33T94 120L382 635Q384 639 391 638T400 633L483 84Q487 57 493 41T515 19T561 12Q565 12 565 6T561 0Q538 0 514 2T462 4Q434 4 413 2T367 0Q364 0 364 6T367 12Q416 12 428
27T434 84L361 570L378 587L129 133Q100 80 97 54T111 20T158 12Q162 12 162 6T157 0Q138 0 111 2T58 4Q29 4 11 2T-34 0ZM199 287L214 305H428L430 287H199ZM291 678Q287 677 285 682T286 689Q336 712 376 735T458 781Q461 783 472 780T494 772T512 762T513 756Q446
739 394 720T291 678Z" />
<glyph unicode="&#xc2;" horiz-adv-x="599" d="M-34 0Q-38 0 -38 6T-34 12Q-8 12 24 33T94 120L382 635Q384 639 391 638T400 633L483 84Q487 57 493 41T515 19T561 12Q565 12 565 6T561 0Q538 0 514 2T462 4Q434 4 413 2T367 0Q364 0 364 6T367 12Q416 12 428
27T434 84L361 570L378 587L129 133Q100 80 97 54T111 20T158 12Q162 12 162 6T157 0Q138 0 111 2T58 4Q29 4 11 2T-34 0ZM199 287L214 305H428L430 287H199ZM306 660Q305 659 302 662T300 667L405 759Q409 764 414 764T423 759L495 667Q497 665 494 662T488 660L405
722L306 660Z" />
<glyph unicode="&#xc3;" horiz-adv-x="599" d="M-34 0Q-38 0 -38 6T-34 12Q-8 12 24 33T94 120L382 635Q384 639 391 638T400 633L483 84Q487 57 493 41T515 19T561 12Q565 12 565 6T561 0Q538 0 514 2T462 4Q434 4 413 2T367 0Q364 0 364 6T367 12Q416 12 428
27T434 84L361 570L378 587L129 133Q100 80 97 54T111 20T158 12Q162 12 162 6T157 0Q138 0 111 2T58 4Q29 4 11 2T-34 0ZM199 287L214 305H428L430 287H199ZM284 721Q282 720 279 722T277 728Q285 739 298 752T328 775T361 785Q379 785 398 779T440 767T487 761Q507
761 517 769T536 788Q538 790 541 787T543 781Q516 746 499 735T465 723Q442 723 422 729T380 742T333 748Q313 748 304 740T284 721Z" />
<glyph unicode="&#xc4;" horiz-adv-x="599" d="M-34 0Q-38 0 -38 6T-34 12Q-8 12 24 33T94 120L382 635Q384 639 391 638T400 633L483 84Q487 57 493 41T515 19T561 12Q565 12 565 6T561 0Q538 0 514 2T462 4Q434 4 413 2T367 0Q364 0 364 6T367 12Q416 12 428
27T434 84L361 570L378 587L129 133Q100 80 97 54T111 20T158 12Q162 12 162 6T157 0Q138 0 111 2T58 4Q29 4 11 2T-34 0ZM199 287L214 305H428L430 287H199ZM325 720Q307 720 296 730T285 758Q285 776 296 786T325 796Q344 796 354 786T364 758Q364 720 325 720ZM501
720Q461 720 461 758Q461 776 471 786T501 796Q539 796 539 758Q539 720 501 720Z" />
<glyph unicode="&#xc5;" horiz-adv-x="599" d="M-34 0Q-38 0 -38 6T-34 12Q-8 12 24 33T94 120L382 635Q384 639 391 638T400 633L483 84Q487 57 493 41T515 19T561 12Q565 12 565 6T561 0Q538 0 514 2T462 4Q434 4 413 2T367 0Q364 0 364 6T367 12Q416 12 428
27T434 84L361 570L378 587L129 133Q100 80 97 54T111 20T158 12Q162 12 162 6T157 0Q138 0 111 2T58 4Q29 4 11 2T-34 0ZM199 287L214 305H428L430 287H199ZM396 674Q362 674 344 698T325 754Q325 780 337 797T368 822T405 831Q435 831 456 808T477 751Q477 727
465 710T435 683T396 674ZM411 683Q442 683 442 734Q442 769 425 795T386 821Q359 821 359 774Q359 753 365 732T384 697T411 683Z" />
<glyph unicode="&#xc6;" horiz-adv-x="768" d="M-56 0Q-60 0 -60 6T-56 12Q-31 12 -9 22T40 58T104 132L439 574Q452 593 453 601T440 611T387 613Q383 613 383 619T387 625H758Q767 625 765 616Q762 598 759 575T752 530T746 494Q745 491 740 491T735 495Q743
547 724 579T658 611H615Q571 611 548 606T516 587T503 543L446 85Q443 57 445 43T463 23T511 18H595Q631 18 663 54T712 147Q713 150 719 149T723 145Q716 119 707 83T692 15Q689 0 676 0H303Q299 0 299 6T303 12Q354 12 372 25T396 81L465 613L490 602L125 123Q82
66 83 39T145 12Q150 12 150 6T145 0Q127 0 112 1T80 3T40 4Q9 4 -10 2T-56 0ZM264 316L282 335H467L470 316H264ZM665 235Q664 233 659 234T654 237Q662 282 649 299T591 316H464L467 335H598Q639 335 657 352T683 406Q683 410 689 409T694 404Q690 375 686 359T680
325Q676 303 673 282T665 235Z" />
<glyph unicode="&#xc7;" horiz-adv-x="585" d="M316 -13Q232 -13 179 16T98 95T64 202T68 319Q81 390 116 448T203 548T313 613T433 636Q474 636 514 627T577 599Q584 594 585 590T585 575L577 470Q576 466 571 466T566 470Q561 551 515 583T396 615Q329 615 274
582T181 488T129 346Q116 274 124 211T159 101T226 26T322 -1Q380 -1 435 36T530 149Q532 152 537 150T540 145L510 39Q506 26 504 22T492 15Q445 0 400 -6T316 -13ZM258 -275Q237 -275 222 -264T210 -230Q212 -222 218 -217T235 -212Q246 -212 252 -218T262 -234T271
-249T286 -256Q316 -256 325 -215Q327 -198 319 -179T291 -138Q278 -122 274 -102T281 -60L311 0H322Q311 -24 308 -41T309 -73T326 -104Q342 -125 352 -145T357 -188Q355 -205 343 -225T309 -260T258 -275Z" />
<glyph unicode="&#xc8;" horiz-adv-x="510" d="M15 0Q13 0 13 6T15 12Q48 12 65 17T90 37T103 81L185 544Q193 587 182 600T122 613Q119 613 119 619T122 625H503Q511 625 509 616Q506 598 503 575T496 530T490 494Q489 490 483 491T478 495Q487 547 471 579T416
611H317Q286 611 269 606T245 587T232 543L151 85Q144 43 155 31T213 18H344Q377 18 407 54T454 147Q455 150 461 149T465 145Q457 119 449 83T435 15Q432 0 419 0H15ZM405 234Q404 230 398 230T393 235Q401 280 389 298T336 316H171L174 335H343Q381 335 398 350T421
404Q422 408 428 408T433 402Q429 374 425 359T419 325Q415 303 413 282T405 234ZM423 679Q396 694 368 707T307 733T237 756Q233 757 237 760T251 767T272 775T292 781T303 782Q333 759 362 736T429 689Q433 688 430 683T423 679Z" />
<glyph unicode="&#xc9;" horiz-adv-x="510" d="M15 0Q13 0 13 6T15 12Q48 12 65 17T90 37T103 81L185 544Q193 587 182 600T122 613Q119 613 119 619T122 625H503Q511 625 509 616Q506 598 503 575T496 530T490 494Q489 490 483 491T478 495Q487 547 471 579T416
611H317Q286 611 269 606T245 587T232 543L151 85Q144 43 155 31T213 18H344Q377 18 407 54T454 147Q455 150 461 149T465 145Q457 119 449 83T435 15Q432 0 419 0H15ZM405 234Q404 230 398 230T393 235Q401 280 389 298T336 316H171L174 335H343Q381 335 398 350T421
404Q422 408 428 408T433 402Q429 374 425 359T419 325Q415 303 413 282T405 234ZM281 679Q277 677 275 682T276 689Q326 712 366 736T448 782Q451 784 461 781T483 772T501 762T503 756Q436 740 384 721T281 679Z" />
<glyph unicode="&#xca;" horiz-adv-x="510" d="M15 0Q13 0 13 6T15 12Q48 12 65 17T90 37T103 81L185 544Q193 587 182 600T122 613Q119 613 119 619T122 625H503Q511 625 509 616Q506 598 503 575T496 530T490 494Q489 490 483 491T478 495Q487 547 471 579T416
611H317Q286 611 269 606T245 587T232 543L151 85Q144 43 155 31T213 18H344Q377 18 407 54T454 147Q455 150 461 149T465 145Q457 119 449 83T435 15Q432 0 419 0H15ZM405 234Q404 230 398 230T393 235Q401 280 389 298T336 316H171L174 335H343Q381 335 398 350T421
404Q422 408 428 408T433 402Q429 374 425 359T419 325Q415 303 413 282T405 234ZM249 660Q248 659 245 662T243 667L348 759Q352 764 357 764T366 759L438 667Q440 665 437 662T431 660L348 722L249 660Z" />
<glyph unicode="&#xcb;" horiz-adv-x="510" d="M15 0Q13 0 13 6T15 12Q48 12 65 17T90 37T103 81L185 544Q193 587 182 600T122 613Q119 613 119 619T122 625H503Q511 625 509 616Q506 598 503 575T496 530T490 494Q489 490 483 491T478 495Q487 547 471 579T416
611H317Q286 611 269 606T245 587T232 543L151 85Q144 43 155 31T213 18H344Q377 18 407 54T454 147Q455 150 461 149T465 145Q457 119 449 83T435 15Q432 0 419 0H15ZM405 234Q404 230 398 230T393 235Q401 280 389 298T336 316H171L174 335H343Q381 335 398 350T421
404Q422 408 428 408T433 402Q429 374 425 359T419 325Q415 303 413 282T405 234ZM429 720Q389 720 389 758Q389 776 399 786T429 796Q448 796 458 786T468 758Q468 720 429 720ZM280 720Q241 720 241 758Q241 776 251 786T280 796Q299 796 309 786T319 758Q319
720 280 720Z" />
<glyph unicode="&#xcc;" horiz-adv-x="301" d="M19 0Q16 0 16 6T19 12Q51 12 68 17T93 37T106 81L188 544Q196 587 184 600T124 613Q121 613 121 619T124 625Q144 625 169 624T222 622Q254 622 279 623T324 625Q326 625 326 619T324 613Q292 613 275 607T250 586T236
542L154 81Q147 38 158 25T219 12Q221 12 221 6T219 0Q199 0 174 1T118 2Q90 2 65 1T19 0ZM315 679Q288 694 260 707T199 733T129 756Q125 757 129 760T143 767T164 775T184 781T195 782Q225 759 254 736T321 689Q325 688 322 683T315 679Z" />
<glyph unicode="&#xcd;" horiz-adv-x="301" d="M19 0Q16 0 16 6T19 12Q51 12 68 17T93 37T106 81L188 544Q196 587 184 600T124 613Q121 613 121 619T124 625Q144 625 169 624T222 622Q254 622 279 623T324 625Q326 625 326 619T324 613Q292 613 275 607T250 586T236
542L154 81Q147 38 158 25T219 12Q221 12 221 6T219 0Q199 0 174 1T118 2Q90 2 65 1T19 0ZM173 679Q169 677 167 682T168 689Q218 712 258 736T340 782Q343 784 353 781T375 772T393 762T395 756Q328 740 276 721T173 679Z" />
<glyph unicode="&#xce;" horiz-adv-x="301" d="M19 0Q16 0 16 6T19 12Q51 12 68 17T93 37T106 81L188 544Q196 587 184 600T124 613Q121 613 121 619T124 625Q144 625 169 624T222 622Q254 622 279 623T324 625Q326 625 326 619T324 613Q292 613 275 607T250 586T236
542L154 81Q147 38 158 25T219 12Q221 12 221 6T219 0Q199 0 174 1T118 2Q90 2 65 1T19 0ZM141 660Q140 659 137 662T135 667L240 759Q244 764 249 764T258 759L330 667Q332 665 329 662T323 660L240 722L141 660Z" />
<glyph unicode="&#xcf;" horiz-adv-x="301" d="M19 0Q16 0 16 6T19 12Q51 12 68 17T93 37T106 81L188 544Q196 587 184 600T124 613Q121 613 121 619T124 625Q144 625 169 624T222 622Q254 622 279 623T324 625Q326 625 326 619T324 613Q292 613 275 607T250 586T236
542L154 81Q147 38 158 25T219 12Q221 12 221 6T219 0Q199 0 174 1T118 2Q90 2 65 1T19 0ZM183 720Q164 720 154 730T143 758Q143 776 153 786T183 796Q202 796 212 786T222 758Q222 720 183 720ZM310 720Q271 720 271 758Q271 796 310 796Q329 796 339 786T349
758Q349 720 310 720Z" />
<glyph unicode="&#xd0;" horiz-adv-x="606" d="M53 302Q50 302 49 306T49 315T53 320H315Q318 320 318 316T319 307T315 302H53ZM232 -4Q208 -4 174 -1T110 2Q80 2 56 1T11 0Q8 0 8 6T11 12Q43 12 60 17T86 37T99 81L181 544Q189 587 178 600T118 613Q116 613
116 619T118 625Q138 625 164 624T219 622Q246 622 277 624T331 627Q422 627 484 587T572 478T584 323Q571 248 537 188T454 85T348 19T232 -4ZM226 9Q297 9 358 42T462 141T522 301Q534 367 527 423T496 523T432 590T337 614Q285 614 261 602T228 542L149 92Q141
49 155 29T226 9Z" />
<glyph unicode="&#xd1;" horiz-adv-x="650" d="M492 -11L207 543Q186 584 166 598T124 613Q121 613 121 619T124 625Q138 625 154 624T184 623Q196 623 206 624T222 625Q233 625 235 614T251 573L510 65L504 -11Q503 -14 499 -14T492 -11ZM15 0Q13 0 13 6T15 12Q51
12 70 32T98 104L186 602L202 600L117 104Q108 53 118 33T164 12Q166 12 166 6T164 0Q148 0 131 1T90 2Q70 2 51 1T15 0ZM504 -11L492 20L579 520Q588 571 578 592T532 613Q530 613 530 619T532 625Q548 625 565 624T606 622Q626 622 645 623T681 625Q683 625 683
619T681 613Q645 613 626 592T598 520L504 -11ZM286 697Q284 696 281 699T279 704Q287 715 300 728T330 752T363 762Q381 762 400 756T442 744T489 737Q509 737 519 745T538 764Q540 766 543 763T545 757Q518 722 501 711T467 700Q444 700 424 706T382 718T335
724Q315 724 306 716T286 697Z" />
<glyph unicode="&#xd2;" horiz-adv-x="650" d="M285 -12Q204 -12 151 32T77 150T71 313Q83 384 115 443T192 545T293 612T409 636Q494 636 547 592T621 474T626 313Q613 241 581 182T502 79T400 12T285 -12ZM327 14Q416 14 481 76T571 260Q587 335 580 399T546
511T473 585T368 612Q274 612 211 546T125 366Q111 295 118 232T151 119T221 42T327 14ZM491 679Q464 694 436 707T375 733T305 756Q301 757 305 760T319 767T340 775T360 781T371 782Q401 759 430 736T497 689Q501 688 498 683T491 679Z" />
<glyph unicode="&#xd3;" horiz-adv-x="650" d="M285 -12Q204 -12 151 32T77 150T71 313Q83 384 115 443T192 545T293 612T409 636Q494 636 547 592T621 474T626 313Q613 241 581 182T502 79T400 12T285 -12ZM327 14Q416 14 481 76T571 260Q587 335 580 399T546
511T473 585T368 612Q274 612 211 546T125 366Q111 295 118 232T151 119T221 42T327 14ZM349 679Q345 677 343 682T344 689Q394 712 434 736T516 782Q519 784 529 781T551 772T569 762T571 756Q504 740 452 721T349 679Z" />
<glyph unicode="&#xd4;" horiz-adv-x="650" d="M285 -12Q204 -12 151 32T77 150T71 313Q83 384 115 443T192 545T293 612T409 636Q494 636 547 592T621 474T626 313Q613 241 581 182T502 79T400 12T285 -12ZM327 14Q416 14 481 76T571 260Q587 335 580 399T546
511T473 585T368 612Q274 612 211 546T125 366Q111 295 118 232T151 119T221 42T327 14ZM317 660Q316 659 313 662T311 667L416 759Q420 764 425 764T434 759L506 667Q508 665 505 662T499 660L416 722L317 660Z" />
<glyph unicode="&#xd5;" horiz-adv-x="650" d="M285 -12Q204 -12 151 32T77 150T71 313Q83 384 115 443T192 545T293 612T409 636Q494 636 547 592T621 474T626 313Q613 241 581 182T502 79T400 12T285 -12ZM327 14Q416 14 481 76T571 260Q587 335 580 399T546
511T473 585T368 612Q274 612 211 546T125 366Q111 295 118 232T151 119T221 42T327 14ZM296 697Q294 696 291 699T289 704Q297 715 310 728T340 752T373 762Q391 762 410 756T452 744T499 737Q519 737 529 745T548 764Q550 766 553 763T555 757Q528 722 511 711T477
700Q454 700 434 706T392 718T345 724Q325 724 316 716T296 697Z" />
<glyph unicode="&#xd6;" horiz-adv-x="650" d="M285 -12Q204 -12 151 32T77 150T71 313Q83 384 115 443T192 545T293 612T409 636Q494 636 547 592T621 474T626 313Q613 241 581 182T502 79T400 12T285 -12ZM327 14Q416 14 481 76T571 260Q587 335 580 399T546
511T473 585T368 612Q274 612 211 546T125 366Q111 295 118 232T151 119T221 42T327 14ZM497 720Q457 720 457 758Q457 776 467 786T497 796Q516 796 526 786T536 758Q536 720 497 720ZM348 720Q309 720 309 758Q309 776 319 786T348 796Q367 796 377 786T387 758Q387
720 348 720Z" />
<glyph unicode="&#xd7;" horiz-adv-x="398" d="M95 60Q93 58 86 63T72 76T68 85L302 319Q304 321 311 315T324 302T329 292L95 60ZM69 294Q67 296 72 303T85 316T95 320L329 87Q331 85 325 78T311 64T302 60L69 294Z" />
<glyph unicode="&#xd8;" horiz-adv-x="650" d="M48 -7Q46 -9 42 -7T36 0T35 7L648 629Q650 631 654 629T661 624T662 618L48 -7ZM285 -12Q204 -12 151 32T77 150T71 313Q83 384 115 443T192 545T293 612T409 636Q494 636 547 592T621 474T626 313Q613 241 581
182T502 79T400 12T285 -12ZM327 14Q416 14 481 76T571 260Q587 335 580 399T546 511T473 585T368 612Q274 612 211 546T125 366Q111 295 118 232T151 119T221 42T327 14Z" />
<glyph unicode="&#xd9;" horiz-adv-x="618" d="M564 522Q572 569 558 591T504 613Q500 613 500 619T504 625Q524 625 545 624T591 622Q613 622 634 623T671 625Q675 625 675 619T671 613Q634 613 613 590T582 519L532 233Q518 154 482 99T393 16T275 -13Q209 -13
166 16T106 99T102 226L158 545Q166 588 154 600T91 613Q88 613 88 619T91 625Q113 625 139 624T194 622Q226 622 252 623T298 625Q302 625 302 619T298 613Q264 613 246 607T219 585T205 540L154 258Q133 137 173 77T296 16Q379 16 437 74T512 234L564 522ZM501
679Q449 701 396 720T278 756Q273 758 279 762T297 772T319 781T333 782Q372 758 413 735T505 689Q509 688 507 683T501 679Z" />
<glyph unicode="&#xda;" horiz-adv-x="618" d="M564 522Q572 569 558 591T504 613Q500 613 500 619T504 625Q524 625 545 624T591 622Q613 622 634 623T671 625Q675 625 675 619T671 613Q634 613 613 590T582 519L532 233Q518 154 482 99T393 16T275 -13Q209 -13
166 16T106 99T102 226L158 545Q166 588 154 600T91 613Q88 613 88 619T91 625Q113 625 139 624T194 622Q226 622 252 623T298 625Q302 625 302 619T298 613Q264 613 246 607T219 585T205 540L154 258Q133 137 173 77T296 16Q379 16 437 74T512 234L564 522ZM305
678Q301 677 299 682T300 689Q350 712 390 735T472 781Q475 783 486 780T508 772T526 762T527 756Q460 739 408 720T305 678Z" />
<glyph unicode="&#xdb;" horiz-adv-x="618" d="M564 522Q572 569 558 591T504 613Q500 613 500 619T504 625Q524 625 545 624T591 622Q613 622 634 623T671 625Q675 625 675 619T671 613Q634 613 613 590T582 519L532 233Q518 154 482 99T393 16T275 -13Q209 -13
166 16T106 99T102 226L158 545Q166 588 154 600T91 613Q88 613 88 619T91 625Q113 625 139 624T194 622Q226 622 252 623T298 625Q302 625 302 619T298 613Q264 613 246 607T219 585T205 540L154 258Q133 137 173 77T296 16Q379 16 437 74T512 234L564 522ZM320
660Q319 659 316 662T314 667L419 759Q423 764 428 764T437 759L509 667Q511 665 508 662T502 660L419 722L320 660Z" />
<glyph unicode="&#xdc;" horiz-adv-x="618" d="M564 522Q572 569 558 591T504 613Q500 613 500 619T504 625Q524 625 545 624T591 622Q613 622 634 623T671 625Q675 625 675 619T671 613Q634 613 613 590T582 519L532 233Q518 154 482 99T393 16T275 -13Q209 -13
166 16T106 99T102 226L158 545Q166 588 154 600T91 613Q88 613 88 619T91 625Q113 625 139 624T194 622Q226 622 252 623T298 625Q302 625 302 619T298 613Q264 613 246 607T219 585T205 540L154 258Q133 137 173 77T296 16Q379 16 437 74T512 234L564 522ZM339
720Q321 720 310 730T299 758Q299 776 310 786T339 796Q358 796 368 786T378 758Q378 720 339 720ZM515 720Q475 720 475 758Q475 776 485 786T515 796Q553 796 553 758Q553 720 515 720Z" />
<glyph unicode="&#xdd;" horiz-adv-x="527" d="M282 270L273 278L449 524Q481 568 478 590T437 613Q434 613 434 619T437 625Q460 625 480 624T532 622Q553 622 566 623T599 625Q603 625 603 619T599 613Q568 613 535 590T469 523L282 270ZM135 0Q131 0 131 6T135
12Q167 12 184 17T210 37T223 81L263 310L312 319L270 81Q263 38 273 25T333 12Q337 12 337 6T333 0Q313 0 289 1T235 2Q205 2 180 1T135 0ZM274 271L159 542Q143 580 125 596T76 613Q72 613 72 619T76 625Q90 625 106 624T138 622Q171 622 201 623T253 625Q256
625 255 619T250 613Q216 613 207 604T206 573L312 317L274 271ZM293 679Q289 677 287 682T288 689Q338 712 378 736T460 782Q463 784 473 781T495 772T513 762T515 756Q448 740 396 721T293 679Z" />
<glyph unicode="&#xde;" horiz-adv-x="531" d="M12 0Q9 0 9 6T12 12Q44 12 61 17T87 37T101 81L182 544Q190 587 179 600T119 613Q117 613 117 619T119 625Q139 625 163 624T216 622Q255 622 286 623T342 625Q344 625 344 619T342 613Q297 613 275 609T243 589T228
542L147 81Q142 52 145 37T169 17T234 12Q236 12 236 6T234 0Q209 0 178 1T109 2Q82 2 57 1T12 0ZM229 122Q218 122 208 123T188 126Q186 127 187 133T193 139Q207 136 222 136Q269 136 317 152T403 203T451 292Q465 354 446 397T386 464T295 487Q252 487 229 483T186
471L180 483Q209 492 244 495T317 499Q377 499 426 480T499 420T511 312Q501 262 471 226T399 167T313 133T229 122Z" />
<glyph unicode="&#xdf;" horiz-adv-x="441" d="M-54 -275Q-87 -275 -99 -263T-111 -235Q-110 -224 -101 -216T-77 -207Q-63 -207 -57 -214T-47 -232T-39 -249T-22 -257Q-10 -257 -2 -242T16 -182T40 -47L120 448Q135 537 166 599T242 693T339 726Q379 726 398
709T421 669T422 627Q416 592 397 563T355 509T313 458T290 406Q285 374 295 346T321 292T355 239T381 183T386 119Q382 91 365 61T321 10T255 -11Q220 -11 204 5T188 40Q188 52 195 60T216 68Q229 68 235 60T245 40T258 20T284 11Q308 11 324 30T345 85Q349 120
339 148T312 201T279 252T254 304T251 366Q258 402 275 427T312 476T349 527T373 595Q377 618 376 645T363 692T318 712Q267 712 225 642T163 446L88 -21Q73 -116 55 -172T12 -251T-54 -275Z" />
<glyph unicode="&#xe0;" horiz-adv-x="432" d="M80 -13Q48 -13 32 11T22 91Q30 146 56 200T120 300T200 372T282 399Q300 399 317 393T346 371T360 332L322 357Q333 359 349 373T368 407Q370 410 375 409T380 406L322 89Q312 28 338 28Q350 28 368 41T408 77Q411
80 415 76T416 69Q383 32 357 12T304 -9Q281 -9 276 12T280 89L304 229L320 246Q289 172 249 113T165 21T80 -13ZM109 30Q138 30 169 52T230 112T282 194T313 283Q321 318 306 343T251 367Q215 366 177 334T109 249T69 127Q62 80 71 55T109 30ZM291 475L254 727Q253
731 260 731T276 729T293 723T300 716V476Q300 474 296 473T291 475Z" />
<glyph unicode="&#xe1;" horiz-adv-x="432" d="M80 -13Q48 -13 32 11T22 91Q30 146 56 200T120 300T200 372T282 399Q300 399 317 393T346 371T360 332L322 357Q333 359 349 373T368 407Q370 410 375 409T380 406L322 89Q312 28 338 28Q350 28 368 41T408 77Q411
80 415 76T416 69Q383 32 357 12T304 -9Q281 -9 276 12T280 89L304 229L320 246Q289 172 249 113T165 21T80 -13ZM109 30Q138 30 169 52T230 112T282 194T313 283Q321 318 306 343T251 367Q215 366 177 334T109 249T69 127Q62 80 71 55T109 30ZM280 473Q279 470
274 472T270 476L368 716Q370 719 378 722T398 728T416 731T422 727L280 473Z" />
<glyph unicode="&#xe2;" horiz-adv-x="432" d="M80 -13Q48 -13 32 11T22 91Q30 146 56 200T120 300T200 372T282 399Q300 399 317 393T346 371T360 332L322 357Q333 359 349 373T368 407Q370 410 375 409T380 406L322 89Q312 28 338 28Q350 28 368 41T408 77Q411
80 415 76T416 69Q383 32 357 12T304 -9Q281 -9 276 12T280 89L304 229L320 246Q289 172 249 113T165 21T80 -13ZM109 30Q138 30 169 52T230 112T282 194T313 283Q321 318 306 343T251 367Q215 366 177 334T109 249T69 127Q62 80 71 55T109 30ZM345 726L359 477Q359
475 354 475T348 476L321 642L235 474Q234 471 229 473T225 477L327 726Q329 731 337 731T345 726Z" />
<glyph unicode="&#xe3;" horiz-adv-x="432" d="M80 -13Q48 -13 32 11T22 91Q30 146 56 200T120 300T200 372T282 399Q300 399 317 393T346 371T360 332L322 357Q333 359 349 373T368 407Q370 410 375 409T380 406L322 89Q312 28 338 28Q350 28 368 41T408 77Q411
80 415 76T416 69Q383 32 357 12T304 -9Q281 -9 276 12T280 89L304 229L320 246Q289 172 249 113T165 21T80 -13ZM109 30Q138 30 169 52T230 112T282 194T313 283Q321 318 306 343T251 367Q215 366 177 334T109 249T69 127Q62 80 71 55T109 30ZM169 482Q167 481
164 483T162 489Q170 500 183 513T213 536T246 546Q264 546 283 540T325 528T372 522Q392 522 402 530T421 549Q423 551 426 548T428 542Q401 507 384 496T350 484Q327 484 307 490T265 503T218 509Q198 509 189 501T169 482Z" />
<glyph unicode="&#xe4;" horiz-adv-x="432" d="M80 -13Q48 -13 32 11T22 91Q30 146 56 200T120 300T200 372T282 399Q300 399 317 393T346 371T360 332L322 357Q333 359 349 373T368 407Q370 410 375 409T380 406L322 89Q312 28 338 28Q350 28 368 41T408 77Q411
80 415 76T416 69Q383 32 357 12T304 -9Q281 -9 276 12T280 89L304 229L320 246Q289 172 249 113T165 21T80 -13ZM109 30Q138 30 169 52T230 112T282 194T313 283Q321 318 306 343T251 367Q215 366 177 334T109 249T69 127Q62 80 71 55T109 30ZM371 481Q331 481
331 519Q331 537 341 547T371 557Q390 557 400 547T410 519Q410 481 371 481ZM222 481Q183 481 183 519Q183 537 193 547T222 557Q241 557 251 547T261 519Q261 481 222 481Z" />
<glyph unicode="&#xe5;" horiz-adv-x="432" d="M80 -13Q48 -13 32 11T22 91Q30 146 56 200T120 300T200 372T282 399Q300 399 317 393T346 371T360 332L322 357Q333 359 349 373T368 407Q370 410 375 409T380 406L322 89Q312 28 338 28Q350 28 368 41T408 77Q411
80 415 76T416 69Q383 32 357 12T304 -9Q281 -9 276 12T280 89L304 229L320 246Q289 172 249 113T165 21T80 -13ZM109 30Q138 30 169 52T230 112T282 194T313 283Q321 318 306 343T251 367Q215 366 177 334T109 249T69 127Q62 80 71 55T109 30ZM290 468Q256 468
238 492T219 547Q219 573 232 590T263 616T300 625Q330 625 350 602T371 545Q371 521 359 504T329 477T290 468ZM306 477Q336 477 336 527Q336 562 319 588T280 615Q253 615 253 567Q253 546 259 526T278 491T306 477Z" />
<glyph unicode="&#xe6;" horiz-adv-x="529" d="M80 -13Q48 -13 32 11T22 91Q30 146 54 200T112 300T184 372T258 399Q282 399 302 384T325 332Q315 310 304 290T285 246Q259 172 225 113T153 21T80 -13ZM109 30Q133 30 159 52T209 112T252 194T278 283Q285 318
273 343T228 367Q196 366 163 334T104 249T69 127Q65 96 67 74T79 41T109 30ZM351 -12Q290 -12 267 48T265 211L301 305Q335 352 378 375T461 399Q502 399 514 379T523 337Q520 315 498 294T428 253T295 208L296 220Q330 230 368 244T436 277T470 323Q473 334 471
347T458 370T428 380Q386 380 354 334T311 215Q298 117 316 68T380 18Q406 18 426 26T467 53Q469 55 473 51T475 44Q441 14 412 1T351 -12Z" />
<glyph unicode="&#xe7;" horiz-adv-x="345" d="M156 -13Q114 -13 87 6T46 58T30 128T36 202Q50 266 84 309T162 376T248 399Q272 399 292 392T323 371T332 342Q331 331 325 322T304 313Q293 313 285 320T271 342Q268 353 255 366T215 379Q179 379 154 359T113
305T89 232Q79 177 85 128T118 49T193 18Q230 18 256 33T304 67Q307 69 311 65T312 58Q270 21 232 4T156 -13ZM104 -275Q83 -275 68 -264T56 -230Q58 -222 64 -217T81 -212Q92 -212 98 -218T108 -234T117 -249T132 -256Q162 -256 171 -215Q173 -198 165 -179T137
-138Q124 -122 120 -102T127 -60L157 0H168Q157 -24 154 -41T155 -73T172 -104Q188 -125 198 -145T203 -188Q201 -205 189 -225T155 -260T104 -275Z" />
<glyph unicode="&#xe8;" horiz-adv-x="339" d="M154 -12Q102 -12 72 15T33 88T33 185Q39 222 59 260T110 329T178 380T258 399Q293 399 310 385T322 345Q317 322 295 301T237 262T158 232T67 213L69 226Q147 237 200 261T264 324Q272 352 254 362T215 372Q179
372 152 351T109 295T85 218Q74 161 82 117T117 46T187 20Q212 20 238 27T290 53Q293 55 296 51T297 44Q259 14 224 1T154 -12ZM244 475L207 727Q206 731 213 731T229 729T246 723T253 716V476Q253 474 249 473T244 475Z" />
<glyph unicode="&#xe9;" horiz-adv-x="339" d="M154 -12Q102 -12 72 15T33 88T33 185Q39 222 59 260T110 329T178 380T258 399Q293 399 310 385T322 345Q317 322 295 301T237 262T158 232T67 213L69 226Q147 237 200 261T264 324Q272 352 254 362T215 372Q179
372 152 351T109 295T85 218Q74 161 82 117T117 46T187 20Q212 20 238 27T290 53Q293 55 296 51T297 44Q259 14 224 1T154 -12ZM233 473Q232 470 227 472T223 476L321 716Q323 719 331 722T351 728T369 731T375 727L233 473Z" />
<glyph unicode="&#xea;" horiz-adv-x="339" d="M154 -12Q102 -12 72 15T33 88T33 185Q39 222 59 260T110 329T178 380T258 399Q293 399 310 385T322 345Q317 322 295 301T237 262T158 232T67 213L69 226Q147 237 200 261T264 324Q272 352 254 362T215 372Q179
372 152 351T109 295T85 218Q74 161 82 117T117 46T187 20Q212 20 238 27T290 53Q293 55 296 51T297 44Q259 14 224 1T154 -12ZM285 727L299 478Q299 475 293 475T287 477L261 643L175 474Q174 472 169 473T165 478L266 727Q268 732 276 732T285 727Z" />
<glyph unicode="&#xeb;" horiz-adv-x="339" d="M154 -12Q102 -12 72 15T33 88T33 185Q39 222 59 260T110 329T178 380T258 399Q293 399 310 385T322 345Q317 322 295 301T237 262T158 232T67 213L69 226Q147 237 200 261T264 324Q272 352 254 362T215 372Q179
372 152 351T109 295T85 218Q74 161 82 117T117 46T187 20Q212 20 238 27T290 53Q293 55 296 51T297 44Q259 14 224 1T154 -12ZM324 481Q284 481 284 519Q284 537 294 547T324 557Q343 557 353 547T363 519Q363 481 324 481ZM175 481Q136 481 136 519Q136 537 146
547T175 557Q194 557 204 547T214 519Q214 481 175 481Z" />
<glyph unicode="&#xec;" horiz-adv-x="247" d="M110 -9Q88 -9 81 11T84 89L125 297Q137 358 108 358Q96 358 77 346T36 311Q33 307 29 311T28 319Q62 357 89 376T142 395Q166 395 172 374T167 297L127 89Q121 58 126 43T144 28Q155 28 174 40T215 75Q219 79 223
75T223 67Q190 29 163 10T110 -9ZM158 475L121 727Q120 731 127 731T143 729T160 723T167 716V476Q167 474 163 473T158 475Z" />
<glyph unicode="&#xed;" horiz-adv-x="247" d="M110 -9Q88 -9 81 11T84 89L125 297Q137 358 108 358Q96 358 77 346T36 311Q33 307 29 311T28 319Q62 357 89 376T142 395Q166 395 172 374T167 297L127 89Q121 58 126 43T144 28Q155 28 174 40T215 75Q219 79 223
75T223 67Q190 29 163 10T110 -9ZM147 473Q146 470 141 472T137 476L235 716Q237 719 245 722T265 728T283 731T289 727L147 473Z" />
<glyph unicode="&#xee;" horiz-adv-x="247" d="M110 -9Q88 -9 81 11T84 89L125 297Q137 358 108 358Q96 358 77 346T36 311Q33 307 29 311T28 319Q62 357 89 376T142 395Q166 395 172 374T167 297L127 89Q121 58 126 43T144 28Q155 28 174 40T215 75Q219 79 223
75T223 67Q190 29 163 10T110 -9ZM212 726L226 477Q226 475 221 475T215 476L188 642L102 474Q101 471 96 473T92 477L194 726Q196 731 204 731T212 726Z" />
<glyph unicode="&#xef;" horiz-adv-x="247" d="M110 -9Q88 -9 81 11T84 89L125 297Q137 358 108 358Q96 358 77 346T36 311Q33 307 29 311T28 319Q62 357 89 376T142 395Q166 395 172 374T167 297L127 89Q121 58 126 43T144 28Q155 28 174 40T215 75Q219 79 223
75T223 67Q190 29 163 10T110 -9ZM100 481Q81 481 71 491T60 519Q60 537 70 547T100 557Q119 557 129 547T139 519Q139 481 100 481ZM227 481Q188 481 188 519Q188 557 227 557Q246 557 256 547T266 519Q266 481 227 481Z" />
<glyph unicode="&#xf0;" horiz-adv-x="401" d="M154 -13Q105 -13 75 14T34 87T32 186Q45 259 80 306T160 376T242 399Q276 399 305 382T349 333L323 204Q337 278 331 355T300 502T237 627T149 712Q145 715 152 719T171 725T186 725Q238 693 278 638T344 514T378
368T373 216Q360 140 326 89T247 13T154 -13ZM181 5Q228 5 266 51T323 204Q338 288 319 334T228 381Q182 381 140 338T84 215Q74 159 82 111T116 34T181 5ZM140 496Q137 495 133 503T132 513L406 643Q410 645 414 637T414 626L140 496Z" />
<glyph unicode="&#xf1;" horiz-adv-x="463" d="M336 -9Q312 -9 307 12T311 89L340 248Q364 365 301 365Q268 365 232 323T163 201T109 6L98 7Q119 123 154 211T234 349T329 399Q372 399 386 369T386 267L353 89Q348 58 353 43T371 28Q382 28 400 41T440 77Q443
81 447 77T448 69Q415 32 389 12T336 -9ZM83 -8Q70 -8 66 -7T62 -2Q62 1 67 24T77 74L118 297Q128 358 101 358Q89 358 70 346T29 311Q26 307 22 311T21 319Q54 357 82 376T136 395Q159 395 164 374T160 297L109 6Q107 -8 83 -8ZM156 482Q154 481 151 483T149 489Q157
500 170 513T200 536T233 546Q251 546 270 540T312 528T359 522Q379 522 389 530T408 549Q410 551 413 548T415 542Q388 507 371 496T337 484Q314 484 294 490T252 503T205 509Q185 509 176 501T156 482Z" />
<glyph unicode="&#xf2;" horiz-adv-x="396" d="M153 -14Q107 -14 77 13T35 88T34 193Q45 251 75 297T149 371T242 399Q293 399 324 371T365 295T364 193Q352 131 319 84T242 12T153 -14ZM188 11Q232 11 269 47T318 149Q325 184 323 223T308 296T272 353T213 375Q168
375 131 337T80 236Q72 199 75 160T91 87T129 32T188 11ZM241 475L204 727Q203 731 210 731T226 729T243 723T250 716V476Q250 474 246 473T241 475Z" />
<glyph unicode="&#xf3;" horiz-adv-x="396" d="M153 -14Q107 -14 77 13T35 88T34 193Q45 251 75 297T149 371T242 399Q293 399 324 371T365 295T364 193Q352 131 319 84T242 12T153 -14ZM188 11Q232 11 269 47T318 149Q325 184 323 223T308 296T272 353T213 375Q168
375 131 337T80 236Q72 199 75 160T91 87T129 32T188 11ZM230 473Q229 470 224 472T220 476L318 716Q320 719 328 722T348 728T366 731T372 727L230 473Z" />
<glyph unicode="&#xf4;" horiz-adv-x="396" d="M153 -14Q107 -14 77 13T35 88T34 193Q45 251 75 297T149 371T242 399Q293 399 324 371T365 295T364 193Q352 131 319 84T242 12T153 -14ZM188 11Q232 11 269 47T318 149Q325 184 323 223T308 296T272 353T213 375Q168
375 131 337T80 236Q72 199 75 160T91 87T129 32T188 11ZM282 727L296 478Q296 475 290 475T284 477L258 643L172 474Q171 472 166 473T162 478L263 727Q265 732 273 732T282 727Z" />
<glyph unicode="&#xf5;" horiz-adv-x="396" d="M153 -14Q107 -14 77 13T35 88T34 193Q45 251 75 297T149 371T242 399Q293 399 324 371T365 295T364 193Q352 131 319 84T242 12T153 -14ZM188 11Q232 11 269 47T318 149Q325 184 323 223T308 296T272 353T213 375Q168
375 131 337T80 236Q72 199 75 160T91 87T129 32T188 11ZM119 482Q117 481 114 483T112 489Q120 500 133 513T163 536T196 546Q214 546 233 540T275 528T322 522Q342 522 352 530T371 549Q373 551 376 548T378 542Q351 507 334 496T300 484Q277 484 257 490T215
503T168 509Q148 509 139 501T119 482Z" />
<glyph unicode="&#xf6;" horiz-adv-x="396" d="M153 -14Q107 -14 77 13T35 88T34 193Q45 251 75 297T149 371T242 399Q293 399 324 371T365 295T364 193Q352 131 319 84T242 12T153 -14ZM188 11Q232 11 269 47T318 149Q325 184 323 223T308 296T272 353T213 375Q168
375 131 337T80 236Q72 199 75 160T91 87T129 32T188 11ZM321 481Q281 481 281 519Q281 537 291 547T321 557Q340 557 350 547T360 519Q360 481 321 481ZM172 481Q133 481 133 519Q133 537 143 547T172 557Q191 557 201 547T211 519Q211 481 172 481Z" />
<glyph unicode="&#xf7;" horiz-adv-x="384" d="M34 171Q31 171 30 180T30 199T33 208H364Q367 208 368 199T368 181T364 171H34ZM198 -11Q179 -11 169 -1T158 28Q158 45 168 55T198 65Q216 65 226 55T236 28Q236 -11 198 -11ZM196 320Q178 320 168 330T157 359Q157
376 167 386T196 396Q215 396 225 386T235 359Q235 320 196 320Z" />
<glyph unicode="&#xf8;" horiz-adv-x="408" d="M13 -14Q10 -17 3 -11T0 0L386 398Q388 400 396 395T400 386L13 -14ZM153 -14Q107 -14 77 13T35 88T34 193Q45 251 75 297T149 371T242 399Q293 399 324 371T365 295T364 193Q352 131 319 84T242 12T153 -14ZM188
11Q232 11 269 47T318 149Q325 184 323 223T308 296T272 353T213 375Q168 375 131 337T80 236Q72 199 75 160T91 87T129 32T188 11Z" />
<glyph unicode="&#xf9;" horiz-adv-x="462" d="M133 -13Q90 -13 76 18T76 119L112 297Q118 328 113 343T95 358Q84 358 66 345T26 309Q22 305 18 309T18 317Q51 355 78 375T130 395Q153 395 159 374T154 297L122 138Q109 78 119 50T161 21Q194 21 230 63T299 185T353
380L364 379Q344 263 309 175T228 37T133 -13ZM326 -9Q303 -9 298 12T302 89L353 380Q355 394 379 394Q392 394 396 393T400 388Q400 385 395 362T385 312L344 89Q334 28 361 28Q373 28 392 40T433 75Q436 79 440 75T441 67Q407 29 380 10T326 -9ZM266 475L229
727Q228 731 235 731T251 729T268 723T275 716V476Q275 474 271 473T266 475Z" />
<glyph unicode="&#xfa;" horiz-adv-x="462" d="M133 -13Q90 -13 76 18T76 119L112 297Q118 328 113 343T95 358Q84 358 66 345T26 309Q22 305 18 309T18 317Q51 355 78 375T130 395Q153 395 159 374T154 297L122 138Q109 78 119 50T161 21Q194 21 230 63T299 185T353
380L364 379Q344 263 309 175T228 37T133 -13ZM326 -9Q303 -9 298 12T302 89L353 380Q355 394 379 394Q392 394 396 393T400 388Q400 385 395 362T385 312L344 89Q334 28 361 28Q373 28 392 40T433 75Q436 79 440 75T441 67Q407 29 380 10T326 -9ZM255 473Q254
470 249 472T245 476L343 716Q345 719 353 722T373 728T391 731T397 727L255 473Z" />
<glyph unicode="&#xfb;" horiz-adv-x="462" d="M133 -13Q90 -13 76 18T76 119L112 297Q118 328 113 343T95 358Q84 358 66 345T26 309Q22 305 18 309T18 317Q51 355 78 375T130 395Q153 395 159 374T154 297L122 138Q109 78 119 50T161 21Q194 21 230 63T299 185T353
380L364 379Q344 263 309 175T228 37T133 -13ZM326 -9Q303 -9 298 12T302 89L353 380Q355 394 379 394Q392 394 396 393T400 388Q400 385 395 362T385 312L344 89Q334 28 361 28Q373 28 392 40T433 75Q436 79 440 75T441 67Q407 29 380 10T326 -9ZM307 727L321
478Q321 475 315 475T309 477L283 643L197 474Q196 472 191 473T187 478L288 727Q290 732 298 732T307 727Z" />
<glyph unicode="&#xfc;" horiz-adv-x="462" d="M133 -13Q90 -13 76 18T76 119L112 297Q118 328 113 343T95 358Q84 358 66 345T26 309Q22 305 18 309T18 317Q51 355 78 375T130 395Q153 395 159 374T154 297L122 138Q109 78 119 50T161 21Q194 21 230 63T299 185T353
380L364 379Q344 263 309 175T228 37T133 -13ZM326 -9Q303 -9 298 12T302 89L353 380Q355 394 379 394Q392 394 396 393T400 388Q400 385 395 362T385 312L344 89Q334 28 361 28Q373 28 392 40T433 75Q436 79 440 75T441 67Q407 29 380 10T326 -9ZM346 481Q306
481 306 519Q306 537 316 547T346 557Q365 557 375 547T385 519Q385 481 346 481ZM197 481Q158 481 158 519Q158 537 168 547T197 557Q216 557 226 547T236 519Q236 481 197 481Z" />
<glyph unicode="&#xfd;" horiz-adv-x="440" d="M-19 -281Q-35 -281 -45 -272T-54 -244Q-48 -222 -19 -222Q2 -222 23 -219T65 -207T101 -188Q123 -173 152 -137T213 -53T274 45T324 141T352 216Q358 243 357 267T351 312T342 346T338 368Q338 380 346 388T368
396Q388 396 395 382T402 345Q402 308 387 257T344 147T281 27T207 -88T127 -187T49 -255T-19 -281ZM187 -108Q193 112 162 233T71 354Q58 354 44 346T19 316Q17 312 12 313T7 319Q26 357 46 376T94 395Q130 395 157 361T202 266T227 128T229 -40L187 -108ZM236
473Q235 470 230 472T226 476L324 716Q326 719 334 722T354 728T372 731T378 727L236 473Z" />
<glyph unicode="&#xfe;" horiz-adv-x="408" d="M-55 -275Q-59 -276 -60 -270T-57 -263Q-34 -259 -23 -253T-6 -232T6 -185L154 627Q161 659 146 668T83 654Q79 652 77 658T78 665L201 725Q205 727 209 723T212 717L51 -178Q44 -219 56 -232T111 -239Q115 -237
116 -243T113 -250L-55 -275ZM145 -1Q105 -1 88 2T57 8L67 58Q86 45 110 36T171 27Q218 27 249 50T300 116T330 220Q336 256 332 288T309 340T256 360Q210 360 160 332T48 255Q45 254 42 258T41 263Q100 316 165 354T296 393Q348 393 372 352T386 251Q374 190 347
143T284 64T212 16T145 -1Z" />
<glyph unicode="&#xff;" horiz-adv-x="440" d="M-19 -281Q-35 -281 -45 -272T-54 -244Q-48 -222 -19 -222Q2 -222 23 -219T65 -207T101 -188Q123 -173 152 -137T213 -53T274 45T324 141T352 216Q358 243 357 267T351 312T342 346T338 368Q338 380 346 388T368
396Q388 396 395 382T402 345Q402 308 387 257T344 147T281 27T207 -88T127 -187T49 -255T-19 -281ZM187 -108Q193 112 162 233T71 354Q58 354 44 346T19 316Q17 312 12 313T7 319Q26 357 46 376T94 395Q130 395 157 361T202 266T227 128T229 -40L187 -108ZM327
481Q287 481 287 519Q287 537 297 547T327 557Q346 557 356 547T366 519Q366 481 327 481ZM178 481Q139 481 139 519Q139 537 149 547T178 557Q197 557 207 547T217 519Q217 481 178 481Z" />
<glyph unicode="&#x2013;" horiz-adv-x="515" d="M34 171Q31 171 30 180T30 199T33 208H481Q484 208 485 199T485 181T481 171H34Z" />
<glyph unicode="&#x2014;" horiz-adv-x="830" d="M34 171Q31 171 30 180T30 199T33 208H796Q799 208 800 199T800 181T796 171H34Z" />
<glyph unicode="&#x2018;" horiz-adv-x="183" d="M204 633Q208 636 211 631T211 624Q176 592 156 559T131 488Q127 463 131 451T143 434L116 427Q115 444 125 453T150 462Q167 462 176 453T186 427Q186 410 175 401T142 391Q116 391 101 412T93 475Q101 523 130
560T204 633Z" />
<glyph unicode="&#x2019;" horiz-adv-x="183" d="M92 392Q88 389 85 394T85 401Q120 433 140 466T165 537Q169 562 165 574T153 591L180 598Q181 581 171 572T146 563Q129 563 120 572T110 598Q110 615 121 624T154 634Q180 634 195 613T203 550Q196 502 166 465T92 392Z" />
<glyph unicode="&#x201a;" horiz-adv-x="183" d="M-9 -179Q-13 -182 -16 -177T-16 -170Q19 -138 39 -105T64 -34Q68 -9 64 3T52 20L79 27Q80 10 70 1T45 -8Q28 -8 19 1T9 27Q9 44 20 53T53 63Q79 63 94 42T102 -21Q95 -69 65 -106T-9 -179Z" />
<glyph unicode="&#x201c;" horiz-adv-x="323" d="M204 633Q208 636 211 631T211 624Q176 592 156 559T131 488Q127 463 131 451T143 434L116 427Q115 444 125 453T150 462Q167 462 176 453T186 427Q186 410 175 401T142 391Q116 391 101 412T93 475Q101 523 130
560T204 633ZM344 633Q348 636 351 631T351 624Q316 592 296 559T271 488Q267 463 271 451T283 434L256 427Q255 444 265 453T290 462Q307 462 316 453T326 427Q326 410 315 401T282 391Q256 391 241 412T233 475Q241 523 270 560T344 633Z" />
<glyph unicode="&#x201d;" horiz-adv-x="323" d="M232 392Q228 389 225 394T225 401Q260 433 280 466T305 537Q309 562 305 574T293 591L320 598Q321 581 311 572T286 563Q269 563 260 572T250 598Q250 615 261 624T294 634Q320 634 335 613T343 550Q336 502 306
465T232 392ZM92 392Q88 389 85 394T85 401Q120 433 140 466T165 537Q169 562 165 574T153 591L180 598Q181 581 171 572T146 563Q129 563 120 572T110 598Q110 615 121 624T154 634Q180 634 195 613T203 550Q196 502 166 465T92 392Z" />
<glyph unicode="&#x201e;" horiz-adv-x="323" d="M131 -179Q127 -182 124 -177T124 -170Q159 -138 179 -105T204 -34Q208 -9 204 3T192 20L219 27Q220 10 210 1T185 -8Q168 -8 159 1T149 27Q149 44 160 53T193 63Q219 63 234 42T242 -21Q235 -69 205 -106T131
-179ZM-9 -179Q-13 -182 -16 -177T-16 -170Q19 -138 39 -105T64 -34Q68 -9 64 3T52 20L79 27Q80 10 70 1T45 -8Q28 -8 19 1T9 27Q9 44 20 53T53 63Q79 63 94 42T102 -21Q95 -69 65 -106T-9 -179Z" />
<glyph unicode="&#x2022;" horiz-adv-x="298" d="M159 156Q134 156 113 168T80 201T67 248Q67 273 79 293T113 326T159 339Q184 339 204 327T237 294T250 248Q250 222 238 201T205 168T159 156Z" />
<glyph unicode="&#x2039;" horiz-adv-x="275" d="M240 364Q242 366 246 362T248 356L103 201L194 47Q196 44 192 41T186 40L55 189Q51 194 51 200T58 212L240 364Z" />
<glyph unicode="&#x203a;" horiz-adv-x="274" d="M37 37Q35 36 31 39T29 46L174 200L83 354Q82 357 86 360T91 361L222 212Q226 208 226 201T219 189L37 37Z" />
</font>
</defs>
</svg>
