<?xml version="1.0" standalone="no"?>
<!DOCTYPE svg PUBLIC "-//W3C//DTD SVG 1.1//EN" "http://www.w3.org/Graphics/SVG/1.1/DTD/svg11.dtd">
<svg xmlns="http://www.w3.org/2000/svg">
<defs >
<font id="CormorantGaramond" horiz-adv-x="485" ><font-face
    font-family="Cormorant Garamond Light Light"
    units-per-em="1000"
    panose-1="0 0 0 0 0 0 0 0 0 0"
    ascent="924"
    descent="-287"
    alphabetic="0" />
<glyph unicode=" " horiz-adv-x="234" />
<glyph unicode="!" horiz-adv-x="243" d="M82 621Q82 623 88 625T103 628T122 629Q132 629 141 628T156 625T161 621Q150 555 143 480T132 331T125 189Q125 188 123 188T118 187T115 189Q113 256 110 330T100 480T82 621ZM118 -11Q100 -11 89 -1T78 28Q78 45 89
55T118 65Q137 65 147 55T157 28Q157 10 147 0T118 -11Z" />
<glyph unicode="&quot;" horiz-adv-x="278" d="M55 365L47 609Q47 617 57 623T81 634T105 640T115 637L65 366Q64 364 60 363T55 365ZM195 365L187 609Q187 617 197 623T221 634T245 640T255 637L205 366Q204 364 200 363T195 365Z" />
<glyph unicode="#" horiz-adv-x="526" d="M138 -78Q138 -81 130 -81T113 -79T105 -75L204 482Q204 485 212 485T228 482T236 476L138 -78ZM325 -78Q325 -81 317 -81T300 -79T292 -75L391 482Q391 485 399 485T416 482T423 476L325 -78ZM63 77Q60 77 59 86T59 105T62
115H428Q431 115 432 106T432 87T428 77H63ZM98 276Q95 276 94 285T94 304T97 313H463Q466 313 467 304T467 286T463 276H98Z" />
<glyph unicode="$" horiz-adv-x="408" d="M202 -102V561Q202 566 207 567T217 568T222 561V-102Q222 -106 217 -107T207 -108T202 -102ZM119 384Q119 351 136 329T180 290T237 257Q267 242 295 224T342 182T360 120Q360 84 341 54T285 6T195 -12Q167 -12 139 -5T83
22Q78 25 77 29T74 41L62 136Q61 141 67 141T74 138Q81 100 102 69T153 20T218 2Q239 2 260 10T296 37T311 90Q311 125 294 149T249 191T193 225Q163 241 136 258T91 300T74 360Q74 400 94 426T148 466T219 480Q238 480 261 476T312 457Q321 453 323 451T327 441L336
356Q336 352 331 351T324 354Q321 374 310 394T283 430T246 457T201 467Q162 467 141 444T119 384Z" />
<glyph unicode="%" horiz-adv-x="574" d="M150 303Q98 303 64 340T29 433Q29 468 44 497T87 543T150 560Q203 560 235 522T268 430Q268 377 235 340T150 303ZM157 313Q195 313 205 344T215 423Q215 550 144 550Q105 550 94 517T82 436Q82 384 98 349T157 313ZM427
-5Q392 -5 365 12T322 59T306 125Q306 160 321 189T364 235T427 253Q462 253 488 236T530 189T545 123Q545 69 512 32T427 -5ZM434 6Q472 6 482 37T492 116Q492 242 421 242Q383 242 371 209T359 129Q359 77 375 42T434 6ZM105 -5Q104 -6 98 -4T87 1T83 6L454 550Q456
552 461 550T472 544T476 538L105 -5Z" />
<glyph unicode="&amp;" horiz-adv-x="692" d="M64 139Q64 186 86 222T143 287T217 343T291 398T348 458T370 532Q370 578 346 602T280 627Q240 627 217 603T194 525Q194 473 215 421T275 317T363 217T469 126Q531 80 589 50T690 12Q695 11 694 6T690 0Q670 0 645
0T596 0Q583 0 561 8T506 36T426 96Q375 137 327 185T239 284T174 385Q161 416 154 443T146 494Q146 535 166 569T222 625T305 646Q328 646 354 639T399 610T418 547Q418 504 397 472T341 414T268 363T196 311T140 249T118 168Q118 125 139 90T198 34T281 13Q330
13 372 35T445 95T493 179T510 275Q510 301 499 319T441 337Q438 337 438 343T441 349L643 350Q647 350 647 344T643 338Q607 338 590 332T565 313T553 283Q543 248 527 208T487 129T429 58T349 7T244 -12Q182 -12 142 9T83 66T64 139Z" />
<glyph unicode="&apos;" horiz-adv-x="138" d="M55 365L47 609Q47 617 57 623T81 634T105 640T115 637L65 366Q64 364 60 363T55 365Z" />
<glyph unicode="(" horiz-adv-x="309" d="M70 304Q70 398 94 480T163 625T274 725Q276 726 278 724T278 719Q199 647 164 543T129 304Q129 169 164 65T278 -111Q280 -112 278 -115T274 -117Q209 -80 164 -17T94 128T70 304Z" />
<glyph unicode=")" horiz-adv-x="309" d="M239 304Q239 211 215 129T146 -17T35 -117Q34 -118 32 -116T31 -111Q110 -39 145 65T180 304Q180 439 145 543T31 719Q29 721 31 723T35 725Q100 689 145 626T215 480T239 304Z" />
<glyph unicode="*" horiz-adv-x="448" d="M131 387Q127 381 114 382T87 387T65 397T60 404L206 491Q208 493 212 490T214 485L131 387ZM271 315L233 481Q232 483 236 486T241 488L310 378Q314 372 309 360T296 336T280 318T271 315ZM204 511L84 559Q77 562 74
574T71 602T73 626T78 633L207 520Q210 519 208 515T204 511ZM421 488L251 503Q249 503 248 507T248 513L374 544Q381 546 391 538T409 518T422 497T421 488ZM226 529L235 657Q235 665 246 671T271 682T295 688T303 685L236 529Q235 526 231 526T226 529Z" />
<glyph unicode="+" horiz-adv-x="398" d="M34 171Q31 171 30 180T30 199T33 208H364Q367 208 368 199T368 181T364 171H34ZM218 25Q218 22 209 21T190 20T180 23V354Q180 357 189 358T208 358T218 354V25Z" />
<glyph unicode="," horiz-adv-x="222" d="M102 62Q131 62 147 41T164 -23Q164 -67 146 -105T95 -179Q91 -182 88 -179T87 -172Q110 -139 116 -112T122 -54Q122 -25 113 -8T93 20L131 27Q132 10 122 1T97 -8Q80 -8 71 1T61 27Q61 44 71 53T102 62Z" />
<glyph unicode="-" horiz-adv-x="323" d="M32 168Q29 168 28 177T27 197T30 207L291 254Q294 255 295 245T295 226T291 215L32 168Z" />
<glyph unicode="." horiz-adv-x="195" d="M98 -11Q80 -11 69 -1T58 28Q58 45 69 55T98 65Q117 65 127 55T137 28Q137 10 127 0T98 -11Z" />
<glyph unicode="/" horiz-adv-x="339" d="M62 -163Q61 -165 52 -164T35 -158T26 -152L278 730Q280 733 289 731T306 725T313 718L62 -163Z" />
<glyph unicode="0" horiz-adv-x="477" d="M240 -13Q181 -13 135 14T63 88T37 196Q37 256 63 301T135 373T241 399Q300 399 344 373T414 300T440 193Q440 133 415 87T344 14T240 -13ZM251 -1Q317 -1 348 50T380 181Q380 252 359 297T304 365T230 387Q166 387 131
335T96 204Q96 146 115 100T169 26T251 -1Z" />
<glyph unicode="1" horiz-adv-x="332" d="M143 305Q143 334 137 349T112 369T54 374Q51 374 51 380T54 386Q77 386 105 385T166 384Q198 384 227 385T278 386Q281 386 281 380T278 374Q242 374 223 369T196 349T189 305V81Q189 52 195 37T220 17T278 12Q281 12
281 6T278 0Q256 0 227 1T166 2Q135 2 106 1T54 0Q51 0 51 6T54 12Q91 12 110 17T136 37T143 81V305Z" />
<glyph unicode="2" horiz-adv-x="402" d="M37 12Q102 62 146 101T218 172T257 232T270 288Q270 331 244 355T178 379Q138 379 109 349T62 258Q61 256 55 257T50 261L88 408Q89 411 95 410T99 406Q95 390 100 385T113 380Q128 380 153 389T214 399Q265 399 294
371T323 299Q323 274 312 249T275 194T209 130T108 48Q104 45 106 43T112 41Q190 41 237 42T308 50T343 70T360 110Q361 112 366 112T372 109L358 11Q358 7 356 4T349 0Q278 0 199 0T44 0Q40 0 37 4T37 12Z" />
<glyph unicode="3" horiz-adv-x="388" d="M60 -275Q56 -276 54 -271T55 -264Q123 -244 167 -215T236 -152T272 -83T283 -19Q283 12 273 41T238 90T170 109Q158 109 146 108T119 103Q116 102 114 108T116 115Q199 136 230 172T261 268Q261 317 239 348T167 379Q124
379 94 351T46 258Q45 256 39 257T34 261L71 407Q73 410 78 409T83 405Q79 388 85 383T98 377Q113 377 138 388T200 399Q257 399 286 364T316 285Q316 248 299 214T251 154T175 119L193 131Q245 131 278 111T328 59T345 -8Q345 -55 315 -107T222 -203T60 -275Z"
/>
<glyph unicode="4" horiz-adv-x="450" d="M28 8Q24 8 21 12T21 20L308 396Q310 399 316 398T323 392V-158Q323 -169 315 -172L283 -188Q274 -193 274 -182V325L294 338L69 44Q66 41 68 39T74 37Q132 37 176 37T258 39T332 41T412 43Q415 43 416 33T416 12T412
1Q372 3 334 4T252 6T155 7T28 8Z" />
<glyph unicode="5" horiz-adv-x="409" d="M78 196Q176 196 235 172T322 106T349 9Q349 -48 320 -94T230 -184T68 -275Q64 -276 61 -271T62 -264Q152 -221 202 -179T272 -94T292 -8Q292 74 235 120T68 167Q56 167 58 179L90 357Q91 364 93 365T103 368Q189 378
237 384T307 395T335 406T345 423Q346 426 351 426T356 421L336 357Q332 344 326 342T308 339L119 335Q106 335 104 320L78 172V196Z" />
<glyph unicode="6" horiz-adv-x="465" d="M296 282Q345 282 373 264T415 218T428 159Q428 112 401 73T330 10T230 -13Q147 -13 98 44T49 208Q49 301 90 390T211 551T400 661Q404 662 406 657T405 650Q305 606 238 536T138 384T104 226Q104 165 122 115T174 35T258
5Q309 5 341 39T373 133Q373 185 348 221T267 257Q239 257 215 245T160 206Q158 203 153 206T150 213Q177 247 214 264T296 282Z" />
<glyph unicode="7" horiz-adv-x="429" d="M159 -220Q155 -230 150 -234T138 -244L96 -275Q95 -276 92 -273T89 -268L357 338Q360 345 352 345Q267 345 212 344T124 339T75 328T51 308T37 277Q36 274 31 275T26 280L58 413Q60 415 65 415T70 412Q66 395 75 391T117
386Q132 386 163 386T233 386T311 386T382 386Q387 386 390 382T391 373L159 -220Z" />
<glyph unicode="8" horiz-adv-x="489" d="M273 339Q306 365 322 392T339 453Q339 501 310 530T236 559Q201 559 176 540T151 483Q151 451 170 427T220 385T285 347Q326 326 364 302T426 245T451 161Q451 111 423 72T347 10T242 -13Q183 -13 140 10T73 70T49 149Q49
199 75 241T142 315T223 360L229 352Q170 327 138 281T105 175Q105 131 126 92T184 29T270 4Q307 4 337 19T384 62T402 132Q402 184 378 218T315 276T237 320Q203 339 173 357T123 399T104 456Q104 496 129 522T190 561T260 574Q300 574 329 558T373 518T389 469Q389
434 360 399T278 333L273 339Z" />
<glyph unicode="9" horiz-adv-x="465" d="M180 110Q128 110 97 131T51 183T37 244Q37 290 61 324T127 379T218 399Q279 399 323 370T391 287T416 164Q416 97 393 30T324 -97T214 -203T65 -275Q62 -276 60 -271T61 -264Q136 -234 192 -188T286 -85T342 30T361 144Q361
180 353 221T325 298T276 358T201 381Q152 381 122 350T92 262Q92 211 121 173T208 135Q237 135 258 144T305 174Q308 177 313 174T316 167Q265 110 180 110Z" />
<glyph unicode=":" horiz-adv-x="195" d="M98 -11Q80 -11 69 -1T58 28Q58 45 69 55T98 65Q117 65 127 55T137 28Q137 10 127 0T98 -11ZM98 270Q80 270 69 280T58 309Q58 326 69 336T98 346Q117 346 127 336T137 309Q137 291 127 281T98 270Z" />
<glyph unicode=";" horiz-adv-x="222" d="M102 62Q131 62 147 41T164 -23Q164 -67 146 -105T95 -179Q91 -182 88 -179T87 -172Q110 -139 116 -112T122 -54Q122 -25 113 -8T93 20L131 27Q132 10 122 1T97 -8Q80 -8 71 1T61 27Q61 44 71 53T102 62ZM100 270Q82 270
71 280T60 309Q60 326 71 336T100 346Q119 346 129 336T139 309Q139 291 129 281T100 270Z" />
<glyph unicode="&lt;" horiz-adv-x="407" d="M36 173Q31 176 31 190T36 207L370 354Q375 357 376 348T377 329T370 316L58 183V198L370 64Q375 62 376 52T377 32T370 25L36 173Z" />
<glyph unicode="=" horiz-adv-x="468" d="M34 101Q31 101 30 110T30 128T33 138H434Q437 138 438 129T438 110T434 101H34ZM34 241Q31 241 30 250T30 269T33 278H434Q437 278 438 269T438 251T434 241H34Z" />
<glyph unicode="&gt;" horiz-adv-x="407" d="M371 206Q376 203 376 189T371 172L37 25Q33 23 32 31T31 50T37 63L349 196V181L37 315Q33 317 32 327T31 347T37 354L371 206Z" />
<glyph unicode="?" horiz-adv-x="327" d="M157 613Q128 613 120 598T110 565Q108 555 105 547T95 533T76 527Q62 527 54 537T46 558Q46 585 80 605T161 625Q197 625 227 612T274 573T292 505Q292 473 282 450T255 408T221 372Q186 337 172 310T157 248Q157 236
158 223T163 193Q164 190 159 189T152 191Q140 219 133 254T126 310Q126 339 137 358T164 393T197 425T224 463T235 517Q235 561 213 587T157 613ZM146 -11Q128 -11 117 -1T106 28Q106 45 117 55T146 65Q165 65 175 55T185 28Q185 10 175 0T146 -11Z" />
<glyph unicode="@" horiz-adv-x="717" d="M416 136L434 228L448 241Q425 186 394 142T330 73T267 48Q243 48 228 66T218 125Q224 166 244 206T294 280T356 334T418 354Q438 354 456 343T476 305L447 324Q455 326 465 336T478 361Q480 363 488 363T496 360L455
136Q450 107 453 88T488 68Q516 68 543 87T590 145T609 236Q609 300 577 352T489 436T364 468Q286 468 231 430T145 331T115 198Q115 119 150 60T247 -32T391 -65Q438 -65 474 -56T557 -20Q559 -18 562 -22T563 -28Q508 -71 454 -83T360 -95Q281 -95 217 -63T114
29T76 173Q76 243 102 301T174 401T277 467T396 491Q470 491 525 460T610 378T641 264Q641 208 617 159T554 80T467 50Q433 50 422 74T416 136ZM288 81Q310 81 333 97T379 141T417 202T441 269Q446 295 435 313T394 331Q369 331 341 307T291 242T261 153Q256 117
261 99T288 81Z" />
<glyph unicode="A" horiz-adv-x="698" d="M200 287L209 305H468L475 287H200ZM694 12Q698 12 698 6T694 0Q666 0 637 2T580 4Q549 4 527 2T477 0Q473 0 473 6T477 12Q533 12 547 27T543 84L317 570L336 587L143 123Q118 62 139 37T228 12Q233 12 233 6T228 0Q198
0 173 2T110 4Q75 4 54 2T2 0Q-2 0 -2 6T2 12Q29 12 49 22T86 58T124 132L333 635Q335 638 339 638T345 635L577 137Q600 87 618 60T654 22T694 12Z" />
<glyph unicode="B" horiz-adv-x="549" d="M298 344L309 353Q366 353 409 331T475 271T499 185Q499 131 474 88T406 21T308 -4Q275 -4 235 -1T160 2Q128 2 98 1T44 0Q42 0 42 6T44 12Q82 12 101 17T128 37T135 81V544Q135 573 129 587T103 607T46 613Q43 613 43
619T46 625Q69 625 98 624T160 622Q186 622 220 625T277 628Q336 628 371 610T423 561T439 495Q439 438 399 399T298 344ZM254 615Q230 615 215 612T194 593T187 542V346L157 354Q189 352 210 352T234 351Q317 351 351 390T385 488Q385 522 373 551T332 597T254
615ZM294 12Q370 12 405 51T441 160Q441 235 395 283T269 332Q241 333 214 332T160 327L187 338V81Q187 56 195 41T226 19T294 12Z" />
<glyph unicode="C" horiz-adv-x="687" d="M407 636Q452 636 484 632T545 619T604 593Q610 589 611 587T614 571L626 457Q626 455 621 454T614 456Q592 539 542 580T407 622Q318 622 252 585T150 480T113 320Q113 255 136 197T201 95T296 26T409 1Q495 1 547 42T621
164Q622 167 627 166T633 163L625 57Q624 45 622 42T614 35Q561 7 516 -3T408 -13Q303 -13 222 28T95 145T49 319Q49 391 75 449T150 549T264 613T407 636Z" />
<glyph unicode="D" horiz-adv-x="688" d="M297 -4Q269 -4 228 -1T152 2Q120 2 90 1T36 0Q34 0 34 6T36 12Q74 12 93 17T119 37T126 81V544Q126 573 120 587T94 607T37 613Q35 613 35 619T37 625Q61 625 90 624T152 622Q184 622 220 624T283 627Q390 627 470 587T594
478T639 323Q639 248 612 188T538 85T428 19T297 -4ZM287 9Q371 9 435 42T537 141T574 301Q574 389 540 459T442 572T292 614Q231 614 205 602T179 542V92Q179 49 199 29T287 9Z" />
<glyph unicode="E" horiz-adv-x="533" d="M457 0H44Q42 0 42 6T44 12Q82 12 101 17T126 37T133 81V544Q133 573 127 587T101 607T44 613Q42 613 42 619T44 625H440Q449 625 449 616L451 495Q451 492 446 492T440 495Q440 547 413 576T342 606H273Q236 606 218
601T193 582T186 538V85Q186 57 192 43T217 24T273 19H365Q405 19 434 54T470 146Q470 149 476 149T482 145Q478 119 476 83T473 15Q473 0 457 0ZM401 235Q401 280 382 298T315 316H161V335H318Q364 335 382 350T400 404Q400 406 406 406T412 404Q412 375 412 359T411
325Q411 303 412 282T413 235Q413 233 407 233T401 235Z" />
<glyph unicode="F" horiz-adv-x="506" d="M44 0Q42 0 42 6T44 12Q82 12 101 17T126 37T133 81V544Q133 573 127 587T101 607T44 613Q42 613 42 619T44 625H440Q449 625 449 616L451 495Q451 492 446 492T440 495Q440 547 413 576T342 606H273Q219 606 203 594T186
543V85Q186 55 194 40T230 18T311 12Q314 12 314 6T311 0Q279 0 242 1T160 2Q128 2 98 1T44 0ZM389 223Q389 268 368 286T291 304H161V323H295Q347 323 367 339T388 392Q388 394 394 394T400 392Q400 363 400 347T399 313Q399 291 400 270T401 223Q401 221 395
221T389 223Z" />
<glyph unicode="G" horiz-adv-x="709" d="M405 -12Q321 -12 255 14T143 86T73 191T49 318Q49 393 77 451T156 551T274 614T420 636Q476 636 522 625T599 594Q606 590 607 587T609 572L621 460Q621 457 616 456T609 458Q598 499 582 529T541 580T483 610T406 621Q324
621 258 586T154 486T115 331Q115 273 133 215T190 108T289 31T432 2Q482 2 511 15T554 55T567 125Q567 173 561 195T530 225T450 232Q444 232 444 240T449 248Q511 244 562 244T669 246Q674 246 674 239T669 232Q644 233 633 226T618 193T615 115Q615 82 617 66T620
43T622 27Q622 21 620 19T611 15Q561 4 507 -4T405 -12Z" />
<glyph unicode="H" horiz-adv-x="758" d="M578 542Q578 571 572 586T547 607T489 613Q486 613 486 619T489 625Q512 625 541 624T605 622Q637 622 667 623T720 625Q723 625 723 619T720 613Q682 613 663 608T637 588T630 544V81Q630 52 636 37T662 17T720 12Q723
12 723 6T720 0Q697 0 667 1T605 2Q571 2 542 1T489 0Q486 0 486 6T489 12Q528 12 547 17T572 37T578 81V542ZM150 316V335H600V316H150ZM126 81V544Q126 573 120 587T94 607T37 613Q35 613 35 619T37 625Q61 625 90 624T152 622Q187 622 216 623T268 625Q270 625
270 619T268 613Q230 613 211 607T186 586T179 542V81Q179 52 185 37T210 17T268 12Q270 12 270 6T268 0Q244 0 216 1T152 2Q120 2 90 1T36 0Q34 0 34 6T36 12Q74 12 93 17T119 37T126 81Z" />
<glyph unicode="I" horiz-adv-x="330" d="M192 81Q192 52 198 37T223 17T281 12Q283 12 283 6T281 0Q257 0 228 1T164 2Q131 2 102 1T48 0Q45 0 45 6T48 12Q86 12 105 17T131 37T138 81V544Q138 573 132 587T106 607T48 613Q45 613 45 619T48 625Q72 625 101 624T164
622Q199 622 228 623T281 625Q283 625 283 619T281 613Q243 613 224 607T199 586T192 542V81Z" />
<glyph unicode="J" horiz-adv-x="318" d="M275 625Q277 625 277 619T275 613Q242 613 226 607T204 586T198 542V-34Q198 -126 156 -185T27 -244Q-7 -244 -25 -233T-43 -206Q-43 -192 -35 -185T-14 -177Q3 -177 11 -184T26 -200T40 -217T65 -225Q103 -225 123 -183T144
-43V544Q144 573 137 587T108 607T42 613Q40 613 40 619T42 625Q71 625 103 624T170 622Q202 622 228 623T275 625Z" />
<glyph unicode="K" horiz-adv-x="649" d="M126 81V544Q126 573 120 587T94 607T37 613Q35 613 35 619T37 625Q61 625 90 624T152 622Q187 622 216 623T268 625Q270 625 270 619T268 613Q230 613 211 607T186 586T179 542V81Q179 52 185 37T210 17T268 12Q270 12
270 6T268 0Q244 0 216 1T152 2Q120 2 90 1T36 0Q34 0 34 6T36 12Q74 12 93 17T119 37T126 81ZM373 145L209 349L251 379L395 198Q442 139 474 103T529 47T568 21T600 13T635 12Q638 12 638 6T635 0Q590 0 563 0T523 0Q516 0 512 0T502 -1Q488 -1 480 4T462 24T431
68T373 145ZM142 294L399 550Q437 588 433 600T375 613Q373 613 373 619T375 625Q399 625 423 624T488 622Q525 622 546 623T588 625Q591 625 591 619T588 613Q554 613 509 599T422 544L166 295L142 294Z" />
<glyph unicode="L" horiz-adv-x="530" d="M178 543V85Q178 57 184 43T209 24T264 19H392Q445 19 473 54T509 146Q509 149 514 149T520 145Q517 119 514 83T511 15Q511 0 496 0H36Q34 0 34 6T36 12Q74 12 93 17T118 37T125 81V544Q125 573 119 587T93 607T36 613Q34
613 34 619T36 625Q60 625 89 624T151 622Q185 622 214 623T267 625Q269 625 269 619T267 613Q229 613 210 608T185 587T178 543Z" />
<glyph unicode="M" horiz-adv-x="830" d="M120 104L130 602L152 600L143 104Q142 53 159 33T227 12Q229 12 229 6T227 0Q205 0 182 1T130 2Q106 2 84 1T42 0Q40 0 40 6T42 12Q84 12 101 32T120 104ZM807 12Q810 12 810 6T807 0Q783 0 754 1T691 2Q660 2 634 1T587
0Q585 0 585 6T587 12Q637 12 651 25T664 81L646 574L675 611L413 7Q412 3 405 3T396 7L152 542Q120 613 49 613Q47 613 47 619T49 625Q64 625 81 624T109 623Q123 623 135 624T153 625Q167 625 175 616T199 573L428 78L402 36L648 600Q653 611 661 618T678 625Q683
625 693 624T716 623Q742 623 758 624T792 625Q794 625 794 619T792 613Q743 613 720 601T698 546L717 81Q718 52 724 37T750 17T807 12Z" />
<glyph unicode="N" horiz-adv-x="725" d="M118 104V602L140 600V104Q140 53 157 33T216 12Q219 12 219 6T216 0Q197 0 177 1T131 2Q107 2 85 1T43 0Q41 0 41 6T43 12Q87 12 102 32T118 104ZM621 -11Q621 -13 616 -13T609 -13L157 543Q123 584 97 598T46 613Q43
613 43 619T46 625Q63 625 81 624T113 623Q127 623 139 624T158 625Q171 625 176 614T204 573L613 65L621 -11ZM621 520V-11L599 20V520Q599 571 583 592T525 613Q523 613 523 619T525 625Q545 625 565 624T611 622Q634 622 657 623T699 625Q702 625 702 619T699
613Q656 613 639 592T621 520Z" />
<glyph unicode="O" horiz-adv-x="766" d="M366 -12Q294 -12 236 13T136 84T72 187T49 312Q49 393 80 454T164 555T278 616T401 636Q475 636 533 610T633 538T695 436T717 319Q717 249 689 189T613 84T501 14T366 -12ZM402 8Q472 8 529 40T619 136T653 291Q653
386 617 458T514 572T359 614Q243 614 178 542T113 346Q113 276 133 215T192 107T284 34T402 8Z" />
<glyph unicode="P" horiz-adv-x="540" d="M186 85Q186 55 194 40T230 18T311 12Q314 12 314 6T311 0Q279 0 242 1T160 2Q128 2 98 1T44 0Q42 0 42 6T44 12Q82 12 101 17T126 37T133 81V544Q133 573 127 587T101 607T44 613Q42 613 42 619T44 625Q68 625 97 624T159
622Q185 622 222 625T299 628Q354 628 399 611T470 558T497 464Q497 411 477 373T425 311T353 274T276 262Q263 262 251 263T227 267Q223 268 224 274T229 280Q238 278 247 277T265 276Q309 276 348 294T411 349T435 444Q435 499 414 537T356 595T276 615Q240 615
221 612T194 593T186 542V85Z" />
<glyph unicode="Q" horiz-adv-x="766" d="M456 6Q485 -42 527 -79T618 -138T709 -159Q717 -159 727 -158T745 -156Q748 -154 749 -159T749 -166Q726 -171 704 -174T663 -178Q618 -178 567 -158T468 -97T382 2L456 6ZM366 -12Q294 -12 236 13T136 84T72 187T49
312Q49 393 80 454T164 555T278 616T401 636Q475 636 533 610T633 538T695 436T717 319Q717 249 689 189T613 84T501 14T366 -12ZM402 8Q472 8 529 40T619 136T653 291Q653 386 617 458T514 572T359 614Q243 614 178 542T113 346Q113 276 133 215T192 107T284 34T402
8Z" />
<glyph unicode="R" horiz-adv-x="667" d="M560 0Q543 0 504 39T410 150T287 322L335 337Q421 216 481 145T587 43T676 12Q679 12 679 6T676 0Q631 0 603 0T560 0ZM299 628Q376 628 416 591T457 495Q457 442 426 399T344 331T230 306Q221 306 209 307T187 309V81Q187
52 193 37T218 17T276 12Q279 12 279 6T276 0Q252 0 224 1T160 2Q128 2 98 1T44 0Q42 0 42 6T44 12Q82 12 101 17T128 37T135 81V544Q135 573 129 587T103 607T46 613Q43 613 43 619T46 625Q69 625 98 624T160 622Q191 622 232 625T299 628ZM401 468Q401 522 384
554T334 600T255 615Q219 615 203 602T187 542V332Q201 331 217 330T247 329Q333 329 367 365T401 468Z" />
<glyph unicode="S" d="M138 504Q138 462 158 433T211 381T280 338Q317 317 351 294T407 238T430 157Q430 111 408 73T340 11T227 -12Q205 -12 184 -9T140 1T91 22Q86 25 85 29T82 41L67 171Q66 176 71 176T78 173Q82 143 94 113T126 58T177 18T249 2Q280 2 309
13T356 51T375 122Q375 171 354 203T299 259T229 304Q194 325 161 348T108 402T87 481Q87 533 113 567T180 619T267 636Q293 636 321 631T381 612Q389 609 392 605T396 595L405 489Q405 485 400 485T393 489Q391 511 383 534T358 578T316 610T254 623Q211 623 186
605T149 560T138 504Z" />
<glyph unicode="T" horiz-adv-x="632" d="M180 608Q117 608 89 578T49 471Q49 469 43 469T37 471Q39 483 41 506T46 555T49 606T51 647Q51 652 57 652T63 647Q63 637 72 633T94 627T116 625Q202 622 317 622Q388 622 429 623T510 625Q543 625 561 629T585 650Q586
654 591 654T596 650Q595 635 593 610T590 558T588 507T587 471Q587 469 581 469T575 471Q575 548 549 578T454 608Q407 608 384 605T353 588T345 542V81Q345 52 352 37T380 17T446 12Q448 12 448 6T446 0Q420 0 388 1T317 2Q281 2 249 1T189 0Q187 0 187 6T189
12Q232 12 254 17T283 37T291 81V544Q291 576 283 589T251 605T180 608Z" />
<glyph unicode="U" horiz-adv-x="697" d="M572 520Q572 568 552 590T487 613Q484 613 484 619T487 625Q509 625 532 624T584 622Q607 622 630 623T673 625Q675 625 675 619T673 613Q633 613 614 591T594 520V234Q594 155 565 100T484 16T361 -13Q287 -13 232 16T147
99T117 225V544Q117 573 111 587T85 607T28 613Q26 613 26 619T28 625Q52 625 81 624T143 622Q177 622 206 623T258 625Q261 625 261 619T258 613Q220 613 201 607T176 586T170 542V260Q170 142 225 79T379 16Q471 16 521 74T572 233V520Z" />
<glyph unicode="V" horiz-adv-x="667" d="M670 625Q673 625 673 619T670 613Q639 613 616 600T574 544L354 1Q353 -3 344 -3T332 1L85 542Q68 581 49 597T-2 613Q-5 613 -5 619T-2 625Q12 625 26 624T55 623T83 622Q107 622 127 622T163 624T195 625Q198 625 198
619T195 613Q157 613 141 601T142 552L366 57L339 20L553 550Q567 585 552 599T481 613Q478 613 478 619T481 625Q504 625 525 624T581 622Q610 622 627 623T670 625Z" />
<glyph unicode="W" horiz-adv-x="936" d="M485 325L354 1Q353 -3 344 -3T332 1L85 542Q74 568 62 583T34 606T-2 613Q-5 613 -5 619T-2 625Q12 625 26 624T55 623T83 622Q107 622 127 622T163 624T195 625Q198 625 198 619T195 613Q157 613 141 601T140 552L370
56L336 13L471 345L485 325ZM939 625Q942 625 942 619T939 613Q908 613 885 600T843 544L623 1Q622 -3 613 -3T601 1L354 542Q337 581 318 597T267 613Q264 613 264 619T267 625Q281 625 295 624T324 623T352 622Q378 622 396 623T429 625Q432 625 432 619T429
613Q397 613 394 603T409 552L639 56L605 13L823 550Q837 585 822 599T750 613Q747 613 747 619T750 625Q773 625 794 624T850 622Q879 622 896 623T939 625ZM475 345L558 550Q572 585 564 599T519 613Q517 613 517 619T519 625Q530 625 539 624T560 623T585 622Q613
622 631 623T674 625Q676 625 676 619T674 613Q643 613 619 600T578 544L489 325L475 345Z" />
<glyph unicode="X" horiz-adv-x="653" d="M415 0Q413 0 413 6T415 12Q456 12 466 20T462 51L137 542Q111 581 85 597T23 613Q21 613 21 619T23 625Q41 625 60 624T97 622Q137 622 170 623T229 625Q232 625 232 619T229 613Q188 613 178 604T182 573L508 83Q534
43 562 28T633 12Q635 12 635 6T633 0Q613 0 589 1T539 2Q500 2 471 1T415 0ZM20 0Q17 0 17 6T20 12Q54 12 86 32T147 92L305 309L316 299L168 92Q140 53 151 33T209 12Q212 12 212 6T209 0Q183 0 160 1T97 2Q72 2 57 1T20 0ZM331 316L320 325L461 524Q492 568
483 590T427 613Q424 613 424 619T427 625Q453 625 477 624T539 622Q564 622 579 623T616 625Q619 625 619 619T616 613Q582 613 548 590T482 523L331 316Z" />
<glyph unicode="Y" horiz-adv-x="607" d="M297 290L453 526Q481 570 473 591T421 613Q419 613 419 619T421 625Q447 625 471 624T533 622Q558 622 573 623T611 625Q613 625 613 619T611 613Q586 613 562 603T517 572T476 523L313 276L297 290ZM298 271L111 542Q85
581 60 597T-2 613Q-5 613 -5 619T-2 625Q15 625 34 624T71 622Q98 622 121 622T166 624T204 625Q206 625 206 619T204 613Q163 613 152 604T157 573L335 317L298 271ZM282 310L335 319V81Q335 52 341 37T366 17T423 12Q426 12 426 6T423 0Q400 0 371 1T308 2Q275
2 245 1T192 0Q189 0 189 6T192 12Q230 12 249 17T275 37T282 81V310Z" />
<glyph unicode="Z" horiz-adv-x="593" d="M54 13L460 600Q464 605 463 606T455 608Q349 608 281 607T174 601T114 585T84 554T63 502Q62 499 56 500T51 504L91 655Q92 657 98 656T103 653Q100 635 111 630T160 625Q220 625 307 625T525 625Q530 625 532 621T532
612L131 27Q127 22 128 21T136 19Q224 19 292 19T404 19Q451 19 480 29T526 64T550 130Q551 132 556 132T561 130L547 8Q547 5 545 2T538 -2Q464 -1 382 -1T217 0T60 0Q56 0 54 4T54 13Z" />
<glyph unicode="[" horiz-adv-x="274" d="M94 -106V715Q94 722 95 723T103 725Q127 725 152 725T199 725T236 725Q239 725 239 719T236 713Q196 713 176 707T149 686T142 642V-34Q142 -62 149 -77T176 -99T236 -105Q239 -105 239 -111T236 -117Q221 -117 199 -117T152
-117T103 -117Q97 -117 96 -115T94 -106Z" />
<glyph unicode="\" horiz-adv-x="339" d="M277 -163L26 718Q25 721 33 725T50 731T61 730L313 -152Q314 -154 306 -158T288 -163T277 -163Z" />
<glyph unicode="]" horiz-adv-x="274" d="M180 -106V715Q180 722 179 723T171 725Q148 725 123 725T75 725T38 725Q35 725 35 719T38 713Q78 713 98 707T125 686T132 642V-34Q132 -62 125 -77T98 -99T38 -105Q35 -105 35 -111T38 -117Q53 -117 75 -117T122 -117T171
-117Q177 -117 178 -115T180 -106Z" />
<glyph unicode="^" horiz-adv-x="392" d="M333 380Q335 378 331 376T324 375L196 557L68 375Q66 373 62 375T58 380L185 629Q186 634 196 634T207 629L333 380Z" />
<glyph unicode="_" horiz-adv-x="398" d="M34 -75Q31 -75 30 -66T30 -47T33 -37H364Q367 -37 368 -46T368 -65T364 -75H34Z" />
<glyph unicode="`" horiz-adv-x="213" d="M47 727Q46 731 53 731T70 729T89 723T98 716L154 476Q156 474 151 473T144 474L47 727Z" />
<glyph unicode="a" horiz-adv-x="419" d="M313 -6Q309 -8 305 -8Q293 -8 283 13T273 74V267Q273 329 254 353T205 377Q180 377 164 366T139 337T126 305Q124 295 119 282T94 268Q79 268 72 277T64 296Q64 313 82 330T127 363T185 387T240 396Q281 396 300 370T319
297V108Q319 72 327 56T357 39Q376 39 412 54Q417 56 419 51T416 43L313 -6ZM136 -7Q99 -7 80 13T60 61Q60 78 68 94T98 125T158 154L283 201L285 188L167 143Q146 135 135 126T120 106T116 84Q116 62 130 44T173 26Q184 26 196 29T225 43L292 82L294 70L219 23Q194
7 175 0T136 -7Z" />
<glyph unicode="b" horiz-adv-x="508" d="M249 -13Q211 -13 174 -1T101 41L144 123Q144 80 167 54T223 17T282 6Q344 6 379 51T414 182Q414 275 376 323T281 371Q237 371 201 343T132 278L124 285Q145 309 172 335T233 380T311 399Q353 399 389 379T447 317T470
214Q470 138 438 88T354 12T249 -13ZM42 -4Q38 -5 36 -1T37 6Q67 27 82 45T97 103V599Q97 635 90 651T64 668Q47 668 16 654Q12 652 10 658T12 665L132 724Q135 725 137 725Q139 725 141 723T144 718V44L42 -4Z" />
<glyph unicode="c" horiz-adv-x="407" d="M230 -12Q162 -12 120 17T57 92T37 185Q37 235 56 274T106 340T176 381T251 395Q279 395 305 388T348 367T365 338Q365 326 358 318T336 309Q322 309 312 318T296 337Q284 354 268 364T219 375Q158 375 126 331T94 214Q94
163 112 119T167 47T265 19Q291 19 318 26T368 54Q371 56 374 52T375 46Q341 15 306 2T230 -12Z" />
<glyph unicode="d" horiz-adv-x="513" d="M193 -13Q152 -13 116 11T59 77T37 177Q37 233 58 274T114 343T188 385T265 399Q300 399 330 387T387 351L378 287Q353 325 321 352T235 380Q171 380 132 335T92 206Q92 150 110 108T159 43T228 20Q274 20 310 46T378
108L386 101Q365 77 337 51T274 6T193 -13ZM412 718V108Q412 72 420 56T450 39Q460 39 474 41T505 54Q510 56 512 51T510 43L407 -6Q403 -8 399 -8Q386 -8 376 14T365 81V599Q365 635 358 651T331 668Q322 668 311 664T283 653Q279 651 277 657T278 664L400 724Q402
725 405 725Q407 725 409 723T412 718Z" />
<glyph unicode="e" horiz-adv-x="405" d="M215 -12Q156 -12 117 15T57 87T37 180Q37 241 65 289T140 366T244 395Q301 395 329 364T357 281Q357 268 355 262T345 256H298Q303 318 279 346T212 375Q156 375 125 333T94 216Q94 160 112 116T165 46T250 20Q285 20
307 30T351 54Q353 56 356 52T358 44Q323 14 288 1T215 -12ZM81 255L80 267L308 271V256L81 255Z" />
<glyph unicode="f" horiz-adv-x="305" d="M33 0Q30 0 30 6T33 12Q77 12 90 25T104 81V306Q104 331 100 342T80 357T29 361Q26 361 26 367T29 373Q73 373 87 383T103 418Q108 584 163 655T319 726Q371 726 403 711T435 675Q435 661 426 654T404 647Q395 647 387
651T368 669Q352 690 333 700T285 710Q227 710 190 646T152 439V81Q152 52 158 37T187 17T253 12Q255 12 255 6T253 0Q220 0 190 1T127 2Q101 2 77 1T33 0ZM282 338Q243 348 208 350T132 353V374Q171 374 207 377T285 384Q288 384 290 378T292 361Q292 354 289
346T282 338Z" />
<glyph unicode="g" horiz-adv-x="444" d="M179 -280Q109 -280 72 -249T34 -171Q34 -119 77 -74T195 14L206 1Q173 -15 145 -33T100 -77T83 -142Q83 -174 97 -198T141 -236T216 -250Q289 -250 336 -213T384 -112Q384 -71 364 -53T307 -31T223 -26Q177 -26 140 -23T80
-4T58 44Q58 78 79 101T136 156L147 146Q122 125 112 109T102 74Q102 54 115 42T162 25T253 19Q275 19 304 18T361 9T407 -20T426 -81Q426 -122 406 -158T350 -221T271 -264T179 -280ZM211 133Q163 133 130 150T78 197T60 262Q60 298 78 327T132 375T216 393Q271
393 303 373T350 323T364 264Q364 231 347 201T295 152T211 133ZM229 147Q264 147 287 169T310 244Q310 286 295 316T253 362T194 379Q159 379 136 358T113 284Q113 236 131 206T175 161T229 147ZM301 319V353Q332 371 361 382T425 394Q427 394 428 387T430 373Q430
363 428 352T421 342Q414 345 397 350T356 356Q343 356 332 354T310 349L301 319Z" />
<glyph unicode="h" horiz-adv-x="496" d="M27 0Q24 0 24 6T27 12Q68 12 80 25T92 81V600Q92 636 85 652T60 669Q44 669 12 654Q8 652 6 657T7 665L130 725Q131 725 131 725T132 725Q135 725 137 723T139 718V81Q139 38 151 25T205 12Q207 12 207 6T205 0Q187 0
165 1T116 2Q91 2 68 1T27 0ZM296 0Q293 0 293 6T296 12Q337 12 349 25T361 81V244Q361 363 267 363Q228 363 189 338T120 269L116 281Q163 343 206 369T294 396Q348 396 378 367T408 275V81Q408 38 420 25T474 12Q476 12 476 6T474 0Q456 0 434 1T385 2Q360 2
337 1T296 0Z" />
<glyph unicode="i" horiz-adv-x="275" d="M57 0Q55 0 55 6T57 12Q98 12 110 25T123 81V270Q123 306 116 322T90 339Q81 339 70 336T42 324Q38 323 36 328T37 336L161 394Q164 395 165 395Q167 395 169 393T172 388Q172 381 171 350T170 271V81Q170 38 181 25T235
12Q238 12 238 6T235 0Q218 0 195 1T146 2Q121 2 98 1T57 0ZM138 516Q119 516 109 526T98 554Q98 572 108 582T138 592Q156 592 166 582T176 554Q176 516 138 516Z" />
<glyph unicode="j" horiz-adv-x="255" d="M161 388Q161 381 160 350T159 271V-48Q159 -114 147 -158T107 -232T28 -282Q26 -283 24 -278T23 -271Q73 -250 92 -203T112 -71V270Q112 306 105 322T80 339Q71 339 60 336T32 324Q28 323 26 328T27 336L151 394Q153
395 154 395Q157 395 159 393T161 388ZM127 516Q108 516 98 526T87 554Q87 572 97 582T127 592Q145 592 155 582T165 554Q165 516 127 516Z" />
<glyph unicode="k" horiz-adv-x="491" d="M27 0Q24 0 24 6T27 12Q68 12 80 25T92 81V600Q92 636 85 652T60 669Q44 669 12 654Q8 652 6 658T7 665L127 724Q130 725 132 725Q134 725 136 723T139 718V81Q139 38 151 25T205 12Q207 12 207 6T205 0Q187 0 165 1T116
2Q91 2 68 1T27 0ZM278 0Q276 0 276 6T278 12Q316 12 327 21T322 53L194 230L235 260L363 81Q390 42 420 27T480 12Q482 12 482 6T480 0Q462 0 440 1T391 2Q354 2 328 1T278 0ZM126 172L122 182L284 308Q325 340 317 357T255 374Q252 374 252 380T255 386Q279 386
303 385T367 384Q404 384 426 385T468 386Q470 386 470 380T468 374Q445 374 419 367T363 345T302 305L126 172Z" />
<glyph unicode="l" horiz-adv-x="256" d="M41 0Q38 0 38 6T41 12Q82 12 94 25T106 81V600Q106 636 99 652T74 669Q58 669 26 654Q22 652 20 658T21 665L144 724Q146 725 149 725Q151 725 153 723T156 718V81Q156 39 167 26T221 12Q224 12 224 6T221 0Q204 0 181
1T131 2Q106 2 82 1T41 0Z" />
<glyph unicode="m" horiz-adv-x="760" d="M560 0Q558 0 558 6T560 12Q601 12 613 25T626 81V244Q626 363 537 363Q500 363 463 338T396 269L392 281Q438 343 479 369T564 396Q616 396 644 367T673 275V81Q673 38 684 25T738 12Q741 12 741 6T738 0Q721 0 698 1T649
2Q624 2 601 1T560 0ZM303 0Q300 0 300 6T303 12Q344 12 356 25T368 81V244Q368 363 280 363Q243 363 206 338T139 269L135 281Q180 343 221 369T306 396Q358 396 386 367T415 275V81Q415 38 427 25T481 12Q483 12 483 6T481 0Q463 0 441 1T392 2Q367 2 344 1T303
0ZM46 0Q43 0 43 6T46 12Q87 12 99 25T111 81V281Q111 315 103 330T75 346Q65 346 51 342T19 331Q15 330 13 335T14 342L125 394Q127 395 130 395Q137 395 147 375T158 315V81Q158 38 169 25T223 12Q226 12 226 6T223 0Q206 0 183 1T135 2Q110 2 87 1T46 0Z" />
<glyph unicode="n" horiz-adv-x="515" d="M315 0Q312 0 312 6T315 12Q356 12 368 25T380 81V248Q380 309 357 337T285 365Q247 365 208 340T139 271L135 283Q182 345 225 372T312 399Q367 399 397 370T427 278V81Q427 38 438 25T492 12Q495 12 495 6T492 0Q475
0 452 1T404 2Q379 2 356 1T315 0ZM46 0Q43 0 43 6T46 12Q87 12 99 25T111 81V281Q111 315 103 330T75 346Q65 346 51 342T19 331Q15 330 13 335T14 342L125 394Q127 395 130 395Q137 395 147 375T158 315V81Q158 38 169 25T223 12Q226 12 226 6T223 0Q206 0 183
1T135 2Q110 2 87 1T46 0Z" />
<glyph unicode="o" horiz-adv-x="477" d="M230 -13Q171 -13 128 16T61 93T37 198Q37 250 56 288T106 350T175 387T248 399Q308 399 351 369T417 292T440 193Q440 129 411 83T335 12T230 -13ZM258 5Q314 5 348 42T382 167Q382 228 361 276T303 352T215 380Q158
380 126 341T94 227Q94 168 114 117T172 36T258 5Z" />
<glyph unicode="p" horiz-adv-x="510" d="M33 -275Q30 -275 30 -269T33 -263Q74 -263 86 -250T98 -194V278Q98 314 90 330T61 347Q51 347 37 344T6 332Q2 331 0 336T1 343L104 392Q108 394 112 394Q126 394 135 372T145 305V-194Q145 -222 152 -237T182 -257T248
-263Q250 -263 250 -269T248 -275Q222 -275 190 -274T123 -273Q98 -273 74 -274T33 -275ZM256 -13Q218 -13 189 -3T124 35L133 88Q162 53 197 30T289 7Q342 7 378 54T415 184Q415 273 377 319T282 366Q236 366 201 340T133 278L125 285Q176 344 223 371T318 399Q359
399 393 378T449 315T470 215Q470 155 449 112T395 42T325 1T256 -13Z" />
<glyph unicode="q" horiz-adv-x="484" d="M191 -13Q150 -13 115 8T59 71T37 171Q37 235 57 279T109 349T179 387T253 399Q325 399 399 356L356 270Q356 304 340 328T293 366T220 380Q159 380 127 337T94 202Q94 114 129 65T221 15Q265 15 301 43T370 108L378 101Q357
77 330 51T269 6T191 -13ZM276 -275Q274 -275 274 -269T276 -263Q326 -263 341 -250T356 -194V356L446 388Q450 390 452 386T450 379Q428 366 415 347T402 295V-194Q402 -237 414 -250T468 -263Q470 -263 470 -269T468 -275Q450 -275 427 -274T378 -273Q350 -273
325 -274T276 -275Z" />
<glyph unicode="r" horiz-adv-x="360" d="M139 271L135 281Q172 327 195 351T236 385T269 395Q290 395 310 384T330 357Q330 347 323 339T301 331Q289 331 281 338T262 351T235 358Q226 358 216 353T188 329T139 271ZM46 0Q43 0 43 6T46 12Q87 12 99 25T111 81V281Q111
315 103 330T75 346Q65 346 51 342T19 331Q15 330 13 335T14 342L125 394Q127 395 130 395Q137 395 147 375T158 315V81Q158 52 165 37T193 17T258 12Q261 12 261 6T258 0Q234 0 202 1T135 2Q110 2 87 1T46 0Z" />
<glyph unicode="s" horiz-adv-x="338" d="M96 322Q96 295 109 277T144 246T189 221Q215 209 238 195T276 160T291 108Q291 76 275 49T228 6T151 -11Q127 -11 104 -5T57 20Q55 22 53 25T51 32L49 104Q49 107 54 107T61 105Q74 71 91 50T131 18T180 8Q215 8 233
24T250 74Q249 103 235 121T200 151T156 174Q131 186 109 199T72 234T57 288Q57 326 77 350T127 387T191 399Q209 399 227 396T262 384Q271 380 271 373Q271 358 270 341T269 304Q269 302 263 302T257 304Q257 327 241 344T201 370T154 379Q127 379 112 365T96
322Z" />
<glyph unicode="t" horiz-adv-x="339" d="M189 -12Q165 -12 144 -5T109 20T96 68V306Q96 331 93 342T79 357T44 361Q41 361 41 367T44 373Q82 373 105 394T129 447Q129 450 136 450T144 447V102Q144 60 164 40T225 19Q252 19 272 27T306 46Q310 48 313 44T312
36Q275 10 247 -1T189 -12ZM282 338Q243 348 208 350T132 353V374Q171 374 207 377T285 384Q288 384 290 378T292 361Q292 354 289 346T282 338Z" />
<glyph unicode="u" horiz-adv-x="490" d="M180 -7Q132 -7 104 23T76 115V270Q76 311 70 328T47 346Q32 346 11 336Q7 334 5 340T6 347L111 394Q113 395 115 395Q117 395 120 393T123 388V145Q123 84 144 56T207 27Q248 27 289 51T361 119L366 108Q317 46 272 20T180
-7ZM389 388V105Q389 71 397 56T426 40Q437 40 450 44T482 55Q487 57 489 52T487 44L375 -8Q373 -9 371 -9Q364 -9 354 11T343 71V270Q343 311 337 328T313 346Q298 346 277 336Q273 334 271 340T273 347L378 394Q380 395 381 395Q383 395 386 393T389 388Z" />
<glyph unicode="v" horiz-adv-x="433" d="M425 386Q427 386 427 380T425 374Q401 374 385 360T352 305L227 1Q226 -3 217 -3T205 1L68 303Q48 348 35 361T4 374Q1 374 1 380T4 386Q18 386 34 385T65 384Q98 384 122 385T166 386Q169 386 169 380T166 374Q135 374
117 367T109 335L239 51L216 22L335 311Q349 346 332 360T258 374Q256 374 256 380T258 386Q282 386 303 385T359 384Q380 384 393 385T425 386Z" />
<glyph unicode="w" horiz-adv-x="667" d="M439 1L302 303Q282 348 269 361T237 374Q235 374 235 380T237 386Q252 386 268 385T299 384Q332 384 356 385T400 386Q403 386 403 380T400 374Q369 374 350 367T343 335L473 50L450 22L568 311Q582 346 565 360T492
374Q490 374 490 380T492 386Q516 386 537 385T593 384Q614 384 627 385T658 386Q661 386 661 380T658 374Q635 374 619 360T586 305L461 1Q459 -3 450 -3T439 1ZM205 1L68 303Q48 348 35 361T4 374Q1 374 1 380T4 386Q18 386 34 385T65 384Q96 384 120 385T166
386Q169 386 169 380T166 374Q133 374 117 366T110 335L240 50L216 22L325 285L339 271L227 1Q226 -3 217 -3T205 1Z" />
<glyph unicode="x" horiz-adv-x="439" d="M262 0Q259 0 259 6T262 12Q294 12 297 19T285 51L118 303Q90 345 63 359T16 374Q14 374 14 380T16 386Q31 386 47 385T78 384Q111 384 135 385T179 386Q181 386 181 380T179 374Q148 374 144 367T156 335L323 83Q351
41 378 27T425 12Q427 12 427 6T425 0Q410 0 394 1T363 2Q330 2 306 1T262 0ZM15 0Q13 0 13 6T15 12Q39 12 68 29T123 81L207 198L219 189L140 75Q126 55 122 41T131 19T181 12Q184 12 184 6T181 0Q158 0 137 1T81 2Q60 2 47 1T15 0ZM221 193L212 202L285 311Q308
345 304 359T244 374Q242 374 242 380T244 386Q268 386 289 385T345 384Q366 384 379 385T411 386Q413 386 413 380T411 374Q387 374 359 359T303 305L221 193Z" />
<glyph unicode="y" horiz-adv-x="437" d="M429 386Q432 386 432 380T429 374Q406 374 389 360T357 305L232 -28Q196 -124 163 -179T95 -258T14 -281Q-5 -281 -19 -272T-34 -244Q-34 -232 -26 -226T-7 -219Q13 -219 23 -224T43 -236T69 -242Q94 -242 117 -219T166
-141T229 9V-13L74 303Q52 347 40 360T8 374Q6 374 6 380T8 386Q23 386 39 385T70 384Q102 384 126 385T171 386Q173 386 173 380T171 374Q140 374 122 366T115 335L255 48L235 11L336 301Q351 345 335 359T263 374Q261 374 261 380T263 386Q287 386 308 385T364
384Q385 384 398 385T429 386Z" />
<glyph unicode="z" horiz-adv-x="405" d="M44 12L288 367Q292 374 283 374Q205 374 160 369T91 345T56 289Q55 286 49 287T44 291L76 413Q77 415 83 415T88 412Q84 396 95 391T135 386Q170 386 221 386T342 386Q346 386 349 382T350 374L112 21Q108 14 117 14Q191
14 233 16T298 26T332 54T356 109Q357 111 362 111T367 109L365 11Q365 7 363 4T356 0Q309 0 258 0T154 0T51 0Q47 0 45 4T44 12Z" />
<glyph unicode="{" horiz-adv-x="289" d="M32 298Q29 298 29 304T32 311Q70 316 88 349T111 430T117 529Q117 592 122 631T143 690T184 717T250 725Q254 725 254 719T250 713Q212 713 191 686T168 607Q167 527 164 476T152 393T121 342T61 305Q99 287 120 267T151
214T164 131T168 1Q170 -50 191 -77T250 -105Q254 -105 254 -111T250 -117Q208 -117 182 -110T142 -81T123 -22T117 80Q117 131 112 179T88 261T32 298Z" />
<glyph unicode="|" horiz-adv-x="168" d="M67 -154V731Q67 736 76 737T95 738T104 731V-154Q104 -159 95 -160T77 -161T67 -154Z" />
<glyph unicode="}" horiz-adv-x="283" d="M251 298Q254 298 254 304T251 311Q213 316 195 349T172 430T166 529Q166 592 161 631T140 690T100 717T33 725Q29 725 29 719T33 713Q71 713 92 686T115 607Q117 527 119 476T131 393T162 342T222 305Q184 287 163 267T132
214T120 131T115 1Q114 -50 93 -77T33 -105Q29 -105 29 -111T33 -117Q75 -117 101 -110T141 -81T160 -22T166 80Q166 131 171 179T195 261T251 298Z" />
<glyph unicode="~" horiz-adv-x="443" d="M313 194Q345 194 361 206T389 233Q391 235 394 232T396 226Q373 198 356 183T324 163T292 157Q263 157 238 166T187 184T130 193Q100 193 87 183T55 154Q54 153 51 156T48 161Q59 174 75 190T113 218T159 230Q182 230
206 221T258 203T313 194Z" />
<glyph unicode="&#xa0;" horiz-adv-x="234" />
<glyph unicode="&#xa1;" horiz-adv-x="243" d="M161 -267Q161 -269 155 -271T140 -274T121 -275Q111 -275 102 -274T87 -271T82 -267Q94 -201 100 -126T111 24T118 165Q118 167 120 167T125 168T128 165Q131 99 134 24T143 -126T161 -267ZM125 365Q143 365 154
355T165 326Q165 309 154 299T125 289Q106 289 96 299T86 326Q86 344 96 354T125 365Z" />
<glyph unicode="&#xa2;" horiz-adv-x="540" d="M277 -102V561Q277 566 282 567T292 568T297 561V-102Q297 -106 292 -107T282 -108T277 -102ZM312 480Q347 480 391 473T464 451Q472 448 473 445T476 434L487 331Q487 328 482 327T475 330Q461 402 411 434T289
467Q235 467 192 439T123 362T97 251Q97 206 110 162T151 81T220 22T317 0Q378 0 423 33T484 140Q485 144 490 143T496 139L482 33Q481 25 479 22T468 15Q425 0 384 -6T308 -12Q232 -12 180 11T97 72T51 153T37 236Q37 306 73 361T172 448T312 480Z" />
<glyph unicode="&#xa3;" horiz-adv-x="432" d="M99 40H251Q294 40 316 46T350 70T368 123Q368 125 374 125T380 122Q376 101 374 71T371 15Q371 0 356 0H36Q34 0 34 5T36 12Q71 21 90 33T116 62T124 106Q124 144 118 173T103 226T88 276T81 333Q81 385 104 417T165
464T246 480Q265 480 288 477T336 463Q351 459 352 444L359 344Q359 340 354 340T347 344Q345 371 333 399T296 447T235 467Q197 467 174 452T142 413T132 364Q132 324 142 290T162 222T172 147Q172 114 163 93T138 57T105 30L99 40ZM55 240H274Q279 240 280 235T281
225T274 220H55Q51 220 50 225T49 235T55 240Z" />
<glyph unicode="&#xa4;" horiz-adv-x="414" d="M127 94L77 37L56 58L109 113L127 94ZM105 290L51 344L77 367L129 311L105 290ZM306 117L361 62L335 37L283 96L306 117ZM290 310L340 364L360 344L309 292L290 310ZM196 65Q153 65 123 85T77 137T61 202Q61 247
84 276T143 320T211 335Q250 335 281 318T330 270T349 201Q349 158 326 128T268 81T196 65ZM215 81Q252 81 274 106T297 180Q297 215 285 247T248 299T188 319Q154 319 132 296T110 223Q110 191 121 158T155 103T215 81Z" />
<glyph unicode="&#xa5;" horiz-adv-x="477" d="M101 156H366Q373 156 373 146T366 136H101Q94 136 94 146T101 156ZM101 213H366Q373 213 373 203T366 193H101Q94 193 94 203T101 213ZM225 196L324 367Q349 408 340 432T302 456Q299 456 299 462T302 468Q325 468
345 467T400 465Q421 465 434 466T465 468Q468 468 468 462T465 456Q432 456 401 433T343 366L239 196H225ZM221 196L97 385Q72 423 51 439T-5 456Q-7 456 -7 462T-5 468Q10 468 26 467T57 465Q81 465 102 466T142 467T175 468Q178 468 178 462T175 456Q145 456
136 446T140 416L260 235L221 196ZM260 145V81Q260 52 266 37T291 17T349 12Q351 12 351 6T349 0Q325 0 297 1T234 2Q203 2 173 1T119 0Q117 0 117 6T119 12Q157 12 176 17T202 37T209 81V145H260ZM209 200V228L260 237V200H209Z" />
<glyph unicode="&#xa6;" horiz-adv-x="168" d="M67 -154V216Q67 221 76 222T95 223T104 216V-154Q104 -159 95 -160T77 -161T67 -154ZM67 360V731Q67 736 76 737T95 738T104 731V360Q104 356 95 355T77 354T67 360Z" />
<glyph unicode="&#xa7;" horiz-adv-x="429" d="M291 11L283 20Q314 43 323 70T333 127Q333 171 316 202T273 255T216 297T160 335T116 380T99 440Q99 486 120 515T175 558T244 572Q273 572 294 567T332 553Q343 548 343 537L351 443Q351 441 345 441T339 443Q337
460 326 478T297 513T256 539T207 549Q179 549 159 532T138 474Q138 440 155 415T199 371T256 332T313 290T357 236T374 159Q374 132 368 110T343 64T291 11ZM204 -188Q176 -188 155 -183T116 -170Q112 -167 109 -163T104 -153L97 -60Q97 -57 103 -57T109 -60Q111
-77 122 -95T151 -129T192 -155T241 -165Q269 -165 290 -148T312 -90Q312 -55 295 -31T250 13T191 52T133 94T88 148T70 225Q70 253 76 275T101 320T153 373L161 364Q130 341 121 314T111 256Q111 212 128 181T173 128T231 87T289 49T333 4T351 -56Q351 -102 329
-131T274 -174T204 -188Z" />
<glyph unicode="&#xa8;" horiz-adv-x="322" d="M74 481Q55 481 45 491T34 519Q34 537 44 547T74 557Q92 557 102 547T112 519Q112 481 74 481ZM249 481Q231 481 220 491T209 519Q209 537 220 547T249 557Q288 557 288 519Q288 481 249 481Z" />
<glyph unicode="&#xa9;" horiz-adv-x="717" d="M366 -101Q319 -101 269 -84T174 -30T103 61T76 191Q76 259 102 315T173 412T275 475T394 497Q470 497 525 466T611 384T641 270Q641 208 609 155T523 71T400 39Q337 39 298 62T241 122T222 195Q222 249 248 287T313
344T393 364Q415 364 435 358T470 342T485 317Q485 307 478 299T460 291Q448 291 440 299T426 315Q416 329 404 339T367 349Q318 349 298 313T278 219Q278 178 292 143T339 87T428 65Q474 65 515 83T582 140T609 242Q609 306 577 358T489 442T364 474Q283 474 228
439T144 344T115 213Q115 139 142 85T211 -3T302 -54T391 -71Q428 -71 459 -68T522 -55T592 -26Q594 -25 596 -28T596 -33Q539 -76 483 -88T366 -101Z" />
<glyph unicode="&#xaa;" horiz-adv-x="276" d="M34 288Q31 288 30 294T30 307T33 313H258Q261 313 262 307T262 295T258 288H34ZM207 366Q197 362 189 375T180 419V538Q180 572 173 587T155 607T130 612Q108 612 96 597T78 561Q77 554 74 547T58 540Q49 540 43
546T37 558Q37 569 49 581T81 605T120 623T157 630Q180 630 195 613T211 558V441Q211 407 223 401T269 407Q273 409 275 405T275 398L207 366ZM81 365Q61 365 49 376T37 404Q37 421 50 430T97 451L187 484L188 474L103 441Q88 435 82 431T76 416Q76 405 84 397T105
389Q113 389 119 391T131 395L193 427L194 416L136 385Q117 375 106 370T81 365Z" />
<glyph unicode="&#xab;" horiz-adv-x="451" d="M235 40L61 189Q57 194 57 201T61 212L235 361Q237 364 240 361T242 356L112 201L242 46Q243 44 240 41T235 40ZM382 40L208 189Q204 194 204 201T208 212L382 361Q384 364 387 361T389 356L260 201L389 46Q391 44
388 41T382 40Z" />
<glyph unicode="&#xac;" horiz-adv-x="395" d="M364 77Q364 74 355 73T336 73T326 76V267H364V77ZM34 229Q31 229 30 238T30 257T33 267H364V229H34Z" />
<glyph unicode="&#xad;" horiz-adv-x="600" />
<glyph unicode="&#xae;" horiz-adv-x="752" d="M368 138Q316 138 264 156T170 212T102 303T76 430Q76 494 102 548T173 641T275 703T394 725Q481 725 544 687T641 587T676 451Q676 385 652 328T585 229T487 162T368 138ZM239 271Q237 271 237 277T239 283Q275
283 284 290T294 327V543Q294 570 285 578T239 587Q237 587 237 593T239 599Q253 599 273 599T310 598Q329 598 352 599T392 601Q435 601 458 586T481 536Q481 502 463 478T409 441T320 430V450Q377 440 410 452T443 512Q443 553 425 570T375 588Q349 588 339 582T329
540V327Q329 298 338 291T382 283Q384 283 384 277T382 271Q368 271 350 272T310 273Q293 273 272 272T239 271ZM393 167Q468 167 524 198T612 286T644 423Q644 501 608 564T508 665T364 702Q283 702 228 668T144 576T115 453Q115 382 140 329T207 239T298 185T393
167ZM491 271Q481 271 454 316T388 435L425 449Q457 388 478 351T518 297T565 280Q567 280 567 276T565 271Q537 271 518 271T491 271Z" />
<glyph unicode="&#xaf;" horiz-adv-x="345" d="M47 485Q44 485 43 491T42 504T47 511H298Q302 511 303 505T303 492T298 485H47Z" />
<glyph unicode="&#xb0;" horiz-adv-x="332" d="M167 373Q105 373 67 410T29 503Q29 538 46 566T94 612T167 630Q229 630 266 593T303 501Q303 447 266 410T167 373ZM174 384Q208 384 224 398T245 437T250 494Q250 620 161 620Q128 620 112 605T89 564T83 506Q83
454 101 419T174 384Z" />
<glyph unicode="&#xb1;" horiz-adv-x="398" d="M34 1Q31 1 30 9T30 26T33 35H364Q367 35 368 27T368 10T364 1H34ZM34 234Q31 234 30 243T30 262T33 271H364Q367 271 368 262T368 244T364 234H34ZM218 88Q218 85 209 84T190 84T180 87V418Q180 421 189 421T208
422T218 418V88Z" />
<glyph unicode="&#xb2;" horiz-adv-x="250" d="M34 408Q40 425 54 447T86 495T121 547T149 600T160 650Q160 678 146 693T108 709Q83 709 65 692T41 650Q40 647 34 648T29 653Q38 684 59 706T123 729Q162 729 181 708T201 658Q201 632 183 602T141 542T94 484T64
437Q64 434 67 434Q115 434 141 435T180 441T198 458T211 491Q211 493 213 493T216 491L215 407Q215 402 211 402Q173 402 125 402T37 402Q32 402 34 408Z" />
<glyph unicode="&#xb3;" horiz-adv-x="251" d="M119 567L118 575Q157 569 185 552T214 494Q214 469 203 447T169 410T115 396Q75 396 53 416T23 465Q22 469 28 470T35 468Q40 452 57 433T110 413Q136 413 154 427T173 481Q173 519 152 542T98 565Q96 565 96 571T98
577Q119 577 133 589T153 618T160 650Q160 674 146 691T106 709Q83 709 65 692T41 650Q40 647 34 648T29 653Q37 684 59 706T122 729Q159 729 180 709T201 657Q201 636 191 618T162 586T119 567Z" />
<glyph unicode="&#xb4;" horiz-adv-x="212" d="M69 474Q68 471 63 472T58 476L115 716Q116 719 124 722T142 728T160 731T166 727L69 474Z" />
<glyph unicode="&#xb6;" horiz-adv-x="634" d="M327 -193Q305 -193 291 -181T276 -154Q276 -140 283 -132T303 -123Q319 -123 325 -130T337 -146T350 -163T378 -170Q398 -170 410 -152T427 -95T433 8V125Q413 124 392 123T345 122Q294 122 243 135T149 179T80
260T54 386Q54 507 125 567T318 628Q352 628 387 625T467 622Q495 622 523 623T577 625Q579 625 579 619T577 613Q534 613 511 592T488 532L489 55Q489 -74 451 -133T327 -193Z" />
<glyph unicode="&#xb7;" horiz-adv-x="195" d="M98 161Q80 161 69 171T58 200Q58 217 69 227T98 237Q117 237 127 227T137 200Q137 182 127 172T98 161Z" />
<glyph unicode="&#xb8;" horiz-adv-x="232" d="M113 -2Q100 -41 98 -57T106 -81T142 -104Q163 -116 179 -134T196 -181Q196 -202 186 -223T154 -260T97 -275Q72 -275 54 -266T35 -239Q35 -226 43 -219T63 -212Q75 -212 80 -218T90 -234T102 -249T126 -256Q163
-256 163 -215Q163 -189 145 -169T77 -122Q62 -114 61 -110T67 -91Q74 -74 78 -64T87 -40T101 -1L113 -2Z" />
<glyph unicode="&#xb9;" horiz-adv-x="262" d="M49 402Q47 402 47 408T49 414Q81 414 95 418T114 437T118 483V601Q118 648 117 667T100 684T42 662Q38 661 35 666T36 673L146 727Q150 729 153 726T156 720V483Q156 452 159 437T177 418T221 414Q224 414 224 408T221
402Q204 402 183 403T138 405Q113 405 90 404T49 402Z" />
<glyph unicode="&#xba;" horiz-adv-x="313" d="M36 288Q33 288 32 294T32 307T35 313H278Q281 313 282 307T282 295T278 288H36ZM152 359Q113 359 85 378T41 429T25 498Q25 543 46 572T100 615T164 630Q204 630 232 611T275 561T290 495Q290 457 271 426T221 377T152
359ZM167 374Q206 374 229 401T253 477Q253 534 223 574T145 614Q105 614 84 589T62 517Q62 480 75 447T112 394T167 374Z" />
<glyph unicode="&#xbb;" horiz-adv-x="451" d="M216 361L391 212Q395 208 395 201T391 189L216 40Q215 37 212 40T209 46L339 200L209 356Q208 358 211 361T216 361ZM69 361L243 212Q248 208 248 201T243 189L69 40Q68 37 65 40T62 46L192 200L62 356Q61 358 64
361T69 361Z" />
<glyph unicode="&#xbc;" horiz-adv-x="598" d="M49 309Q47 309 47 314T49 320Q81 320 95 324T114 343T118 389V508Q118 554 117 573T100 590T42 568Q38 567 35 572T36 579L146 634Q150 636 153 633T156 627V389Q156 358 159 343T177 324T221 320Q224 320 224 315T221
309Q204 309 183 310T138 311Q113 311 90 310T49 309ZM182 0Q182 -2 176 0T165 5T160 9L440 626Q441 628 446 627T457 623T462 618L182 0ZM523 41Q523 22 529 17T569 11Q570 11 570 5T569 -1Q556 -1 543 -1T510 0Q488 0 469 0T434 -1Q433 -1 433 5T434 11Q470 11
479 16T489 41V276L504 290L399 112Q398 109 401 109Q440 109 466 110T516 112T569 115Q571 115 571 102T569 88Q529 90 483 92T364 94Q363 94 361 96T361 99L515 324Q517 326 520 325T523 322V41Z" />
<glyph unicode="&#xbd;" horiz-adv-x="609" d="M49 309Q47 309 47 314T49 320Q81 320 95 324T114 343T118 389V508Q118 554 117 573T100 590T42 568Q38 567 35 572T36 579L146 634Q150 636 153 633T156 627V389Q156 358 159 343T177 324T221 320Q224 320 224 315T221
309Q204 309 183 310T138 311Q113 311 90 310T49 309ZM182 0Q182 -2 176 0T165 5T160 9L440 626Q441 628 446 627T457 623T462 618L182 0ZM393 6Q399 23 413 45T445 92T480 144T508 197T519 248Q519 275 505 290T467 306Q442 306 424 290T400 248Q399 244 393 245T388
250Q397 281 418 303T482 326Q521 326 540 306T560 256Q560 230 542 200T500 140T453 82T423 35Q423 32 426 32Q474 32 500 33T539 39T557 56T570 89Q570 91 572 91T575 89L574 5Q574 0 570 0Q532 0 484 0T396 0Q392 0 393 6Z" />
<glyph unicode="&#xbe;" horiz-adv-x="587" d="M119 474L118 482Q157 476 185 459T214 400Q214 375 203 353T169 317T115 303Q75 303 53 323T23 372Q22 376 28 377T35 374Q40 358 57 339T110 319Q136 319 154 334T173 387Q173 426 152 448T98 471Q96 471 96 477T98
483Q119 483 133 495T153 525T160 557Q160 580 146 597T106 615Q83 615 65 598T41 557Q40 553 34 554T29 559Q37 590 59 612T122 635Q159 635 180 615T201 564Q201 543 191 525T162 493T119 474ZM171 0Q171 -2 165 0T154 5T149 9L429 626Q430 628 435 627T446 623T451
618L171 0ZM512 41Q512 22 518 17T558 11Q559 11 559 5T558 -1Q545 -1 532 -1T499 0Q477 0 458 0T423 -1Q422 -1 422 5T423 11Q459 11 468 16T478 41V276L493 290L388 112Q387 109 390 109Q429 109 455 110T505 112T558 115Q560 115 560 102T558 88Q518 90 472
92T353 94Q352 94 350 96T350 99L504 324Q506 326 509 325T512 322V41Z" />
<glyph unicode="&#xbf;" horiz-adv-x="327" d="M170 -263Q199 -263 207 -247T217 -215Q219 -205 222 -197T233 -183T251 -177Q265 -177 273 -187T281 -208Q281 -235 247 -255T166 -275Q130 -275 101 -262T53 -222T35 -155Q35 -123 45 -100T72 -58T106 -22Q141
13 155 40T170 102Q170 114 169 127T164 157Q163 160 168 161T175 159Q187 131 194 96T201 40Q201 11 190 -8T163 -43T131 -75T103 -113T92 -167Q92 -210 114 -236T170 -263ZM181 361Q199 361 210 351T221 322Q221 305 210 295T181 285Q162 285 152 295T142 322Q142
340 152 350T181 361Z" />
<glyph unicode="&#xc0;" horiz-adv-x="698" d="M200 287L209 305H468L475 287H200ZM694 12Q698 12 698 6T694 0Q666 0 637 2T580 4Q549 4 527 2T477 0Q473 0 473 6T477 12Q533 12 547 27T543 84L317 570L336 587L143 123Q118 62 139 37T228 12Q233 12 233 6T228
0Q198 0 173 2T110 4Q75 4 54 2T2 0Q-2 0 -2 6T2 12Q29 12 49 22T86 58T124 132L333 635Q335 638 339 638T345 635L577 137Q600 87 618 60T654 22T694 12ZM437 679Q386 702 334 721T214 756Q209 757 215 761T233 771T255 780T269 782Q310 759 351 736T441 689Q445
688 443 683T437 679Z" />
<glyph unicode="&#xc1;" horiz-adv-x="698" d="M200 287L209 305H468L475 287H200ZM694 12Q698 12 698 6T694 0Q666 0 637 2T580 4Q549 4 527 2T477 0Q473 0 473 6T477 12Q533 12 547 27T543 84L317 570L336 587L143 123Q118 62 139 37T228 12Q233 12 233 6T228
0Q198 0 173 2T110 4Q75 4 54 2T2 0Q-2 0 -2 6T2 12Q29 12 49 22T86 58T124 132L333 635Q335 638 339 638T345 635L577 137Q600 87 618 60T654 22T694 12ZM241 678Q237 677 235 682T236 689Q286 712 326 735T408 781Q411 783 422 780T444 772T462 762T463 756Q396
739 344 720T241 678Z" />
<glyph unicode="&#xc2;" horiz-adv-x="698" d="M200 287L209 305H468L475 287H200ZM694 12Q698 12 698 6T694 0Q666 0 637 2T580 4Q549 4 527 2T477 0Q473 0 473 6T477 12Q533 12 547 27T543 84L317 570L336 587L143 123Q118 62 139 37T228 12Q233 12 233 6T228
0Q198 0 173 2T110 4Q75 4 54 2T2 0Q-2 0 -2 6T2 12Q29 12 49 22T86 58T124 132L333 635Q335 638 339 638T345 635L577 137Q600 87 618 60T654 22T694 12ZM223 688L326 780Q331 785 338 785T349 780L451 688Q454 687 451 684T446 681L338 743L229 681Q228 680 225
683T223 688Z" />
<glyph unicode="&#xc3;" horiz-adv-x="698" d="M200 287L209 305H468L475 287H200ZM694 12Q698 12 698 6T694 0Q666 0 637 2T580 4Q549 4 527 2T477 0Q473 0 473 6T477 12Q533 12 547 27T543 84L317 570L336 587L143 123Q118 62 139 37T228 12Q233 12 233 6T228
0Q198 0 173 2T110 4Q75 4 54 2T2 0Q-2 0 -2 6T2 12Q29 12 49 22T86 58T124 132L333 635Q335 638 339 638T345 635L577 137Q600 87 618 60T654 22T694 12ZM415 752Q435 752 445 760T464 779Q466 781 469 778T471 772Q444 737 427 726T393 714Q370 714 350 720T308
733T261 739Q241 739 232 731T212 712Q210 711 207 713T205 719Q213 730 226 743T256 766T289 776Q307 776 326 770T368 758T415 752Z" />
<glyph unicode="&#xc4;" horiz-adv-x="698" d="M200 287L209 305H468L475 287H200ZM694 12Q698 12 698 6T694 0Q666 0 637 2T580 4Q549 4 527 2T477 0Q473 0 473 6T477 12Q533 12 547 27T543 84L317 570L336 587L143 123Q118 62 139 37T228 12Q233 12 233 6T228
0Q198 0 173 2T110 4Q75 4 54 2T2 0Q-2 0 -2 6T2 12Q29 12 49 22T86 58T124 132L333 635Q335 638 339 638T345 635L577 137Q600 87 618 60T654 22T694 12ZM251 720Q232 720 222 730T211 758Q211 776 221 786T251 796Q269 796 279 786T289 758Q289 720 251 720ZM426
720Q408 720 397 730T386 758Q386 776 397 786T426 796Q465 796 465 758Q465 720 426 720Z" />
<glyph unicode="&#xc5;" horiz-adv-x="698" d="M200 287L209 305H468L475 287H200ZM694 12Q698 12 698 6T694 0Q666 0 637 2T580 4Q549 4 527 2T477 0Q473 0 473 6T477 12Q533 12 547 27T543 84L317 570L336 587L143 123Q118 62 139 37T228 12Q233 12 233 6T228
0Q198 0 173 2T110 4Q75 4 54 2T2 0Q-2 0 -2 6T2 12Q29 12 49 22T86 58T124 132L333 635Q335 638 339 638T345 635L577 137Q600 87 618 60T654 22T694 12ZM334 665Q295 665 273 689T251 745Q251 771 265 788T301 813T344 822Q378 822 402 799T427 743Q427 719 413
702T378 675T334 665ZM349 675Q388 675 388 725Q388 760 370 786T324 813Q289 813 289 765Q289 744 296 724T316 689T349 675Z" />
<glyph unicode="&#xc6;" horiz-adv-x="871" d="M5 0Q1 0 1 6T5 12Q34 12 73 44T151 132L458 574Q477 600 467 606T394 613Q392 613 392 619T394 625H778Q787 625 787 616L789 495Q789 492 784 492T778 495Q778 528 766 553T731 592T680 606H622Q586 606 568 602T543
584T536 543V85Q536 57 542 43T567 24T622 19H703Q730 19 751 35T788 79T808 146Q808 149 814 149T820 145Q816 119 814 83T811 15Q811 0 795 0H394Q392 0 392 6T394 12Q432 12 451 17T476 37T483 81V588L505 604L171 123Q131 66 143 39T219 12Q224 12 224 6T219
0Q189 0 164 2T101 4Q69 4 50 2T5 0ZM290 316L305 335H511L518 316H290ZM739 235Q739 280 720 298T653 316H511V335H656Q702 335 720 350T738 404Q738 406 744 406T750 404Q750 375 750 359T749 325Q749 303 750 282T751 235Q751 233 745 233T739 235Z" />
<glyph unicode="&#xc7;" horiz-adv-x="687" d="M407 636Q452 636 484 632T545 619T604 593Q610 589 611 587T614 571L626 457Q626 455 621 454T614 456Q592 539 542 580T407 622Q318 622 252 585T150 480T113 320Q113 255 136 197T201 95T296 26T409 1Q495 1 547
42T621 164Q622 167 627 166T633 163L625 57Q624 45 622 42T614 35Q561 7 516 -3T408 -13Q303 -13 222 28T95 145T49 319Q49 391 75 449T150 549T264 613T407 636ZM411 -2Q398 -41 396 -57T404 -81T440 -104Q461 -116 477 -134T494 -181Q494 -202 484 -223T452
-260T395 -275Q370 -275 352 -266T333 -239Q333 -226 341 -219T361 -212Q373 -212 378 -218T388 -234T400 -249T424 -256Q461 -256 461 -215Q461 -189 443 -169T375 -122Q360 -114 359 -110T365 -91Q372 -74 376 -64T385 -40T399 -1L411 -2Z" />
<glyph unicode="&#xc8;" horiz-adv-x="533" d="M457 0H44Q42 0 42 6T44 12Q82 12 101 17T126 37T133 81V544Q133 573 127 587T101 607T44 613Q42 613 42 619T44 625H440Q449 625 449 616L451 495Q451 492 446 492T440 495Q440 547 413 576T342 606H273Q236 606
218 601T193 582T186 538V85Q186 57 192 43T217 24T273 19H365Q405 19 434 54T470 146Q470 149 476 149T482 145Q478 119 476 83T473 15Q473 0 457 0ZM401 235Q401 280 382 298T315 316H161V335H318Q364 335 382 350T400 404Q400 406 406 406T412 404Q412 375 412
359T411 325Q411 303 412 282T413 235Q413 233 407 233T401 235ZM389 679Q338 702 286 721T166 756Q161 757 167 761T185 771T207 780T221 782Q262 759 303 736T393 689Q397 688 395 683T389 679Z" />
<glyph unicode="&#xc9;" horiz-adv-x="533" d="M457 0H44Q42 0 42 6T44 12Q82 12 101 17T126 37T133 81V544Q133 573 127 587T101 607T44 613Q42 613 42 619T44 625H440Q449 625 449 616L451 495Q451 492 446 492T440 495Q440 547 413 576T342 606H273Q236 606
218 601T193 582T186 538V85Q186 57 192 43T217 24T273 19H365Q405 19 434 54T470 146Q470 149 476 149T482 145Q478 119 476 83T473 15Q473 0 457 0ZM401 235Q401 280 382 298T315 316H161V335H318Q364 335 382 350T400 404Q400 406 406 406T412 404Q412 375 412
359T411 325Q411 303 412 282T413 235Q413 233 407 233T401 235ZM193 679Q189 677 187 682T188 689Q238 712 278 736T360 782Q363 784 374 781T396 772T414 762T415 756Q348 740 296 721T193 679Z" />
<glyph unicode="&#xca;" horiz-adv-x="533" d="M457 0H44Q42 0 42 6T44 12Q82 12 101 17T126 37T133 81V544Q133 573 127 587T101 607T44 613Q42 613 42 619T44 625H440Q449 625 449 616L451 495Q451 492 446 492T440 495Q440 547 413 576T342 606H273Q236 606
218 601T193 582T186 538V85Q186 57 192 43T217 24T273 19H365Q405 19 434 54T470 146Q470 149 476 149T482 145Q478 119 476 83T473 15Q473 0 457 0ZM401 235Q401 280 382 298T315 316H161V335H318Q364 335 382 350T400 404Q400 406 406 406T412 404Q412 375 412
359T411 325Q411 303 412 282T413 235Q413 233 407 233T401 235ZM176 690L279 783Q284 788 291 788T302 783L404 690Q407 689 404 686T399 683L291 745L182 683Q181 682 178 685T176 690Z" />
<glyph unicode="&#xcb;" horiz-adv-x="533" d="M457 0H44Q42 0 42 6T44 12Q82 12 101 17T126 37T133 81V544Q133 573 127 587T101 607T44 613Q42 613 42 619T44 625H440Q449 625 449 616L451 495Q451 492 446 492T440 495Q440 547 413 576T342 606H273Q236 606
218 601T193 582T186 538V85Q186 57 192 43T217 24T273 19H365Q405 19 434 54T470 146Q470 149 476 149T482 145Q478 119 476 83T473 15Q473 0 457 0ZM401 235Q401 280 382 298T315 316H161V335H318Q364 335 382 350T400 404Q400 406 406 406T412 404Q412 375 412
359T411 325Q411 303 412 282T413 235Q413 233 407 233T401 235ZM203 720Q184 720 174 730T163 758Q163 776 173 786T203 796Q221 796 231 786T241 758Q241 720 203 720ZM378 720Q360 720 349 730T338 758Q338 776 349 786T378 796Q417 796 417 758Q417 720 378
720Z" />
<glyph unicode="&#xcc;" horiz-adv-x="330" d="M192 81Q192 52 198 37T223 17T281 12Q283 12 283 6T281 0Q257 0 228 1T164 2Q131 2 102 1T48 0Q45 0 45 6T48 12Q86 12 105 17T131 37T138 81V544Q138 573 132 587T106 607T48 613Q45 613 45 619T48 625Q72 625
101 624T164 622Q199 622 228 623T281 625Q283 625 283 619T281 613Q243 613 224 607T199 586T192 542V81ZM264 679Q213 702 161 721T41 756Q36 757 42 761T60 771T82 780T96 782Q137 759 178 736T268 689Q272 688 270 683T264 679Z" />
<glyph unicode="&#xcd;" horiz-adv-x="330" d="M192 81Q192 52 198 37T223 17T281 12Q283 12 283 6T281 0Q257 0 228 1T164 2Q131 2 102 1T48 0Q45 0 45 6T48 12Q86 12 105 17T131 37T138 81V544Q138 573 132 587T106 607T48 613Q45 613 45 619T48 625Q72 625
101 624T164 622Q199 622 228 623T281 625Q283 625 283 619T281 613Q243 613 224 607T199 586T192 542V81ZM68 679Q64 677 62 682T63 689Q113 712 153 736T235 782Q238 784 249 781T271 772T289 762T290 756Q223 740 171 721T68 679Z" />
<glyph unicode="&#xce;" horiz-adv-x="330" d="M192 81Q192 52 198 37T223 17T281 12Q283 12 283 6T281 0Q257 0 228 1T164 2Q131 2 102 1T48 0Q45 0 45 6T48 12Q86 12 105 17T131 37T138 81V544Q138 573 132 587T106 607T48 613Q45 613 45 619T48 625Q72 625
101 624T164 622Q199 622 228 623T281 625Q283 625 283 619T281 613Q243 613 224 607T199 586T192 542V81ZM51 690L154 783Q159 788 166 788T177 783L279 690Q282 689 279 686T274 683L166 745L57 683Q56 682 53 685T51 690Z" />
<glyph unicode="&#xcf;" horiz-adv-x="330" d="M192 81Q192 52 198 37T223 17T281 12Q283 12 283 6T281 0Q257 0 228 1T164 2Q131 2 102 1T48 0Q45 0 45 6T48 12Q86 12 105 17T131 37T138 81V544Q138 573 132 587T106 607T48 613Q45 613 45 619T48 625Q72 625
101 624T164 622Q199 622 228 623T281 625Q283 625 283 619T281 613Q243 613 224 607T199 586T192 542V81ZM95 720Q77 720 66 730T55 758Q55 776 66 786T95 796Q114 796 124 786T134 758Q134 740 124 730T95 720ZM236 720Q217 720 207 730T196 758Q196 776 206
786T236 796Q274 796 274 758Q274 720 236 720Z" />
<glyph unicode="&#xd0;" horiz-adv-x="688" d="M53 302Q50 302 49 306T49 315T53 320H315Q318 320 318 316T319 307T315 302H53ZM297 -4Q269 -4 228 -1T152 2Q120 2 90 1T36 0Q34 0 34 6T36 12Q74 12 93 17T119 37T126 81V544Q126 573 120 587T94 607T37 613Q35
613 35 619T37 625Q61 625 90 624T152 622Q184 622 220 624T283 627Q390 627 470 587T594 478T639 323Q639 248 612 188T538 85T428 19T297 -4ZM287 9Q371 9 435 42T537 141T574 301Q574 389 540 459T442 572T292 614Q231 614 205 602T179 542V92Q179 49 199 29T287
9Z" />
<glyph unicode="&#xd1;" horiz-adv-x="725" d="M118 104V602L140 600V104Q140 53 157 33T216 12Q219 12 219 6T216 0Q197 0 177 1T131 2Q107 2 85 1T43 0Q41 0 41 6T43 12Q87 12 102 32T118 104ZM621 -11Q621 -13 616 -13T609 -13L157 543Q123 584 97 598T46 613Q43
613 43 619T46 625Q63 625 81 624T113 623Q127 623 139 624T158 625Q171 625 176 614T204 573L613 65L621 -11ZM621 520V-11L599 20V520Q599 571 583 592T525 613Q523 613 523 619T525 625Q545 625 565 624T611 622Q634 622 657 623T699 625Q702 625 702 619T699
613Q656 613 639 592T621 520ZM451 752Q471 752 481 760T500 779Q502 781 505 778T507 772Q480 737 463 726T429 714Q406 714 386 720T344 733T297 739Q277 739 268 731T248 712Q246 711 243 713T241 719Q249 730 262 743T292 766T325 776Q343 776 362 770T404
758T451 752Z" />
<glyph unicode="&#xd2;" horiz-adv-x="766" d="M366 -12Q294 -12 236 13T136 84T72 187T49 312Q49 393 80 454T164 555T278 616T401 636Q475 636 533 610T633 538T695 436T717 319Q717 249 689 189T613 84T501 14T366 -12ZM402 8Q472 8 529 40T619 136T653 291Q653
386 617 458T514 572T359 614Q243 614 178 542T113 346Q113 276 133 215T192 107T284 34T402 8ZM483 679Q432 702 380 721T260 756Q255 757 261 761T279 771T301 780T315 782Q356 759 397 736T487 689Q491 688 489 683T483 679Z" />
<glyph unicode="&#xd3;" horiz-adv-x="766" d="M366 -12Q294 -12 236 13T136 84T72 187T49 312Q49 393 80 454T164 555T278 616T401 636Q475 636 533 610T633 538T695 436T717 319Q717 249 689 189T613 84T501 14T366 -12ZM402 8Q472 8 529 40T619 136T653 291Q653
386 617 458T514 572T359 614Q243 614 178 542T113 346Q113 276 133 215T192 107T284 34T402 8ZM287 679Q283 677 281 682T282 689Q332 712 372 736T454 782Q457 784 468 781T490 772T508 762T509 756Q442 740 390 721T287 679Z" />
<glyph unicode="&#xd4;" horiz-adv-x="766" d="M366 -12Q294 -12 236 13T136 84T72 187T49 312Q49 393 80 454T164 555T278 616T401 636Q475 636 533 610T633 538T695 436T717 319Q717 249 689 189T613 84T501 14T366 -12ZM402 8Q472 8 529 40T619 136T653 291Q653
386 617 458T514 572T359 614Q243 614 178 542T113 346Q113 276 133 215T192 107T284 34T402 8ZM270 690L373 783Q378 788 385 788T396 783L498 690Q501 689 498 686T493 683L385 745L276 683Q275 682 272 685T270 690Z" />
<glyph unicode="&#xd5;" horiz-adv-x="766" d="M366 -12Q294 -12 236 13T136 84T72 187T49 312Q49 393 80 454T164 555T278 616T401 636Q475 636 533 610T633 538T695 436T717 319Q717 249 689 189T613 84T501 14T366 -12ZM402 8Q472 8 529 40T619 136T653 291Q653
386 617 458T514 572T359 614Q243 614 178 542T113 346Q113 276 133 215T192 107T284 34T402 8ZM461 752Q481 752 491 760T510 779Q512 781 515 778T517 772Q490 737 473 726T439 714Q416 714 396 720T354 733T307 739Q287 739 278 731T258 712Q256 711 253 713T251
719Q259 730 272 743T302 766T335 776Q353 776 372 770T414 758T461 752Z" />
<glyph unicode="&#xd6;" horiz-adv-x="766" d="M366 -12Q294 -12 236 13T136 84T72 187T49 312Q49 393 80 454T164 555T278 616T401 636Q475 636 533 610T633 538T695 436T717 319Q717 249 689 189T613 84T501 14T366 -12ZM402 8Q472 8 529 40T619 136T653 291Q653
386 617 458T514 572T359 614Q243 614 178 542T113 346Q113 276 133 215T192 107T284 34T402 8ZM297 720Q278 720 268 730T257 758Q257 776 267 786T297 796Q315 796 325 786T335 758Q335 720 297 720ZM472 720Q454 720 443 730T432 758Q432 776 443 786T472 796Q511
796 511 758Q511 720 472 720Z" />
<glyph unicode="&#xd7;" horiz-adv-x="378" d="M85 60Q84 58 77 63T63 76T58 85L292 319Q295 321 302 315T315 302T319 292L85 60ZM60 294Q58 296 63 303T76 316T85 320L319 87Q321 85 315 78T302 64T292 60L60 294Z" />
<glyph unicode="&#xd8;" horiz-adv-x="766" d="M77 -7Q76 -9 72 -7T65 0T64 7L677 629Q680 632 687 627T691 618L77 -7ZM366 -12Q294 -12 236 13T136 84T72 187T49 312Q49 393 80 454T164 555T278 616T401 636Q475 636 533 610T633 538T695 436T717 319Q717 249
689 189T613 84T501 14T366 -12ZM402 8Q472 8 529 40T619 136T653 291Q653 386 617 458T514 572T359 614Q243 614 178 542T113 346Q113 276 133 215T192 107T284 34T402 8Z" />
<glyph unicode="&#xd9;" horiz-adv-x="697" d="M572 520Q572 568 552 590T487 613Q484 613 484 619T487 625Q509 625 532 624T584 622Q607 622 630 623T673 625Q675 625 675 619T673 613Q633 613 614 591T594 520V234Q594 155 565 100T484 16T361 -13Q287 -13
232 16T147 99T117 225V544Q117 573 111 587T85 607T28 613Q26 613 26 619T28 625Q52 625 81 624T143 622Q177 622 206 623T258 625Q261 625 261 619T258 613Q220 613 201 607T176 586T170 542V260Q170 142 225 79T379 16Q471 16 521 74T572 233V520ZM473 679Q422
702 370 721T250 756Q245 757 251 761T269 771T291 780T305 782Q346 759 387 736T477 689Q481 688 479 683T473 679Z" />
<glyph unicode="&#xda;" horiz-adv-x="697" d="M572 520Q572 568 552 590T487 613Q484 613 484 619T487 625Q509 625 532 624T584 622Q607 622 630 623T673 625Q675 625 675 619T673 613Q633 613 614 591T594 520V234Q594 155 565 100T484 16T361 -13Q287 -13
232 16T147 99T117 225V544Q117 573 111 587T85 607T28 613Q26 613 26 619T28 625Q52 625 81 624T143 622Q177 622 206 623T258 625Q261 625 261 619T258 613Q220 613 201 607T176 586T170 542V260Q170 142 225 79T379 16Q471 16 521 74T572 233V520ZM277 679Q273
677 271 682T272 689Q322 712 362 736T444 782Q447 784 458 781T480 772T498 762T499 756Q432 740 380 721T277 679Z" />
<glyph unicode="&#xdb;" horiz-adv-x="697" d="M572 520Q572 568 552 590T487 613Q484 613 484 619T487 625Q509 625 532 624T584 622Q607 622 630 623T673 625Q675 625 675 619T673 613Q633 613 614 591T594 520V234Q594 155 565 100T484 16T361 -13Q287 -13
232 16T147 99T117 225V544Q117 573 111 587T85 607T28 613Q26 613 26 619T28 625Q52 625 81 624T143 622Q177 622 206 623T258 625Q261 625 261 619T258 613Q220 613 201 607T176 586T170 542V260Q170 142 225 79T379 16Q471 16 521 74T572 233V520ZM260 690L363
783Q368 788 375 788T386 783L488 690Q491 689 488 686T483 683L375 745L266 683Q265 682 262 685T260 690Z" />
<glyph unicode="&#xdc;" horiz-adv-x="697" d="M572 520Q572 568 552 590T487 613Q484 613 484 619T487 625Q509 625 532 624T584 622Q607 622 630 623T673 625Q675 625 675 619T673 613Q633 613 614 591T594 520V234Q594 155 565 100T484 16T361 -13Q287 -13
232 16T147 99T117 225V544Q117 573 111 587T85 607T28 613Q26 613 26 619T28 625Q52 625 81 624T143 622Q177 622 206 623T258 625Q261 625 261 619T258 613Q220 613 201 607T176 586T170 542V260Q170 142 225 79T379 16Q471 16 521 74T572 233V520ZM287 720Q268
720 258 730T247 758Q247 776 257 786T287 796Q305 796 315 786T325 758Q325 720 287 720ZM462 720Q444 720 433 730T422 758Q422 776 433 786T462 796Q501 796 501 758Q501 720 462 720Z" />
<glyph unicode="&#xdd;" horiz-adv-x="607" d="M297 290L453 526Q481 570 473 591T421 613Q419 613 419 619T421 625Q447 625 471 624T533 622Q558 622 573 623T611 625Q613 625 613 619T611 613Q586 613 562 603T517 572T476 523L313 276L297 290ZM298 271L111
542Q85 581 60 597T-2 613Q-5 613 -5 619T-2 625Q15 625 34 624T71 622Q98 622 121 622T166 624T204 625Q206 625 206 619T204 613Q163 613 152 604T157 573L335 317L298 271ZM282 310L335 319V81Q335 52 341 37T366 17T423 12Q426 12 426 6T423 0Q400 0 371 1T308
2Q275 2 245 1T192 0Q189 0 189 6T192 12Q230 12 249 17T275 37T282 81V310ZM219 679Q215 677 213 682T214 689Q264 712 304 736T386 782Q389 784 400 781T422 772T440 762T441 756Q374 740 322 721T219 679Z" />
<glyph unicode="&#xde;" horiz-adv-x="535" d="M133 544Q133 573 127 587T101 607T44 613Q42 613 42 619T44 625Q68 625 98 624T160 622Q204 622 241 623T311 625Q314 625 314 619T311 613Q257 613 230 607T195 586T186 539V85Q186 55 194 40T230 18T311 12Q314
12 314 6T311 0Q279 0 242 1T160 2Q128 2 98 1T44 0Q42 0 42 6T44 12Q82 12 101 17T126 37T133 81V544ZM151 483Q182 492 216 495T281 499Q340 499 388 484T466 433T497 336Q499 283 479 245T426 182T354 145T276 133Q263 133 251 134T227 138Q223 139 224 145T229
151Q238 150 247 149T265 147Q309 147 348 165T411 220T435 316Q435 398 385 442T256 487Q230 487 205 483T159 471L151 483Z" />
<glyph unicode="&#xdf;" horiz-adv-x="491" d="M335 -11Q298 -11 276 5T253 50Q253 58 258 66T277 75Q288 75 295 68T307 52T320 32T337 15T364 8Q392 8 411 28T428 85Q426 123 402 154T347 215Q315 247 288 283T260 366Q260 402 275 427T309 476T343 527T358
595Q358 618 351 645T325 692T267 712Q207 712 173 642T139 446V81Q139 38 151 25T206 12Q208 12 208 6T206 0Q182 0 161 0T116 1Q90 1 65 1T20 0Q17 0 17 6T20 12Q65 12 78 25T91 81V313Q91 338 87 349T68 364T18 368Q14 368 14 374T18 380Q52 380 66 386T84 407T90
448Q101 594 148 660T288 726Q335 726 360 709T396 669T407 627Q407 599 396 576T369 533T336 494T308 453T297 406Q297 370 322 338T379 273Q401 249 421 225T455 175T469 119Q469 88 453 58T407 9T335 -11Z" />
<glyph unicode="&#xe0;" horiz-adv-x="419" d="M313 -6Q309 -8 305 -8Q293 -8 283 13T273 74V267Q273 329 254 353T205 377Q180 377 164 366T139 337T126 305Q124 295 119 282T94 268Q79 268 72 277T64 296Q64 313 82 330T127 363T185 387T240 396Q281 396 300
370T319 297V108Q319 72 327 56T357 39Q376 39 412 54Q417 56 419 51T416 43L313 -6ZM136 -7Q99 -7 80 13T60 61Q60 78 68 94T98 125T158 154L283 201L285 188L167 143Q146 135 135 126T120 106T116 84Q116 62 130 44T173 26Q184 26 196 29T225 43L292 82L294 70L219
23Q194 7 175 0T136 -7ZM120 727Q119 731 126 731T143 729T162 723T171 716L227 476Q229 474 224 473T217 474L120 727Z" />
<glyph unicode="&#xe1;" horiz-adv-x="419" d="M313 -6Q309 -8 305 -8Q293 -8 283 13T273 74V267Q273 329 254 353T205 377Q180 377 164 366T139 337T126 305Q124 295 119 282T94 268Q79 268 72 277T64 296Q64 313 82 330T127 363T185 387T240 396Q281 396 300
370T319 297V108Q319 72 327 56T357 39Q376 39 412 54Q417 56 419 51T416 43L313 -6ZM136 -7Q99 -7 80 13T60 61Q60 78 68 94T98 125T158 154L283 201L285 188L167 143Q146 135 135 126T120 106T116 84Q116 62 130 44T173 26Q184 26 196 29T225 43L292 82L294 70L219
23Q194 7 175 0T136 -7ZM209 474Q208 471 203 472T198 476L255 716Q256 719 264 722T282 728T300 731T306 727L209 474Z" />
<glyph unicode="&#xe2;" horiz-adv-x="419" d="M313 -6Q309 -8 305 -8Q293 -8 283 13T273 74V267Q273 329 254 353T205 377Q180 377 164 366T139 337T126 305Q124 295 119 282T94 268Q79 268 72 277T64 296Q64 313 82 330T127 363T185 387T240 396Q281 396 300
370T319 297V108Q319 72 327 56T357 39Q376 39 412 54Q417 56 419 51T416 43L313 -6ZM136 -7Q99 -7 80 13T60 61Q60 78 68 94T98 125T158 154L283 201L285 188L167 143Q146 135 135 126T120 106T116 84Q116 62 130 44T173 26Q184 26 196 29T225 43L292 82L294 70L219
23Q194 7 175 0T136 -7ZM290 476Q292 474 287 473T280 474L212 653L143 474Q142 471 137 472T132 476L200 725Q201 730 211 730T223 725L290 476Z" />
<glyph unicode="&#xe3;" horiz-adv-x="419" d="M313 -6Q309 -8 305 -8Q293 -8 283 13T273 74V267Q273 329 254 353T205 377Q180 377 164 366T139 337T126 305Q124 295 119 282T94 268Q79 268 72 277T64 296Q64 313 82 330T127 363T185 387T240 396Q281 396 300
370T319 297V108Q319 72 327 56T357 39Q376 39 412 54Q417 56 419 51T416 43L313 -6ZM136 -7Q99 -7 80 13T60 61Q60 78 68 94T98 125T158 154L283 201L285 188L167 143Q146 135 135 126T120 106T116 84Q116 62 130 44T173 26Q184 26 196 29T225 43L292 82L294 70L219
23Q194 7 175 0T136 -7ZM288 522Q308 522 318 530T337 549Q339 551 342 548T344 542Q317 507 300 496T266 484Q243 484 223 490T181 503T134 509Q114 509 105 501T85 482Q83 481 80 483T78 489Q86 500 99 513T129 536T162 546Q180 546 199 540T241 528T288 522Z"
/>
<glyph unicode="&#xe4;" horiz-adv-x="419" d="M313 -6Q309 -8 305 -8Q293 -8 283 13T273 74V267Q273 329 254 353T205 377Q180 377 164 366T139 337T126 305Q124 295 119 282T94 268Q79 268 72 277T64 296Q64 313 82 330T127 363T185 387T240 396Q281 396 300
370T319 297V108Q319 72 327 56T357 39Q376 39 412 54Q417 56 419 51T416 43L313 -6ZM136 -7Q99 -7 80 13T60 61Q60 78 68 94T98 125T158 154L283 201L285 188L167 143Q146 135 135 126T120 106T116 84Q116 62 130 44T173 26Q184 26 196 29T225 43L292 82L294 70L219
23Q194 7 175 0T136 -7ZM124 481Q105 481 95 491T84 519Q84 537 94 547T124 557Q142 557 152 547T162 519Q162 481 124 481ZM299 481Q281 481 270 491T259 519Q259 537 270 547T299 557Q338 557 338 519Q338 481 299 481Z" />
<glyph unicode="&#xe5;" horiz-adv-x="419" d="M313 -6Q309 -8 305 -8Q293 -8 283 13T273 74V267Q273 329 254 353T205 377Q180 377 164 366T139 337T126 305Q124 295 119 282T94 268Q79 268 72 277T64 296Q64 313 82 330T127 363T185 387T240 396Q281 396 300
370T319 297V108Q319 72 327 56T357 39Q376 39 412 54Q417 56 419 51T416 43L313 -6ZM136 -7Q99 -7 80 13T60 61Q60 78 68 94T98 125T158 154L283 201L285 188L167 143Q146 135 135 126T120 106T116 84Q116 62 130 44T173 26Q184 26 196 29T225 43L292 82L294 70L219
23Q194 7 175 0T136 -7ZM202 468Q163 468 141 492T119 547Q119 573 133 590T169 616T212 625Q246 625 270 602T295 545Q295 521 281 504T246 477T202 468ZM218 477Q256 477 256 527Q256 562 238 588T192 615Q157 615 157 567Q157 546 164 526T185 491T218 477Z"
/>
<glyph unicode="&#xe6;" horiz-adv-x="593" d="M423 -12Q380 -12 346 5T291 62T267 170Q265 242 260 288T242 356T199 379Q169 379 152 366T128 332T116 291Q115 283 110 271T85 258Q69 258 62 266T55 287Q55 304 70 322T110 357T164 384T221 395Q256 395 281
369T306 299Q306 286 308 276T312 253T315 215Q316 191 319 158T335 93T375 40T451 18Q483 18 507 26T551 54Q553 56 556 52T558 44Q526 14 494 1T423 -12ZM298 255L297 267L504 271V256L298 255ZM315 215L289 299Q315 343 358 369T455 395Q502 395 527 364T553
278Q553 267 551 262T542 256H492Q497 315 477 345T421 375Q371 375 343 332T315 215ZM131 -7Q90 -7 71 13T51 61Q51 78 60 93T90 123T150 152L275 199L277 188L159 143Q128 130 118 116T108 84Q108 62 122 44T170 25Q179 25 191 28T222 42L291 84L292 74L216 23Q190
6 171 0T131 -7Z" />
<glyph unicode="&#xe7;" horiz-adv-x="407" d="M230 -12Q162 -12 120 17T57 92T37 185Q37 235 56 274T106 340T176 381T251 395Q279 395 305 388T348 367T365 338Q365 326 358 318T336 309Q322 309 312 318T296 337Q284 354 268 364T219 375Q158 375 126 331T94
214Q94 163 112 119T167 47T265 19Q291 19 318 26T368 54Q371 56 374 52T375 46Q341 15 306 2T230 -12ZM226 -2Q213 -41 211 -57T219 -81T255 -104Q276 -116 292 -134T309 -181Q309 -202 299 -223T267 -260T210 -275Q185 -275 167 -266T148 -239Q148 -226 156 -219T176
-212Q188 -212 193 -218T203 -234T215 -249T239 -256Q276 -256 276 -215Q276 -189 258 -169T190 -122Q175 -114 174 -110T180 -91Q187 -74 191 -64T200 -40T214 -1L226 -2Z" />
<glyph unicode="&#xe8;" horiz-adv-x="405" d="M215 -12Q156 -12 117 15T57 87T37 180Q37 241 65 289T140 366T244 395Q301 395 329 364T357 281Q357 268 355 262T345 256H298Q303 318 279 346T212 375Q156 375 125 333T94 216Q94 160 112 116T165 46T250 20Q285
20 307 30T351 54Q353 56 356 52T358 44Q323 14 288 1T215 -12ZM81 255L80 267L308 271V256L81 255ZM134 727Q133 731 140 731T157 729T176 723T185 716L241 476Q243 474 238 473T231 474L134 727Z" />
<glyph unicode="&#xe9;" horiz-adv-x="405" d="M215 -12Q156 -12 117 15T57 87T37 180Q37 241 65 289T140 366T244 395Q301 395 329 364T357 281Q357 268 355 262T345 256H298Q303 318 279 346T212 375Q156 375 125 333T94 216Q94 160 112 116T165 46T250 20Q285
20 307 30T351 54Q353 56 356 52T358 44Q323 14 288 1T215 -12ZM81 255L80 267L308 271V256L81 255ZM223 474Q222 471 217 472T212 476L269 716Q270 719 278 722T296 728T314 731T320 727L223 474Z" />
<glyph unicode="&#xea;" horiz-adv-x="405" d="M215 -12Q156 -12 117 15T57 87T37 180Q37 241 65 289T140 366T244 395Q301 395 329 364T357 281Q357 268 355 262T345 256H298Q303 318 279 346T212 375Q156 375 125 333T94 216Q94 160 112 116T165 46T250 20Q285
20 307 30T351 54Q353 56 356 52T358 44Q323 14 288 1T215 -12ZM81 255L80 267L308 271V256L81 255ZM304 476Q306 474 301 473T294 474L226 653L157 474Q156 471 151 472T146 476L214 725Q215 730 225 730T237 725L304 476Z" />
<glyph unicode="&#xeb;" horiz-adv-x="405" d="M215 -12Q156 -12 117 15T57 87T37 180Q37 241 65 289T140 366T244 395Q301 395 329 364T357 281Q357 268 355 262T345 256H298Q303 318 279 346T212 375Q156 375 125 333T94 216Q94 160 112 116T165 46T250 20Q285
20 307 30T351 54Q353 56 356 52T358 44Q323 14 288 1T215 -12ZM81 255L80 267L308 271V256L81 255ZM138 481Q119 481 109 491T98 519Q98 537 108 547T138 557Q156 557 166 547T176 519Q176 481 138 481ZM313 481Q295 481 284 491T273 519Q273 537 284 547T313
557Q352 557 352 519Q352 481 313 481Z" />
<glyph unicode="&#xec;" horiz-adv-x="275" d="M57 0Q55 0 55 6T57 12Q98 12 110 25T123 81V270Q123 306 116 322T90 339Q81 339 70 336T42 324Q38 323 36 328T37 336L161 394Q164 395 165 395Q167 395 169 393T172 388Q172 381 171 350T170 271V81Q170 38 181
25T235 12Q238 12 238 6T235 0Q218 0 195 1T146 2Q121 2 98 1T57 0ZM47 727Q46 731 53 731T70 729T89 723T98 716L154 476Q156 474 151 473T144 474L47 727Z" />
<glyph unicode="&#xed;" horiz-adv-x="275" d="M57 0Q55 0 55 6T57 12Q98 12 110 25T123 81V270Q123 306 116 322T90 339Q81 339 70 336T42 324Q38 323 36 328T37 336L161 394Q164 395 165 395Q167 395 169 393T172 388Q172 381 171 350T170 271V81Q170 38 181
25T235 12Q238 12 238 6T235 0Q218 0 195 1T146 2Q121 2 98 1T57 0ZM136 474Q135 471 130 472T125 476L182 716Q183 719 191 722T209 728T227 731T233 727L136 474Z" />
<glyph unicode="&#xee;" horiz-adv-x="275" d="M57 0Q55 0 55 6T57 12Q98 12 110 25T123 81V270Q123 306 116 322T90 339Q81 339 70 336T42 324Q38 323 36 328T37 336L161 394Q164 395 165 395Q167 395 169 393T172 388Q172 381 171 350T170 271V81Q170 38 181
25T235 12Q238 12 238 6T235 0Q218 0 195 1T146 2Q121 2 98 1T57 0ZM217 476Q219 474 214 473T207 474L139 653L70 474Q69 471 64 472T59 476L127 725Q128 730 138 730T150 725L217 476Z" />
<glyph unicode="&#xef;" horiz-adv-x="275" d="M57 0Q55 0 55 6T57 12Q98 12 110 25T123 81V270Q123 306 116 322T90 339Q81 339 70 336T42 324Q38 323 36 328T37 336L161 394Q164 395 165 395Q167 395 169 393T172 388Q172 381 171 350T170 271V81Q170 38 181
25T235 12Q238 12 238 6T235 0Q218 0 195 1T146 2Q121 2 98 1T57 0ZM68 481Q50 481 39 491T28 519Q28 537 39 547T68 557Q87 557 97 547T107 519Q107 501 97 491T68 481ZM209 481Q190 481 180 491T169 519Q169 537 179 547T209 557Q247 557 247 519Q247 481 209
481Z" />
<glyph unicode="&#xf0;" horiz-adv-x="470" d="M378 268Q363 321 323 351T228 381Q173 381 134 338T94 215Q94 159 113 111T168 34T251 5Q288 5 316 22T359 79T375 191Q375 274 353 353T291 501T201 625T90 716Q86 718 89 722T96 725Q174 689 236 634T342 513T409
373T433 227Q433 142 404 89T328 12T223 -13Q166 -13 124 14T60 87T37 186Q37 241 56 281T105 347T172 386T241 399Q276 399 309 386T367 347L378 268ZM125 484Q123 483 120 487T117 496T119 502L393 632Q396 633 398 629T401 620T399 614L125 484Z" />
<glyph unicode="&#xf1;" horiz-adv-x="515" d="M315 0Q312 0 312 6T315 12Q356 12 368 25T380 81V248Q380 309 357 337T285 365Q247 365 208 340T139 271L135 283Q182 345 225 372T312 399Q367 399 397 370T427 278V81Q427 38 438 25T492 12Q495 12 495 6T492
0Q475 0 452 1T404 2Q379 2 356 1T315 0ZM46 0Q43 0 43 6T46 12Q87 12 99 25T111 81V281Q111 315 103 330T75 346Q65 346 51 342T19 331Q15 330 13 335T14 342L125 394Q127 395 130 395Q137 395 147 375T158 315V81Q158 38 169 25T223 12Q226 12 226 6T223 0Q206
0 183 1T135 2Q110 2 87 1T46 0ZM346 522Q366 522 376 530T395 549Q397 551 400 548T402 542Q375 507 358 496T324 484Q301 484 281 490T239 503T192 509Q172 509 163 501T143 482Q141 481 138 483T136 489Q144 500 157 513T187 536T220 546Q238 546 257 540T299
528T346 522Z" />
<glyph unicode="&#xf2;" horiz-adv-x="477" d="M230 -13Q171 -13 128 16T61 93T37 198Q37 250 56 288T106 350T175 387T248 399Q308 399 351 369T417 292T440 193Q440 129 411 83T335 12T230 -13ZM258 5Q314 5 348 42T382 167Q382 228 361 276T303 352T215 380Q158
380 126 341T94 227Q94 168 114 117T172 36T258 5ZM148 727Q147 731 154 731T171 729T190 723T199 716L255 476Q257 474 252 473T245 474L148 727Z" />
<glyph unicode="&#xf3;" horiz-adv-x="477" d="M230 -13Q171 -13 128 16T61 93T37 198Q37 250 56 288T106 350T175 387T248 399Q308 399 351 369T417 292T440 193Q440 129 411 83T335 12T230 -13ZM258 5Q314 5 348 42T382 167Q382 228 361 276T303 352T215 380Q158
380 126 341T94 227Q94 168 114 117T172 36T258 5ZM237 474Q236 471 231 472T226 476L283 716Q284 719 292 722T310 728T328 731T334 727L237 474Z" />
<glyph unicode="&#xf4;" horiz-adv-x="477" d="M230 -13Q171 -13 128 16T61 93T37 198Q37 250 56 288T106 350T175 387T248 399Q308 399 351 369T417 292T440 193Q440 129 411 83T335 12T230 -13ZM258 5Q314 5 348 42T382 167Q382 228 361 276T303 352T215 380Q158
380 126 341T94 227Q94 168 114 117T172 36T258 5ZM318 476Q320 474 315 473T308 474L240 653L171 474Q170 471 165 472T160 476L228 725Q229 730 239 730T251 725L318 476Z" />
<glyph unicode="&#xf5;" horiz-adv-x="477" d="M230 -13Q171 -13 128 16T61 93T37 198Q37 250 56 288T106 350T175 387T248 399Q308 399 351 369T417 292T440 193Q440 129 411 83T335 12T230 -13ZM258 5Q314 5 348 42T382 167Q382 228 361 276T303 352T215 380Q158
380 126 341T94 227Q94 168 114 117T172 36T258 5ZM316 522Q336 522 346 530T365 549Q367 551 370 548T372 542Q345 507 328 496T294 484Q271 484 251 490T209 503T162 509Q142 509 133 501T113 482Q111 481 108 483T106 489Q114 500 127 513T157 536T190 546Q208
546 227 540T269 528T316 522Z" />
<glyph unicode="&#xf6;" horiz-adv-x="477" d="M230 -13Q171 -13 128 16T61 93T37 198Q37 250 56 288T106 350T175 387T248 399Q308 399 351 369T417 292T440 193Q440 129 411 83T335 12T230 -13ZM258 5Q314 5 348 42T382 167Q382 228 361 276T303 352T215 380Q158
380 126 341T94 227Q94 168 114 117T172 36T258 5ZM152 481Q133 481 123 491T112 519Q112 537 122 547T152 557Q170 557 180 547T190 519Q190 481 152 481ZM327 481Q309 481 298 491T287 519Q287 537 298 547T327 557Q366 557 366 519Q366 481 327 481Z" />
<glyph unicode="&#xf7;" horiz-adv-x="398" d="M34 171Q31 171 30 180T30 199T33 208H364Q367 208 368 199T368 181T364 171H34ZM198 -11Q179 -11 169 -1T158 28Q158 45 168 55T198 65Q216 65 226 55T236 28Q236 10 226 0T198 -11ZM198 320Q179 320 169 330T158
359Q158 376 168 386T198 396Q216 396 226 386T236 359Q236 320 198 320Z" />
<glyph unicode="&#xf8;" horiz-adv-x="477" d="M49 -14Q48 -16 44 -14T37 -7T36 0L422 398Q424 400 428 398T436 392T436 386L49 -14ZM230 -13Q171 -13 128 16T61 93T37 198Q37 250 56 288T106 350T175 387T248 399Q308 399 351 369T417 292T440 193Q440 129 411
83T335 12T230 -13ZM258 5Q314 5 348 42T382 167Q382 228 361 276T303 352T215 380Q158 380 126 341T94 227Q94 168 114 117T172 36T258 5Z" />
<glyph unicode="&#xf9;" horiz-adv-x="490" d="M180 -7Q132 -7 104 23T76 115V270Q76 311 70 328T47 346Q32 346 11 336Q7 334 5 340T6 347L111 394Q113 395 115 395Q117 395 120 393T123 388V145Q123 84 144 56T207 27Q248 27 289 51T361 119L366 108Q317 46
272 20T180 -7ZM389 388V105Q389 71 397 56T426 40Q437 40 450 44T482 55Q487 57 489 52T487 44L375 -8Q373 -9 371 -9Q364 -9 354 11T343 71V270Q343 311 337 328T313 346Q298 346 277 336Q273 334 271 340T273 347L378 394Q380 395 381 395Q383 395 386 393T389
388ZM142 727Q141 731 148 731T165 729T184 723T193 716L249 476Q251 474 246 473T239 474L142 727Z" />
<glyph unicode="&#xfa;" horiz-adv-x="490" d="M180 -7Q132 -7 104 23T76 115V270Q76 311 70 328T47 346Q32 346 11 336Q7 334 5 340T6 347L111 394Q113 395 115 395Q117 395 120 393T123 388V145Q123 84 144 56T207 27Q248 27 289 51T361 119L366 108Q317 46
272 20T180 -7ZM389 388V105Q389 71 397 56T426 40Q437 40 450 44T482 55Q487 57 489 52T487 44L375 -8Q373 -9 371 -9Q364 -9 354 11T343 71V270Q343 311 337 328T313 346Q298 346 277 336Q273 334 271 340T273 347L378 394Q380 395 381 395Q383 395 386 393T389
388ZM231 474Q230 471 225 472T220 476L277 716Q278 719 286 722T304 728T322 731T328 727L231 474Z" />
<glyph unicode="&#xfb;" horiz-adv-x="490" d="M180 -7Q132 -7 104 23T76 115V270Q76 311 70 328T47 346Q32 346 11 336Q7 334 5 340T6 347L111 394Q113 395 115 395Q117 395 120 393T123 388V145Q123 84 144 56T207 27Q248 27 289 51T361 119L366 108Q317 46
272 20T180 -7ZM389 388V105Q389 71 397 56T426 40Q437 40 450 44T482 55Q487 57 489 52T487 44L375 -8Q373 -9 371 -9Q364 -9 354 11T343 71V270Q343 311 337 328T313 346Q298 346 277 336Q273 334 271 340T273 347L378 394Q380 395 381 395Q383 395 386 393T389
388ZM312 476Q314 474 309 473T302 474L234 653L165 474Q164 471 159 472T154 476L222 725Q223 730 233 730T245 725L312 476Z" />
<glyph unicode="&#xfc;" horiz-adv-x="490" d="M180 -7Q132 -7 104 23T76 115V270Q76 311 70 328T47 346Q32 346 11 336Q7 334 5 340T6 347L111 394Q113 395 115 395Q117 395 120 393T123 388V145Q123 84 144 56T207 27Q248 27 289 51T361 119L366 108Q317 46
272 20T180 -7ZM389 388V105Q389 71 397 56T426 40Q437 40 450 44T482 55Q487 57 489 52T487 44L375 -8Q373 -9 371 -9Q364 -9 354 11T343 71V270Q343 311 337 328T313 346Q298 346 277 336Q273 334 271 340T273 347L378 394Q380 395 381 395Q383 395 386 393T389
388ZM146 481Q127 481 117 491T106 519Q106 537 116 547T146 557Q164 557 174 547T184 519Q184 481 146 481ZM321 481Q303 481 292 491T281 519Q281 537 292 547T321 557Q360 557 360 519Q360 481 321 481Z" />
<glyph unicode="&#xfd;" horiz-adv-x="437" d="M429 386Q432 386 432 380T429 374Q406 374 389 360T357 305L232 -28Q196 -124 163 -179T95 -258T14 -281Q-5 -281 -19 -272T-34 -244Q-34 -232 -26 -226T-7 -219Q13 -219 23 -224T43 -236T69 -242Q94 -242 117 -219T166
-141T229 9V-13L74 303Q52 347 40 360T8 374Q6 374 6 380T8 386Q23 386 39 385T70 384Q102 384 126 385T171 386Q173 386 173 380T171 374Q140 374 122 366T115 335L255 48L235 11L336 301Q351 345 335 359T263 374Q261 374 261 380T263 386Q287 386 308 385T364
384Q385 384 398 385T429 386ZM223 474Q222 471 217 472T212 476L269 716Q270 719 278 722T296 728T314 731T320 727L223 474Z" />
<glyph unicode="&#xfe;" horiz-adv-x="490" d="M15 -275Q13 -275 13 -269T15 -263Q56 -263 68 -250T81 -194V600Q81 636 74 652T48 669Q32 669 0 654Q-4 652 -6 658T-5 665L116 724Q118 725 120 725Q122 725 124 723T127 718V-194Q127 -222 135 -237T165 -257T230
-263Q233 -263 233 -269T230 -275Q204 -275 172 -274T105 -273Q80 -273 57 -274T15 -275ZM239 -13Q200 -13 171 -3T106 35L116 88Q144 53 179 30T271 7Q324 7 361 54T398 184Q398 273 359 319T264 366Q219 366 184 340T116 278L108 285Q158 344 205 371T301 399Q341
399 375 378T431 315T453 215Q453 155 432 112T378 42T308 1T239 -13Z" />
<glyph unicode="&#xff;" horiz-adv-x="437" d="M429 386Q432 386 432 380T429 374Q406 374 389 360T357 305L232 -28Q196 -124 163 -179T95 -258T14 -281Q-5 -281 -19 -272T-34 -244Q-34 -232 -26 -226T-7 -219Q13 -219 23 -224T43 -236T69 -242Q94 -242 117 -219T166
-141T229 9V-13L74 303Q52 347 40 360T8 374Q6 374 6 380T8 386Q23 386 39 385T70 384Q102 384 126 385T171 386Q173 386 173 380T171 374Q140 374 122 366T115 335L255 48L235 11L336 301Q351 345 335 359T263 374Q261 374 261 380T263 386Q287 386 308 385T364
384Q385 384 398 385T429 386ZM138 481Q119 481 109 491T98 519Q98 537 108 547T138 557Q156 557 166 547T176 519Q176 481 138 481ZM313 481Q295 481 284 491T273 519Q273 537 284 547T313 557Q352 557 352 519Q352 481 313 481Z" />
<glyph unicode="&#x2013;" horiz-adv-x="515" d="M34 171Q31 171 30 180T30 199T33 208H481Q484 208 485 199T485 181T481 171H34Z" />
<glyph unicode="&#x2014;" horiz-adv-x="830" d="M34 171Q31 171 30 180T30 199T33 208H796Q799 208 800 199T800 181T796 171H34Z" />
<glyph unicode="&#x2018;" horiz-adv-x="196" d="M107 392Q79 392 62 413T45 477Q45 521 63 559T114 633Q118 636 121 633T122 626Q100 593 94 566T87 508Q87 479 96 462T116 434L78 427Q77 444 87 453T112 462Q129 462 138 453T148 427Q148 410 138 401T107 392Z" />
<glyph unicode="&#x2019;" horiz-adv-x="194" d="M87 635Q116 635 132 614T149 550Q149 506 131 468T80 394Q76 391 73 394T72 401Q95 434 101 461T107 519Q107 548 98 565T78 593L116 600Q117 583 107 574T82 565Q65 565 56 574T46 600Q46 617 56 626T87 635Z" />
<glyph unicode="&#x201a;" horiz-adv-x="194" d="M87 62Q116 62 132 41T149 -23Q149 -67 131 -105T80 -179Q76 -182 73 -179T72 -172Q95 -139 101 -112T107 -54Q107 -25 98 -8T78 20L116 27Q117 10 107 1T82 -8Q65 -8 56 1T46 27Q46 44 56 53T87 62Z" />
<glyph unicode="&#x201c;" horiz-adv-x="335" d="M108 392Q80 392 63 413T46 477Q46 521 64 559T115 633Q119 636 122 633T123 626Q101 593 95 566T88 508Q88 479 97 462T117 434L79 427Q78 444 88 453T113 462Q130 462 139 453T149 427Q149 410 139 401T108 392ZM248
392Q220 392 203 413T186 477Q186 521 204 559T255 633Q259 636 262 633T263 626Q241 593 235 566T228 508Q228 479 237 462T257 434L219 427Q218 444 228 453T253 462Q270 462 279 453T289 427Q289 410 279 401T248 392Z" />
<glyph unicode="&#x201d;" horiz-adv-x="335" d="M227 635Q256 635 272 614T289 550Q289 506 271 468T220 394Q216 391 213 394T212 401Q235 434 241 461T247 519Q247 548 238 565T218 593L256 600Q257 583 247 574T222 565Q205 565 196 574T186 600Q186 617 196
626T227 635ZM87 635Q116 635 132 614T149 550Q149 506 131 468T80 394Q76 391 73 394T72 401Q95 434 101 461T107 519Q107 548 98 565T78 593L116 600Q117 583 107 574T82 565Q65 565 56 574T46 600Q46 617 56 626T87 635Z" />
<glyph unicode="&#x201e;" horiz-adv-x="335" d="M227 62Q256 62 272 41T289 -23Q289 -67 271 -105T220 -179Q216 -182 213 -179T212 -172Q235 -139 241 -112T247 -54Q247 -25 238 -8T218 20L256 27Q257 10 247 1T222 -8Q205 -8 196 1T186 27Q186 44 196 53T227
62ZM87 62Q116 62 132 41T149 -23Q149 -67 131 -105T80 -179Q76 -182 73 -179T72 -172Q95 -139 101 -112T107 -54Q107 -25 98 -8T78 20L116 27Q117 10 107 1T82 -8Q65 -8 56 1T46 27Q46 44 56 53T87 62Z" />
<glyph unicode="&#x2022;" horiz-adv-x="301" d="M151 156Q125 156 104 168T71 201T58 248Q58 273 70 293T104 326T151 339Q176 339 196 327T229 294T242 248Q242 222 230 201T197 168T151 156Z" />
<glyph unicode="&#x2039;" horiz-adv-x="304" d="M235 40L61 189Q57 194 57 201T61 212L235 361Q237 364 240 361T242 356L112 201L242 46Q243 44 240 41T235 40Z" />
<glyph unicode="&#x203a;" horiz-adv-x="304" d="M69 361L243 212Q248 208 248 201T243 189L69 40Q68 37 65 40T62 46L192 200L62 356Q61 358 64 361T69 361Z" />
</font>
</defs>
</svg>
