<?xml version="1.0" standalone="no"?>
<!DOCTYPE svg PUBLIC "-//W3C//DTD SVG 1.1//EN" "http://www.w3.org/Graphics/SVG/1.1/DTD/svg11.dtd">
<svg xmlns="http://www.w3.org/2000/svg">
<defs >
<font id="Coda" horiz-adv-x="906" ><font-face
    font-family="Coda"
    units-per-em="2048"
    panose-1="2 11 5 0 0 0 0 0 0 4"
    ascent="2124"
    descent="-784"
    alphabetic="0" />
<glyph unicode=" " horiz-adv-x="399" />
<glyph unicode="!" horiz-adv-x="492" d="M148 0Q148 38 148 114T149 228H345Q345 190 345 114T346 0H148ZM272 498T246 498T217 534Q138 1364 138 1418Q138 1490 162 1523T246 1556T330 1523T354 1418Q354 1364 275 534Q272 498 246 498Z" />
<glyph unicode="&quot;" horiz-adv-x="697" d="M200 929Q125 1284 125 1363Q125 1440 142 1470T212 1500Q298 1500 298 1378Q298 1341 280 1228T244 1018L225 923L200 929ZM479 929Q404 1284 404 1363Q404 1440 421 1470T491 1500Q577 1500 577 1378Q577 1341
559 1228T522 1018L504 923L479 929Z" />
<glyph unicode="#" horiz-adv-x="1418" d="M1275 406H996L926 0H750L820 406H492L420 0H243L312 406H37L64 561H338L405 963H135L162 1131H434L498 1490H680L617 1131H939L1001 1490H1177L1116 1131H1389L1366 963H1088L1021 561H1298L1275 406ZM844 561L912 963H588L519
561H844Z" />
<glyph unicode="$" horiz-adv-x="1176" d="M608 -176V1641H702V-176H608ZM1156 502T1156 437T1152 320T1138 224T1115 147T1081 89T1038 45T982 15T915 -5T835 -17T744 -22T637 -24Q518 -24 438 -17T301 13T213 60T164 138T141 241T131 380L316 410Q319 388 322
348Q328 286 333 261T355 204T405 164T494 147T641 140Q729 140 784 144T875 157T927 183T949 222T955 281Q955 297 955 326Q955 517 945 577T883 646L385 733Q255 755 204 832T150 1081Q150 1173 159 1238T192 1353T250 1433T341 1481T465 1506T631 1513Q711 1513
768 1510T880 1497T971 1472T1037 1431T1085 1369T1111 1283T1120 1170L942 1129Q932 1239 929 1254Q917 1305 872 1323Q822 1344 663 1344Q576 1344 520 1339T427 1325T374 1296T350 1256T344 1199V1026Q344 934 426 918L784 857Q845 845 873 839T947 819T1013
793T1064 758T1106 709T1132 642T1151 553Z" />
<glyph unicode="%" horiz-adv-x="2216" d="M2099 480Q2099 298 2023 232T1748 166Q1695 166 1655 168T1581 181T1522 198T1478 229T1446 269T1424 326T1411 394T1405 481T1402 583T1401 706Q1401 801 1418 861T1479 957T1585 1006T1748 1020Q1814 1020 1861 1016T1947
996T2010 966T2052 913T2078 845T2092 748T2098 630T2099 480ZM1381 1573Q1110 454 999 1H831Q1007 728 1210 1573H1381ZM1944 628Q1944 785 1935 821Q1924 867 1884 880Q1854 889 1748 889Q1714 889 1698 889T1657 887T1624 883T1600 874T1580 860T1567 839T1558
811T1553 772T1549 723T1549 661Q1549 630 1549 577Q1548 496 1548 464T1555 390T1569 338T1602 314T1653 299T1731 298Q1786 298 1816 299T1874 310T1913 330T1932 368T1942 426T1944 512V628ZM816 898Q816 716 740 650T465 584Q412 584 372 586T298 599T239 616T195
647T163 687T141 744T128 812T122 899T119 1001T118 1124Q118 1219 135 1279T196 1375T302 1424T465 1438Q531 1438 578 1434T664 1414T727 1384T769 1331T795 1263T809 1166T815 1048T816 898ZM661 1046Q661 1203 652 1239Q641 1285 601 1298Q571 1307 465 1307Q431
1307 415 1307T374 1305T341 1301T317 1292T297 1278T284 1257T275 1229T270 1190T266 1141T266 1079Q266 1048 266 995Q265 914 265 882T272 808T286 756T319 732T370 717T448 716Q503 716 533 717T591 728T630 748T649 786T659 844T661 930V1046Z" />
<glyph unicode="&amp;" horiz-adv-x="1386" d="M1179 250Q1179 196 1162 154T1117 83T1044 34T954 3T845 -14T730 -21T606 -23Q491 -23 414 -13T276 24T180 99T129 221T112 402Q112 584 167 694T326 825Q175 872 175 1183Q178 1253 193 1306T228 1395T287 1455T357
1493T445 1512T541 1520T648 1522Q743 1522 801 1520T923 1512T1022 1492T1089 1457T1135 1401T1154 1322Q1161 1269 1161 1208L1009 1183Q1007 1226 1000 1256T977 1305T944 1334T895 1350T832 1356T752 1357Q723 1357 707 1357Q518 1356 469 1344Q407 1330 388
1281Q372 1232 372 1089Q372 992 390 939T437 870T515 853H996V962H1179V853H1312V728L1178 727Q1179 359 1179 250ZM996 236V728H459Q427 728 404 720T365 699T338 660T321 610T312 541T309 461T308 362Q308 327 309 308T313 263T322 225T340 197T369 174T411
158T469 146T545 140T642 138Q834 138 911 161T996 236Z" />
<glyph unicode="&apos;" horiz-adv-x="434" d="M200 929Q125 1284 125 1363Q125 1440 142 1470T212 1500Q298 1500 298 1378Q298 1341 280 1228T244 1018L225 923L200 929Z" />
<glyph unicode="(" horiz-adv-x="653" d="M119 727V729Q119 887 135 1021T191 1275T291 1481T442 1621T651 1685L666 1548Q568 1533 498 1470T388 1297T329 1049T310 728T328 408T387 160T498 -13T666 -92L651 -229Q534 -219 443 -165T291 -25T192 180T136 434T119 727Z" />
<glyph unicode=")" horiz-adv-x="649" d="M534 729V727Q534 569 518 435T462 181T362 -25T211 -165T2 -229L-13 -92Q85 -77 155 -14T265 159T324 407T343 728T325 1048T266 1296T155 1469T-13 1548L2 1685Q119 1675 210 1621T362 1481T461 1276T517 1022T534 729Z" />
<glyph unicode="*" horiz-adv-x="1014" d="M698 574Q674 574 652 598T612 658T578 749T550 851T524 957Q519 978 517 988Q507 950 495 902T474 825T457 759T440 702T424 657T405 620T385 595T362 579T334 574Q307 574 281 597T255 648Q255 671 266 699T292 750T339
814T393 878T463 955Q488 983 501 997Q488 993 428 975T347 951T284 934T216 919T168 915Q67 915 67 1006Q67 1096 166 1096Q201 1096 263 1081T405 1041T501 1012Q245 1289 245 1344Q245 1384 268 1410T332 1436Q354 1436 374 1422T411 1372T441 1308T469 1220T492
1132T514 1035Q515 1031 515 1028T517 1022Q527 1060 538 1114Q538 1115 541 1132T549 1171T561 1223T578 1281T599 1338T626 1388T658 1422T696 1436Q727 1436 751 1412T776 1353Q776 1308 728 1238T534 1012Q576 1025 647 1047T742 1076T801 1089T865 1096Q964
1096 964 1006Q964 915 861 915Q833 915 785 925T701 946T606 975T534 997Q790 715 790 664Q790 624 765 599T698 574Z" />
<glyph unicode="+" horiz-adv-x="889" d="M58 585V754H365V1117H531V754H839V585H531V223H365V585H58Z" />
<glyph unicode="," horiz-adv-x="515" d="M95 -159Q162 -159 214 -112T267 0Q204 0 164 45T123 154Q123 221 162 265T270 309Q334 309 372 257T411 130Q411 46 377 -37T283 -176T155 -231Q110 -231 95 -227V-159Z" />
<glyph unicode="-" horiz-adv-x="847" d="M132 538V677H719V538H132Z" />
<glyph unicode="." horiz-adv-x="500" d="M392 117Q392 46 352 8T254 -31T154 8T111 117Q111 187 151 225T248 264Q306 264 349 225T392 117Z" />
<glyph unicode="/" horiz-adv-x="629" d="M581 1516L215 -26H36L403 1516H581Z" />
<glyph unicode="0" horiz-adv-x="1260" d="M632 -16Q539 -16 468 -7T345 32T256 88T196 175T159 282T139 421T132 582T130 776Q130 860 131 921T138 1048T151 1160T174 1254T208 1334T257 1396T321 1445T403 1479T506 1500T632 1506Q727 1506 799 1493T924 1456T1015
1388T1075 1296T1112 1171T1129 1017T1134 829Q1134 502 1122 391Q1101 188 1017 98Q917 -8 676 -15Q655 -16 632 -16ZM632 1357Q481 1357 407 1315T327 1179Q323 1116 321 1044T318 881T315 740Q315 473 326 301Q331 216 404 177T632 138T860 177T938 301Q949
473 949 740Q947 788 945 943T937 1179Q931 1272 857 1314T632 1357Z" />
<glyph unicode="1" horiz-adv-x="584" d="M417 0H230V1244H45V1336Q205 1342 262 1482H417V0Z" />
<glyph unicode="2" horiz-adv-x="1095" d="M957 9H94Q95 165 114 259T180 419T314 546Q373 587 443 630T554 696T639 752T707 812T752 881T781 974T789 1098Q789 1141 789 1164T785 1219T775 1267T757 1303T728 1332T685 1351T626 1364T548 1368Q465 1368 418
1361T334 1327T281 1254T257 1125L109 1160Q108 1169 108 1187Q108 1358 215 1432T533 1507Q615 1507 674 1501T785 1477T871 1431T929 1356T964 1247T975 1098Q975 960 942 867T846 713T675 594Q649 579 607 555T542 518T485 484T432 449T388 413T349 373T319
328T295 276T282 216T275 146H957V9Z" />
<glyph unicode="3" horiz-adv-x="1124" d="M1002 420Q1002 314 980 238T919 112T816 35T678 -5T502 -16Q395 -16 322 -5T192 37T107 124T79 265Q79 304 80 328L240 351Q241 339 242 318T245 279T249 245Q257 175 319 149T526 122Q603 122 650 124T732 143T783
173T808 231T819 308T820 421Q820 423 820 424Q820 507 806 558T773 638T697 680T595 695T441 698Q437 698 435 698L427 840Q550 840 588 841Q655 843 698 857T764 889T798 954T811 1036T813 1155Q813 1166 813 1172Q813 1232 804 1266T765 1325T681 1359T534 1368Q381
1368 323 1344T260 1253L251 1144L97 1174V1202Q97 1273 107 1319T144 1403T222 1461T351 1493T546 1506Q779 1506 886 1418T993 1134Q993 1043 976 974T935 869T880 810T828 781T788 770Q783 769 781 769Q796 766 807 764T843 751T885 726T927 684T965 623T990
536T1002 420Z" />
<glyph unicode="4" horiz-adv-x="1060" d="M991 390H852V0H667V389H45V539L563 1482H852V521H991V390ZM667 1379Q650 1344 616 1277T570 1185L335 713Q319 680 286 616T238 521H667V1379Z" />
<glyph unicode="5" horiz-adv-x="1197" d="M1088 460Q1088 359 1078 287T1042 160T980 73T884 20T754 -8T583 -16Q523 -16 477 -13T383 -2T301 20T236 56T185 111T155 187T144 289Q144 299 145 320T146 354L297 375Q302 316 307 284T324 221T352 176T402 151T476
136T584 133Q670 133 730 145T826 176T880 229T905 297T911 381Q911 402 910 450T908 526Q908 578 908 605T903 666T891 715T869 749T833 775T779 789T706 798T608 800Q564 800 537 799T477 794T424 779T384 753T351 711T333 649L159 662V1484H1001V1330H356L324
761Q339 798 352 822T391 873T448 915T531 941T648 951Q742 951 811 940T930 901T1009 837T1057 742T1081 618T1088 460Z" />
<glyph unicode="6" horiz-adv-x="1245" d="M1138 488Q1138 386 1130 314T1101 183T1046 88T959 28T835 -6T667 -16Q541 -16 457 -6T312 38T217 114T164 240T139 414T134 655Q134 983 143 1082Q160 1285 236 1375Q324 1480 541 1496Q589 1500 644 1500Q711 1500
758 1498T857 1487T942 1464T1004 1424T1046 1361T1060 1272Q1060 1253 1052 1173Q967 1164 892 1152Q892 1197 892 1218T888 1267T879 1305T861 1331T833 1349T790 1358T732 1363T654 1364Q475 1359 410 1324T337 1187Q327 963 323 782Q352 835 391 870T498 926T657
948Q728 948 781 945T883 932T966 906T1031 865T1079 806T1112 725T1131 620T1138 488ZM956 333Q956 612 954 643Q949 732 885 762T642 794Q563 794 508 788T417 763T362 728T333 673T322 608T320 524Q320 493 319 442T318 370Q318 313 323 279T347 211T400 160T494
132T641 121Q705 121 752 125T833 135T889 156T925 184T945 223T954 271T956 333Z" />
<glyph unicode="7" horiz-adv-x="847" d="M777 1482V1312Q476 533 330 0H146Q331 630 608 1330H33V1482H777Z" />
<glyph unicode="8" horiz-adv-x="1223" d="M633 -16H635Q524 -16 448 -6T311 29T215 100T162 215T144 383Q144 550 189 643T326 798Q217 878 217 1132Q217 1342 314 1424T634 1506T953 1424T1051 1132Q1051 878 942 798Q1033 736 1078 643T1124 383Q1124 284 1106
215T1054 101T958 30T820 -6T633 -16ZM633 711H635Q572 711 542 710T470 706T411 693T372 670T343 631T329 573T323 493Q323 459 322 402T320 320Q320 280 326 253T350 200T403 160T494 136T634 127T773 136T865 159T917 200T942 253T948 320Q948 344 947 401T945
493Q945 540 939 573T926 630T896 669T857 693T799 705T727 710T633 711ZM633 1358H635Q587 1358 556 1357T496 1351T451 1341T422 1323T402 1296T392 1257T387 1207T386 1141Q386 904 463 855H633H805Q882 904 882 1141Q882 1183 882 1207T877 1257T866 1296T847
1322T817 1341T773 1351T713 1357T633 1358Z" />
<glyph unicode="9" horiz-adv-x="1249" d="M1118 841Q1118 495 1109 393Q1093 198 1024 115Q947 22 760 4Q702 -2 627 -2Q568 -2 529 -1T437 4T351 17T280 40T222 78T186 132T172 207Q172 262 181 317Q262 326 340 338Q340 299 340 279T345 233T355 194T376 167T409
147T458 135T526 127T617 125Q711 127 763 134T850 162T897 214T916 302Q926 532 930 719Q840 553 605 553Q510 553 444 560T321 585T229 635T170 717T135 837T125 1002Q125 1106 134 1181T165 1313T222 1407T310 1465T432 1497T595 1506Q719 1506 801 1496T943
1452T1037 1376T1089 1251T1113 1078T1118 841ZM933 1080Q933 1147 932 1177T921 1249T894 1307T840 1341T752 1364T620 1369Q489 1369 423 1352T335 1303T309 1206Q305 1056 305 979Q305 913 306 882T318 812T346 760T401 731T489 711T621 706Q788 706 857 742T931
870Q933 939 933 1080Z" />
<glyph unicode=":" horiz-adv-x="537" d="M413 360T413 288T371 176T272 136T174 176T133 288Q133 361 174 401T271 441Q328 441 370 401ZM133 1079Q133 1152 174 1192T272 1232T371 1192T413 1079Q413 1006 372 966T274 925T175 966T133 1079Z" />
<glyph unicode=";" horiz-adv-x="547" d="M423 1079Q423 1011 386 968T283 925Q221 925 182 969T143 1079Q143 1146 180 1189T283 1233Q344 1233 383 1188T423 1079ZM111 -29Q178 -29 230 18T283 130Q221 130 180 175T138 285T178 394T285 439Q348 439 387 386T427
260Q427 175 393 92T298 -46T170 -101Q126 -101 111 -97V-29Z" />
<glyph unicode="&lt;" horiz-adv-x="874" d="M761 234L65 667V832L761 1281V1045L242 758L761 462V234Z" />
<glyph unicode="=" horiz-adv-x="1138" d="M988 692H153V881H988V692ZM988 314H153V503H988V314Z" />
<glyph unicode="&gt;" horiz-adv-x="878" d="M819 667L121 234V461L641 757L121 1045V1281L819 832V667Z" />
<glyph unicode="?" horiz-adv-x="764" d="M691 1161Q690 973 521 803Q358 639 347 483H244Q244 621 281 712T411 926Q457 987 475 1034T494 1149Q494 1234 448 1283T314 1333Q248 1333 87 1293L66 1457Q208 1522 321 1522Q501 1522 596 1430T691 1161ZM427 117Q427
46 387 8T289 -31T189 8T146 117Q146 187 186 225T283 264Q341 264 384 225T427 117Z" />
<glyph unicode="@" horiz-adv-x="1968" d="M614 1014Q614 1069 627 1110T668 1179T731 1224T819 1251T923 1263T1048 1266Q1436 1266 1436 944V215Q1577 215 1615 241Q1629 251 1636 260T1651 282T1662 317T1669 364T1673 437T1674 535T1675 670Q1675 785 1670
871T1653 1039T1618 1179T1560 1288T1477 1371T1362 1428T1211 1462T1019 1472Q880 1472 774 1452T586 1388T451 1280T362 1123T312 918T297 659Q297 507 309 394T350 183T426 21T546 -90T715 -159T942 -184Q1182 -184 1571 -77L1619 -224Q1344 -344 1014 -344Q758
-344 589 -294T310 -127T154 172T107 627Q107 892 155 1078T309 1391T586 1576T1000 1635Q1132 1635 1237 1623T1429 1583T1579 1515T1693 1415T1774 1283T1826 1114T1854 909T1863 662Q1863 577 1861 520T1853 401T1835 300T1804 222T1756 161T1688 120T1596 95T1476
87Q1324 87 1310 212Q1276 61 893 61Q697 61 624 134T551 410Q551 599 620 685T858 772Q1015 772 1239 732V959Q1239 1008 1232 1037T1206 1081T1164 1100T1100 1105H891Q840 1105 813 1081T785 992Q785 939 789 903H626Q614 963 614 1014ZM985 200Q1069 200 1121
209T1202 242T1239 296T1249 376Q1249 407 1244 494T1239 624H1033Q1001 624 953 624T888 625Q863 625 846 625T813 621T787 614T768 601T753 584T743 559T737 526T734 483T732 431T732 366Q732 323 736 299T754 253T796 221T870 206T985 200Z" />
<glyph unicode="A" horiz-adv-x="1268" d="M1221 0H1015L902 381H351L242 0H47L504 1490H775L1221 0ZM860 525L734 972L630 1338Q572 1131 528 982L394 525H860Z" />
<glyph unicode="B" horiz-adv-x="1320" d="M1216 429Q1215 366 1212 319T1200 229T1183 158T1155 104T1117 63T1066 35T1001 16T919 6T820 1T700 0H166V1490H732Q845 1490 919 1479T1051 1437T1135 1352T1162 1212L1163 1104Q1163 1036 1158 993T1141 915T1103
860T1043 827T951 803Q1019 796 1068 773T1145 718T1190 637T1211 541T1216 429ZM965 1147Q965 1149 965 1153Q965 1195 965 1212T960 1255T949 1289T924 1310T885 1326T826 1333T745 1338T636 1338H367V860H568Q699 860 780 867T900 893T952 933T965 989V1147ZM1018
477Q1016 596 1009 627Q995 682 940 702Q872 728 636 729Q620 729 601 729H367V151H749Q865 151 924 170T1002 229T1020 344L1018 477Z" />
<glyph unicode="C" horiz-adv-x="1323" d="M1042 462L1216 436Q1211 340 1199 273T1164 152T1106 67T1019 13T899 -16T738 -24Q648 -24 577 -20T448 0T346 30T269 79T213 140T175 222T151 320T139 442T133 582T132 748Q132 860 133 928T139 1076T151 1200T175
1296T213 1374T268 1430T342 1471T441 1495T565 1510T720 1513Q811 1513 875 1507T995 1482T1087 1433T1150 1353T1193 1238T1215 1078L1040 1044Q1035 1095 1031 1129T1020 1196T1008 1249T989 1289T967 1319T935 1338T897 1350T846 1357T784 1360T708 1360Q638
1360 594 1359T505 1352T435 1336T387 1308T356 1265T344 1203Q335 939 335 664Q335 472 344 289Q349 232 376 200T483 149T709 130Q787 130 840 134T929 155T984 185T1014 238T1029 303T1037 394Q1038 408 1038 416T1040 437T1042 462Z" />
<glyph unicode="D" horiz-adv-x="1405" d="M1273 876Q1273 739 1272 651T1262 470T1245 323T1212 213T1164 129T1092 72T998 33T874 13T720 2T528 0H166V1490H682Q808 1490 895 1480T1050 1441T1160 1369T1227 1255T1263 1094T1273 876ZM1072 873Q1072 965 1072
1005T1065 1107T1047 1190T1010 1248T952 1292T864 1316T742 1333T579 1336H369V153H609Q695 153 743 154T847 163T929 181T987 217T1030 273T1054 356T1069 470T1072 620V873Z" />
<glyph unicode="E" horiz-adv-x="1116" d="M1010 0H166V1490H1001L1021 1336H369V857H926V695H369V153H1030L1010 0Z" />
<glyph unicode="F" horiz-adv-x="1044" d="M989 1336H374V850H898V688H374V0H171V1490H969L989 1336Z" />
<glyph unicode="G" horiz-adv-x="1368" d="M1236 745V106Q1094 -24 661 -24Q576 -24 512 -17T394 1T302 38T235 92T188 170T159 270T142 399T134 554T132 744Q132 843 133 913T140 1056T155 1177T181 1275T220 1355T275 1416T348 1462T443 1491T561 1508T706 1513Q711
1513 721 1513Q791 1513 827 1512T924 1505T1019 1485T1095 1445T1159 1380T1196 1282T1212 1146Q1212 1128 1210 1096L1031 1062L1020 1259Q1018 1323 947 1341T678 1360Q543 1360 474 1344T378 1293T345 1192Q336 987 336 772Q336 556 345 352Q350 244 362 212Q381
163 449 146Q513 130 672 130Q1014 130 1051 176Q1050 279 1050 594H798L781 745H1236Z" />
<glyph unicode="H" horiz-adv-x="1404" d="M1238 0H1035V684H369V0H166V1490H369V842H1035V1490H1238V0Z" />
<glyph unicode="I" horiz-adv-x="547" d="M375 0H172V1490H375V0Z" />
<glyph unicode="J" horiz-adv-x="726" d="M560 1490V432Q560 371 559 332T555 244T544 165T524 100T494 46T449 9T388 -16T309 -24Q188 -24 71 29L92 183Q184 148 247 148Q312 148 334 189T357 307V1490H560Z" />
<glyph unicode="K" horiz-adv-x="1229" d="M1228 0H983L446 732L368 639V0H166V1490H368V983Q368 954 368 892T367 802Q382 821 482 949L921 1490H1162L604 829L1228 0Z" />
<glyph unicode="L" horiz-adv-x="999" d="M923 0H166V1490H369V153H943L923 0Z" />
<glyph unicode="M" horiz-adv-x="1671" d="M113 0L187 1499H407L837 326L1259 1499H1479L1558 0H1360L1308 1201L894 0H778L344 1192L300 0H113Z" />
<glyph unicode="N" horiz-adv-x="1431" d="M1265 0H1054L344 1177V0H166V1490H371L1087 297V1490H1265V0Z" />
<glyph unicode="O" horiz-adv-x="1420" d="M710 -24Q623 -24 556 -20T431 -1T334 28T261 77T207 140T171 228T149 333T138 468T133 624T132 812Q132 960 140 1058T171 1240T233 1372T338 1454T493 1501T710 1514Q831 1514 917 1502T1069 1460T1176 1384T1243 1264T1278
1099T1288 876Q1288 506 1277 389Q1258 189 1185 103Q1108 11 923 -13Q835 -24 710 -24ZM796 1360T710 1360T567 1356T468 1339T402 1310T365 1261T346 1192T339 1097Q336 912 336 725Q336 443 351 339Q375 183 442 159Q492 130 710 130T978 159Q997 166 1012 182T1038
225T1057 279T1070 350T1078 427T1082 515T1083 604T1084 697Q1084 899 1081 1097Q1079 1157 1075 1192T1056 1260T1018 1310T953 1339T853 1356Z" />
<glyph unicode="P" horiz-adv-x="1265" d="M1172 1004Q1172 913 1162 842T1136 721T1091 634T1031 576T955 542T867 525T765 521H368V0H166V1490H706Q799 1490 863 1483T983 1455T1071 1401T1128 1312T1161 1183T1172 1004ZM970 1015Q969 1087 966 1132T955 1217T933
1278T896 1314T841 1335T762 1340H368V672H721Q799 672 848 685T924 728T961 800T971 906Q971 922 971 958T970 1015Z" />
<glyph unicode="Q" horiz-adv-x="1420" d="M796 1360T710 1360T567 1356T468 1339T402 1310T365 1261T346 1192T339 1097Q336 912 336 725Q336 443 351 339Q375 183 442 159Q492 130 710 130T978 159Q997 166 1012 182T1038 225T1057 279T1070 350T1078 427T1082
515T1083 604T1084 697Q1084 899 1081 1097Q1079 1157 1075 1192T1056 1260T1018 1310T953 1339T853 1356ZM710 -24Q623 -24 556 -20T431 -1T334 28T261 77T207 140T171 228T149 333T138 468T133 624T132 812Q132 960 140 1058T171 1240T233 1372T338 1454T493
1501T710 1514Q831 1514 917 1502T1069 1460T1176 1384T1243 1264T1278 1099T1288 876Q1288 865 1288 843Q1288 719 1288 662T1285 511T1276 377T1260 272T1233 179T1192 112T1135 55T1059 18L1226 -243L1087 -358L864 -19Q806 -24 710 -24Z" />
<glyph unicode="R" horiz-adv-x="1325" d="M1199 1080Q1199 889 1127 797T926 683Q1118 644 1154 439L1231 0H1014Q1006 46 996 133T976 281T952 410T913 524T854 592Q800 615 677 615H368V0H166V1490H621Q693 1490 743 1489T850 1482T944 1468T1021 1444T1086
1407T1135 1355T1171 1285T1191 1194T1199 1080ZM999 1001V1140Q999 1178 998 1199T990 1245T972 1282T939 1307T886 1325T810 1333T705 1337H368V774H717Q794 774 844 782T925 804T973 848T994 911T999 1001Z" />
<glyph unicode="S" horiz-adv-x="1254" d="M1144 437Q1144 372 1140 320T1126 224T1103 147T1069 89T1026 45T970 15T903 -5T823 -17T732 -22T625 -24Q506 -24 426 -17T289 13T201 60T152 138T129 241T119 380L304 410Q307 388 310 348Q316 286 321 261T343 204T393
164T482 147T629 140Q705 140 754 144T840 160T896 189T926 238T941 308T943 404Q942 536 929 586T871 646L373 733Q243 755 192 832T138 1081Q138 1173 147 1238T180 1353T238 1433T329 1481T453 1506T619 1513Q699 1513 756 1510T868 1497T959 1472T1025 1431T1073
1369T1099 1283T1108 1170L930 1129Q920 1239 917 1254Q905 1305 860 1323Q810 1344 651 1344Q564 1344 508 1339T415 1325T362 1296T338 1256T332 1199V1026Q332 932 414 918L772 857Q822 849 852 843T921 827T982 806T1031 778T1073 740T1103 690T1126 625T1139
542T1144 437Z" />
<glyph unicode="T" horiz-adv-x="979" d="M976 1336H587V0H384V1336H3V1490H976V1336Z" />
<glyph unicode="U" horiz-adv-x="1429" d="M1277 1490V557Q1277 437 1267 351T1229 199T1162 91T1056 23T909 -14T713 -24Q602 -24 524 -15T380 18T274 83T204 189T164 344T152 557V1490H355V531Q355 448 355 411T361 321T374 248T400 199T442 163T507 144T595
132T714 130Q798 130 854 135T953 155T1017 189T1053 247T1071 326T1075 435L1074 1490H1277Z" />
<glyph unicode="V" horiz-adv-x="1227" d="M1202 1490L712 0H502L25 1490H240L611 259L982 1490H1202Z" />
<glyph unicode="W" horiz-adv-x="1739" d="M1688 1490L1372 0H1155L871 1173L589 0H373L45 1490H259L493 279L778 1490H979L1272 279L1500 1490H1688Z" />
<glyph unicode="X" horiz-adv-x="1190" d="M1140 0H918L594 590L271 0H50L479 766L71 1490H288L594 934L902 1490H1119L712 766L1140 0Z" />
<glyph unicode="Y" horiz-adv-x="1081" d="M1086 1490L635 518V0H433V518L-5 1490H216L541 727L872 1490H1086Z" />
<glyph unicode="Z" horiz-adv-x="1093" d="M990 0H101L91 176L662 1128L790 1338H156L139 1490H979L990 1311L431 361L305 151H990V0Z" />
<glyph unicode="[" horiz-adv-x="608" d="M619 -257H173V1653H619V1502H364V-105H619V-257Z" />
<glyph unicode="\" horiz-adv-x="644" d="M603 -26H404L61 1516H260L603 -26Z" />
<glyph unicode="]" horiz-adv-x="613" d="M442 -257H-3V-105H251V1502H-3V1653H442V-257Z" />
<glyph unicode="^" horiz-adv-x="801" d="M407 1627L176 1391L121 1445L313 1754Q348 1806 407 1806T501 1754L693 1445L638 1391L407 1627Z" />
<glyph unicode="_" horiz-adv-x="1118" d="M141 0H978V-127H141V0Z" />
<glyph unicode="`" horiz-adv-x="679" d="M278 1605Q295 1591 369 1517T508 1376L574 1308L557 1287L464 1322Q371 1357 272 1394T162 1436Q127 1451 109 1480T91 1540Q91 1581 119 1610T194 1640Q238 1640 278 1605Z" />
<glyph unicode="a" horiz-adv-x="1110" d="M960 0H804L772 157Q742 54 664 20T434 -15Q334 -15 270 4T168 70T116 182T101 354Q101 401 117 438T162 501T238 546T337 576T460 593T602 602T763 604V901Q763 952 715 971T544 991Q458 991 415 987T350 964T324 925T319
854Q318 835 318 824L165 830Q163 846 163 877Q163 944 182 990T233 1063T318 1105T425 1124T557 1128Q677 1128 752 1110T875 1043T941 921T960 726V0ZM763 314V485Q566 485 460 470T319 429T283 354Q283 352 283 348Q283 196 308 159T461 122Q570 122 638 148T732
214T763 314Z" />
<glyph unicode="b" horiz-adv-x="1181" d="M1057 611Q1057 535 1056 485T1052 376T1043 280T1027 200T1002 131T966 78T917 36T853 8T772 -10T672 -15Q410 -15 353 138L335 0H155V1519L352 1535V976Q385 1054 458 1091T656 1128Q724 1128 778 1120T873 1092T944
1050T994 990T1026 916T1046 827T1055 726T1057 611ZM860 761Q860 804 860 825T856 876T846 917T828 945T798 968T753 980T691 988T609 990Q508 990 452 976T370 927Q352 893 352 773V269Q352 187 410 155T610 122Q751 122 804 147Q861 167 861 349L860 761Z" />
<glyph unicode="c" horiz-adv-x="1093" d="M985 781L823 754L802 893Q794 941 783 954Q757 984 639 988Q611 989 577 989Q441 989 399 974Q353 966 332 883T311 680L312 507Q312 471 312 408Q312 326 312 293T321 217T341 164T385 139T453 124T559 123Q613 123
652 127T719 136T764 155T791 180T806 214T812 255T816 306T821 365L985 337Q979 259 972 212T947 121T903 55T830 14T722 -9T568 -15Q502 -15 450 -11T354 5T279 29T223 70T182 120T154 188T137 268T128 368T125 483T124 619Q124 699 127 757T139 869T162 958T201
1025T257 1074T335 1105T437 1123T567 1128Q662 1128 726 1119T841 1087T920 1025T965 926T985 781Z" />
<glyph unicode="d" horiz-adv-x="1180" d="M1025 0H845L826 138Q765 -15 507 -15Q438 -15 384 -6T290 25T222 70T176 138T147 219T131 321T125 434T124 566Q124 647 126 706T136 823T156 920T190 997T240 1056T311 1096T405 1121T525 1128Q654 1128 725 1094T828
984V1519L1025 1535V0ZM828 255V838Q828 925 774 957T571 990Q455 990 399 973Q353 959 337 891T321 706Q321 537 327 233Q332 167 380 145T571 122Q711 122 766 150T828 255Z" />
<glyph unicode="e" horiz-adv-x="1127" d="M1014 564Q894 552 865 550H320Q321 405 328 232Q333 165 385 144T590 122Q647 122 688 126T754 142T794 164T816 197T825 235T829 282T834 334L987 306Q985 236 977 188T950 102T905 44T835 8T738 -10T607 -15Q507 -15
433 -4T307 25T220 80T167 154T138 257T127 380T124 534Q124 672 127 749T147 903T190 1016T270 1081T395 1119T578 1128Q655 1128 711 1124T814 1105T891 1073T945 1020T981 948T1002 848T1012 723T1014 564ZM321 655H817Q815 783 807 889Q803 950 755 970T577
991Q434 991 396 975Q379 970 367 958T346 922T334 879T327 824T323 769T322 709T321 655Z" />
<glyph unicode="f" horiz-adv-x="653" d="M595 1505V1362Q541 1365 491 1365Q429 1365 416 1359Q394 1348 391 1292Q390 1271 390 1235Q390 1220 390 1175T391 1097H589V984H391V0H194V984H65V1097H194Q194 1152 194 1186T197 1263T202 1330T211 1384T226 1429T248
1464T277 1491T316 1508T364 1519T425 1522Q506 1522 595 1505Z" />
<glyph unicode="g" horiz-adv-x="1168" d="M1018 1097V139Q1018 40 1012 -28T988 -155T940 -249T861 -311T744 -347T583 -357Q387 -357 271 -316L284 -180Q396 -211 550 -211Q623 -211 673 -203T752 -183T796 -149T816 -104T821 -48L820 131Q793 61 727 29T541
-3Q455 -3 391 9T282 39T208 95T161 168T136 267T126 383T124 524Q124 637 126 701T135 839T158 952T199 1029T266 1086T362 1114T495 1125Q626 1125 705 1090T820 975L839 1097H1018ZM821 223V833Q821 917 766 953T567 990Q427 990 375 965Q319 938 319 746Q319
457 327 242Q330 195 351 173T425 143T588 134Q811 134 821 223Z" />
<glyph unicode="h" horiz-adv-x="1181" d="M1030 0H833V666Q833 702 834 757T836 830Q836 880 829 907T794 955T718 983T584 990Q544 990 509 986T441 971T389 941T367 896Q353 716 353 572V0H155V1486L353 1502V1014Q425 1128 651 1128Q710 1127 757 1121T842
1105T907 1080T955 1047T989 1005T1011 955T1023 896T1029 831T1031 756Q1031 737 1031 695T1030 629V0Z" />
<glyph unicode="i" horiz-adv-x="523" d="M360 0H163V1097H360V0ZM360 1521V1348H163V1521H360Z" />
<glyph unicode="j" horiz-adv-x="478" d="M345 1097V61Q345 -139 291 -220T90 -302Q46 -302 -16 -294L-21 -172Q-9 -171 13 -171T48 -171T79 -167T107 -157T128 -139T143 -109T148 -64V1097H345ZM346 1521V1348H147V1521H346Z" />
<glyph unicode="k" horiz-adv-x="1076" d="M1044 0H827L445 572L353 469V0H155V1486L353 1502V782Q353 757 353 703T352 625Q384 659 443 725T523 812L784 1097H1008L595 658L1044 0Z" />
<glyph unicode="l" horiz-adv-x="518" d="M359 0H162V1486L359 1502V0Z" />
<glyph unicode="m" horiz-adv-x="1759" d="M1609 0H1412V666Q1412 779 1415 838Q1415 874 1410 896T1388 943T1332 978T1232 990Q1165 990 1120 982T1047 959T1004 917T985 861T980 784Q980 762 981 706T983 614V0H786V702Q786 707 786 716Q786 784 785 813T778
882T759 936T720 966T657 986T563 990Q527 990 495 986T432 971T383 942T363 897Q350 764 350 605V0H153V1097H333L352 977Q392 1058 467 1092T657 1126Q770 1126 837 1090T935 972Q1015 1128 1251 1128Q1328 1128 1382 1120T1478 1088T1543 1033T1583 948T1603
830T1609 673V0Z" />
<glyph unicode="n" horiz-adv-x="1171" d="M1021 0H824V664Q824 728 824 766T820 844T812 902T798 941T776 968T744 981T702 989T646 990Q570 990 517 982T429 958T377 916T351 858T344 780Q344 754 347 690T350 585V0H153V1097H333L352 974Q378 1056 467 1092T679
1128Q737 1128 782 1121T862 1098T922 1060T965 1005T994 934T1011 844T1019 737T1021 609V0Z" />
<glyph unicode="o" horiz-adv-x="1172" d="M587 123Q729 126 784 144T840 215Q851 358 851 546Q851 608 846 723T841 895Q841 912 836 926T818 949T793 966T758 977T720 984T676 988T632 989T586 989T541 989T497 988T453 984T415 977T380 966T355 950T337 926T331
895Q331 839 326 724T321 546Q321 358 332 215Q332 162 390 143T587 123ZM585 -15Q474 -15 400 -6T273 33T191 98T147 207T128 355T124 558Q124 655 126 720T138 847T160 948T199 1021T257 1074T338 1105T446 1123T586 1128T725 1124T833 1106T915 1074T972 1022T1011
949T1034 848T1045 720T1048 558Q1048 428 1045 355T1025 208T981 98T899 33T771 -6T585 -15Z" />
<glyph unicode="p" horiz-adv-x="1177" d="M1053 541Q1053 449 1050 385T1037 258T1009 155T961 80T888 25T787 -4T652 -15Q388 -15 350 103V-372L153 -387V1097H332L351 976Q412 1128 671 1128Q724 1128 767 1124T846 1107T909 1081T958 1043T995 993T1020 930T1037
854T1047 764T1052 661T1053 541ZM856 606Q854 807 850 872Q846 942 798 966T606 990Q425 990 374 932Q346 891 346 693Q346 653 347 574T349 460T347 370T344 294Q344 233 363 198T441 143T606 122Q752 122 803 146Q858 172 858 415Q858 452 857 517T856 606Z"
/>
<glyph unicode="q" horiz-adv-x="1174" d="M1024 -372L827 -387V103Q783 -15 523 -15Q440 -15 378 0T273 36T202 102T158 184T135 292T126 414T124 557Q124 641 126 700T135 819T154 919T185 996T233 1056T300 1096T391 1121T507 1128Q770 1128 825 976L844 1097H1024V-372ZM827
252V844Q827 926 769 958T569 990Q425 990 374 963Q318 933 318 698Q318 395 327 233Q330 184 350 162T419 131T571 122Q716 122 768 149T827 252Z" />
<glyph unicode="r" horiz-adv-x="718" d="M643 1122L635 955Q597 960 563 960Q492 960 448 946T382 898T352 821T344 704Q344 663 347 584T351 471V0H154V1097H333L353 974Q384 1046 447 1085T598 1125Q620 1125 643 1122Z" />
<glyph unicode="s" horiz-adv-x="1040" d="M947 304Q947 208 926 147T857 49T739 -1T563 -15Q501 -15 464 -14T377 -9T299 3T237 26T184 63T148 117T124 190T117 287L272 327Q281 213 293 183Q311 142 368 131Q411 122 549 122Q632 122 672 129T727 158Q767 191
767 383Q767 412 755 432T726 463T679 481T624 491T559 498T495 505Q422 513 376 520T283 543T210 580T161 637T130 721T121 838Q121 910 136 960T180 1043T259 1094T373 1120T527 1128Q584 1128 620 1127T700 1120T771 1104T825 1076T868 1032T892 967T902 880L768
839Q764 878 761 900T745 942T720 969T676 983T612 990T520 991Q392 991 347 966T301 882V780Q301 714 340 697T552 657Q570 654 579 653Q648 645 688 638T774 620T842 593T889 553T923 494T940 413T947 304Z" />
<glyph unicode="t" horiz-adv-x="690" d="M587 139L583 -1Q499 -15 431 -15Q358 -15 311 1T239 52T206 129T197 238V985H48V1097H197V1409L393 1425V1097H595V985H393V305Q393 197 403 165T461 133Q507 133 587 139Z" />
<glyph unicode="u" horiz-adv-x="1173" d="M1020 -1H838L820 140Q794 61 707 23T493 -15Q407 -15 348 2T250 51T189 142T159 273T150 454V1097H347V460Q347 438 347 401T346 348Q346 295 348 265T358 206T381 164T423 139T487 125T581 122Q645 122 690 131T761
154T800 194T818 243T822 303Q822 315 822 342T821 383V1097H1020V-1Z" />
<glyph unicode="v" horiz-adv-x="1008" d="M965 1097L602 0H388L43 1097H228L496 171L762 1097H965Z" />
<glyph unicode="w" horiz-adv-x="1550" d="M1487 1097L1201 0H1019L780 834L553 0H351L63 1097H252L449 233L689 1097H866L1091 233L1290 1097H1487Z" />
<glyph unicode="x" horiz-adv-x="1013" d="M959 0H752L507 430L259 0H54L400 565L62 1097H268L507 688L747 1097H950L617 563L959 0Z" />
<glyph unicode="y" horiz-adv-x="1038" d="M1000 1097L654 53Q641 15 627 -38T603 -125T579 -197T547 -260T505 -305T445 -336T364 -346Q245 -346 148 -323L178 -171Q197 -173 229 -178T284 -187T328 -190Q392 -190 425 -146T459 17L48 1097H247L449 540Q504 388
551 253Q584 374 648 587L799 1097H1000Z" />
<glyph unicode="z" horiz-adv-x="861" d="M783 0H93L76 141L589 960H122L113 1097H777L786 960L275 135H792L783 0Z" />
<glyph unicode="{" horiz-adv-x="637" d="M656 1694V1530Q554 1530 503 1488T429 1334Q409 1267 397 1185T378 1046T358 933T316 838T238 778Q286 759 317 715T362 609T384 488T398 356T415 241Q435 111 490 52T657 -8V-172Q485 -172 384 -106T240 104Q230 139
225 215T215 364T196 506T149 620T60 664V858Q144 858 179 976Q195 1027 215 1188Q215 1192 216 1196Q222 1241 226 1269T239 1343T259 1419T288 1490T329 1556T383 1611T454 1656T544 1683T656 1694Z" />
<glyph unicode="|" horiz-adv-x="510" d="M169 1716H344V-98H169V1716Z" />
<glyph unicode="}" horiz-adv-x="648" d="M-12 -172V-8Q85 -8 135 30T211 171Q229 227 239 328T255 508T292 660T377 758Q343 775 319 808T281 891T260 984T247 1091Q242 1164 237 1214T222 1313T201 1394T170 1454T126 1498T67 1521T-11 1530V1694Q81 1694 149
1672T263 1613T341 1512T391 1378T425 1207L444 1082Q462 962 491 910T585 858V664Q515 664 485 612T442 442L430 304Q423 242 416 199T395 101T361 11T308 -62T232 -122T127 -158T-12 -172Z" />
<glyph unicode="~" horiz-adv-x="1015" d="M932 1047Q881 832 705 832Q652 832 591 853T484 899T382 945T280 966Q202 966 134 903L105 945Q155 1132 314 1132Q381 1132 443 1114T543 1073T628 1033T713 1014Q795 1014 898 1097L932 1047Z" />
<glyph unicode="&#xa1;" horiz-adv-x="528" d="M414 1386Q414 1318 373 1274T265 1230Q202 1230 160 1275T117 1386Q117 1452 157 1497T265 1542Q328 1542 371 1497T414 1386ZM298 -33Q208 -33 167 25Q155 64 155 126Q155 246 175 460T212 800T237 982Q254 995
279 995Q297 963 334 701T372 250Q372 82 360 30T298 -33Z" />
<glyph unicode="&#xa2;" horiz-adv-x="1067" d="M198 200Q145 248 130 352T115 647Q115 676 115 729Q115 825 115 868T118 982T129 1080T149 1153T184 1215T235 1256T307 1288T402 1303T525 1311V1505H598V1310Q755 1307 842 1277T964 1188T999 1028Q999 1000
997 961T995 911H807Q807 939 808 981T809 1037Q809 1082 804 1104T774 1142T712 1160T598 1165V260Q666 256 686 256Q735 256 758 273T794 344T807 510H995Q997 476 997 474Q997 407 992 361T973 274T937 209T878 165T793 136T677 120Q627 116 598 116V-72H525V116Q284
120 198 200ZM525 262V1165Q510 1165 486 1165T451 1166Q416 1166 396 1164T359 1153T333 1132T319 1091T312 1030T310 942Q310 894 309 773T307 590Q307 369 322 320Q333 283 376 273T525 262Z" />
<glyph unicode="&#xa3;" horiz-adv-x="1409" d="M1295 1077L1118 1054Q1118 1058 1106 1271Q1097 1324 1039 1338T809 1353Q707 1353 639 1347T530 1331T470 1301T445 1261T439 1207Q439 1154 441 1096T449 962T456 847H1006V701H459Q456 455 435 244Q447 207
527 193T782 178Q968 178 1046 192T1136 255L1151 465L1306 437Q1302 353 1299 305T1285 204T1262 125T1224 72T1168 34T1087 14T979 2T836 0Q823 0 798 0Q711 0 670 0T566 4T474 17T410 41T358 80T333 139Q309 0 105 0V220Q200 227 225 248T254 341Q257 411 259
702H107V848H255Q239 1054 239 1112Q239 1206 253 1274T299 1390T372 1468T480 1514T615 1536T785 1542Q859 1542 916 1540T1022 1527T1105 1510T1168 1481T1214 1445T1246 1395T1267 1336T1281 1262T1289 1178T1295 1077Z" />
<glyph unicode="&#xa4;" horiz-adv-x="1123" d="M250 773Q250 606 325 527T564 447Q877 447 877 772Q877 938 803 1018T564 1098Q250 1098 250 773ZM123 287L262 457Q145 568 145 764Q145 959 262 1070L124 1241L187 1311L337 1130Q426 1189 562 1189Q697 1189
786 1133L938 1310L1002 1240L864 1071Q984 958 984 765Q984 571 864 457L1003 287L939 218L789 397Q698 349 564 349Q424 349 336 398L186 218L123 287Z" />
<glyph unicode="&#xa5;" horiz-adv-x="1147" d="M916 261H172V347H916V261ZM963 631V518H125V631H963ZM1090 1490L639 518V0H437V518L-1 1490H220L545 727L876 1490H1090Z" />
<glyph unicode="&#xa6;" horiz-adv-x="510" d="M162 563H349V-249H162V563ZM162 1631H349V819H162V1631Z" />
<glyph unicode="&#xa7;" horiz-adv-x="1062" d="M322 775Q322 648 360 619T573 564Q658 552 711 543Q743 567 743 685Q743 779 724 816T652 870Q580 892 511 907T399 929T347 939Q322 844 322 775ZM131 210H303Q303 155 306 119T323 58T351 20T398 0T461 -8T548
-10Q593 -10 621 -8T673 4T709 26T730 64T741 120T744 198Q744 300 713 346T602 403Q503 414 443 424T326 452T239 493T186 553T154 640T146 762Q146 918 242 993Q148 1078 148 1282Q148 1382 168 1446T236 1547T354 1599T535 1613Q647 1613 718 1598T837 1542T905
1435T925 1263H754Q754 1338 747 1378T713 1443T648 1475T533 1482Q492 1482 471 1481T422 1477T382 1467T355 1446T334 1413T324 1364T320 1297V1277Q320 1262 320 1237T319 1203Q319 1124 362 1102T615 1043Q684 1031 728 1019T811 984T871 930T905 850T920 733Q920
563 818 489Q917 404 917 195Q917 112 903 55T860 -41T782 -101T673 -131T524 -140Q413 -140 343 -126T223 -72T152 35T131 210Z" />
<glyph unicode="&#xa8;" horiz-adv-x="982" d="M609 182T609 244T645 338T740 371T834 339T869 244T834 149T740 117T645 149ZM117 182T117 244T153 338T248 371T342 339T377 244T342 149T248 117T153 149Z" />
<glyph unicode="&#xa9;" horiz-adv-x="1734" d="M94 762Q94 911 137 1037T255 1254T429 1407T641 1501T872 1532Q992 1532 1104 1501T1316 1406T1489 1252T1605 1035T1648 761Q1648 617 1606 493T1490 280T1320 127T1111 32T881 0Q757 0 642 31T427 125T253 277T137
491T94 762ZM207 760Q207 602 262 473T410 262T619 136T861 92Q995 92 1115 136T1330 261T1479 472T1535 760Q1535 923 1478 1055T1327 1269T1115 1394T870 1438Q769 1438 674 1412T493 1329T345 1195T244 1004T207 760ZM1129 644H1255Q1255 569 1254 522T1245
427T1226 353T1193 300T1143 263T1070 241T971 229T842 226Q787 226 745 229T667 242T604 263T557 298T522 345T498 410T482 491T473 594T469 717T468 865Q468 959 473 1021T492 1139T533 1227T602 1284T706 1317T852 1327Q945 1327 1001 1323T1107 1302T1182 1260T1225
1184T1249 1071T1255 909H1129Q1127 939 1127 992V1048Q1127 1084 1125 1104T1115 1146T1091 1178T1047 1197T979 1209T879 1212Q813 1212 771 1210T697 1201T651 1185T626 1157T615 1118T613 1064V785Q613 719 610 630T606 515Q606 457 614 426T654 374T735 347T879
341Q923 341 955 343T1013 348T1056 359T1086 375T1106 399T1117 429T1123 469T1125 516T1127 575T1129 644Z" />
<glyph unicode="&#xaa;" horiz-adv-x="998" d="M854 509H726L701 637Q676 552 614 525T428 497Q270 497 214 563T158 797Q158 855 190 895T287 958T432 990T622 1000Q634 1000 658 1000T693 999V1180Q693 1184 693 1191Q693 1221 693 1233T687 1263T671 1287T641
1300T592 1309T517 1311Q461 1311 426 1307T370 1292T342 1265T333 1227T334 1175L211 1179Q210 1189 210 1207Q210 1264 225 1304T264 1367T332 1403T418 1419T527 1423Q623 1423 682 1409T782 1358T838 1261T854 1104V509ZM693 804V901Q529 899 447 888T335 856T306
792Q306 755 306 739T308 699T313 665T324 643T341 625T367 616T403 609T451 608Q514 608 558 618T628 644T668 687T687 740T693 804Z" />
<glyph unicode="&#xab;" horiz-adv-x="1234" d="M480 775L954 1199L1049 1086L628 726L1049 366L954 253L480 677V775ZM80 775L555 1199L650 1086L229 726L650 366L555 253L80 677V775Z" />
<glyph unicode="&#xac;" horiz-adv-x="1128" d="M102 797H1026V262H877V647H102V797Z" />
<glyph unicode="&#xad;" horiz-adv-x="1050" d="M920 728V549H134V728H920Z" />
<glyph unicode="&#xae;" horiz-adv-x="1734" d="M870 0Q717 0 578 51T331 196T158 437T94 762Q94 911 137 1037T255 1254T429 1407T641 1501T872 1532Q992 1532 1104 1501T1316 1406T1489 1252T1605 1035T1648 761Q1648 615 1605 490T1488 276T1314 124T1102 31T870
0ZM872 92Q1004 92 1123 137T1334 264T1480 475T1535 760Q1535 923 1478 1055T1327 1269T1115 1394T870 1438Q769 1438 674 1412T493 1329T345 1195T244 1004T207 760Q207 600 263 470T414 259T626 135T872 92ZM555 267V1288H879Q988 1288 1051 1279T1159 1240T1221
1159T1241 1021Q1241 800 1071 788Q1146 784 1189 737T1233 609V268H1099Q1099 303 1101 382T1103 501Q1103 702 1058 721Q1028 734 946 734H682Q682 656 682 501T683 267H555ZM682 1183V832H879Q955 832 994 837T1060 862T1093 914T1104 1007Q1104 1051 1100 1081T1081
1131T1056 1161T1014 1177T963 1182T896 1183Q884 1183 877 1183H682Z" />
<glyph unicode="&#xaf;" horiz-adv-x="846" d="M129 838H726V711H129V838Z" />
<glyph unicode="&#xb0;" horiz-adv-x="829" d="M289 1389T289 1321T324 1204T419 1155T514 1204T551 1321T515 1437T418 1486Q360 1486 325 1438ZM111 1202T111 1322T202 1519T419 1597T635 1519T726 1321T636 1124T419 1046T202 1124Z" />
<glyph unicode="&#xb1;" horiz-adv-x="1128" d="M489 262V647H102V797H489V1186H639V797H1026V647H639V262H489ZM1026 0H102V150H1026V0Z" />
<glyph unicode="&#xb2;" horiz-adv-x="896" d="M804 248H110Q110 432 146 519T287 680Q340 716 406 756T506 817T576 868T630 931T658 1010T669 1125Q669 1159 669 1178T666 1223T658 1261T643 1290T620 1314T585 1329T538 1339T475 1342Q408 1342 370 1336T302
1309T259 1250T241 1147L122 1175Q121 1182 121 1196Q121 1334 207 1394T463 1454Q563 1454 625 1441T734 1392T799 1292T819 1125Q819 1014 792 939T715 815T577 719Q555 706 516 684T459 652T410 622T365 589T329 556T297 517T276 474T261 421T255 359H804V248Z"
/>
<glyph unicode="&#xb3;" horiz-adv-x="923" d="M813 589Q813 486 788 418T711 313T590 262T421 247Q337 247 280 256T178 289T112 357T90 468Q90 498 91 517L216 535Q220 475 223 452Q230 397 279 377T440 356Q501 356 537 358T602 373T642 396T662 441T670 502T671
592Q671 639 666 672T653 728T624 766T587 790T530 802T462 806T372 807Q370 807 369 807L363 918Q459 918 489 919Q554 921 590 933T643 982T662 1052T665 1164Q665 1168 665 1171T665 1178Q665 1241 650 1271T589 1317T446 1332Q327 1332 282 1313T232 1242L225
1156L104 1180V1202Q104 1272 116 1313T167 1384T273 1426T456 1440Q639 1440 722 1371T806 1148Q806 895 645 864Q641 863 640 863Q811 828 813 589Z" />
<glyph unicode="&#xb4;" horiz-adv-x="670" d="M405 1605Q445 1640 489 1640Q536 1640 564 1611T592 1540Q592 1509 574 1480T521 1436Q510 1431 411 1394T219 1322L126 1287L109 1308Q366 1574 405 1605Z" />
<glyph unicode="&#xb5;" horiz-adv-x="373" />
<glyph unicode="&#xb6;" horiz-adv-x="1060" d="M417 0V845Q244 845 152 931T60 1190Q60 1373 170 1447T508 1521H895V0H742V844H571V0H417Z" />
<glyph unicode="&#xb7;" horiz-adv-x="526" d="M265 528Q205 528 165 572T125 682Q125 750 162 793T265 836Q326 836 365 792T405 682Q405 614 368 571T265 528Z" />
<glyph unicode="&#xb8;" horiz-adv-x="723" d="M329 0H438L389 -168Q445 -176 480 -185T547 -216T593 -273T608 -364Q608 -454 537 -503T363 -552Q220 -552 124 -470L171 -380Q282 -430 333 -430Q392 -430 392 -376Q392 -289 254 -289Q262 -254 291 -144L329 0Z" />
<glyph unicode="&#xb9;" horiz-adv-x="510" d="M364 240H214V1235H66V1309Q193 1314 240 1425H364V240Z" />
<glyph unicode="&#xba;" horiz-adv-x="953" d="M481 1319H483Q563 1319 615 1313T708 1287T769 1241T804 1162T822 1050T826 895Q826 825 825 780T818 687T802 613T774 558T732 516T671 491T589 475T481 471Q420 471 375 475T293 490T232 516T190 557T162 612T147
687T140 779T138 895Q138 991 142 1050T159 1161T194 1240T256 1287T348 1313T481 1319ZM482 575Q587 577 628 590T670 643Q678 771 678 892Q678 936 674 1020T670 1143Q670 1173 642 1190T577 1211T482 1216T388 1212T322 1190T294 1143Q294 1104 290 1020T286
892Q286 771 294 643Q295 604 336 591T482 575Z" />
<glyph unicode="&#xbb;" horiz-adv-x="1234" d="M700 775V677L226 253L130 366L552 726L130 1086L226 1199L700 775ZM1099 775V677L624 253L530 366L950 726L530 1086L624 1199L1099 775Z" />
<glyph unicode="&#xbc;" horiz-adv-x="829" d="M366 0V152H152L114 220L345 616H457V220H559V152H457V0H366ZM337 898V1378H268V1431Q307 1431 328 1449T350 1499H428V898H337ZM75 805H695V734H75V805ZM366 220V544Q311 438 194 220H366Z" />
<glyph unicode="&#xbd;" horiz-adv-x="828" d="M161 0V75Q161 123 178 159T221 216T280 256T345 293T404 336T448 400T465 494Q465 551 448 562T343 573Q314 573 301 572T273 564T253 541T248 498L251 463L168 470Q162 507 162 522Q162 591 213 618T357 646Q469
646 513 615T557 484Q557 410 538 362T487 287T420 243T344 199T275 138Q252 108 252 72H547V0H161ZM301 898V1378H232V1431Q271 1431 292 1449T314 1499H392V898H301ZM49 805H669V734H49V805Z" />
<glyph unicode="&#xbe;" horiz-adv-x="868" d="M369 0V152H155L117 220L348 616H460V220H562V152H460V0H369ZM225 1063H292Q292 1011 297 1001Q317 980 380 979Q452 979 474 991T497 1047Q497 1074 497 1093T492 1127T485 1152T472 1168T455 1178T429 1183T398
1185T357 1185L354 1238Q356 1238 366 1238T381 1237Q454 1237 475 1253T496 1306Q496 1338 495 1352T490 1382T474 1403T446 1412T400 1416Q337 1416 315 1408T292 1377L294 1331H235Q227 1357 227 1383Q227 1438 265 1459T405 1481Q496 1481 536 1446T576 1329Q576
1292 565 1266T537 1229T508 1215T484 1210Q496 1208 508 1203T537 1184T565 1140T576 1068Q576 982 533 949T399 915Q303 915 263 934T222 1014Q222 1026 225 1063ZM79 804H699V733H79V804ZM369 220V544Q314 438 197 220H369Z" />
<glyph unicode="&#xbf;" horiz-adv-x="767" d="M608 1379Q608 1312 570 1269T467 1225Q404 1225 364 1268T324 1379Q324 1445 363 1489T466 1533Q528 1533 568 1488T608 1379ZM702 223L741 59Q573 -22 438 -22Q257 -22 162 69T66 338Q66 431 113 518T247 704Q259
718 286 751T319 793T344 826T366 859T380 890T394 928T401 968T409 1020Q426 1020 460 1020T511 1019Q511 957 502 904T482 814T442 725T395 646T332 552Q293 496 278 454T262 350Q262 261 313 214T463 166Q531 166 702 223Z" />
<glyph unicode="&#xc0;" horiz-adv-x="1296" d="M1221 0H1015L902 381H351L242 0H47L504 1490H775L1221 0ZM860 525L734 972L630 1338Q572 1131 528 982L394 525H860ZM592 1934Q609 1920 683 1846T822 1705L888 1637L871 1616L778 1651Q685 1686 586 1723T476
1765Q441 1780 423 1809T405 1869Q405 1910 433 1939T508 1969Q552 1969 592 1934Z" />
<glyph unicode="&#xc1;" horiz-adv-x="1296" d="M1221 0H1015L902 381H351L242 0H47L504 1490H775L1221 0ZM860 525L734 972L630 1338Q572 1131 528 982L394 525H860ZM701 1934Q741 1969 785 1969Q832 1969 860 1940T888 1869Q888 1838 870 1809T817 1765Q806
1760 707 1723T515 1651L422 1616L405 1637Q662 1903 701 1934Z" />
<glyph unicode="&#xc2;" horiz-adv-x="1296" d="M1221 0H1015L902 381H351L242 0H47L504 1490H775L1221 0ZM860 525L734 972L630 1338Q572 1131 528 982L394 525H860ZM647 1852L416 1616L361 1670L553 1979Q588 2031 647 2031T741 1979L933 1670L878 1616L647 1852Z" />
<glyph unicode="&#xc3;" horiz-adv-x="1296" d="M1221 0H1015L902 381H351L242 0H47L504 1490H775L1221 0ZM860 525L734 972L630 1338Q572 1131 528 982L394 525H860ZM985 1801Q934 1616 758 1616Q705 1616 615 1658T483 1700Q405 1700 337 1637L308 1680Q357
1836 517 1836Q570 1836 616 1819T700 1785T766 1768Q848 1768 951 1851L985 1801Z" />
<glyph unicode="&#xc4;" horiz-adv-x="1296" d="M1221 0H1015L902 381H351L242 0H47L504 1490H775L1221 0ZM860 525L734 972L630 1338Q572 1131 528 982L394 525H860ZM763 1681T763 1743T799 1837T894 1870T988 1838T1023 1743T988 1648T894 1616T799 1648ZM271
1681T271 1743T307 1837T402 1870T496 1838T531 1743T496 1648T402 1616T307 1648Z" />
<glyph unicode="&#xc5;" horiz-adv-x="1296" d="M1221 0H1015L902 381H351L242 0H47L504 1490H775L1221 0ZM860 525L734 972L630 1338Q572 1131 528 982L394 525H860ZM631 1887Q588 1887 559 1845T530 1751Q530 1614 658 1614Q701 1614 730 1656T760 1749Q760
1814 727 1850T631 1887ZM533 2005T645 2005T830 1934T903 1751Q903 1638 831 1568T647 1497Q539 1497 465 1566T390 1751Q390 1864 461 1934Z" />
<glyph unicode="&#xc6;" horiz-adv-x="1967" d="M1856 0H981V381H433L211 0H20L906 1490H1837V1323H1182V864H1726V697H1182V167H1856V0ZM982 1342L787 995L518 523H981V937Q981 1141 982 1342Z" />
<glyph unicode="&#xc7;" horiz-adv-x="1360" d="M1042 462L1216 436Q1211 340 1199 273T1164 152T1106 67T1019 13T899 -16T738 -24Q648 -24 577 -20T448 0T346 30T269 79T213 140T175 222T151 320T139 442T133 582T132 748Q132 860 133 928T139 1076T151 1200T175
1296T213 1374T268 1430T342 1471T441 1495T565 1510T720 1513Q811 1513 875 1507T995 1482T1087 1433T1150 1353T1193 1238T1215 1078L1040 1044Q1035 1095 1031 1129T1020 1196T1008 1249T989 1289T967 1319T935 1338T897 1350T846 1357T784 1360T708 1360Q638
1360 594 1359T505 1352T435 1336T387 1308T356 1265T344 1203Q335 939 335 664Q335 472 344 289Q349 232 376 200T483 149T709 130Q787 130 840 134T929 155T984 185T1014 238T1029 303T1037 394Q1038 408 1038 416T1040 437T1042 462ZM691 -6H800L751 -174Q807
-182 842 -191T909 -222T955 -279T970 -370Q970 -460 899 -509T725 -558Q582 -558 486 -476L533 -386Q644 -436 695 -436Q754 -436 754 -382Q754 -295 616 -295Q624 -260 653 -150L691 -6Z" />
<glyph unicode="&#xc8;" horiz-adv-x="1148" d="M1010 0H166V1490H1001L1021 1336H369V857H926V695H369V153H1030L1010 0ZM534 1934Q551 1920 625 1846T764 1705L830 1637L813 1616L720 1651Q627 1686 528 1723T418 1765Q383 1780 365 1809T347 1869Q347 1910
375 1939T450 1969Q494 1969 534 1934Z" />
<glyph unicode="&#xc9;" horiz-adv-x="1148" d="M1010 0H166V1490H1001L1021 1336H369V857H926V695H369V153H1030L1010 0ZM643 1934Q683 1969 727 1969Q774 1969 802 1940T830 1869Q830 1838 812 1809T759 1765Q748 1760 649 1723T457 1651L364 1616L347 1637Q604
1903 643 1934Z" />
<glyph unicode="&#xca;" horiz-adv-x="1148" d="M1010 0H166V1490H1001L1021 1336H369V857H926V695H369V153H1030L1010 0ZM589 1852L358 1616L303 1670L495 1979Q530 2031 589 2031T683 1979L875 1670L820 1616L589 1852Z" />
<glyph unicode="&#xcb;" horiz-adv-x="1148" d="M1010 0H166V1490H1001L1021 1336H369V857H926V695H369V153H1030L1010 0ZM705 1681T705 1743T741 1837T836 1870T930 1838T965 1743T930 1648T836 1616T741 1648ZM213 1681T213 1743T249 1837T344 1870T438 1838T473
1743T438 1648T344 1616T249 1648Z" />
<glyph unicode="&#xcc;" horiz-adv-x="547" d="M375 0H172V1490H375V0ZM219 1934Q236 1920 310 1846T449 1705L515 1637L498 1616L405 1651Q312 1686 213 1723T103 1765Q68 1780 50 1809T32 1869Q32 1910 60 1939T135 1969Q179 1969 219 1934Z" />
<glyph unicode="&#xcd;" horiz-adv-x="547" d="M375 0H172V1490H375V0ZM328 1934Q368 1969 412 1969Q459 1969 487 1940T515 1869Q515 1838 497 1809T444 1765Q433 1760 334 1723T142 1651L49 1616L32 1637Q289 1903 328 1934Z" />
<glyph unicode="&#xce;" horiz-adv-x="547" d="M375 0H172V1490H375V0ZM273 1852L42 1616L-13 1670L179 1979Q214 2031 273 2031T367 1979L559 1670L504 1616L273 1852Z" />
<glyph unicode="&#xcf;" horiz-adv-x="547" d="M375 0H172V1490H375V0ZM389 1681T389 1743T425 1837T520 1870T614 1838T649 1743T614 1648T520 1616T425 1648ZM-103 1681T-103 1743T-67 1837T28 1870T122 1838T157 1743T122 1648T28 1616T-67 1648Z" />
<glyph unicode="&#xd0;" horiz-adv-x="1441" d="M1278 876Q1278 739 1277 651T1267 470T1250 323T1217 213T1169 129T1097 72T1003 33T879 13T725 2T533 0H171V689H78V826H171V1490H687Q813 1490 900 1480T1055 1441T1165 1369T1232 1255T1268 1094T1278 876ZM1077
873Q1077 965 1077 1005T1070 1107T1052 1190T1015 1248T957 1292T869 1316T747 1333T584 1336H374V826H642V689H374V153H614Q700 153 748 154T852 163T934 181T992 217T1035 273T1059 356T1074 470T1077 620V873Z" />
<glyph unicode="&#xd1;" horiz-adv-x="1441" d="M1265 0H1054L344 1177V0H166V1490H371L1087 297V1490H1265V0ZM1059 1801Q1008 1616 832 1616Q779 1616 689 1658T557 1700Q479 1700 411 1637L382 1680Q431 1836 591 1836Q644 1836 690 1819T774 1785T840 1768Q922
1768 1025 1851L1059 1801Z" />
<glyph unicode="&#xd2;" horiz-adv-x="1438" d="M710 -24Q623 -24 556 -20T431 -1T334 28T261 77T207 140T171 228T149 333T138 468T133 624T132 812Q132 960 140 1058T171 1240T233 1372T338 1454T493 1501T710 1514Q831 1514 917 1502T1069 1460T1176 1384T1243
1264T1278 1099T1288 876Q1288 506 1277 389Q1258 189 1185 103Q1108 11 923 -13Q835 -24 710 -24ZM796 1360T710 1360T567 1356T468 1339T402 1310T365 1261T346 1192T339 1097Q336 912 336 725Q336 443 351 339Q375 183 442 159Q492 130 710 130T978 159Q997
166 1012 182T1038 225T1057 279T1070 350T1078 427T1082 515T1083 604T1084 697Q1084 899 1081 1097Q1079 1157 1075 1192T1056 1260T1018 1310T953 1339T853 1356ZM660 1934Q677 1920 751 1846T890 1705L956 1637L939 1616L846 1651Q753 1686 654 1723T544 1765Q509
1780 491 1809T473 1869Q473 1910 501 1939T576 1969Q620 1969 660 1934Z" />
<glyph unicode="&#xd3;" horiz-adv-x="1438" d="M710 -24Q623 -24 556 -20T431 -1T334 28T261 77T207 140T171 228T149 333T138 468T133 624T132 812Q132 960 140 1058T171 1240T233 1372T338 1454T493 1501T710 1514Q831 1514 917 1502T1069 1460T1176 1384T1243
1264T1278 1099T1288 876Q1288 506 1277 389Q1258 189 1185 103Q1108 11 923 -13Q835 -24 710 -24ZM796 1360T710 1360T567 1356T468 1339T402 1310T365 1261T346 1192T339 1097Q336 912 336 725Q336 443 351 339Q375 183 442 159Q492 130 710 130T978 159Q997
166 1012 182T1038 225T1057 279T1070 350T1078 427T1082 515T1083 604T1084 697Q1084 899 1081 1097Q1079 1157 1075 1192T1056 1260T1018 1310T953 1339T853 1356ZM769 1934Q809 1969 853 1969Q900 1969 928 1940T956 1869Q956 1838 938 1809T885 1765Q874 1760
775 1723T583 1651L490 1616L473 1637Q730 1903 769 1934Z" />
<glyph unicode="&#xd4;" horiz-adv-x="1438" d="M710 -24Q623 -24 556 -20T431 -1T334 28T261 77T207 140T171 228T149 333T138 468T133 624T132 812Q132 960 140 1058T171 1240T233 1372T338 1454T493 1501T710 1514Q831 1514 917 1502T1069 1460T1176 1384T1243
1264T1278 1099T1288 876Q1288 506 1277 389Q1258 189 1185 103Q1108 11 923 -13Q835 -24 710 -24ZM796 1360T710 1360T567 1356T468 1339T402 1310T365 1261T346 1192T339 1097Q336 912 336 725Q336 443 351 339Q375 183 442 159Q492 130 710 130T978 159Q997
166 1012 182T1038 225T1057 279T1070 350T1078 427T1082 515T1083 604T1084 697Q1084 899 1081 1097Q1079 1157 1075 1192T1056 1260T1018 1310T953 1339T853 1356ZM715 1852L484 1616L429 1670L621 1979Q656 2031 715 2031T809 1979L1001 1670L946 1616L715 1852Z"
/>
<glyph unicode="&#xd5;" horiz-adv-x="1438" d="M710 -24Q623 -24 556 -20T431 -1T334 28T261 77T207 140T171 228T149 333T138 468T133 624T132 812Q132 960 140 1058T171 1240T233 1372T338 1454T493 1501T710 1514Q831 1514 917 1502T1069 1460T1176 1384T1243
1264T1278 1099T1288 876Q1288 506 1277 389Q1258 189 1185 103Q1108 11 923 -13Q835 -24 710 -24ZM796 1360T710 1360T567 1356T468 1339T402 1310T365 1261T346 1192T339 1097Q336 912 336 725Q336 443 351 339Q375 183 442 159Q492 130 710 130T978 159Q997
166 1012 182T1038 225T1057 279T1070 350T1078 427T1082 515T1083 604T1084 697Q1084 899 1081 1097Q1079 1157 1075 1192T1056 1260T1018 1310T953 1339T853 1356ZM1054 1801Q1003 1616 827 1616Q774 1616 684 1658T552 1700Q474 1700 406 1637L377 1680Q426
1836 586 1836Q639 1836 685 1819T769 1785T835 1768Q917 1768 1020 1851L1054 1801Z" />
<glyph unicode="&#xd6;" horiz-adv-x="1438" d="M710 -24Q623 -24 556 -20T431 -1T334 28T261 77T207 140T171 228T149 333T138 468T133 624T132 812Q132 960 140 1058T171 1240T233 1372T338 1454T493 1501T710 1514Q831 1514 917 1502T1069 1460T1176 1384T1243
1264T1278 1099T1288 876Q1288 506 1277 389Q1258 189 1185 103Q1108 11 923 -13Q835 -24 710 -24ZM796 1360T710 1360T567 1356T468 1339T402 1310T365 1261T346 1192T339 1097Q336 912 336 725Q336 443 351 339Q375 183 442 159Q492 130 710 130T978 159Q997
166 1012 182T1038 225T1057 279T1070 350T1078 427T1082 515T1083 604T1084 697Q1084 899 1081 1097Q1079 1157 1075 1192T1056 1260T1018 1310T953 1339T853 1356ZM831 1681T831 1743T867 1837T962 1870T1056 1838T1091 1743T1056 1648T962 1616T867 1648ZM339
1681T339 1743T375 1837T470 1870T564 1838T599 1743T564 1648T470 1616T375 1648Z" />
<glyph unicode="&#xd7;" horiz-adv-x="860" d="M292 670Q291 671 270 695L68 920Q71 923 147 1008L187 1052L413 802L640 1052L758 920L535 670L758 420L640 288L413 538L187 288Q184 291 108 376L68 420L292 670Z" />
<glyph unicode="&#xd8;" horiz-adv-x="1438" d="M1060 1759L469 -300H336L927 1759H1060ZM715 -24Q628 -24 561 -20T436 -1T339 28T266 77T212 140T176 228T154 333T143 468T138 624T137 812Q137 960 145 1058T176 1240T238 1372T343 1454T498 1501T715 1514Q836
1514 922 1502T1074 1460T1181 1384T1248 1264T1283 1099T1293 876Q1293 506 1282 389Q1263 189 1190 103Q1113 11 928 -13Q840 -24 715 -24ZM801 1360T715 1360T572 1356T473 1339T407 1310T370 1261T351 1192T344 1097Q341 912 341 725Q341 443 356 339Q380 183
447 159Q497 130 715 130T983 159Q1002 166 1017 182T1043 225T1062 279T1075 350T1083 427T1087 515T1088 604T1089 697Q1089 899 1086 1097Q1084 1157 1080 1192T1061 1260T1023 1310T958 1339T858 1356Z" />
<glyph unicode="&#xd9;" horiz-adv-x="1442" d="M1277 1490V557Q1277 437 1267 351T1229 199T1162 91T1056 23T909 -14T713 -24Q602 -24 524 -15T380 18T274 83T204 189T164 344T152 557V1490H355V531Q355 448 355 411T361 321T374 248T400 199T442 163T507 144T595
132T714 130Q798 130 854 135T953 155T1017 189T1053 247T1071 326T1075 435L1074 1490H1277ZM665 1934Q682 1920 756 1846T895 1705L961 1637L944 1616L851 1651Q758 1686 659 1723T549 1765Q514 1780 496 1809T478 1869Q478 1910 506 1939T581 1969Q625 1969
665 1934Z" />
<glyph unicode="&#xda;" horiz-adv-x="1442" d="M1277 1490V557Q1277 437 1267 351T1229 199T1162 91T1056 23T909 -14T713 -24Q602 -24 524 -15T380 18T274 83T204 189T164 344T152 557V1490H355V531Q355 448 355 411T361 321T374 248T400 199T442 163T507 144T595
132T714 130Q798 130 854 135T953 155T1017 189T1053 247T1071 326T1075 435L1074 1490H1277ZM774 1934Q814 1969 858 1969Q905 1969 933 1940T961 1869Q961 1838 943 1809T890 1765Q879 1760 780 1723T588 1651L495 1616L478 1637Q735 1903 774 1934Z" />
<glyph unicode="&#xdb;" horiz-adv-x="1442" d="M1277 1490V557Q1277 437 1267 351T1229 199T1162 91T1056 23T909 -14T713 -24Q602 -24 524 -15T380 18T274 83T204 189T164 344T152 557V1490H355V531Q355 448 355 411T361 321T374 248T400 199T442 163T507 144T595
132T714 130Q798 130 854 135T953 155T1017 189T1053 247T1071 326T1075 435L1074 1490H1277ZM719 1852L488 1616L433 1670L625 1979Q660 2031 719 2031T813 1979L1005 1670L950 1616L719 1852Z" />
<glyph unicode="&#xdc;" horiz-adv-x="1442" d="M1277 1490V557Q1277 437 1267 351T1229 199T1162 91T1056 23T909 -14T713 -24Q602 -24 524 -15T380 18T274 83T204 189T164 344T152 557V1490H355V531Q355 448 355 411T361 321T374 248T400 199T442 163T507 144T595
132T714 130Q798 130 854 135T953 155T1017 189T1053 247T1071 326T1075 435L1074 1490H1277ZM835 1681T835 1743T871 1837T966 1870T1060 1838T1095 1743T1060 1648T966 1616T871 1648ZM343 1681T343 1743T379 1837T474 1870T568 1838T603 1743T568 1648T474 1616T379
1648Z" />
<glyph unicode="&#xdd;" horiz-adv-x="1087" d="M1086 1490L635 518V0H433V518L-5 1490H216L541 727L872 1490H1086ZM599 1934Q639 1969 683 1969Q730 1969 758 1940T786 1869Q786 1838 768 1809T715 1765Q704 1760 605 1723T413 1651L320 1616L303 1637Q560 1903
599 1934Z" />
<glyph unicode="&#xde;" horiz-adv-x="1293" d="M1176 832Q1176 737 1159 663T1110 540T1038 460T945 411T844 388T736 381Q709 381 660 382T589 383H371V0H171V1489H371V1284H616Q728 1284 805 1277T949 1251T1055 1201T1124 1119T1164 998T1176 832ZM977 832Q977
886 975 922T965 990T947 1042T914 1077T868 1100T801 1113T715 1119T603 1120H371V551H694Q765 551 813 556T893 580T942 614T966 669T975 736T977 824Q977 829 977 832Z" />
<glyph unicode="&#xdf;" horiz-adv-x="1235" d="M1117 401Q1117 329 1106 272T1069 173T1016 102T938 54T847 24T735 7T614 1T476 0V162Q518 162 599 161T708 160Q761 160 789 162T845 179T884 213T905 278T917 377T919 522Q919 565 918 593T905 646T886 685T848
710T799 725T725 733T633 736T511 737Q508 737 506 737V890Q551 890 612 888T693 885Q721 885 740 887T776 896T803 911T821 939T833 979T840 1035T843 1107T844 1200T829 1283T758 1323T584 1337Q462 1337 428 1325Q383 1310 369 1253Q357 1202 357 1001Q357 931
357 916Q357 735 357 373T358 -169L159 -185Q159 -54 156 212T152 613Q152 931 165 1132Q178 1344 271 1420T600 1497Q834 1497 935 1418T1037 1141Q1037 848 885 827Q989 820 1053 716T1117 401Z" />
<glyph unicode="&#xe0;" horiz-adv-x="1111" d="M960 0H804L772 157Q742 54 664 20T434 -15Q334 -15 270 4T168 70T116 182T101 354Q101 401 117 438T162 501T238 546T337 576T460 593T602 602T763 604V901Q763 952 715 971T544 991Q458 991 415 987T350 964T324
925T319 854Q318 835 318 824L165 830Q163 846 163 877Q163 944 182 990T233 1063T318 1105T425 1124T557 1128Q677 1128 752 1110T875 1043T941 921T960 726V0ZM763 314V485Q566 485 460 470T319 429T283 354Q283 352 283 348Q283 196 308 159T461 122Q570 122
638 148T732 214T763 314ZM502 1548Q519 1534 593 1460T732 1319L798 1251L781 1230L688 1265Q595 1300 496 1337T386 1379Q351 1394 333 1423T315 1483Q315 1524 343 1553T418 1583Q462 1583 502 1548Z" />
<glyph unicode="&#xe1;" horiz-adv-x="1111" d="M960 0H804L772 157Q742 54 664 20T434 -15Q334 -15 270 4T168 70T116 182T101 354Q101 401 117 438T162 501T238 546T337 576T460 593T602 602T763 604V901Q763 952 715 971T544 991Q458 991 415 987T350 964T324
925T319 854Q318 835 318 824L165 830Q163 846 163 877Q163 944 182 990T233 1063T318 1105T425 1124T557 1128Q677 1128 752 1110T875 1043T941 921T960 726V0ZM763 314V485Q566 485 460 470T319 429T283 354Q283 352 283 348Q283 196 308 159T461 122Q570 122
638 148T732 214T763 314ZM611 1548Q651 1583 695 1583Q742 1583 770 1554T798 1483Q798 1452 780 1423T727 1379Q716 1374 617 1337T425 1265L332 1230L315 1251Q572 1517 611 1548Z" />
<glyph unicode="&#xe2;" horiz-adv-x="1111" d="M960 0H804L772 157Q742 54 664 20T434 -15Q334 -15 270 4T168 70T116 182T101 354Q101 401 117 438T162 501T238 546T337 576T460 593T602 602T763 604V901Q763 952 715 971T544 991Q458 991 415 987T350 964T324
925T319 854Q318 835 318 824L165 830Q163 846 163 877Q163 944 182 990T233 1063T318 1105T425 1124T557 1128Q677 1128 752 1110T875 1043T941 921T960 726V0ZM763 314V485Q566 485 460 470T319 429T283 354Q283 352 283 348Q283 196 308 159T461 122Q570 122
638 148T732 214T763 314ZM557 1466L326 1230L271 1284L463 1593Q498 1645 557 1645T651 1593L843 1284L788 1230L557 1466Z" />
<glyph unicode="&#xe3;" horiz-adv-x="1111" d="M960 0H804L772 157Q742 54 664 20T434 -15Q334 -15 270 4T168 70T116 182T101 354Q101 401 117 438T162 501T238 546T337 576T460 593T602 602T763 604V901Q763 952 715 971T544 991Q458 991 415 987T350 964T324
925T319 854Q318 835 318 824L165 830Q163 846 163 877Q163 944 182 990T233 1063T318 1105T425 1124T557 1128Q677 1128 752 1110T875 1043T941 921T960 726V0ZM763 314V485Q566 485 460 470T319 429T283 354Q283 352 283 348Q283 196 308 159T461 122Q570 122
638 148T732 214T763 314ZM896 1415Q845 1230 669 1230Q616 1230 526 1272T394 1314Q316 1314 248 1251L219 1294Q268 1450 428 1450Q481 1450 527 1433T611 1399T677 1382Q759 1382 862 1465L896 1415Z" />
<glyph unicode="&#xe4;" horiz-adv-x="1111" d="M960 0H804L772 157Q742 54 664 20T434 -15Q334 -15 270 4T168 70T116 182T101 354Q101 401 117 438T162 501T238 546T337 576T460 593T602 602T763 604V901Q763 952 715 971T544 991Q458 991 415 987T350 964T324
925T319 854Q318 835 318 824L165 830Q163 846 163 877Q163 944 182 990T233 1063T318 1105T425 1124T557 1128Q677 1128 752 1110T875 1043T941 921T960 726V0ZM763 314V485Q566 485 460 470T319 429T283 354Q283 352 283 348Q283 196 308 159T461 122Q570 122
638 148T732 214T763 314ZM673 1295T673 1357T709 1451T804 1484T898 1452T933 1357T898 1262T804 1230T709 1262ZM181 1295T181 1357T217 1451T312 1484T406 1452T441 1357T406 1262T312 1230T217 1262Z" />
<glyph unicode="&#xe5;" horiz-adv-x="1111" d="M960 0H804L772 157Q742 54 664 20T434 -15Q334 -15 270 4T168 70T116 182T101 354Q101 401 117 438T162 501T238 546T337 576T460 593T602 602T763 604V901Q763 952 715 971T544 991Q458 991 415 987T350 964T324
925T319 854Q318 835 318 824L165 830Q163 846 163 877Q163 944 182 990T233 1063T318 1105T425 1124T557 1128Q677 1128 752 1110T875 1043T941 921T960 726V0ZM763 314V485Q566 485 460 470T319 429T283 354Q283 352 283 348Q283 196 308 159T461 122Q570 122
638 148T732 214T763 314ZM542 1620Q499 1620 470 1578T441 1484Q441 1347 569 1347Q612 1347 641 1389T671 1482Q671 1547 638 1583T542 1620ZM444 1738T556 1738T741 1667T814 1484Q814 1371 742 1301T558 1230Q450 1230 376 1299T301 1484Q301 1597 372 1667Z"
/>
<glyph unicode="&#xe6;" horiz-adv-x="1714" d="M952 399Q952 354 953 329T957 271T968 222T988 185T1021 156T1068 138T1134 125T1221 122Q1262 122 1293 126T1344 136T1378 155T1399 179T1410 211T1415 246T1417 288T1421 334L1574 306Q1572 236 1565 188T1541
102T1501 44T1439 8T1354 -10T1238 -15Q1066 -15 970 22T828 139Q785 47 692 16T434 -15Q334 -15 270 4T168 70T116 182T101 354Q101 409 121 450T185 518T281 562T414 589T571 601T755 604V901Q755 952 709 971T544 991Q458 991 415 987T350 964T324 925T319 854Q318
835 318 824L165 830Q163 846 163 877Q163 944 182 990T233 1063T318 1105T425 1124T557 1128Q667 1128 739 1101T857 1013Q905 1077 988 1102T1209 1128Q1278 1128 1328 1124T1421 1105T1490 1073T1539 1020T1571 948T1590 848T1599 723T1601 564Q1587 563 1555
559T1499 552T1452 550H952V399ZM755 314V485Q561 485 457 470T318 429T283 354Q283 352 283 348Q283 196 308 159T461 122Q755 122 755 314ZM952 655H1404Q1402 783 1394 889Q1390 950 1352 970T1208 991Q1161 991 1126 988T1063 977T1018 959T988 930T970 893T960
845T955 786T953 714Q953 676 952 655Z" />
<glyph unicode="&#xe7;" horiz-adv-x="1112" d="M985 781L823 754L802 893Q794 941 783 954Q757 984 639 988Q611 989 577 989Q441 989 399 974Q353 966 332 883T311 680L312 507Q312 471 312 408Q312 326 312 293T321 217T341 164T385 139T453 124T559 123Q613
123 652 127T719 136T764 155T791 180T806 214T812 255T816 306T821 365L985 337Q979 259 972 212T947 121T903 55T830 14T722 -9T568 -15Q502 -15 450 -11T354 5T279 29T223 70T182 120T154 188T137 268T128 368T125 483T124 619Q124 699 127 757T139 869T162
958T201 1025T257 1074T335 1105T437 1123T567 1128Q662 1128 726 1119T841 1087T920 1025T965 926T985 781ZM509 3H618L569 -165Q625 -173 660 -182T727 -213T773 -270T788 -361Q788 -451 717 -500T543 -549Q400 -549 304 -467L351 -377Q462 -427 513 -427Q572
-427 572 -373Q572 -286 434 -286Q442 -251 471 -141L509 3Z" />
<glyph unicode="&#xe8;" horiz-adv-x="1141" d="M1014 564Q894 552 865 550H320Q321 405 328 232Q333 165 385 144T590 122Q647 122 688 126T754 142T794 164T816 197T825 235T829 282T834 334L987 306Q985 236 977 188T950 102T905 44T835 8T738 -10T607 -15Q507
-15 433 -4T307 25T220 80T167 154T138 257T127 380T124 534Q124 672 127 749T147 903T190 1016T270 1081T395 1119T578 1128Q655 1128 711 1124T814 1105T891 1073T945 1020T981 948T1002 848T1012 723T1014 564ZM321 655H817Q815 783 807 889Q803 950 755 970T577
991Q434 991 396 975Q379 970 367 958T346 922T334 879T327 824T323 769T322 709T321 655ZM518 1548Q535 1534 609 1460T748 1319L814 1251L797 1230L704 1265Q611 1300 512 1337T402 1379Q367 1394 349 1423T331 1483Q331 1524 359 1553T434 1583Q478 1583 518
1548Z" />
<glyph unicode="&#xe9;" horiz-adv-x="1141" d="M1014 564Q894 552 865 550H320Q321 405 328 232Q333 165 385 144T590 122Q647 122 688 126T754 142T794 164T816 197T825 235T829 282T834 334L987 306Q985 236 977 188T950 102T905 44T835 8T738 -10T607 -15Q507
-15 433 -4T307 25T220 80T167 154T138 257T127 380T124 534Q124 672 127 749T147 903T190 1016T270 1081T395 1119T578 1128Q655 1128 711 1124T814 1105T891 1073T945 1020T981 948T1002 848T1012 723T1014 564ZM321 655H817Q815 783 807 889Q803 950 755 970T577
991Q434 991 396 975Q379 970 367 958T346 922T334 879T327 824T323 769T322 709T321 655ZM627 1548Q667 1583 711 1583Q758 1583 786 1554T814 1483Q814 1452 796 1423T743 1379Q732 1374 633 1337T441 1265L348 1230L331 1251Q588 1517 627 1548Z" />
<glyph unicode="&#xea;" horiz-adv-x="1141" d="M1014 564Q894 552 865 550H320Q321 405 328 232Q333 165 385 144T590 122Q647 122 688 126T754 142T794 164T816 197T825 235T829 282T834 334L987 306Q985 236 977 188T950 102T905 44T835 8T738 -10T607 -15Q507
-15 433 -4T307 25T220 80T167 154T138 257T127 380T124 534Q124 672 127 749T147 903T190 1016T270 1081T395 1119T578 1128Q655 1128 711 1124T814 1105T891 1073T945 1020T981 948T1002 848T1012 723T1014 564ZM321 655H817Q815 783 807 889Q803 950 755 970T577
991Q434 991 396 975Q379 970 367 958T346 922T334 879T327 824T323 769T322 709T321 655ZM573 1466L342 1230L287 1284L479 1593Q514 1645 573 1645T667 1593L859 1284L804 1230L573 1466Z" />
<glyph unicode="&#xeb;" horiz-adv-x="1141" d="M1014 564Q894 552 865 550H320Q321 405 328 232Q333 165 385 144T590 122Q647 122 688 126T754 142T794 164T816 197T825 235T829 282T834 334L987 306Q985 236 977 188T950 102T905 44T835 8T738 -10T607 -15Q507
-15 433 -4T307 25T220 80T167 154T138 257T127 380T124 534Q124 672 127 749T147 903T190 1016T270 1081T395 1119T578 1128Q655 1128 711 1124T814 1105T891 1073T945 1020T981 948T1002 848T1012 723T1014 564ZM321 655H817Q815 783 807 889Q803 950 755 970T577
991Q434 991 396 975Q379 970 367 958T346 922T334 879T327 824T323 769T322 709T321 655ZM689 1295T689 1357T725 1451T820 1484T914 1452T949 1357T914 1262T820 1230T725 1262ZM197 1295T197 1357T233 1451T328 1484T422 1452T457 1357T422 1262T328 1230T233
1262Z" />
<glyph unicode="&#xec;" horiz-adv-x="533" d="M364 0H167V1097H364V0ZM467 1804Q484 1790 558 1716T697 1575L763 1507L746 1486L653 1521Q560 1556 461 1593T351 1635Q316 1650 298 1679T280 1739Q280 1780 308 1809T383 1839Q427 1839 467 1804Z" />
<glyph unicode="&#xed;" horiz-adv-x="533" d="M364 0H167V1097H364V0ZM576 1804Q616 1839 660 1839Q707 1839 735 1810T763 1739Q763 1708 745 1679T692 1635Q681 1630 582 1593T390 1521L297 1486L280 1507Q537 1773 576 1804Z" />
<glyph unicode="&#xee;" horiz-adv-x="533" d="M364 0H167V1097H364V0ZM265 1466L34 1230L-21 1284L171 1593Q206 1645 265 1645T359 1593L551 1284L496 1230L265 1466Z" />
<glyph unicode="&#xef;" horiz-adv-x="533" d="M364 0H167V1097H364V0ZM381 1295T381 1357T417 1451T512 1484T606 1452T641 1357T606 1262T512 1230T417 1262ZM-111 1295T-111 1357T-75 1451T20 1484T114 1452T149 1357T114 1262T20 1230T-75 1262Z" />
<glyph unicode="&#xf0;" horiz-adv-x="1206" d="M984 1587L1044 1527L886 1369Q926 1341 955 1302T1005 1225T1039 1117T1059 996T1069 839T1073 665T1074 452Q1074 302 1053 211T974 67T832 -5T606 -24Q478 -24 394 -12T250 26T157 102T112 220T99 391L100 599Q101
794 193 880T511 966Q848 966 876 816Q866 1012 846 1111T779 1262L622 1105L562 1165L709 1312Q695 1318 680 1323T644 1334T608 1342T564 1349T520 1355T468 1361T414 1366T352 1372T287 1378L305 1497Q660 1475 808 1411L984 1587ZM606 838Q529 838 483 837T398
830T341 818T311 795T296 762T293 714L292 214Q292 187 295 170T314 140T346 120T404 110T486 105T604 104Q676 104 720 105T797 112T843 123T866 144T875 172T876 212V651Q876 694 873 719T855 770T811 809T732 830T606 838Z" />
<glyph unicode="&#xf1;" horiz-adv-x="1171" d="M1021 0H824V664Q824 728 824 766T820 844T812 902T798 941T776 968T744 981T702 989T646 990Q570 990 517 982T429 958T377 916T351 858T344 780Q344 754 347 690T350 585V0H153V1097H333L352 974Q378 1056 467
1092T679 1128Q737 1128 782 1121T862 1098T922 1060T965 1005T994 934T1011 844T1019 737T1021 609V0ZM926 1415Q875 1230 699 1230Q646 1230 556 1272T424 1314Q346 1314 278 1251L249 1294Q298 1450 458 1450Q511 1450 557 1433T641 1399T707 1382Q789 1382
892 1465L926 1415Z" />
<glyph unicode="&#xf2;" horiz-adv-x="1178" d="M587 123Q729 126 784 144T840 215Q851 358 851 546Q851 608 846 723T841 895Q841 912 836 926T818 949T793 966T758 977T720 984T676 988T632 989T586 989T541 989T497 988T453 984T415 977T380 966T355 950T337
926T331 895Q331 839 326 724T321 546Q321 358 332 215Q332 162 390 143T587 123ZM585 -15Q474 -15 400 -6T273 33T191 98T147 207T128 355T124 558Q124 655 126 720T138 847T160 948T199 1021T257 1074T338 1105T446 1123T586 1128T725 1124T833 1106T915 1074T972
1022T1011 949T1034 848T1045 720T1048 558Q1048 428 1045 355T1025 208T981 98T899 33T771 -6T585 -15ZM526 1548Q543 1534 617 1460T756 1319L822 1251L805 1230L712 1265Q619 1300 520 1337T410 1379Q375 1394 357 1423T339 1483Q339 1524 367 1553T442 1583Q486
1583 526 1548Z" />
<glyph unicode="&#xf3;" horiz-adv-x="1178" d="M587 123Q729 126 784 144T840 215Q851 358 851 546Q851 608 846 723T841 895Q841 912 836 926T818 949T793 966T758 977T720 984T676 988T632 989T586 989T541 989T497 988T453 984T415 977T380 966T355 950T337
926T331 895Q331 839 326 724T321 546Q321 358 332 215Q332 162 390 143T587 123ZM585 -15Q474 -15 400 -6T273 33T191 98T147 207T128 355T124 558Q124 655 126 720T138 847T160 948T199 1021T257 1074T338 1105T446 1123T586 1128T725 1124T833 1106T915 1074T972
1022T1011 949T1034 848T1045 720T1048 558Q1048 428 1045 355T1025 208T981 98T899 33T771 -6T585 -15ZM635 1548Q675 1583 719 1583Q766 1583 794 1554T822 1483Q822 1452 804 1423T751 1379Q740 1374 641 1337T449 1265L356 1230L339 1251Q596 1517 635 1548Z"
/>
<glyph unicode="&#xf4;" horiz-adv-x="1178" d="M587 123Q729 126 784 144T840 215Q851 358 851 546Q851 608 846 723T841 895Q841 912 836 926T818 949T793 966T758 977T720 984T676 988T632 989T586 989T541 989T497 988T453 984T415 977T380 966T355 950T337
926T331 895Q331 839 326 724T321 546Q321 358 332 215Q332 162 390 143T587 123ZM585 -15Q474 -15 400 -6T273 33T191 98T147 207T128 355T124 558Q124 655 126 720T138 847T160 948T199 1021T257 1074T338 1105T446 1123T586 1128T725 1124T833 1106T915 1074T972
1022T1011 949T1034 848T1045 720T1048 558Q1048 428 1045 355T1025 208T981 98T899 33T771 -6T585 -15ZM581 1466L350 1230L295 1284L487 1593Q522 1645 581 1645T675 1593L867 1284L812 1230L581 1466Z" />
<glyph unicode="&#xf5;" horiz-adv-x="1178" d="M587 123Q729 126 784 144T840 215Q851 358 851 546Q851 608 846 723T841 895Q841 912 836 926T818 949T793 966T758 977T720 984T676 988T632 989T586 989T541 989T497 988T453 984T415 977T380 966T355 950T337
926T331 895Q331 839 326 724T321 546Q321 358 332 215Q332 162 390 143T587 123ZM585 -15Q474 -15 400 -6T273 33T191 98T147 207T128 355T124 558Q124 655 126 720T138 847T160 948T199 1021T257 1074T338 1105T446 1123T586 1128T725 1124T833 1106T915 1074T972
1022T1011 949T1034 848T1045 720T1048 558Q1048 428 1045 355T1025 208T981 98T899 33T771 -6T585 -15ZM920 1415Q869 1230 693 1230Q640 1230 550 1272T418 1314Q340 1314 272 1251L243 1294Q292 1450 452 1450Q505 1450 551 1433T635 1399T701 1382Q783 1382
886 1465L920 1415Z" />
<glyph unicode="&#xf6;" horiz-adv-x="1178" d="M587 123Q729 126 784 144T840 215Q851 358 851 546Q851 608 846 723T841 895Q841 912 836 926T818 949T793 966T758 977T720 984T676 988T632 989T586 989T541 989T497 988T453 984T415 977T380 966T355 950T337
926T331 895Q331 839 326 724T321 546Q321 358 332 215Q332 162 390 143T587 123ZM585 -15Q474 -15 400 -6T273 33T191 98T147 207T128 355T124 558Q124 655 126 720T138 847T160 948T199 1021T257 1074T338 1105T446 1123T586 1128T725 1124T833 1106T915 1074T972
1022T1011 949T1034 848T1045 720T1048 558Q1048 428 1045 355T1025 208T981 98T899 33T771 -6T585 -15ZM697 1295T697 1357T733 1451T828 1484T922 1452T957 1357T922 1262T828 1230T733 1262ZM205 1295T205 1357T241 1451T336 1484T430 1452T465 1357T430 1262T336
1230T241 1262Z" />
<glyph unicode="&#xf7;" horiz-adv-x="537" d="M273 925Q211 925 172 967T133 1079Q133 1152 172 1192T287 1233Q338 1233 375 1186T413 1079Q413 1011 376 968T273 925ZM375 178Q337 134 273 134Q211 134 172 176T133 288Q133 360 172 401T287 442Q338 442 375
395T413 288Q413 224 375 178Z" />
<glyph unicode="&#xf8;" horiz-adv-x="1175" d="M582 -15H580Q536 -15 516 -14L476 -200H383L424 -8Q370 -2 329 8T256 38T202 79T165 139T140 213T127 308T121 421T119 558Q119 655 121 720T133 847T155 948T194 1021T252 1074T333 1105T441 1123T581 1128Q613
1128 667 1126L704 1299H797L758 1119Q822 1111 867 1095T944 1047T995 977T1025 873T1039 736T1043 558Q1043 428 1040 355T1020 208T976 99T895 34T767 -6T582 -15ZM454 130L638 989H581Q551 989 536 989T492 988T448 984T410 977T375 966T350 950T332 926T326
895Q326 839 321 724T316 546Q316 358 327 215Q327 176 357 157T454 130ZM545 124Q550 124 562 124T580 123H582Q724 126 779 144T835 215Q846 358 846 546Q846 608 841 723T836 895Q836 964 729 982L545 124Z" />
<glyph unicode="&#xf9;" horiz-adv-x="1170" d="M1020 -1H838L820 140Q794 61 707 23T493 -15Q407 -15 348 2T250 51T189 142T159 273T150 454V1097H347V460Q347 438 347 401T346 348Q346 295 348 265T358 206T381 164T423 139T487 125T581 122Q645 122 690 131T761
154T800 194T818 243T822 303Q822 315 822 342T821 383V1097H1020V-1ZM520 1548Q537 1534 611 1460T750 1319L816 1251L799 1230L706 1265Q613 1300 514 1337T404 1379Q369 1394 351 1423T333 1483Q333 1524 361 1553T436 1583Q480 1583 520 1548Z" />
<glyph unicode="&#xfa;" horiz-adv-x="1170" d="M1020 -1H838L820 140Q794 61 707 23T493 -15Q407 -15 348 2T250 51T189 142T159 273T150 454V1097H347V460Q347 438 347 401T346 348Q346 295 348 265T358 206T381 164T423 139T487 125T581 122Q645 122 690 131T761
154T800 194T818 243T822 303Q822 315 822 342T821 383V1097H1020V-1ZM629 1548Q669 1583 713 1583Q760 1583 788 1554T816 1483Q816 1452 798 1423T745 1379Q734 1374 635 1337T443 1265L350 1230L333 1251Q590 1517 629 1548Z" />
<glyph unicode="&#xfb;" horiz-adv-x="1170" d="M1020 -1H838L820 140Q794 61 707 23T493 -15Q407 -15 348 2T250 51T189 142T159 273T150 454V1097H347V460Q347 438 347 401T346 348Q346 295 348 265T358 206T381 164T423 139T487 125T581 122Q645 122 690 131T761
154T800 194T818 243T822 303Q822 315 822 342T821 383V1097H1020V-1ZM575 1466L344 1230L289 1284L481 1593Q516 1645 575 1645T669 1593L861 1284L806 1230L575 1466Z" />
<glyph unicode="&#xfc;" horiz-adv-x="1170" d="M1020 -1H838L820 140Q794 61 707 23T493 -15Q407 -15 348 2T250 51T189 142T159 273T150 454V1097H347V460Q347 438 347 401T346 348Q346 295 348 265T358 206T381 164T423 139T487 125T581 122Q645 122 690 131T761
154T800 194T818 243T822 303Q822 315 822 342T821 383V1097H1020V-1ZM691 1295T691 1357T727 1451T822 1484T916 1452T951 1357T916 1262T822 1230T727 1262ZM199 1295T199 1357T235 1451T330 1484T424 1452T459 1357T424 1262T330 1230T235 1262Z" />
<glyph unicode="&#xfd;" horiz-adv-x="1080" d="M1000 1097L654 53Q641 15 627 -38T603 -125T579 -197T547 -260T505 -305T445 -336T364 -346Q245 -346 148 -323L178 -171Q197 -173 229 -178T284 -187T328 -190Q392 -190 425 -146T459 17L48 1097H247L449 540Q504
388 551 253Q584 374 648 587L799 1097H1000ZM581 1548Q621 1583 665 1583Q712 1583 740 1554T768 1483Q768 1452 750 1423T697 1379Q686 1374 587 1337T395 1265L302 1230L285 1251Q542 1517 581 1548Z" />
<glyph unicode="&#xfe;" horiz-adv-x="1209" d="M1074 526Q1074 397 1067 314T1038 160T978 53T879 -4T729 -24Q427 -24 363 104V-385L167 -401V1564L362 1579V1041Q412 1168 710 1168Q770 1168 818 1158T903 1133T966 1088T1011 1031T1042 955T1060 871T1070
769T1073 661T1074 538Q1074 530 1074 526ZM875 562Q875 608 875 677T876 770Q876 816 875 845T869 901T859 942T839 969T812 987T770 996T717 1000T646 1001Q602 1001 571 1001T511 997T463 992T427 982T400 968T382 948T371 923T365 889T362 849T361 798Q361
769 362 709T363 621Q363 557 362 469T360 355Q360 281 367 242T393 183Q420 160 473 152T625 144Q684 144 723 148T791 164T836 191T861 238T873 302T876 392Q876 414 876 470T875 562Z" />
<glyph unicode="&#xff;" horiz-adv-x="1080" d="M1000 1097L654 53Q641 15 627 -38T603 -125T579 -197T547 -260T505 -305T445 -336T364 -346Q245 -346 148 -323L178 -171Q197 -173 229 -178T284 -187T328 -190Q392 -190 425 -146T459 17L48 1097H247L449 540Q504
388 551 253Q584 374 648 587L799 1097H1000ZM643 1295T643 1357T679 1451T774 1484T868 1452T903 1357T868 1262T774 1230T679 1262ZM151 1295T151 1357T187 1451T282 1484T376 1452T411 1357T376 1262T282 1230T187 1262Z" />
<glyph unicode="&#x2013;" horiz-adv-x="1069" d="M942 580H131V768H942V580Z" />
<glyph unicode="&#x2014;" horiz-adv-x="1785" d="M1659 580H131V768H1659V580Z" />
<glyph unicode="&#x2018;" horiz-adv-x="525" d="M416 1484Q355 1484 317 1425T279 1285Q411 1285 411 1135Q411 1089 371 1045T271 1000Q118 1000 118 1202Q118 1342 206 1447T416 1552V1484Z" />
<glyph unicode="&#x2019;" horiz-adv-x="525" d="M123 1068Q185 1068 222 1126T260 1267Q128 1267 128 1417Q128 1467 170 1509T288 1552Q349 1552 385 1496T422 1350Q422 1215 334 1108T123 1000V1068Z" />
<glyph unicode="&#x201a;" horiz-adv-x="408" d="M200 -270Q125 85 125 164Q125 241 142 271T212 301Q298 301 298 179Q298 142 280 29T244 -180L225 -276L200 -270Z" />
<glyph unicode="&#x201c;" horiz-adv-x="1005" d="M896 1484Q836 1484 798 1425T760 1285Q891 1285 891 1135Q891 1087 850 1044T733 1000Q671 1000 634 1057T596 1202Q596 1339 685 1445T896 1552V1484ZM418 1484Q355 1484 317 1426T279 1285Q413 1285 413 1135Q413
1087 373 1044T271 1000Q118 1000 118 1202Q118 1339 205 1445T418 1552V1484Z" />
<glyph unicode="&#x201d;" horiz-adv-x="1005" d="M602 1068Q665 1068 702 1125T740 1267Q607 1267 607 1417Q607 1465 649 1508T768 1552Q829 1552 865 1496T902 1350Q902 1263 864 1183T755 1051T602 1000V1068ZM123 1068Q185 1068 222 1126T260 1267Q128 1267
128 1417Q128 1467 170 1509T288 1552Q348 1552 386 1495T425 1350Q425 1215 336 1108T123 1000V1068Z" />
<glyph unicode="&#x201e;" horiz-adv-x="693" d="M200 -270Q125 85 125 164Q125 241 142 271T212 301Q298 301 298 179Q298 142 280 29T244 -180L225 -276L200 -270ZM484 -270Q409 85 409 164Q409 241 426 271T496 301Q582 301 582 179Q582 142 564 29T528 -180L509
-276L484 -270Z" />
<glyph unicode="&#x2022;" horiz-adv-x="894" d="M111 662Q111 759 150 841T271 977T459 1030Q564 1030 641 979T755 845T792 664Q792 509 702 404T457 298Q299 298 205 405T111 662Z" />
<glyph unicode="&#x2039;" horiz-adv-x="725" d="M80 742L555 1166L650 1053L229 693L650 333L555 220L80 644V742Z" />
<glyph unicode="&#x203a;" horiz-adv-x="729" d="M650 742V644L175 220L80 333L501 693L80 1053L175 1166L650 742Z" />
</font>
</defs>
</svg>
