<?xml version="1.0" standalone="no"?>
<!DOCTYPE svg PUBLIC "-//W3C//DTD SVG 1.1//EN" "http://www.w3.org/Graphics/SVG/1.1/DTD/svg11.dtd">
<svg xmlns="http://www.w3.org/2000/svg">
<defs >
<font id="Cabin" horiz-adv-x="989" ><font-face
    font-family="Cabin"
    units-per-em="2000"
    panose-1="0 0 0 0 0 0 0 0 0 0"
    ascent="1930"
    descent="-500"
    alphabetic="0" />
<glyph unicode=" " horiz-adv-x="432" />
<glyph unicode="!" horiz-adv-x="418" d="M90 414L100 472L242 1400H490L304 472L294 414H90ZM-12 0L36 272H296L248 0H-12Z" />
<glyph unicode="&quot;" horiz-adv-x="680" d="M120 1000L152 1400H400L288 1000H120ZM460 1000L492 1400H740L628 1000H460Z" />
<glyph unicode="#" horiz-adv-x="1376" d="M22 -22L796 1400H980L206 -22H22ZM418 -22L1192 1400H1376L602 -22H418ZM248 828L346 1024H1386L1284 828H248ZM39 428L157 624H1197L1075 428H39Z" />
<glyph unicode="$" horiz-adv-x="1136" d="M544 68L502 -288H306L388 68H544ZM652 1346L692 1688H888L808 1346H652ZM426 -28Q282 -28 171 3T-20 74L60 366Q123 311 223 265T456 218Q535 218 593 234T682 288T714 388Q714 448 686 487T598 557T448 620Q369 648
308 679T205 753T142 853T120 992Q120 1087 158 1166T266 1304T436 1395T656 1428Q806 1428 921 1392T1096 1320L1024 1058Q921 1120 832 1152T636 1184Q567 1184 510 1168T420 1116T386 1020Q386 944 452 907T620 834Q690 810 758 782T883 710T974 603T1008 442Q1008
360 979 277T882 125T702 14T426 -28Z" />
<glyph unicode="%" horiz-adv-x="1766" d="M340 628Q201 628 131 712T60 932Q60 1061 112 1174T258 1358T480 1428Q612 1428 687 1349T762 1132Q762 1032 732 942T646 781T513 669T340 628ZM370 802Q432 802 474 852T537 975T558 1112Q558 1184 530 1219T450 1254Q385
1254 344 1204T284 1080T264 940Q264 873 290 838T370 802ZM230 0L1304 1400H1502L430 0H230ZM1244 -28Q1105 -28 1035 56T964 276Q964 405 1016 518T1162 702T1384 772Q1516 772 1591 693T1666 476Q1666 376 1636 286T1550 125T1417 13T1244 -28ZM1274 146Q1336
146 1378 196T1441 319T1462 456Q1462 528 1434 563T1354 598Q1289 598 1248 548T1188 424T1168 284Q1168 217 1194 182T1274 146Z" />
<glyph unicode="&amp;" horiz-adv-x="1210" d="M820 0L755 100L696 180L413 613L335 721Q299 786 269 865T238 1026Q238 1115 277 1185T383 1305T529 1380T692 1406Q823 1406 891 1342T960 1166Q960 1086 928 1023T843 908T729 815T609 734L525 853Q581 893 628
933T705 1018T734 1120Q734 1170 712 1189T648 1208Q582 1208 534 1165T486 1038Q486 992 503 947T549 847L614 756L826 408L939 253L1112 0H820ZM938 225L813 406Q825 443 834 481T850 558T865 633T878 704H1118Q1109 645 1088 564T1031 395T938 225ZM406 -48Q269
-48 184 -4T58 115T18 280Q18 389 66 473T189 622T341 743L434 612Q368 547 326 475T284 316Q284 271 300 232T357 167T474 142Q542 142 594 163T687 220L787 77Q717 21 622 -13T406 -48Z" />
<glyph unicode="&apos;" horiz-adv-x="340" d="M120 1000L152 1400H400L288 1000H120Z" />
<glyph unicode="(" horiz-adv-x="662" d="M238 -272Q172 -131 136 9T100 328Q101 666 218 955T540 1500H762Q628 1324 534 1123T391 708T342 284Q342 115 373 -21T450 -272H238Z" />
<glyph unicode=")" horiz-adv-x="662" d="M424 1500Q490 1359 526 1219T562 900Q561 562 444 273T122 -272H-100Q34 -96 128 105T271 520T320 944Q320 1113 289 1249T212 1500H424Z" />
<glyph unicode="*" horiz-adv-x="854" d="M390 1111L146 1272L252 1396L584 1125L596 1131L852 966L748 842L402 1115L390 1111ZM498 724H348L428 1075L488 1510H638L552 1105L498 724ZM390 1119L834 1396L894 1270L612 1116L600 1121L154 848L92 974L378 1126L390 1119Z" />
<glyph unicode="+" horiz-adv-x="860" d="M220 192L348 916H552L424 192H220ZM12 460L44 648H760L728 460H12Z" />
<glyph unicode="," horiz-adv-x="400" d="M60 -240H-56L74 0H-28L20 272H280L236 24L60 -240Z" />
<glyph unicode="-" horiz-adv-x="818" d="M88 528L124 716H718L684 528H88Z" />
<glyph unicode="." horiz-adv-x="400" d="M-28 0L20 272H280L232 0H-28Z" />
<glyph unicode="/" horiz-adv-x="702" d="M-80 -170L724 1400H982L178 -170H-80Z" />
<glyph unicode="0" horiz-adv-x="1382" d="M542 -28Q396 -28 292 39T132 229T76 520Q76 694 127 856T273 1148T502 1352T798 1428Q946 1428 1050 1362T1210 1175T1266 892Q1266 718 1215 554T1067 258T838 50T542 -28ZM582 202Q688 202 767 264T900 427T981 645T1008
874Q1008 1041 939 1121T758 1202Q651 1202 571 1142T438 983T359 766T332 532Q332 360 401 281T582 202Z" />
<glyph unicode="1" horiz-adv-x="726" d="M134 0L338 1151L382 1079Q344 1053 304 1030T220 991T128 966L144 1182Q189 1191 248 1225T360 1305T442 1400H638L390 0H134Z" />
<glyph unicode="2" horiz-adv-x="1040" d="M-60 0L408 566Q494 670 554 748T647 894T680 1028Q680 1103 641 1145T530 1188Q430 1188 344 1139T168 1018L182 1276Q281 1348 386 1388T616 1428Q781 1428 860 1337T940 1114Q940 992 887 879T749 656T566 434L323
153L283 240H850L808 0H-60Z" />
<glyph unicode="3" horiz-adv-x="1048" d="M360 -28Q234 -28 130 5T-60 92L40 308Q109 257 191 225T366 192Q479 192 550 250T622 422Q623 517 566 563T398 610H274L316 850H436Q555 850 627 906T700 1054Q700 1123 654 1165T520 1208Q436 1208 355 1180T190 1104L192
1330Q269 1371 368 1399T582 1428Q758 1428 853 1340T948 1110Q948 1017 905 938T783 804T602 726L608 772Q733 747 806 660T880 430Q880 290 811 187T623 28T360 -28Z" />
<glyph unicode="4" horiz-adv-x="1182" d="M590 0L788 1124L844 1052L312 444L274 528H1081L1043 320H-52L902 1400H1076L828 0H590Z" />
<glyph unicode="5" horiz-adv-x="1014" d="M324 -26Q201 -26 108 5T-60 90L58 306Q120 261 189 233T342 204Q418 204 480 234T579 321T616 456Q616 557 554 613T366 670Q302 670 235 663T102 642L326 1400H974L914 1152H359L508 1262L354 764L278 852Q323 866
371 873T474 880Q654 880 762 780T870 496Q870 340 795 223T595 40T324 -26Z" />
<glyph unicode="6" horiz-adv-x="1152" d="M484 -28Q358 -28 263 23T114 168T60 390Q60 551 129 706T316 1000T578 1248T876 1428L1020 1268Q962 1243 879 1197T706 1088T533 944T391 770T312 570L264 650Q330 736 425 789T658 842Q817 842 913 742T1010 476Q1010
333 941 219T753 39T484 -28ZM506 184Q582 184 642 218T737 312T772 446Q772 526 719 578T584 630Q507 630 446 595T350 500T316 364Q318 286 372 235T506 184Z" />
<glyph unicode="7" horiz-adv-x="1036" d="M40 0L762 1258L818 1160H178L220 1400H1116L308 0H40Z" />
<glyph unicode="8" horiz-adv-x="1184" d="M584 680Q482 680 402 718T275 824T228 986Q228 1112 292 1212T466 1370T714 1428Q839 1428 916 1386T1028 1274T1064 1122Q1064 991 1000 892T826 736T584 680ZM618 866Q717 866 777 930T838 1082Q838 1148 800 1188T682
1228Q582 1228 518 1167T454 1016Q455 950 498 908T618 866ZM472 -28Q340 -28 245 16T99 140T48 326Q48 437 91 528T212 687T392 790T610 826Q801 826 911 731T1022 478Q1022 330 947 216T747 37T472 -28ZM498 192Q583 192 648 226T749 318T786 452Q786 535 733
587T578 640Q494 640 429 606T327 510T290 370Q290 289 344 241T498 192Z" />
<glyph unicode="9" horiz-adv-x="1168" d="M656 1428Q782 1428 877 1377T1026 1232T1080 1010Q1080 849 1011 694T824 400T562 152T264 -28L120 132Q178 157 261 203T434 312T607 456T749 630T828 830L876 750Q810 664 715 611T482 558Q323 558 227 658T130 924Q130
1067 199 1181T387 1361T656 1428ZM634 1216Q558 1216 498 1182T403 1088T368 954Q368 874 421 822T556 770Q633 770 694 805T790 900T824 1036Q822 1114 768 1165T634 1216Z" />
<glyph unicode=":" horiz-adv-x="400" d="M100 728L148 1000H408L360 728H100ZM-28 0L20 272H280L232 0H-28Z" />
<glyph unicode=";" horiz-adv-x="400" d="M60 -240H-56L74 0H-28L20 272H280L236 24L60 -240ZM100 728L148 1000H408L360 728H100Z" />
<glyph unicode="&lt;" horiz-adv-x="854" d="M24 450L60 658L810 976L772 762L141 504L144 597L696 336L662 134L24 450Z" />
<glyph unicode="=" horiz-adv-x="884" d="M40 624L72 808H812L780 624H40ZM-16 300L16 484H756L724 300H-16Z" />
<glyph unicode="&gt;" horiz-adv-x="798" d="M726 660L690 452L-60 134L-22 348L609 606L606 513L54 774L88 976L726 660Z" />
<glyph unicode="?" horiz-adv-x="954" d="M206 414L209 434Q221 511 253 569T333 674T432 766Q488 814 536 858T613 950T642 1060Q642 1119 601 1150T488 1182Q407 1182 335 1161T188 1106L200 1342Q286 1380 377 1404T592 1428Q757 1428 845 1348T934 1140Q934
1051 898 978T803 842T676 722Q622 677 580 636T510 549T473 446L468 414H206ZM132 0L180 272H440L392 0H132Z" />
<glyph unicode="@" horiz-adv-x="1392" d="M440 -174Q251 -174 147 -66T42 234Q42 415 116 573T315 851T595 1038T912 1106Q1107 1106 1210 996T1314 700Q1314 618 1293 529T1227 363T1115 237T956 188Q926 188 907 200T888 256Q888 316 915 385T986 544T1080
758Q1052 797 999 830T866 864Q768 864 664 810T471 665T327 467T272 252Q272 183 304 132T414 80Q469 80 538 106T676 185T800 312Q799 305 795 295T788 271T781 241T778 206Q778 164 796 124T866 84Q900 84 949 102T1050 150T1138 212Q1057 98 945 11T703 -125T440
-174ZM500 212Q466 212 450 239T434 306Q434 394 478 472T590 611T731 707T862 742Q879 742 906 736T940 698Q912 618 859 533T740 375T612 257T500 212Z" />
<glyph unicode="A" horiz-adv-x="1214" d="M-86 0L638 1400H878L1108 0H842L785 354L746 570L670 1110L737 1099L477 572L359 352L180 0H-86ZM266 338L398 586H810L854 338H266Z" />
<glyph unicode="B" horiz-adv-x="1232" d="M52 0L298 1400H714Q801 1400 877 1385T1010 1335T1099 1238T1132 1084Q1132 952 1060 853T869 707L850 763Q993 743 1067 666T1142 464Q1142 352 1099 266T979 120T805 31T598 0H52ZM360 838H668Q752 838 810 892T868
1046Q868 1095 852 1125T806 1168T730 1182H516L346 218H588Q664 218 725 245T822 325T858 458Q858 542 809 589T660 636H324L360 838Z" />
<glyph unicode="C" horiz-adv-x="1186" d="M640 -28Q469 -28 345 44T152 250T84 574Q84 759 147 915T321 1186T580 1364T894 1428Q993 1428 1092 1406T1258 1346L1186 1102Q1126 1129 1042 1155T860 1182Q738 1182 646 1135T491 1007T398 821T366 598Q366 485
398 400T501 266T692 218Q778 218 869 241T1044 298L1030 54Q949 17 843 -5T640 -28Z" />
<glyph unicode="D" horiz-adv-x="1404" d="M52 0L298 1400H802Q969 1400 1093 1333T1287 1136T1356 816Q1356 635 1294 485T1121 227T866 59T556 0H52ZM332 133L237 246H600Q716 246 804 289T953 407T1043 581T1074 792Q1074 969 996 1061T760 1154H397L532 1267L332
133Z" />
<glyph unicode="E" horiz-adv-x="1110" d="M338 135L243 248H982L938 0H52L298 1400H1166L1122 1152H403L538 1265L338 135ZM390 854H932L888 606H346L390 854Z" />
<glyph unicode="F" horiz-adv-x="1026" d="M308 0H52L298 1400H1128L1084 1152H397L533 1265L308 0ZM392 854H902L858 606H348L392 854Z" />
<glyph unicode="G" horiz-adv-x="1292" d="M650 -28Q485 -28 357 45T157 253T84 578Q84 760 146 915T320 1185T577 1364T892 1428Q959 1428 1033 1418T1175 1390T1286 1346L1214 1102Q1144 1135 1047 1158T860 1182Q736 1182 644 1134T490 1004T398 820T368 608Q368
428 450 323T700 218Q756 218 823 229T971 261L860 127L944 603L1039 490H786L824 702H1216L1106 78Q1027 35 914 4T650 -28Z" />
<glyph unicode="H" horiz-adv-x="1436" d="M52 0L298 1400H554L308 0H52ZM922 0L1168 1400H1424L1178 0H922ZM298 606L342 854H1188L1144 606H298Z" />
<glyph unicode="I" horiz-adv-x="566" d="M52 0L298 1400H554L308 0H52Z" />
<glyph unicode="J" horiz-adv-x="566" d="M-140 -344L-126 -152H-66Q-37 -152 -15 -137T25 -87T52 8L298 1400H554L298 -48Q272 -198 173 -271T-64 -344H-140Z" />
<glyph unicode="K" horiz-adv-x="1212" d="M804 0L456 740L1022 1400H1332L655 655L683 844L1082 0H804ZM52 0L298 1400H554L308 0H52Z" />
<glyph unicode="L" horiz-adv-x="980" d="M52 0L298 1400H554L332 135L237 248H894L850 0H52Z" />
<glyph unicode="M" horiz-adv-x="1618" d="M-16 0L418 1400H640L872 652L774 666L1262 1400H1482L1424 0H1158L1221 1045L1281 1023L756 294L487 1038L559 1040L250 0H-16Z" />
<glyph unicode="N" horiz-adv-x="1376" d="M52 0L298 1400H548L995 391L928 383L1108 1400H1364L1116 0H908L431 1065L498 1073L308 0H52Z" />
<glyph unicode="O" horiz-adv-x="1484" d="M642 -28Q471 -28 346 44T152 251T84 574Q84 758 147 913T321 1184T576 1364T882 1428Q1053 1428 1178 1356T1371 1149T1440 826Q1440 642 1377 487T1203 216T948 36T642 -28ZM682 218Q794 218 882 266T1031 396T1124
584T1156 804Q1156 920 1122 1005T1018 1136T840 1182Q728 1182 640 1134T491 1004T398 816T366 596Q366 480 400 395T504 264T682 218Z" />
<glyph unicode="P" horiz-adv-x="1174" d="M344 700H658Q739 700 801 731T899 827T934 990Q934 1088 890 1137T746 1186H401L536 1299L306 0H52L298 1400H774Q914 1400 1009 1352T1152 1217T1200 1010Q1200 875 1158 772T1038 600T854 496T620 460H302L344 700Z" />
<glyph unicode="Q" horiz-adv-x="1484" d="M642 -28Q471 -28 346 44T152 251T84 574Q84 758 147 913T321 1184T576 1364T882 1428Q1053 1428 1178 1356T1371 1149T1440 826Q1440 657 1377 504T1203 230T948 41T642 -28ZM682 218Q794 218 882 271T1031 411T1124
601T1156 804Q1156 920 1122 1005T1018 1136T840 1182Q728 1182 640 1134T491 1004T398 816T366 596Q366 480 400 395T504 264T682 218ZM1152 -20L730 406L912 584L1332 158L1152 -20Z" />
<glyph unicode="R" horiz-adv-x="1226" d="M52 0L298 1400H757Q978 1400 1089 1309T1200 1044Q1200 938 1161 854T1058 707T919 603T772 541T644 520H258L288 760H634Q729 760 794 794T892 887T926 1018Q926 1098 881 1142T732 1186H381L539 1314L306 0H52ZM826
0L605 624L863 674L1092 0H826Z" />
<glyph unicode="S" horiz-adv-x="1132" d="M456 -28Q312 -28 201 3T10 74L90 366Q153 311 253 265T486 218Q565 218 623 234T712 288T744 388Q744 448 716 487T628 557T478 620Q399 648 338 679T235 753T172 853T150 992Q150 1087 188 1166T296 1304T466 1395T686
1428Q836 1428 951 1392T1126 1320L1054 1058Q951 1120 862 1152T666 1184Q597 1184 540 1168T450 1116T416 1020Q416 944 482 907T650 834Q720 810 788 782T913 710T1004 603T1038 442Q1038 360 1009 277T912 125T732 14T456 -28Z" />
<glyph unicode="T" horiz-adv-x="1128" d="M334 0L542 1188H798L590 0H334ZM158 1152L202 1400H1214L1170 1152H158Z" />
<glyph unicode="U" horiz-adv-x="1390" d="M588 -28Q353 -28 240 92T126 424Q126 449 129 499T142 600L284 1400H538L412 686Q404 639 398 586T392 490Q393 410 414 349T487 253T630 218Q726 218 792 256T902 359T971 509T1014 686L1140 1400H1396L1254 600Q1221
413 1137 272T916 51T588 -28Z" />
<glyph unicode="V" horiz-adv-x="1276" d="M372 0L140 1400H406L609 184L539 195L1138 1400H1402L688 0H372Z" />
<glyph unicode="W" horiz-adv-x="1868" d="M306 0L174 1400H440L538 291L479 302L998 1400H1170L1320 318L1258 326L1726 1400H1992L1352 0H1132L984 1048L1051 1037L542 0H306Z" />
<glyph unicode="X" horiz-adv-x="1232" d="M-98 0L528 756L630 551L198 0H-98ZM781 724L1126 0H826L594 529L505 706L174 1400H470L684 881L781 724ZM758 673L649 858L1044 1400H1342L758 673Z" />
<glyph unicode="Y" horiz-adv-x="1206" d="M366 0L494 733L519 514L146 1400H418L689 733L577 748L1062 1400H1334L659 529L750 733L620 0H366Z" />
<glyph unicode="Z" horiz-adv-x="1072" d="M-78 0L792 1246L841 1152H212L256 1400H1192L322 154L273 248H902L858 0H-78Z" />
<glyph unicode="[" horiz-adv-x="652" d="M-16 -272L296 1500H790L752 1282H369L504 1395L228 -167L133 -54H516L478 -272H-16Z" />
<glyph unicode="\" horiz-adv-x="710" d="M360 -170L140 1400H390L610 -170H360Z" />
<glyph unicode="]" horiz-adv-x="666" d="M-136 -272L-98 -54H138L374 1282H138L176 1500H638L326 -272H-136Z" />
<glyph unicode="^" horiz-adv-x="908" d="M40 888L86 1152L498 1518L836 1094L790 830L452 1220L40 888Z" />
<glyph unicode="_" horiz-adv-x="1072" d="M-140 -260L-106 -72H968L936 -260H-140Z" />
<glyph unicode="`" horiz-adv-x="778" d="M570 1140L220 1292L260 1522L598 1298L570 1140Z" />
<glyph unicode="a" horiz-adv-x="1168" d="M406 -20Q290 -20 207 34T80 182T36 396Q36 513 74 623T186 823T364 964T598 1016Q667 1016 717 999T806 951T881 875L787 823L858 1000H1074L958 316Q950 268 950 240Q950 198 971 191T1048 184L992 -20Q898 -20 845
-13T763 15T713 74T662 174L745 137Q708 103 662 67T554 5T406 -20ZM490 184Q573 184 626 224T708 327T748 458T760 584Q760 689 718 750T580 812Q495 812 431 760T330 621T294 428Q294 319 340 252T490 184Z" />
<glyph unicode="b" horiz-adv-x="1120" d="M550 -20Q432 -20 352 35T228 187L294 232L236 0H14L278 1500H528L404 803L372 857Q409 910 459 945T568 998T688 1016Q807 1016 888 960T1010 807T1052 590Q1052 475 1019 366T921 170T764 31T550 -20ZM516 184Q601
184 664 236T761 376T796 566Q796 676 754 744T616 812Q520 812 456 755T360 608T328 418Q328 310 370 247T516 184Z" />
<glyph unicode="c" horiz-adv-x="874" d="M432 -20Q290 -20 203 37T76 189T36 402Q36 520 74 630T186 827T369 965T620 1016Q713 1016 775 995T880 942L822 730Q777 766 726 789T618 812Q518 812 446 760T334 621T294 428Q294 319 344 252T508 184Q615 184 740
266L724 54Q670 20 596 0T432 -20Z" />
<glyph unicode="d" horiz-adv-x="1122" d="M394 -20Q276 -20 197 34T77 179T36 384Q36 504 71 617T173 820T337 963T554 1016Q648 1016 712 980T815 884T872 756L790 792L916 1500H1164L900 0H664L705 219L744 168Q668 80 582 30T394 -20ZM480 184Q554 184 607
220T694 316T744 446T760 584Q760 680 722 746T582 812Q496 812 431 759T330 616T294 418Q294 313 338 249T480 184Z" />
<glyph unicode="e" horiz-adv-x="976" d="M284 575Q319 566 346 563T408 560Q530 560 597 582T691 640T718 714Q718 759 694 780T639 806T590 812Q509 812 451 767T359 662T313 557L295 433Q296 341 329 287T416 208T526 184Q616 184 696 208T840 266L812 56Q751
23 666 2T478 -20Q326 -20 228 37T83 192T36 410Q36 525 76 633T190 827T368 965T600 1016Q759 1016 842 937T926 726Q926 635 887 572T781 471T628 415T448 398Q393 398 346 403T269 416L284 575Z" />
<glyph unicode="f" horiz-adv-x="670" d="M288 1238Q300 1303 332 1363T430 1461T612 1500Q648 1500 695 1497T786 1488L728 1282Q695 1288 680 1290T648 1292Q597 1292 573 1276T538 1225T518 1136L318 0H70L288 1238ZM78 796L136 1000H700L664 796H78Z" />
<glyph unicode="g" horiz-adv-x="974" d="M398 228Q237 228 154 316T70 556Q70 676 127 781T289 951T534 1016Q683 1016 772 933T862 692Q862 601 830 518T738 370T591 266T398 228ZM430 410Q497 410 544 445T615 540T640 668Q640 748 606 791T500 834Q433 834
387 798T316 703T292 574Q292 496 325 453T430 410ZM318 -500Q171 -500 81 -463T-50 -365T-92 -238Q-92 -178 -65 -130T12 -43T125 29L288 -37Q246 -49 207 -69T142 -119T116 -194Q116 -255 172 -289T332 -324Q407 -324 470 -306T572 -256T610 -180Q610 -131 570
-107T465 -71T328 -49T192 -21T87 35T46 142Q46 200 82 239T184 309L317 244Q299 240 289 229T278 200Q278 166 337 152T496 124Q544 117 602 104T713 64T800 -13T834 -142Q834 -243 773 -324T596 -452T318 -500ZM820 839L734 951Q760 969 819 984T952 1000H1020L978
844H884Q874 844 857 844T820 839Z" />
<glyph unicode="h" horiz-adv-x="1076" d="M14 0L278 1500H526L262 0H14ZM618 0L702 492Q710 536 716 582T722 670Q722 736 689 774T592 812Q529 812 479 786T376 714L409 900Q481 962 550 989T696 1016Q787 1016 849 978T942 873T974 718Q974 682 971 638T956
530L866 0H618Z" />
<glyph unicode="i" horiz-adv-x="484" d="M14 0L190 1000H438L262 0H14ZM218 1152L260 1400H510L466 1152H218Z" />
<glyph unicode="j" horiz-adv-x="486" d="M-160 -484L-146 -280Q-95 -280 -70 -272T-32 -230T-6 -120L192 1000H440L224 -222Q205 -328 137 -406T-68 -484H-160ZM218 1152L262 1400H510L466 1152H218Z" />
<glyph unicode="k" horiz-adv-x="960" d="M14 0L278 1500H528L262 0H14ZM560 0L302 520L738 1000H1016L509 434L536 624L838 0H560Z" />
<glyph unicode="l" horiz-adv-x="528" d="M254 -20Q146 -20 97 36T48 178Q48 201 54 243T76 370L276 1500H524L322 350Q315 308 312 285T308 246Q308 200 333 192T402 184L344 -20H254Z" />
<glyph unicode="m" horiz-adv-x="1672" d="M14 0L190 1000H394L395 746L262 0H14ZM616 0Q645 164 664 275T696 457T714 568T723 631T726 668Q726 755 678 783T572 812Q511 812 466 787T380 717L385 914Q426 952 499 984T654 1016Q718 1016 779 992T884 915T937
775L985 703L862 0H616ZM1214 0Q1245 176 1264 290T1295 471T1312 572T1318 622T1320 648Q1320 747 1284 779T1186 812Q1112 812 1068 783T1001 709T970 618L901 824Q897 852 941 897T1067 979T1256 1016Q1418 1016 1494 924T1570 682Q1570 668 1569 649T1562 591T1544
481T1513 293T1462 0H1214Z" />
<glyph unicode="n" horiz-adv-x="1072" d="M14 0L190 1000H408L423 912L262 0H14ZM612 0Q643 174 662 288T693 470T709 573T715 622T716 644Q716 731 683 771T574 812Q513 812 468 786T378 713L406 932Q459 967 521 991T668 1016Q823 1016 896 922T970 678Q970
666 969 648T962 592T945 483T913 294T862 0H612Z" />
<glyph unicode="o" horiz-adv-x="1098" d="M448 -20Q309 -20 217 38T80 194T34 410Q34 528 77 636T198 830T383 966T618 1016Q757 1016 849 958T986 802T1032 586Q1032 468 989 360T868 166T683 30T448 -20ZM482 184Q569 184 635 237T739 377T776 568Q776 682
728 747T584 812Q498 812 432 760T328 621T290 430Q290 316 338 250T482 184Z" />
<glyph unicode="p" horiz-adv-x="1120" d="M-72 -484L190 1000H408L413 797L353 863Q424 929 507 972T700 1016Q812 1016 890 964T1010 816T1052 594Q1052 457 1018 344T918 150T760 24T552 -20Q427 -20 354 37T250 168L300 225L176 -484H-72ZM532 184Q611 184
670 233T763 370T796 570Q796 678 755 745T622 812Q530 812 464 758T362 612T326 408Q326 300 376 242T532 184Z" />
<glyph unicode="q" horiz-adv-x="1122" d="M564 -484L682 187L724 129Q651 59 577 20T402 -20Q279 -20 198 37T76 190T36 406Q36 523 73 632T179 828T347 965T568 1016Q684 1016 752 966T871 811L779 782L882 1000H1076L814 -484H564ZM490 184Q582 184 642 238T732
384T762 584Q762 689 722 750T584 812Q496 812 431 760T329 621T292 430Q292 319 339 252T490 184Z" />
<glyph unicode="r" horiz-adv-x="680" d="M14 0L190 1000H426L385 698L260 0H14ZM371 663L399 879Q419 908 463 940T563 994T678 1016H748L660 782H566Q524 782 485 766T416 723T371 663Z" />
<glyph unicode="s" horiz-adv-x="832" d="M306 -20Q213 -20 128 1T-26 54L32 266Q91 230 166 198T324 166Q401 166 436 199T472 280Q472 337 435 365T320 418Q252 441 198 471T113 550T82 678Q82 774 130 850T272 971T500 1016Q596 1016 671 994T798 942L744 742Q692
780 625 809T472 838Q403 838 359 813T314 728Q314 664 368 638T508 580Q579 554 627 520T699 435T724 310Q724 242 698 182T618 77T487 6T306 -20Z" />
<glyph unicode="t" horiz-adv-x="676" d="M326 -20Q209 -20 159 43T108 190Q108 196 110 212T120 278T147 437T199 735T286 1220L538 1246L368 248Q368 203 394 194T488 184H558L498 -20H326ZM78 796L136 1000H700L664 796H78Z" />
<glyph unicode="u" horiz-adv-x="1082" d="M392 -20Q229 -20 150 73T70 322Q70 350 73 382T84 454L178 1000H426L336 472Q329 432 326 406T322 356Q322 188 470 188Q532 188 580 213T670 285L649 84Q592 38 532 9T392 -20ZM626 0L655 256L788 1000H1036L860 0H626Z" />
<glyph unicode="v" horiz-adv-x="964" d="M268 0L74 1000H316L442 194L371 206L780 1000H1020L472 0H268Z" />
<glyph unicode="w" horiz-adv-x="1406" d="M200 0L96 1000H332L379 187L326 197L670 980H872L937 187L884 196L1216 1000H1452L996 0H796L700 766L764 756L400 0H200Z" />
<glyph unicode="x" horiz-adv-x="962" d="M534 0L421 311L322 485L98 1000H396L505 663L604 515L832 0H534ZM-78 0L342 533L451 332L220 0H-78ZM590 475L481 650L712 1000H1010L590 475Z" />
<glyph unicode="y" horiz-adv-x="1046" d="M-6 -484L361 166L332 -46L68 1000H344L490 243L412 256L830 1000H1106L240 -484H-6Z" />
<glyph unicode="z" horiz-adv-x="922" d="M-56 0L560 874L609 780H100L140 1000H950L334 126L285 220H790L750 0H-56Z" />
<glyph unicode="{" horiz-adv-x="688" d="M422 -272Q257 -272 183 -205T110 -22Q110 33 122 85T149 190T176 295T188 406Q188 471 156 502T46 534L74 694Q169 694 216 746T281 907Q294 986 295 1049T307 1179Q331 1324 436 1412T734 1500H808L770 1282H716Q680
1282 645 1276T581 1253T531 1203T502 1118Q496 1081 494 1036T488 943T477 850Q457 728 383 671T198 586L206 642Q290 620 340 575T390 440Q390 404 379 353T353 246T327 143T316 66Q316 22 335 -4T391 -42T480 -54H534L496 -272H422Z" />
<glyph unicode="|" horiz-adv-x="472" d="M-60 -420L280 1500H528L188 -420H-60Z" />
<glyph unicode="}" horiz-adv-x="688" d="M266 1500Q431 1500 505 1433T578 1250Q578 1195 566 1143T539 1038T512 933T500 822Q500 757 532 726T642 694L614 534Q519 534 472 482T407 321Q394 242 393 179T381 49Q357 -96 252 -184T-46 -272H-120L-82 -54H-28Q8
-54 43 -48T107 -25T157 25T186 110Q192 147 194 192T200 285T211 378Q231 500 305 557T490 642L482 586Q398 608 348 653T298 788Q298 824 309 875T335 982T361 1085T372 1162Q372 1206 353 1232T297 1270T208 1282H154L192 1500H266Z" />
<glyph unicode="~" horiz-adv-x="894" d="M612 578Q557 578 510 602T418 650T326 674Q289 674 264 653T230 592H60Q84 721 152 789T320 858Q379 858 427 834T519 786T606 762Q671 762 684 848H854Q813 578 612 578Z" />
<glyph unicode="&#xa0;" horiz-adv-x="432" />
<glyph unicode="&#xa1;" horiz-adv-x="422" d="M320 586L310 528L168 -400H-80L106 528L116 586H320ZM422 1000L374 728H114L162 1000H422Z" />
<glyph unicode="&#xa2;" horiz-adv-x="920" d="M502 68L460 -288H264L346 68H502ZM500 936L540 1278H736L656 936H500ZM432 -20Q290 -20 203 37T76 189T36 402Q36 520 74 630T186 827T369 965T620 1016Q713 1016 775 995T880 942L822 730Q777 766 726 789T618
812Q518 812 446 760T334 621T294 428Q294 319 344 252T508 184Q615 184 740 266L724 54Q670 20 596 0T432 -20Z" />
<glyph unicode="&#xa3;" horiz-adv-x="1090" d="M228 98L182 240H874L832 0H-40Q4 86 38 161T101 309T156 461T209 636L314 1000Q350 1125 411 1221T573 1373T824 1428Q893 1428 950 1415T1062 1374L996 1112Q947 1145 899 1164T794 1184Q720 1184 674 1153T601
1074T560 972L470 652Q443 558 416 473T345 298T228 98ZM54 624L86 800H850L818 624H54Z" />
<glyph unicode="&#xa4;" horiz-adv-x="1296" d="M536 178Q398 178 301 231T153 379T102 596Q102 724 150 836T283 1033T481 1166T720 1214Q853 1214 950 1161T1099 1014T1152 796Q1152 666 1104 554T971 358T775 226T536 178ZM576 402Q673 402 745 451T856 583T896
764Q896 866 842 928T680 990Q583 990 511 941T400 810T360 628Q360 526 415 464T576 402ZM18 60L-80 176L256 462L352 344L18 60ZM1026 56L780 358L906 460L1152 160L1026 56ZM348 934L104 1232L230 1336L470 1042L348 934ZM1006 936L908 1054L1238 1332L1336
1216L1006 936Z" />
<glyph unicode="&#xa5;" horiz-adv-x="1228" d="M102 528L132 704H932L902 528H102ZM52 248L82 424H882L852 248H52ZM280 0L408 733L433 514L60 1400H332L603 733L491 748L976 1400H1248L573 529L664 733L534 0H280Z" />
<glyph unicode="&#xa6;" horiz-adv-x="472" d="M136 684L280 1500H528L384 684H136ZM-60 -420L84 396H332L188 -420H-60Z" />
<glyph unicode="&#xa7;" horiz-adv-x="928" d="M450 898Q372 862 325 806T278 686Q278 634 307 598T381 532T478 474T574 407T649 318T678 190Q678 86 626 5T482 -123T270 -170Q188 -170 119 -144T0 -88L54 122Q107 82 180 52T318 22Q396 22 447 55T498 144Q498
195 468 232T389 301T287 364T185 433T107 520T76 638Q76 748 156 830T374 974L450 898ZM654 650Q654 714 625 754T550 823T453 877T356 935T281 1017T252 1144Q252 1248 307 1328T457 1454T670 1500Q759 1500 823 1474T928 1418L874 1208Q819 1249 749 1278T602
1308Q538 1308 486 1280T434 1188Q434 1141 464 1109T542 1049T643 993T744 926T822 831T852 692Q852 613 815 555T712 449T558 358L474 446Q523 466 564 497T629 567T654 650Z" />
<glyph unicode="&#xa8;" horiz-adv-x="800" d="M140 1182L176 1362H364L328 1182H140ZM536 1182L572 1362H760L724 1182H536Z" />
<glyph unicode="&#xa9;" horiz-adv-x="1390" d="M604 74Q454 74 343 141T171 328T110 610Q110 780 167 922T324 1168T556 1329T836 1386Q986 1386 1097 1320T1269 1133T1330 852Q1330 682 1273 540T1116 293T884 131T604 74ZM630 212Q762 212 863 262T1033 401T1137
602T1172 842Q1172 959 1134 1050T1015 1194T812 1246Q679 1246 578 1196T407 1058T302 857T266 618Q266 501 305 410T425 265T630 212ZM674 380Q554 380 483 457T412 662Q412 782 464 875T603 1021T796 1074Q849 1074 900 1061T988 1028L938 858Q896 878 855 891T766
904Q714 904 676 876T617 797T596 684Q596 623 623 586T704 548Q752 548 797 562T892 598L882 430Q837 406 781 393T674 380Z" />
<glyph unicode="&#xaa;" horiz-adv-x="632" d="M264 868Q189 868 145 907T100 1014Q100 1073 131 1116T217 1189T339 1236T479 1260L456 1128Q424 1125 394 1117T344 1092T324 1046Q324 1010 364 1010Q381 1010 394 1014T422 1028L441 1142Q450 1190 453 1210T458
1241T460 1264Q461 1278 446 1286T386 1294Q343 1294 296 1286T204 1264L222 1426Q290 1444 350 1454T466 1464Q564 1464 618 1419T672 1296Q672 1286 671 1276T668 1258L638 1090Q637 1082 636 1075T634 1062Q634 1049 641 1044T666 1038H672L634 868H564Q486
868 450 903T444 1015L466 989Q462 953 428 926T348 883T264 868Z" />
<glyph unicode="&#xab;" horiz-adv-x="1188" d="M742 156L522 568L888 980H1184L741 482L764 670L1038 156H742ZM242 156L22 568L388 980H684L241 482L263 669L540 156H242Z" />
<glyph unicode="&#xac;" horiz-adv-x="1012" d="M648 302L724 737L819 624H60L92 812H940L852 302H648Z" />
<glyph unicode="&#xad;" horiz-adv-x="858" d="M108 528L144 716H738L704 528H108Z" />
<glyph unicode="&#xae;" horiz-adv-x="1390" d="M604 74Q454 74 343 141T171 328T110 610Q110 780 167 922T324 1168T556 1329T836 1386Q986 1386 1097 1320T1269 1133T1330 852Q1330 682 1273 540T1116 293T884 131T604 74ZM630 214Q762 214 863 264T1032 403T1135
604T1170 844Q1170 960 1132 1050T1014 1192T812 1244Q680 1244 579 1194T408 1057T304 857T268 618Q268 502 307 411T427 267T630 214ZM418 406L536 1076H784Q841 1076 886 1061T956 1008T982 906Q982 822 940 765T856 682L952 406H764L684 630H634L596 406H418ZM664
792H704Q757 792 777 814T798 880Q798 901 786 913T732 926H688L664 792Z" />
<glyph unicode="&#xaf;" horiz-adv-x="912" d="M160 1182L192 1344H832L800 1182H160Z" />
<glyph unicode="&#xb0;" horiz-adv-x="590" d="M296 964Q190 964 135 1026T80 1180Q80 1271 121 1346T233 1465T392 1510Q500 1510 555 1447T610 1292Q610 1201 569 1127T456 1008T296 964ZM318 1086Q368 1086 402 1113T454 1183T472 1274Q472 1327 447 1357T370
1388Q322 1388 288 1360T235 1289T216 1200Q216 1148 243 1117T318 1086Z" />
<glyph unicode="&#xb1;" horiz-adv-x="890" d="M464 370H268L392 1070H588L464 370ZM-44 94L-12 274H712L680 94H-44ZM82 810H806L774 630H50L82 810Z" />
<glyph unicode="&#xb2;" horiz-adv-x="638" d="M32 772L310 1088Q369 1154 396 1201T424 1294Q424 1329 403 1349T338 1370Q287 1370 239 1346T140 1284L158 1468Q217 1501 282 1522T420 1544Q522 1544 580 1493T638 1356Q638 1271 590 1194T464 1026L262 794L246
946H602L572 772H32Z" />
<glyph unicode="&#xb3;" horiz-adv-x="648" d="M296 752Q218 752 155 771T42 824L110 996Q149 966 191 946T288 926Q342 926 375 947T408 1012Q408 1045 383 1065T302 1086H240L268 1240H332Q379 1240 407 1259T436 1316Q436 1343 419 1360T360 1378Q312 1378
266 1361T174 1314L192 1496Q246 1522 309 1537T440 1552Q542 1552 596 1503T650 1376Q650 1295 603 1239T480 1156L484 1180Q541 1162 575 1124T610 1020Q610 941 567 881T453 786T296 752Z" />
<glyph unicode="&#xb4;" horiz-adv-x="838" d="M220 1140L254 1306L658 1522L620 1272L220 1140Z" />
<glyph unicode="&#xb5;" horiz-adv-x="1162" d="M722 114Q673 62 600 21T442 -20Q399 -20 362 -9T296 18L208 -484H-40L220 1000H468L366 422Q362 401 360 381T358 344Q358 188 516 188Q578 188 626 213T713 285L722 114ZM699 256L830 1000H1078L964 344Q958 310
954 284T950 240Q950 184 1006 184H1048L990 -20H906Q823 -20 773 16T708 120L699 256Z" />
<glyph unicode="&#xb6;" horiz-adv-x="1214" d="M806 1186L596 0H454L556 571L643 459Q465 445 350 501T178 656T122 866Q122 963 164 1057T288 1229T489 1353T762 1400H1262L1224 1186H806ZM1097 1202L884 0H702L915 1202H1097Z" />
<glyph unicode="&#xb7;" horiz-adv-x="460" d="M82 426L128 686H366L320 426H82Z" />
<glyph unicode="&#xb8;" horiz-adv-x="622" d="M372 -158L300 -128Q327 -119 353 -114T408 -108Q480 -108 521 -145T562 -252Q562 -352 487 -415T298 -478Q246 -478 207 -467T140 -440L200 -322Q229 -337 258 -346T324 -356Q375 -356 403 -335T432 -280Q432 -220
340 -220Q316 -220 293 -223T240 -234L338 0H448L372 -158Z" />
<glyph unicode="&#xb9;" horiz-adv-x="430" d="M116 772L230 1415L284 1360Q227 1309 172 1278T68 1236L86 1396Q139 1413 196 1446T288 1516H438L306 772H116Z" />
<glyph unicode="&#xba;" horiz-adv-x="686" d="M380 868Q251 868 185 941T120 1114Q121 1215 170 1294T302 1418T484 1464Q613 1464 679 1393T746 1220Q746 1123 696 1043T563 916T380 868ZM406 1022Q450 1022 478 1050T520 1122T534 1212Q534 1260 515 1285T458
1310Q414 1310 386 1282T344 1210T330 1122Q330 1074 349 1048T406 1022Z" />
<glyph unicode="&#xbb;" horiz-adv-x="1190" d="M498 156L941 654L919 467L642 980H940L1160 568L794 156H498ZM-2 156L441 654L418 466L144 980H440L660 568L294 156H-2Z" />
<glyph unicode="&#xbc;" horiz-adv-x="1312" d="M340 656L454 1299L508 1244Q451 1193 396 1162T292 1120L310 1280Q363 1297 420 1330T512 1400H662L530 656H340ZM-40 0L1034 1400H1232L160 0H-40ZM1104 0H934L1052 632L1104 590L804 250L740 304H1256L1230 160H554L1074
744H1236L1104 0Z" />
<glyph unicode="&#xbd;" horiz-adv-x="1406" d="M-40 0L1034 1400H1232L160 0H-40ZM700 0L978 316Q1037 382 1064 429T1092 522Q1092 557 1071 577T1006 598Q955 598 907 574T808 512L826 696Q885 729 950 750T1088 772Q1190 772 1248 721T1306 584Q1306 499 1258
422T1132 254L930 22L914 174H1270L1240 0H700ZM346 656L460 1299L514 1244Q457 1193 402 1162T298 1120L316 1280Q369 1297 426 1330T518 1400H668L536 656H346Z" />
<glyph unicode="&#xbe;" horiz-adv-x="1518" d="M166 0L1240 1400H1438L366 0H166ZM306 628Q228 628 165 647T52 700L120 872Q159 842 201 822T298 802Q352 802 385 823T418 888Q418 921 393 941T312 962H250L278 1116H342Q389 1116 417 1135T446 1192Q446 1219
429 1236T370 1254Q322 1254 276 1237T184 1190L202 1372Q256 1398 319 1413T450 1428Q552 1428 606 1379T660 1252Q660 1171 613 1115T490 1032L494 1056Q551 1038 585 1000T620 896Q620 817 577 757T463 662T306 628ZM1310 0H1140L1258 632L1310 590L1010 250L946
304H1462L1436 160H760L1280 744H1442L1310 0Z" />
<glyph unicode="&#xbf;" horiz-adv-x="942" d="M728 586L725 566Q713 489 681 431T601 326T502 234Q446 186 398 142T321 50T292 -60Q292 -119 333 -150T446 -182Q527 -182 599 -161T746 -106L734 -342Q648 -380 557 -404T342 -428Q177 -428 89 -348T0 -140Q0
-51 36 22T131 158T258 278Q312 323 354 364T424 451T461 554L466 586H728ZM802 1000L754 728H494L542 1000H802Z" />
<glyph unicode="&#xc0;" horiz-adv-x="1214" d="M-86 0L638 1400H878L1108 0H842L785 354L746 570L670 1110L737 1099L477 572L359 352L180 0H-86ZM266 338L398 586H810L854 338H266ZM956 1540L606 1692L646 1922L984 1698L956 1540Z" />
<glyph unicode="&#xc1;" horiz-adv-x="1214" d="M-86 0L638 1400H878L1108 0H842L785 354L746 570L670 1110L737 1099L477 572L359 352L180 0H-86ZM266 338L398 586H810L854 338H266ZM590 1540L624 1706L1028 1922L990 1672L590 1540Z" />
<glyph unicode="&#xc2;" horiz-adv-x="1214" d="M-86 0L638 1400H878L1108 0H842L785 354L746 570L670 1110L737 1099L477 572L359 352L180 0H-86ZM266 338L398 586H810L854 338H266ZM542 1532L576 1694L840 1890L1060 1666L1028 1508L798 1674L542 1532Z" />
<glyph unicode="&#xc3;" horiz-adv-x="1214" d="M-86 0L638 1400H878L1108 0H842L785 354L746 570L670 1110L737 1099L477 572L359 352L180 0H-86ZM266 338L398 586H810L854 338H266ZM956 1556Q912 1556 864 1577T769 1620T684 1642Q650 1642 628 1623T600 1572H444Q461
1691 515 1752T652 1814Q700 1814 746 1793T836 1750T916 1728Q946 1728 966 1746T992 1804H1156Q1137 1677 1087 1617T956 1556Z" />
<glyph unicode="&#xc4;" horiz-adv-x="1214" d="M-86 0L638 1400H878L1108 0H842L785 354L746 570L670 1110L737 1099L477 572L359 352L180 0H-86ZM266 338L398 586H810L854 338H266ZM486 1582L522 1762H710L674 1582H486ZM882 1582L918 1762H1106L1070 1582H882Z" />
<glyph unicode="&#xc5;" horiz-adv-x="1214" d="M-86 0L638 1400H878L1108 0H842L785 354L746 570L670 1110L737 1099L477 572L359 352L180 0H-86ZM266 338L398 586H810L854 338H266ZM772 1540Q690 1540 646 1585T602 1696Q602 1760 636 1813T726 1898T848 1930Q931
1930 974 1885T1018 1774Q1018 1708 984 1655T894 1571T772 1540ZM792 1644Q836 1644 866 1676T896 1754Q896 1786 877 1805T828 1824Q786 1824 755 1791T724 1714Q724 1683 742 1664T792 1644Z" />
<glyph unicode="&#xc6;" horiz-adv-x="1686" d="M-112 0L790 1400H1742L1698 1152H1019L1154 1265L954 135L859 248H1556L1512 0H674L896 1259L937 1244L156 0H-112ZM272 338L434 586H834L790 338H272ZM972 606L1016 854H1516L1472 606H972Z" />
<glyph unicode="&#xc7;" horiz-adv-x="1186" d="M640 -28Q469 -28 345 44T152 250T84 574Q84 759 147 915T321 1186T580 1364T894 1428Q993 1428 1092 1406T1258 1346L1186 1102Q1126 1129 1042 1155T860 1182Q738 1182 646 1135T491 1007T398 821T366 598Q366
485 398 400T501 266T692 218Q778 218 869 241T1044 298L1030 54Q949 17 843 -5T640 -28ZM638 -158L566 -128Q593 -119 619 -114T674 -108Q746 -108 787 -145T828 -252Q828 -352 753 -415T564 -478Q512 -478 473 -467T406 -440L466 -322Q495 -337 524 -346T590
-356Q641 -356 669 -335T698 -280Q698 -220 606 -220Q582 -220 559 -223T506 -234L604 0H714L638 -158Z" />
<glyph unicode="&#xc8;" horiz-adv-x="1110" d="M338 135L243 248H982L938 0H52L298 1400H1166L1122 1152H403L538 1265L338 135ZM390 854H932L888 606H346L390 854ZM946 1540L596 1692L636 1922L974 1698L946 1540Z" />
<glyph unicode="&#xc9;" horiz-adv-x="1110" d="M338 135L243 248H982L938 0H52L298 1400H1166L1122 1152H403L538 1265L338 135ZM390 854H932L888 606H346L390 854ZM580 1540L614 1706L1018 1922L980 1672L580 1540Z" />
<glyph unicode="&#xca;" horiz-adv-x="1110" d="M338 135L243 248H982L938 0H52L298 1400H1166L1122 1152H403L538 1265L338 135ZM390 854H932L888 606H346L390 854ZM532 1532L566 1694L830 1890L1050 1666L1018 1508L788 1674L532 1532Z" />
<glyph unicode="&#xcb;" horiz-adv-x="1110" d="M338 135L243 248H982L938 0H52L298 1400H1166L1122 1152H403L538 1265L338 135ZM390 854H932L888 606H346L390 854ZM476 1582L512 1762H700L664 1582H476ZM872 1582L908 1762H1096L1060 1582H872Z" />
<glyph unicode="&#xcc;" horiz-adv-x="566" d="M52 0L298 1400H554L308 0H52ZM642 1540L292 1692L332 1922L670 1698L642 1540Z" />
<glyph unicode="&#xcd;" horiz-adv-x="566" d="M52 0L298 1400H554L308 0H52ZM276 1540L310 1706L714 1922L676 1672L276 1540Z" />
<glyph unicode="&#xce;" horiz-adv-x="566" d="M52 0L298 1400H554L308 0H52ZM228 1532L262 1694L526 1890L746 1666L714 1508L484 1674L228 1532Z" />
<glyph unicode="&#xcf;" horiz-adv-x="566" d="M52 0L298 1400H554L308 0H52ZM172 1582L208 1762H396L360 1582H172ZM568 1582L604 1762H792L756 1582H568Z" />
<glyph unicode="&#xd0;" horiz-adv-x="1432" d="M78 0L324 1400H830Q997 1400 1121 1332T1315 1137T1384 832Q1384 642 1322 489T1149 226T893 58T582 0H78ZM358 133L263 246H626Q781 246 886 319T1046 520T1100 808Q1100 967 1023 1060T786 1154H423L558 1267L358
133ZM56 618L90 806H732L700 618H56Z" />
<glyph unicode="&#xd1;" horiz-adv-x="1376" d="M52 0L298 1400H548L995 391L928 383L1108 1400H1364L1116 0H908L431 1065L498 1073L308 0H52ZM1012 1554Q968 1554 923 1573T836 1611T758 1630Q733 1630 716 1615T692 1568H540Q560 1670 609 1724T740 1778Q783
1778 827 1759T912 1721T990 1702Q1016 1702 1033 1718T1056 1768H1208Q1192 1662 1142 1608T1012 1554Z" />
<glyph unicode="&#xd2;" horiz-adv-x="1484" d="M642 -28Q471 -28 346 44T152 251T84 574Q84 758 147 913T321 1184T576 1364T882 1428Q1053 1428 1178 1356T1371 1149T1440 826Q1440 642 1377 487T1203 216T948 36T642 -28ZM682 218Q794 218 882 266T1031 396T1124
584T1156 804Q1156 920 1122 1005T1018 1136T840 1182Q728 1182 640 1134T491 1004T398 816T366 596Q366 480 400 395T504 264T682 218ZM1106 1540L756 1692L796 1922L1134 1698L1106 1540Z" />
<glyph unicode="&#xd3;" horiz-adv-x="1484" d="M642 -28Q471 -28 346 44T152 251T84 574Q84 758 147 913T321 1184T576 1364T882 1428Q1053 1428 1178 1356T1371 1149T1440 826Q1440 642 1377 487T1203 216T948 36T642 -28ZM682 218Q794 218 882 266T1031 396T1124
584T1156 804Q1156 920 1122 1005T1018 1136T840 1182Q728 1182 640 1134T491 1004T398 816T366 596Q366 480 400 395T504 264T682 218ZM740 1540L774 1706L1178 1922L1140 1672L740 1540Z" />
<glyph unicode="&#xd4;" horiz-adv-x="1484" d="M642 -28Q471 -28 346 44T152 251T84 574Q84 758 147 913T321 1184T576 1364T882 1428Q1053 1428 1178 1356T1371 1149T1440 826Q1440 642 1377 487T1203 216T948 36T642 -28ZM682 218Q794 218 882 266T1031 396T1124
584T1156 804Q1156 920 1122 1005T1018 1136T840 1182Q728 1182 640 1134T491 1004T398 816T366 596Q366 480 400 395T504 264T682 218ZM692 1532L726 1694L990 1890L1210 1666L1178 1508L948 1674L692 1532Z" />
<glyph unicode="&#xd5;" horiz-adv-x="1484" d="M642 -28Q471 -28 346 44T152 251T84 574Q84 758 147 913T321 1184T576 1364T882 1428Q1053 1428 1178 1356T1371 1149T1440 826Q1440 642 1377 487T1203 216T948 36T642 -28ZM682 218Q794 218 882 266T1031 396T1124
584T1156 804Q1156 920 1122 1005T1018 1136T840 1182Q728 1182 640 1134T491 1004T398 816T366 596Q366 480 400 395T504 264T682 218ZM1106 1556Q1062 1556 1014 1577T919 1620T834 1642Q800 1642 778 1623T750 1572H594Q611 1691 665 1752T802 1814Q850 1814
896 1793T986 1750T1066 1728Q1096 1728 1116 1746T1142 1804H1306Q1287 1677 1237 1617T1106 1556Z" />
<glyph unicode="&#xd6;" horiz-adv-x="1484" d="M642 -28Q471 -28 346 44T152 251T84 574Q84 758 147 913T321 1184T576 1364T882 1428Q1053 1428 1178 1356T1371 1149T1440 826Q1440 642 1377 487T1203 216T948 36T642 -28ZM682 218Q794 218 882 266T1031 396T1124
584T1156 804Q1156 920 1122 1005T1018 1136T840 1182Q728 1182 640 1134T491 1004T398 816T366 596Q366 480 400 395T504 264T682 218ZM636 1582L672 1762H860L824 1582H636ZM1032 1582L1068 1762H1256L1220 1582H1032Z" />
<glyph unicode="&#xd7;" horiz-adv-x="930" d="M130 186L12 328L712 922L830 780L130 186ZM744 312L598 190L100 796L246 918L744 312Z" />
<glyph unicode="&#xd8;" horiz-adv-x="1484" d="M1258 1488H1462L250 -88H48L1258 1488ZM642 -28Q471 -28 346 44T152 251T84 574Q84 758 147 913T321 1184T576 1364T882 1428Q1053 1428 1178 1356T1371 1149T1440 826Q1440 642 1377 487T1203 216T948 36T642
-28ZM682 218Q794 218 882 266T1031 396T1124 584T1156 804Q1156 920 1122 1005T1018 1136T840 1182Q728 1182 640 1134T491 1004T398 816T366 596Q366 480 400 395T504 264T682 218Z" />
<glyph unicode="&#xd9;" horiz-adv-x="1390" d="M588 -28Q353 -28 240 92T126 424Q126 449 129 499T142 600L284 1400H538L412 686Q404 639 398 586T392 490Q393 410 414 349T487 253T630 218Q726 218 792 256T902 359T971 509T1014 686L1140 1400H1396L1254 600Q1221
413 1137 272T916 51T588 -28ZM1048 1540L698 1692L738 1922L1076 1698L1048 1540Z" />
<glyph unicode="&#xda;" horiz-adv-x="1390" d="M588 -28Q353 -28 240 92T126 424Q126 449 129 499T142 600L284 1400H538L412 686Q404 639 398 586T392 490Q393 410 414 349T487 253T630 218Q726 218 792 256T902 359T971 509T1014 686L1140 1400H1396L1254 600Q1221
413 1137 272T916 51T588 -28ZM682 1540L716 1706L1120 1922L1082 1672L682 1540Z" />
<glyph unicode="&#xdb;" horiz-adv-x="1390" d="M588 -28Q353 -28 240 92T126 424Q126 449 129 499T142 600L284 1400H538L412 686Q404 639 398 586T392 490Q393 410 414 349T487 253T630 218Q726 218 792 256T902 359T971 509T1014 686L1140 1400H1396L1254 600Q1221
413 1137 272T916 51T588 -28ZM634 1532L668 1694L932 1890L1152 1666L1120 1508L890 1674L634 1532Z" />
<glyph unicode="&#xdc;" horiz-adv-x="1390" d="M588 -28Q353 -28 240 92T126 424Q126 449 129 499T142 600L284 1400H538L412 686Q404 639 398 586T392 490Q393 410 414 349T487 253T630 218Q726 218 792 256T902 359T971 509T1014 686L1140 1400H1396L1254 600Q1221
413 1137 272T916 51T588 -28ZM578 1582L614 1762H802L766 1582H578ZM974 1582L1010 1762H1198L1162 1582H974Z" />
<glyph unicode="&#xdd;" horiz-adv-x="1206" d="M366 0L494 733L519 514L146 1400H418L689 733L577 748L1062 1400H1334L659 529L750 733L620 0H366ZM586 1540L620 1706L1024 1922L986 1672L586 1540Z" />
<glyph unicode="&#xde;" horiz-adv-x="1074" d="M32 0L280 1400H534L286 0H32ZM258 330L296 544H574Q702 544 765 597T828 752Q828 800 809 832T747 880T636 896H358L396 1110H706Q898 1110 996 1026T1094 790Q1094 645 1029 542T846 385T568 330H258Z" />
<glyph unicode="&#xdf;" horiz-adv-x="1262" d="M638 -28Q586 -28 540 -24T444 -10L480 194Q528 185 576 181T676 176Q774 176 843 223T912 364Q912 420 883 458T811 526T725 585T653 652T624 746Q624 815 673 876T800 1004Q871 1064 908 1107T946 1210Q946 1263
905 1293T782 1324Q665 1324 597 1255T506 1064L318 0H68L208 796H76L134 1000H244L254 1060Q281 1219 361 1323T561 1477T822 1528Q998 1528 1100 1458T1202 1262Q1202 1163 1156 1100T1034 970Q979 921 933 879T886 786Q886 745 914 715T985 655T1069 590T1139
503T1168 378Q1168 282 1124 207T1005 79T835 0T638 -28Z" />
<glyph unicode="&#xe0;" horiz-adv-x="1168" d="M406 -20Q290 -20 207 34T80 182T36 396Q36 513 74 623T186 823T364 964T598 1016Q667 1016 717 999T806 951T881 875L787 823L858 1000H1074L958 316Q950 268 950 240Q950 198 971 191T1048 184L992 -20Q898 -20
845 -13T763 15T713 74T662 174L745 137Q708 103 662 67T554 5T406 -20ZM490 184Q573 184 626 224T708 327T748 458T760 584Q760 689 718 750T580 812Q495 812 431 760T330 621T294 428Q294 319 340 252T490 184ZM878 1140L528 1292L568 1522L906 1298L878 1140Z"
/>
<glyph unicode="&#xe1;" horiz-adv-x="1168" d="M406 -20Q290 -20 207 34T80 182T36 396Q36 513 74 623T186 823T364 964T598 1016Q667 1016 717 999T806 951T881 875L787 823L858 1000H1074L958 316Q950 268 950 240Q950 198 971 191T1048 184L992 -20Q898 -20
845 -13T763 15T713 74T662 174L745 137Q708 103 662 67T554 5T406 -20ZM490 184Q573 184 626 224T708 327T748 458T760 584Q760 689 718 750T580 812Q495 812 431 760T330 621T294 428Q294 319 340 252T490 184ZM512 1140L546 1306L950 1522L912 1272L512 1140Z"
/>
<glyph unicode="&#xe2;" horiz-adv-x="1168" d="M406 -20Q290 -20 207 34T80 182T36 396Q36 513 74 623T186 823T364 964T598 1016Q667 1016 717 999T806 951T881 875L787 823L858 1000H1074L958 316Q950 268 950 240Q950 198 971 191T1048 184L992 -20Q898 -20
845 -13T763 15T713 74T662 174L745 137Q708 103 662 67T554 5T406 -20ZM490 184Q573 184 626 224T708 327T748 458T760 584Q760 689 718 750T580 812Q495 812 431 760T330 621T294 428Q294 319 340 252T490 184ZM464 1132L498 1294L762 1490L982 1266L950 1108L720
1274L464 1132Z" />
<glyph unicode="&#xe3;" horiz-adv-x="1168" d="M406 -20Q290 -20 207 34T80 182T36 396Q36 513 74 623T186 823T364 964T598 1016Q667 1016 717 999T806 951T881 875L787 823L858 1000H1074L958 316Q950 268 950 240Q950 198 971 191T1048 184L992 -20Q898 -20
845 -13T763 15T713 74T662 174L745 137Q708 103 662 67T554 5T406 -20ZM490 184Q573 184 626 224T708 327T748 458T760 584Q760 689 718 750T580 812Q495 812 431 760T330 621T294 428Q294 319 340 252T490 184ZM878 1156Q834 1156 786 1177T691 1220T606 1242Q572
1242 550 1223T522 1172H366Q383 1291 437 1352T574 1414Q622 1414 668 1393T758 1350T838 1328Q868 1328 888 1346T914 1404H1078Q1059 1277 1009 1217T878 1156Z" />
<glyph unicode="&#xe4;" horiz-adv-x="1168" d="M406 -20Q290 -20 207 34T80 182T36 396Q36 513 74 623T186 823T364 964T598 1016Q667 1016 717 999T806 951T881 875L787 823L858 1000H1074L958 316Q950 268 950 240Q950 198 971 191T1048 184L992 -20Q898 -20
845 -13T763 15T713 74T662 174L745 137Q708 103 662 67T554 5T406 -20ZM490 184Q573 184 626 224T708 327T748 458T760 584Q760 689 718 750T580 812Q495 812 431 760T330 621T294 428Q294 319 340 252T490 184ZM408 1182L444 1362H632L596 1182H408ZM804 1182L840
1362H1028L992 1182H804Z" />
<glyph unicode="&#xe5;" horiz-adv-x="1168" d="M406 -20Q290 -20 207 34T80 182T36 396Q36 513 74 623T186 823T364 964T598 1016Q667 1016 717 999T806 951T881 875L787 823L858 1000H1074L958 316Q950 268 950 240Q950 198 971 191T1048 184L992 -20Q898 -20
845 -13T763 15T713 74T662 174L745 137Q708 103 662 67T554 5T406 -20ZM490 184Q573 184 626 224T708 327T748 458T760 584Q760 689 718 750T580 812Q495 812 431 760T330 621T294 428Q294 319 340 252T490 184ZM694 1140Q612 1140 568 1185T524 1296Q524 1360
558 1413T648 1498T770 1530Q853 1530 896 1485T940 1374Q940 1308 906 1255T816 1171T694 1140ZM714 1244Q758 1244 788 1276T818 1354Q818 1386 799 1405T750 1424Q708 1424 677 1391T646 1314Q646 1283 664 1264T714 1244Z" />
<glyph unicode="&#xe6;" horiz-adv-x="1536" d="M598 460Q547 461 487 451T373 416T285 353T250 256Q250 213 276 188T342 162Q382 162 429 189T514 270T566 404Q568 413 569 427T574 465T581 528T590 623Q602 712 578 757T454 802Q388 802 323 784T172 726L186
928Q281 972 374 994T556 1016Q627 1016 677 1003T759 959T805 872T819 732L800 792Q800 840 851 892T988 980T1172 1016Q1316 1016 1402 922T1488 670Q1488 616 1478 568T1438 446H718L752 614H1262Q1265 628 1265 640T1266 666Q1266 722 1237 767T1128 812Q1061
812 1007 782T914 700T855 583T834 446Q834 343 868 286T954 207T1056 184Q1101 184 1159 195T1274 225T1372 266L1344 56Q1286 26 1199 3T1010 -20Q837 -20 747 51T647 232L713 225Q651 156 586 98T441 5T256 -30Q123 -30 53 33T-18 204Q-18 311 26 384T143 505T301
578T468 615T612 629L598 460Z" />
<glyph unicode="&#xe7;" horiz-adv-x="874" d="M432 -20Q290 -20 203 37T76 189T36 402Q36 520 74 630T186 827T369 965T620 1016Q713 1016 775 995T880 942L822 730Q777 766 726 789T618 812Q518 812 446 760T334 621T294 428Q294 319 344 252T508 184Q615 184
740 266L724 54Q670 20 596 0T432 -20ZM422 -158L350 -128Q377 -119 403 -114T458 -108Q530 -108 571 -145T612 -252Q612 -352 537 -415T348 -478Q296 -478 257 -467T190 -440L250 -322Q279 -337 308 -346T374 -356Q425 -356 453 -335T482 -280Q482 -220 390 -220Q366
-220 343 -223T290 -234L388 0H498L422 -158Z" />
<glyph unicode="&#xe8;" horiz-adv-x="976" d="M284 575Q319 566 346 563T408 560Q530 560 597 582T691 640T718 714Q718 759 694 780T639 806T590 812Q509 812 451 767T359 662T313 557L295 433Q296 341 329 287T416 208T526 184Q616 184 696 208T840 266L812
56Q751 23 666 2T478 -20Q326 -20 228 37T83 192T36 410Q36 525 76 633T190 827T368 965T600 1016Q759 1016 842 937T926 726Q926 635 887 572T781 471T628 415T448 398Q393 398 346 403T269 416L284 575ZM828 1140L478 1292L518 1522L856 1298L828 1140Z" />
<glyph unicode="&#xe9;" horiz-adv-x="976" d="M284 575Q319 566 346 563T408 560Q530 560 597 582T691 640T718 714Q718 759 694 780T639 806T590 812Q509 812 451 767T359 662T313 557L295 433Q296 341 329 287T416 208T526 184Q616 184 696 208T840 266L812
56Q751 23 666 2T478 -20Q326 -20 228 37T83 192T36 410Q36 525 76 633T190 827T368 965T600 1016Q759 1016 842 937T926 726Q926 635 887 572T781 471T628 415T448 398Q393 398 346 403T269 416L284 575ZM462 1140L496 1306L900 1522L862 1272L462 1140Z" />
<glyph unicode="&#xea;" horiz-adv-x="976" d="M284 575Q319 566 346 563T408 560Q530 560 597 582T691 640T718 714Q718 759 694 780T639 806T590 812Q509 812 451 767T359 662T313 557L295 433Q296 341 329 287T416 208T526 184Q616 184 696 208T840 266L812
56Q751 23 666 2T478 -20Q326 -20 228 37T83 192T36 410Q36 525 76 633T190 827T368 965T600 1016Q759 1016 842 937T926 726Q926 635 887 572T781 471T628 415T448 398Q393 398 346 403T269 416L284 575ZM414 1132L448 1294L712 1490L932 1266L900 1108L670 1274L414
1132Z" />
<glyph unicode="&#xeb;" horiz-adv-x="976" d="M284 575Q319 566 346 563T408 560Q530 560 597 582T691 640T718 714Q718 759 694 780T639 806T590 812Q509 812 451 767T359 662T313 557L295 433Q296 341 329 287T416 208T526 184Q616 184 696 208T840 266L812
56Q751 23 666 2T478 -20Q326 -20 228 37T83 192T36 410Q36 525 76 633T190 827T368 965T600 1016Q759 1016 842 937T926 726Q926 635 887 572T781 471T628 415T448 398Q393 398 346 403T269 416L284 575ZM358 1182L394 1362H582L546 1182H358ZM754 1182L790 1362H978L942
1182H754Z" />
<glyph unicode="&#xec;" horiz-adv-x="484" d="M14 0L190 1000H438L262 0H14ZM526 1140L176 1292L216 1522L554 1298L526 1140Z" />
<glyph unicode="&#xed;" horiz-adv-x="484" d="M14 0L190 1000H438L262 0H14ZM160 1140L194 1306L598 1522L560 1272L160 1140Z" />
<glyph unicode="&#xee;" horiz-adv-x="484" d="M14 0L190 1000H438L262 0H14ZM112 1132L146 1294L410 1490L630 1266L598 1108L368 1274L112 1132Z" />
<glyph unicode="&#xef;" horiz-adv-x="484" d="M14 0L190 1000H438L262 0H14ZM312 1182L348 1362H536L500 1182H312ZM708 1182L744 1362H932L896 1182H708Z" />
<glyph unicode="&#xf0;" horiz-adv-x="1000" d="M396 -26Q279 -26 191 22T53 155T4 350Q4 480 60 594T221 780T468 852Q548 852 603 826T694 758T745 671L713 648Q731 780 691 905T565 1130T356 1288L432 1402Q565 1340 677 1236T856 984T924 644Q924 451 862
300T681 61T396 -26ZM426 176Q478 176 532 204T624 292T662 448Q662 546 619 602T488 658Q411 658 356 616T272 509T242 374Q242 287 289 232T426 176ZM370 966L306 1100L862 1338L924 1204L370 966Z" />
<glyph unicode="&#xf1;" horiz-adv-x="1072" d="M14 0L190 1000H408L423 912L262 0H14ZM612 0Q643 174 662 288T693 470T709 573T715 622T716 644Q716 731 683 771T574 812Q513 812 468 786T378 713L406 932Q459 967 521 991T668 1016Q823 1016 896 922T970 678Q970
666 969 648T962 592T945 483T913 294T862 0H612ZM834 1136Q790 1136 742 1157T647 1200T562 1222Q528 1222 506 1203T478 1152H322Q339 1271 393 1332T530 1394Q578 1394 624 1373T714 1330T794 1308Q824 1308 844 1326T870 1384H1034Q1015 1257 965 1197T834
1136Z" />
<glyph unicode="&#xf2;" horiz-adv-x="1098" d="M448 -20Q309 -20 217 38T80 194T34 410Q34 528 77 636T198 830T383 966T618 1016Q757 1016 849 958T986 802T1032 586Q1032 468 989 360T868 166T683 30T448 -20ZM482 184Q569 184 635 237T739 377T776 568Q776
682 728 747T584 812Q498 812 432 760T328 621T290 430Q290 316 338 250T482 184ZM848 1140L498 1292L538 1522L876 1298L848 1140Z" />
<glyph unicode="&#xf3;" horiz-adv-x="1098" d="M448 -20Q309 -20 217 38T80 194T34 410Q34 528 77 636T198 830T383 966T618 1016Q757 1016 849 958T986 802T1032 586Q1032 468 989 360T868 166T683 30T448 -20ZM482 184Q569 184 635 237T739 377T776 568Q776
682 728 747T584 812Q498 812 432 760T328 621T290 430Q290 316 338 250T482 184ZM482 1140L516 1306L920 1522L882 1272L482 1140Z" />
<glyph unicode="&#xf4;" horiz-adv-x="1098" d="M448 -20Q309 -20 217 38T80 194T34 410Q34 528 77 636T198 830T383 966T618 1016Q757 1016 849 958T986 802T1032 586Q1032 468 989 360T868 166T683 30T448 -20ZM482 184Q569 184 635 237T739 377T776 568Q776
682 728 747T584 812Q498 812 432 760T328 621T290 430Q290 316 338 250T482 184ZM434 1132L468 1294L732 1490L952 1266L920 1108L690 1274L434 1132Z" />
<glyph unicode="&#xf5;" horiz-adv-x="1098" d="M448 -20Q309 -20 217 38T80 194T34 410Q34 528 77 636T198 830T383 966T618 1016Q757 1016 849 958T986 802T1032 586Q1032 468 989 360T868 166T683 30T448 -20ZM482 184Q569 184 635 237T739 377T776 568Q776
682 728 747T584 812Q498 812 432 760T328 621T290 430Q290 316 338 250T482 184ZM848 1156Q804 1156 756 1177T661 1220T576 1242Q542 1242 520 1223T492 1172H336Q353 1291 407 1352T544 1414Q592 1414 638 1393T728 1350T808 1328Q838 1328 858 1346T884 1404H1048Q1029
1277 979 1217T848 1156Z" />
<glyph unicode="&#xf6;" horiz-adv-x="1098" d="M448 -20Q309 -20 217 38T80 194T34 410Q34 528 77 636T198 830T383 966T618 1016Q757 1016 849 958T986 802T1032 586Q1032 468 989 360T868 166T683 30T448 -20ZM482 184Q569 184 635 237T739 377T776 568Q776
682 728 747T584 812Q498 812 432 760T328 621T290 430Q290 316 338 250T482 184ZM378 1182L414 1362H602L566 1182H378ZM774 1182L810 1362H998L962 1182H774Z" />
<glyph unicode="&#xf7;" horiz-adv-x="948" d="M12 460L44 648H848L816 460H12ZM232 88L276 340H508L464 88H232ZM352 768L396 1020H628L584 768H352Z" />
<glyph unicode="&#xf8;" horiz-adv-x="1098" d="M872 1060H1046L204 -80H30L872 1060ZM448 -20Q309 -20 217 38T80 194T34 410Q34 528 77 636T198 830T383 966T618 1016Q757 1016 849 958T986 802T1032 586Q1032 468 989 360T868 166T683 30T448 -20ZM482 184Q569
184 635 237T739 377T776 568Q776 682 728 747T584 812Q498 812 432 760T328 621T290 430Q290 316 338 250T482 184Z" />
<glyph unicode="&#xf9;" horiz-adv-x="1082" d="M392 -20Q229 -20 150 73T70 322Q70 350 73 382T84 454L178 1000H426L336 472Q329 432 326 406T322 356Q322 188 470 188Q532 188 580 213T670 285L649 84Q592 38 532 9T392 -20ZM626 0L655 256L788 1000H1036L860
0H626ZM820 1140L470 1292L510 1522L848 1298L820 1140Z" />
<glyph unicode="&#xfa;" horiz-adv-x="1082" d="M392 -20Q229 -20 150 73T70 322Q70 350 73 382T84 454L178 1000H426L336 472Q329 432 326 406T322 356Q322 188 470 188Q532 188 580 213T670 285L649 84Q592 38 532 9T392 -20ZM626 0L655 256L788 1000H1036L860
0H626ZM454 1140L488 1306L892 1522L854 1272L454 1140Z" />
<glyph unicode="&#xfb;" horiz-adv-x="1082" d="M392 -20Q229 -20 150 73T70 322Q70 350 73 382T84 454L178 1000H426L336 472Q329 432 326 406T322 356Q322 188 470 188Q532 188 580 213T670 285L649 84Q592 38 532 9T392 -20ZM626 0L655 256L788 1000H1036L860
0H626ZM406 1132L440 1294L704 1490L924 1266L892 1108L662 1274L406 1132Z" />
<glyph unicode="&#xfc;" horiz-adv-x="1082" d="M392 -20Q229 -20 150 73T70 322Q70 350 73 382T84 454L178 1000H426L336 472Q329 432 326 406T322 356Q322 188 470 188Q532 188 580 213T670 285L649 84Q592 38 532 9T392 -20ZM626 0L655 256L788 1000H1036L860
0H626ZM350 1182L386 1362H574L538 1182H350ZM746 1182L782 1362H970L934 1182H746Z" />
<glyph unicode="&#xfd;" horiz-adv-x="1046" d="M-6 -484L361 166L332 -46L68 1000H344L490 243L412 256L830 1000H1106L240 -484H-6ZM434 1140L468 1306L872 1522L834 1272L434 1140Z" />
<glyph unicode="&#xfe;" horiz-adv-x="1120" d="M-72 -484L278 1500H526L404 811L367 879Q434 937 514 976T700 1016Q812 1016 890 964T1010 816T1052 594Q1052 457 1018 344T918 150T760 24T552 -20Q427 -20 354 37T250 168L300 225L176 -484H-72ZM532 184Q611
184 670 233T763 370T796 570Q796 678 755 745T622 812Q530 812 464 758T362 612T326 408Q326 300 376 242T532 184Z" />
<glyph unicode="&#xff;" horiz-adv-x="1046" d="M-6 -484L361 166L332 -46L68 1000H344L490 243L412 256L830 1000H1106L240 -484H-6ZM330 1182L366 1362H554L518 1182H330ZM726 1182L762 1362H950L914 1182H726Z" />
<glyph unicode="&#x2013;" horiz-adv-x="1312" d="M0 528L34 716H1312L1278 528H0Z" />
<glyph unicode="&#x2014;" horiz-adv-x="1498" d="M0 528L34 716H1498L1466 528H0Z" />
<glyph unicode="&#x2018;" horiz-adv-x="416" d="M360 1400H476L346 1160H448L400 888H140L184 1136L360 1400Z" />
<glyph unicode="&#x2019;" horiz-adv-x="401" d="M256 888H140L270 1128H168L216 1400H476L432 1152L256 888Z" />
<glyph unicode="&#x201a;" horiz-adv-x="400" d="M60 -240H-56L74 0H-28L20 272H280L236 24L60 -240Z" />
<glyph unicode="&#x201c;" horiz-adv-x="796" d="M365 1426H481L351 1186H453L405 914H145L189 1162L365 1426ZM745 1426H861L731 1186H833L785 914H525L569 1162L745 1426Z" />
<glyph unicode="&#x201d;" horiz-adv-x="781" d="M256 888H140L270 1128H168L216 1400H476L432 1152L256 888ZM636 888H520L650 1128H548L596 1400H856L812 1152L636 888Z" />
<glyph unicode="&#x201e;" horiz-adv-x="780" d="M60 -240H-56L74 0H-28L20 272H280L236 24L60 -240ZM440 -240H324L454 0H352L400 272H660L616 24L440 -240Z" />
<glyph unicode="&#x2022;" horiz-adv-x="584" d="M246 338Q170 338 121 392T72 524Q72 591 108 648T202 739T324 774Q401 774 449 720T498 588Q498 521 462 464T368 373T246 338Z" />
<glyph unicode="&#x2039;" horiz-adv-x="686" d="M242 156L24 568L386 980H680L242 481L264 670L536 156H242Z" />
<glyph unicode="&#x203a;" horiz-adv-x="686" d="M-2 156L436 655L413 466L144 980H438L654 568L292 156H-2Z" />
</font>
</defs>
</svg>
