<?xml version="1.0" standalone="no"?>
<!DOCTYPE svg PUBLIC "-//W3C//DTD SVG 1.1//EN" "http://www.w3.org/Graphics/SVG/1.1/DTD/svg11.dtd">
<svg xmlns="http://www.w3.org/2000/svg">
<defs >
<font id="Cabin" horiz-adv-x="1054" ><font-face
    font-family="Cabin Medium"
    units-per-em="2000"
    panose-1="0 0 0 0 0 0 0 0 0 0"
    ascent="1930"
    descent="-500"
    alphabetic="0" />
<glyph unicode=" " horiz-adv-x="450" />
<glyph unicode="!" horiz-adv-x="491" d="M154 374V428L121 1400H369L337 428V374H154ZM128 0V237H363V0H128Z" />
<glyph unicode="&quot;" horiz-adv-x="671" d="M105 988L67 1400H287L250 988H105ZM422 988L384 1400H604L567 988H422Z" />
<glyph unicode="#" horiz-adv-x="1413" d="M132 -22L303 428H64L149 621H377L460 837H212L273 1018H528L676 1400H849L702 1018H952L1099 1400H1271L1125 1018H1349L1287 837H1057L973 621H1227L1139 428H899L729 -22H554L726 428H477L304 -22H132ZM550 621H799L884
837H635L550 621Z" />
<glyph unicode="$" horiz-adv-x="1165" d="M560 -28Q474 -28 386 -14T222 23T99 67L127 299Q188 269 264 241T426 194T598 175Q719 175 791 220T863 362Q863 434 825 479T711 558T516 629Q403 665 310 713T160 838T104 1041Q104 1154 161 1241T331 1378T608 1428Q742
1428 857 1399T1051 1335L1029 1107Q913 1169 810 1197T597 1225Q479 1225 407 1183T334 1050Q334 984 369 944T472 874T638 814Q787 769 891 712T1049 573T1104 370Q1104 292 1077 221T986 94T819 5T560 -28ZM537 -288L557 68H690L710 -288H537ZM557 1346L537
1688H710L690 1346H557Z" />
<glyph unicode="%" horiz-adv-x="1815" d="M421 628Q315 628 240 680T125 824T85 1034Q85 1213 178 1320T421 1428Q573 1428 665 1321T757 1034Q757 916 718 825T603 681T421 628ZM421 785Q496 785 536 849T576 1034Q576 1154 534 1212T421 1271Q353 1271 310
1213T266 1034Q266 914 305 850T421 785ZM412 0L1226 1400H1407L595 0H412ZM1394 -28Q1288 -28 1213 24T1098 168T1058 378Q1058 557 1151 664T1394 772Q1546 772 1638 665T1730 378Q1730 260 1691 169T1576 25T1394 -28ZM1394 129Q1469 129 1509 193T1549 378Q1549
498 1507 556T1394 615Q1326 615 1283 557T1239 378Q1239 258 1278 194T1394 129Z" />
<glyph unicode="&amp;" horiz-adv-x="1236" d="M523 -47Q373 -47 272 5T120 142T69 329Q69 412 98 483T182 615T317 733Q242 826 205 910T167 1074Q167 1178 218 1252T354 1366T537 1406Q704 1406 786 1327T869 1125Q869 1037 824 968T707 840T554 725L892 364Q907
395 917 439T933 532T941 626T945 703H1139Q1138 645 1130 563T1096 390T1023 217L1212 0H984L907 82Q825 15 735 -16T523 -47ZM540 112Q632 112 695 139T802 210L416 615Q356 566 317 498T278 346Q278 285 303 232T386 145T540 112ZM466 834Q534 881 582 923T657
1008T684 1107Q684 1174 644 1208T534 1243Q465 1243 415 1199T364 1067Q364 1020 386 964T466 834Z" />
<glyph unicode="&apos;" horiz-adv-x="354" d="M105 988L67 1400H287L250 988H105Z" />
<glyph unicode="(" horiz-adv-x="639" d="M400 -272Q327 -164 266 -35T169 254T132 614Q132 814 168 974T266 1263T400 1500H580Q482 1334 411 1119T340 614Q340 325 411 110T580 -272H400Z" />
<glyph unicode=")" horiz-adv-x="639" d="M58 -272Q157 -106 227 109T298 614Q298 904 228 1119T58 1500H239Q312 1392 373 1263T470 974T507 614Q507 414 471 254T373 -35T239 -272H58Z" />
<glyph unicode="*" horiz-adv-x="861" d="M65 962L331 1120L65 1276L131 1384L377 1216L367 1504H494L484 1216L729 1384L796 1276L530 1120L796 962L729 854L484 1022L494 730H367L377 1022L131 854L65 962Z" />
<glyph unicode="+" horiz-adv-x="891" d="M356 208V475H87V642H356V909H535V642H804V475H535V208H356Z" />
<glyph unicode="," horiz-adv-x="446" d="M233 -225H118L196 0H113V237H347V22L233 -225Z" />
<glyph unicode="-" horiz-adv-x="843" d="M111 533V711H731V533H111Z" />
<glyph unicode="." horiz-adv-x="428" d="M97 0V237H331V0H97Z" />
<glyph unicode="/" horiz-adv-x="677" d="M-18 -170L518 1400H733L197 -170H-18Z" />
<glyph unicode="0" horiz-adv-x="1403" d="M701 -28Q520 -28 388 66T183 326T111 712Q111 926 186 1087T393 1338T701 1428Q879 1428 1011 1338T1217 1087T1291 712Q1291 493 1220 327T1016 66T701 -28ZM701 169Q813 169 895 229T1021 409T1066 712Q1066 975 965
1104T701 1233Q544 1233 440 1105T336 712Q336 531 381 411T508 230T701 169Z" />
<glyph unicode="1" horiz-adv-x="688" d="M300 0V1089Q242 1045 196 1023T105 988L77 1182Q127 1196 182 1230T284 1308T356 1400H514V0H300Z" />
<glyph unicode="2" horiz-adv-x="1052" d="M103 1L479 575Q546 677 591 755T658 895T680 1017Q680 1113 626 1169T476 1225Q374 1225 290 1178T137 1062L110 1286Q188 1349 287 1389T510 1429Q637 1429 723 1378T852 1240T896 1048Q896 961 872 879T798 705T669
492L477 202H948V1H103Z" />
<glyph unicode="3" horiz-adv-x="1080" d="M472 -28Q353 -28 252 2T75 71L128 264Q205 222 289 193T474 164Q596 164 666 223T736 386Q736 498 663 561T437 624H326V825H436Q556 825 623 881T691 1036Q691 1133 636 1184T476 1236Q391 1236 317 1206T169 1130L135
1338Q208 1378 300 1403T502 1428Q635 1428 727 1381T867 1252T915 1063Q915 928 839 834T628 709L627 755Q781 727 871 636T961 390Q961 258 898 165T725 22T472 -28Z" />
<glyph unicode="4" horiz-adv-x="1192" d="M722 0V344H29L784 1400H937V526H1117V344H937V0H722ZM333 459L293 526H722V1139L770 1076L333 459Z" />
<glyph unicode="5" horiz-adv-x="1079" d="M488 -27Q375 -27 276 2T100 81L152 281Q226 239 304 210T480 181Q606 181 682 249T758 435Q758 564 674 633T446 703Q374 703 308 694T173 668L260 1400H920L909 1191H432L381 774L316 859Q363 870 414 876T520 882Q663
882 767 826T927 670T983 435Q983 292 919 189T742 29T488 -27Z" />
<glyph unicode="6" horiz-adv-x="1131" d="M586 -28Q439 -28 333 37T169 220T112 493Q112 660 168 805T318 1071T521 1282T741 1428L891 1298Q817 1262 738 1207T586 1082T453 926T359 744T324 540L257 640Q307 731 401 786T632 841Q752 841 845 786T992 636T1046
418Q1046 286 989 186T828 29T586 -28ZM587 156Q697 156 765 230T834 410Q834 515 766 585T587 656Q477 656 408 586T339 409Q339 301 408 229T587 156Z" />
<glyph unicode="7" horiz-adv-x="1012" d="M169 0L716 1286L776 1195H83V1400H994L398 0H169Z" />
<glyph unicode="8" horiz-adv-x="1210" d="M605 -28Q454 -28 345 26T176 178T117 401Q117 529 178 625T349 775T605 829Q751 829 861 776T1032 626T1094 401Q1094 275 1034 178T865 27T605 -28ZM605 164Q736 164 808 231T881 408Q881 517 809 589T605 661Q474
661 402 589T330 408Q330 298 402 231T605 164ZM605 683Q487 683 391 730T238 859T181 1050Q181 1142 224 1229T360 1372T605 1428Q756 1428 847 1372T980 1229T1022 1050Q1022 942 971 860T826 730T605 683ZM605 852Q711 852 764 910T817 1049Q817 1136 764 1190T605
1244Q500 1244 443 1190T385 1049Q385 969 442 911T605 852Z" />
<glyph unicode="9" horiz-adv-x="1131" d="M415 0L265 130Q335 165 410 217T557 338T686 487T778 663T812 860L879 760Q830 669 736 614T504 559Q384 559 291 614T144 764T90 982Q90 1114 147 1214T308 1371T550 1428Q697 1428 803 1363T967 1180T1024 907Q1024
746 969 605T825 347T628 142T415 0ZM549 747Q658 747 726 817T795 991Q795 1099 727 1169T549 1240Q440 1240 372 1168T303 990Q303 887 371 817T549 747Z" />
<glyph unicode=":" horiz-adv-x="428" d="M97 751V988H331V751H97ZM97 0V237H331V0H97Z" />
<glyph unicode=";" horiz-adv-x="444" d="M233 -225H118L196 0H113V237H347V22L233 -225ZM113 751V988H347V751H113Z" />
<glyph unicode="&lt;" horiz-adv-x="829" d="M784 143L75 465V652L784 975V788L251 559L784 330V143Z" />
<glyph unicode="=" horiz-adv-x="891" d="M87 631V796H804V631H87ZM87 312V477H804V312H87Z" />
<glyph unicode="&gt;" horiz-adv-x="829" d="M45 143L754 465V652L45 975V788L578 559L45 330V143Z" />
<glyph unicode="?" horiz-adv-x="928" d="M284 374V411Q284 494 307 556T368 669T448 766Q518 844 558 902T598 1042Q598 1103 570 1143T496 1204T396 1225Q318 1225 253 1204T125 1149L103 1342Q171 1380 253 1404T448 1428Q573 1428 659 1380T791 1252T837 1074Q837
999 813 940T748 829T658 722Q598 654 551 585T503 423V374H284ZM276 0V237H510V0H276Z" />
<glyph unicode="@" horiz-adv-x="1449" d="M594 -174Q366 -174 232 -39T98 340Q98 504 158 643T323 886T565 1048T852 1106Q1088 1106 1219 969T1350 600Q1350 499 1322 405T1232 249T1066 188Q1029 188 1005 205T980 290Q980 379 1016 488T1090 758Q1053 797
992 830T848 864Q754 864 664 816T500 687T382 507T338 306Q338 248 355 197T413 113T520 80Q578 80 645 106T775 185T880 312Q879 302 877 284T874 242Q874 210 884 173T920 110T990 84Q1022 84 1064 99T1150 138T1228 192L1234 186Q1169 79 1070 -2T850 -128T594
-174ZM586 212Q540 212 519 250T498 346Q498 428 534 499T626 625T747 711T866 742Q883 742 913 736T956 698Q942 618 902 533T807 375T695 257T586 212Z" />
<glyph unicode="A" horiz-adv-x="1240" d="M917 358H323V553H917V358ZM590 1187H650L231 0H11L511 1400H729L1229 0H1009L590 1187Z" />
<glyph unicode="B" horiz-adv-x="1219" d="M157 0V1400H636Q830 1400 933 1315T1037 1060Q1037 940 984 854T825 736L842 775Q997 746 1078 652T1159 399Q1159 213 1039 107T709 0H157ZM375 196H684Q795 196 861 247T928 414Q928 539 860 587T684 636H375V196ZM375
832H606Q704 832 760 871T817 1018Q817 1126 761 1165T606 1205H375V832Z" />
<glyph unicode="C" horiz-adv-x="1226" d="M786 -28Q578 -28 418 62T166 315T75 700Q75 921 167 1084T423 1338T794 1428Q902 1428 997 1405T1163 1346L1139 1141Q1064 1177 978 1201T792 1225Q634 1225 528 1156T368 968T313 700Q313 551 366 433T525 245T787
175Q890 175 974 197T1139 258L1163 53Q1086 18 992 -5T786 -28Z" />
<glyph unicode="D" horiz-adv-x="1448" d="M157 0V1400H678Q880 1400 1036 1317T1282 1078T1371 700Q1371 479 1282 323T1037 83T678 0H157ZM375 196H678Q828 196 929 258T1081 434T1133 700Q1133 852 1082 965T929 1141T678 1204H375V196Z" />
<glyph unicode="E" horiz-adv-x="1120" d="M157 0V1400H1029V1196H378V833H891V629H378V204H1048V0H157Z" />
<glyph unicode="F" horiz-adv-x="1048" d="M157 0V1400H1015V1196H375V833H869V629H375V0H157Z" />
<glyph unicode="G" horiz-adv-x="1337" d="M769 -28Q563 -28 407 62T163 316T75 702Q75 922 168 1085T426 1338T802 1428Q914 1428 1016 1405T1193 1347L1170 1148Q1091 1181 1000 1203T805 1225Q636 1225 527 1156T366 968T313 703Q313 550 366 431T529 244T804
175Q849 175 908 182T1021 207V513H812V702H1239V78Q1160 34 1039 3T769 -28Z" />
<glyph unicode="H" horiz-adv-x="1432" d="M157 0V1400H375V832H1057V1400H1275V0H1057V627H375V0H157Z" />
<glyph unicode="I" horiz-adv-x="533" d="M157 0V1400H375V0H157Z" />
<glyph unicode="J" horiz-adv-x="533" d="M-2 -344L-26 -156Q72 -156 114 -114T157 30V1400H375V-20Q375 -192 294 -268T58 -344H-2Z" />
<glyph unicode="K" horiz-adv-x="1184" d="M913 0L395 741L913 1400H1173L645 743L1177 0H913ZM157 0V1400H375V0H157Z" />
<glyph unicode="L" horiz-adv-x="1001" d="M157 0V1400H375V196H989V0H157Z" />
<glyph unicode="M" horiz-adv-x="1642" d="M93 0L283 1400H466L822 730L1176 1400H1360L1549 0H1321L1183 1104L1241 1093L824 316L401 1092L459 1103L321 0H93Z" />
<glyph unicode="N" horiz-adv-x="1411" d="M157 0V1400H383L1034 413V1400H1253V0H1071L375 1044V0H157Z" />
<glyph unicode="O" horiz-adv-x="1532" d="M766 -28Q566 -28 410 62T165 315T76 700Q76 921 165 1084T410 1338T766 1428Q966 1428 1122 1338T1367 1085T1456 700Q1456 479 1367 316T1122 62T766 -28ZM766 183Q918 183 1020 251T1173 436T1225 700Q1225 846 1174
963T1020 1149T766 1217Q614 1217 512 1149T359 964T307 700Q307 554 358 437T512 251T766 183Z" />
<glyph unicode="P" horiz-adv-x="1164" d="M157 0V1400H635Q784 1400 893 1354T1060 1207T1119 947Q1119 787 1061 686T894 536T637 488H381V0H157ZM381 677H608Q752 677 824 742T896 944Q896 1082 826 1146T606 1211H381V677Z" />
<glyph unicode="Q" horiz-adv-x="1532" d="M848 413L977 549L1438 103L1308 -32L848 413ZM766 -28Q566 -28 410 62T165 315T76 700Q76 921 165 1084T410 1338T766 1428Q966 1428 1122 1338T1367 1085T1456 700Q1456 479 1367 316T1122 62T766 -28ZM766 183Q918
183 1020 251T1173 436T1225 700Q1225 846 1174 963T1020 1149T766 1217Q614 1217 512 1149T359 964T307 700Q307 554 358 437T512 251T766 183Z" />
<glyph unicode="R" horiz-adv-x="1226" d="M157 0V1400H636Q782 1400 890 1355T1059 1215T1119 975Q1119 827 1056 733T878 583L1193 0H938L660 535Q657 535 655 535T650 535H381V0H157ZM381 724H606Q755 724 823 791T892 969Q892 1084 824 1147T610 1211H381V724Z" />
<glyph unicode="S" horiz-adv-x="1165" d="M560 -28Q474 -28 386 -14T222 23T99 67L127 299Q188 269 264 241T426 194T598 175Q719 175 791 220T863 362Q863 434 825 479T711 558T516 629Q403 665 310 713T160 838T104 1041Q104 1154 161 1241T331 1378T608 1428Q742
1428 857 1399T1051 1335L1029 1107Q913 1169 810 1197T597 1225Q479 1225 407 1183T334 1050Q334 984 369 944T472 874T638 814Q787 769 891 712T1049 573T1104 370Q1104 292 1077 221T986 94T819 5T560 -28Z" />
<glyph unicode="T" horiz-adv-x="1084" d="M433 0V1196H30V1400H1054V1196H651V0H433Z" />
<glyph unicode="U" horiz-adv-x="1443" d="M721 -28Q524 -28 396 48T204 265T141 597V1400H359V654Q359 557 373 470T426 317T535 213T721 175Q836 175 907 213T1017 317T1069 470T1083 654V1400H1301V597Q1301 405 1238 265T1047 49T721 -28Z" />
<glyph unicode="V" horiz-adv-x="1228" d="M505 0L5 1400H229L641 233H586L998 1400H1223L723 0H505Z" />
<glyph unicode="W" horiz-adv-x="1906" d="M408 0L13 1400H241L530 314L860 1384H1050L1385 325L1669 1400H1897L1495 0H1283L954 1045L627 0H408Z" />
<glyph unicode="X" horiz-adv-x="1214" d="M3 0L485 711L18 1400H265L608 893L949 1400H1196L730 711L1211 0H964L608 528L250 0H3Z" />
<glyph unicode="Y" horiz-adv-x="1165" d="M474 0V589L-19 1400H224L633 707H531L941 1400H1184L692 589V0H474Z" />
<glyph unicode="Z" horiz-adv-x="1097" d="M17 0L783 1280L822 1204H107V1400H1083L315 120L277 196H1073V0H17Z" />
<glyph unicode="[" horiz-adv-x="661" d="M137 -271V1500H651V1329H329V-100H651V-271H137Z" />
<glyph unicode="\" horiz-adv-x="637" d="M478 -170L-18 1400H197L693 -170H478Z" />
<glyph unicode="]" horiz-adv-x="661" d="M9 -271V-100H332V1329H9V1500H523V-271H9Z" />
<glyph unicode="^" horiz-adv-x="1024" d="M100 861V1089L512 1518L924 1089V861L512 1245L100 861Z" />
<glyph unicode="_" horiz-adv-x="1125" d="M3 -251V-72H1123V-251H3Z" />
<glyph unicode="`" horiz-adv-x="942" d="M662 1147L280 1295V1506L662 1284V1147Z" />
<glyph unicode="a" horiz-adv-x="975" d="M342 -20Q256 -20 189 16T84 118T45 271Q45 355 83 414T184 514T322 577T476 612T621 624Q620 741 571 782T422 824Q362 824 299 807T157 741L133 911Q205 955 294 981T478 1007Q597 1007 675 965T792 826T831 566V336Q831
264 837 224T866 166T933 149H957L931 -20H885Q811 -20 766 -4T692 41T645 112Q592 52 514 16T342 -20ZM406 144Q462 144 521 172T622 250V482Q510 477 430 456T306 391T262 281Q262 209 300 177T406 144Z" />
<glyph unicode="b" horiz-adv-x="1124" d="M618 -20Q510 -20 419 24T276 151L333 192L308 0H117V1500H326V808L279 840Q336 915 424 961T618 1007Q759 1007 858 936T1010 747T1063 493Q1063 352 1007 236T851 50T618 -20ZM590 159Q671 159 729 203T818 323T849
493Q849 590 818 665T729 784T590 828Q508 828 447 789T350 676T315 493Q315 383 350 309T446 197T590 159Z" />
<glyph unicode="c" horiz-adv-x="909" d="M575 -20Q407 -20 293 49T120 233T62 490Q62 635 119 752T292 939T587 1008Q667 1008 735 992T855 948L830 772Q779 797 719 812T595 828Q440 828 358 738T275 495Q275 346 356 252T592 158Q656 158 716 174T832 220L855
48Q810 20 735 0T575 -20Z" />
<glyph unicode="d" horiz-adv-x="1124" d="M514 -20Q378 -20 276 49T118 235T61 492Q61 629 114 746T269 935T514 1007Q617 1007 702 967T845 846L797 809V1500H1006V0H815L790 192L847 151Q793 68 708 24T514 -20ZM548 159Q622 159 682 196T778 307T814 492Q814
598 779 673T683 788T548 828Q462 828 401 785T307 666T274 492Q274 398 306 323T400 203T548 159Z" />
<glyph unicode="e" horiz-adv-x="1027" d="M595 -20Q418 -20 299 51T120 241T59 501Q59 638 115 753T280 937T543 1007Q674 1007 770 954T917 806T969 584Q969 558 967 530T958 471H275Q288 354 337 286T459 188T617 159Q693 159 767 176T906 227L925 56Q868 29
785 5T595 -20ZM287 614H755Q755 673 733 721T664 799T541 828Q431 828 371 770T287 614Z" />
<glyph unicode="f" horiz-adv-x="670" d="M184 0V821H26L49 988H184V1212Q184 1343 257 1421T472 1500Q521 1500 560 1494T630 1477L605 1305Q585 1312 564 1316T514 1320Q458 1320 426 1289T393 1186V988H638V821H393V0H184Z" />
<glyph unicode="g" horiz-adv-x="999" d="M515 -502Q379 -502 274 -468T110 -370T50 -212Q50 -134 94 -77T217 20Q173 44 149 77T124 152Q124 198 151 234T234 293Q154 345 112 431T70 620Q70 727 117 815T255 956T475 1008Q543 1008 602 990T710 938Q749 960
808 975T941 991Q951 991 960 991T978 991L958 856Q942 856 926 856T894 856Q884 856 857 854T805 847Q842 799 861 741T880 620Q880 509 833 420T695 278T475 225Q443 225 413 229T354 241Q318 229 318 198Q318 174 347 159T439 133L663 100Q823 76 911 8T1000
-186Q1000 -287 942 -357T774 -465T515 -502ZM529 -330Q662 -330 732 -297T802 -196Q802 -140 756 -111T618 -66L364 -26Q312 -48 275 -85T237 -177Q237 -256 315 -293T529 -330ZM475 386Q579 386 632 450T686 619Q686 721 633 784T475 848Q371 848 318 785T264
619Q264 515 317 451T475 386Z" />
<glyph unicode="h" horiz-adv-x="1092" d="M117 0V1500H327V829L267 850Q333 918 410 962T603 1007Q732 1007 816 950T941 789T982 550V0H773V530Q773 683 720 755T553 828Q462 828 398 782T291 659L327 779V0H117Z" />
<glyph unicode="i" horiz-adv-x="448" d="M119 0V988H328V0H119ZM119 1180V1400H328V1180H119Z" />
<glyph unicode="j" horiz-adv-x="448" d="M5 -484L-16 -318Q38 -315 67 -299T108 -245T119 -135V988H328V-217Q328 -316 292 -371T197 -450T73 -478L5 -484ZM119 1180V1400H328V1180H119Z" />
<glyph unicode="k" horiz-adv-x="927" d="M117 0V1500H326V560L665 988H911L532 522L920 0H674L326 475V0H117Z" />
<glyph unicode="l" horiz-adv-x="495" d="M373 -20Q281 -20 225 15T144 106T118 227V1500H327V330Q327 248 337 210T378 160T469 149L445 -20H373Z" />
<glyph unicode="m" horiz-adv-x="1747" d="M119 0V988H290L318 818L263 855Q340 931 424 969T608 1007Q684 1007 748 984T861 908T941 770L887 789Q933 891 1024 949T1254 1007Q1383 1007 1468 957T1596 809T1638 569V0H1429V560Q1429 699 1380 763T1217 828Q1146
828 1100 806T1029 745T993 659T983 563V0H774V539Q774 648 749 711T676 801T560 828Q466 828 398 786T296 660L328 773V0H119Z" />
<glyph unicode="n" horiz-adv-x="1112" d="M119 0V988H298L323 801L259 851Q340 935 428 971T612 1007Q817 1007 910 882T1003 548V0H794V539Q794 688 741 758T562 828Q469 828 399 786T296 659L328 774V0H119Z" />
<glyph unicode="o" horiz-adv-x="1117" d="M558 -20Q401 -20 290 49T120 235T61 493Q61 635 119 752T289 938T558 1008Q716 1008 827 939T997 752T1056 493Q1056 352 998 236T828 50T558 -20ZM558 159Q696 159 769 249T843 493Q843 648 770 739T558 830Q422 830
348 739T274 493Q274 339 348 249T558 159Z" />
<glyph unicode="p" horiz-adv-x="1127" d="M119 -484V988H285L324 789L264 821Q328 906 415 956T628 1007Q767 1007 865 938T1014 752T1065 493Q1065 352 1016 236T869 50T628 -20Q511 -20 426 21T284 149L328 190V-484H119ZM592 159Q714 159 782 249T851 493Q851
648 783 738T592 828Q509 828 448 789T352 676T317 493Q317 383 351 309T447 197T592 159Z" />
<glyph unicode="q" horiz-adv-x="1127" d="M798 -484V190L843 150Q793 66 709 23T509 -20Q362 -20 263 49T113 235T62 493Q62 630 114 747T265 935T508 1007Q637 1007 719 958T863 821L803 789L846 988H1007V-484H798ZM540 159Q621 159 681 197T775 309T809 493Q809
655 736 741T540 828Q415 828 345 738T275 493Q275 339 345 249T540 159Z" />
<glyph unicode="r" horiz-adv-x="644" d="M119 0V988H303L318 850Q378 922 446 965T595 1008Q619 1008 640 1003L622 786Q605 790 588 792T551 794Q479 794 420 762T335 688V0H119Z" />
<glyph unicode="s" horiz-adv-x="836" d="M400 -20Q283 -20 200 6T63 61L85 251Q136 216 214 184T392 151Q478 151 523 179T569 264Q569 310 542 338T471 386T378 421Q301 446 233 479T122 567T79 715Q79 795 119 862T240 968T448 1008Q544 1008 611 988T732 939L710
754Q657 795 596 822T452 850Q376 850 331 821T286 731Q286 667 339 638T504 571Q555 554 604 531T693 474T758 392T782 275Q782 197 745 130T624 22T400 -20Z" />
<glyph unicode="t" horiz-adv-x="680" d="M452 -20Q359 -20 302 16T218 108T191 226V821H34L53 988H191V1221L400 1243V988H642V821H400V332Q400 246 410 208T459 159T583 149H639L621 -20H452Z" />
<glyph unicode="u" horiz-adv-x="1072" d="M498 -20Q365 -20 279 33T151 187T109 432V988H318V461Q318 312 368 236T534 160Q617 160 681 200T777 322L743 212V988H952V0H762L736 184L786 136Q743 64 670 22T498 -20Z" />
<glyph unicode="v" horiz-adv-x="987" d="M391 0L13 988H232L494 245L755 988H974L597 0H391Z" />
<glyph unicode="w" horiz-adv-x="1451" d="M315 0L22 988H247L428 242L628 963H823L1023 242L1205 988H1430L1135 0H931L726 693L520 0H315Z" />
<glyph unicode="x" horiz-adv-x="962" d="M21 0L359 493L26 988H268L486 642L688 988H934L608 502L941 0H699L479 345L263 0H21Z" />
<glyph unicode="y" horiz-adv-x="1037" d="M196 -484L420 53L9 988H241L526 296L795 988H1027L416 -484H196Z" />
<glyph unicode="z" horiz-adv-x="943" d="M41 0L619 898L644 808H79V988H900L321 90L292 180H896V0H41Z" />
<glyph unicode="{" horiz-adv-x="641" d="M555 -272Q366 -272 282 -186T198 36Q198 101 206 181T214 332Q214 440 179 493T48 546V682Q143 682 178 735T214 896Q214 966 206 1047T198 1192Q198 1327 282 1413T555 1500H629V1328H575Q474 1328 419 1284T364 1132Q364
1065 372 984T380 836Q380 727 326 675T179 598V630Q271 607 325 554T380 392Q380 326 372 245T364 96Q364 -12 419 -56T575 -100H629V-272H555Z" />
<glyph unicode="|" horiz-adv-x="454" d="M123 -419V1500H331V-419H123Z" />
<glyph unicode="}" horiz-adv-x="641" d="M12 -272V-100H66Q168 -100 223 -56T278 96Q278 164 270 245T262 392Q262 501 316 554T462 630V598Q371 622 317 674T262 836Q262 902 270 983T278 1132Q278 1240 223 1284T66 1328H12V1500H86Q276 1500 360 1414T444
1192Q444 1128 436 1047T428 896Q428 788 463 735T593 682V546Q499 546 464 493T428 332Q428 262 436 182T444 36Q444 -99 360 -185T86 -272H12Z" />
<glyph unicode="~" horiz-adv-x="927" d="M633 584Q569 584 520 607T426 655T325 679Q247 679 247 594H87Q92 719 144 785T293 851Q359 851 409 828T505 780T601 756Q679 756 679 841H840Q836 716 783 650T633 584Z" />
<glyph unicode="&#xa0;" horiz-adv-x="450" />
<glyph unicode="&#xa1;" horiz-adv-x="474" d="M154 626V572L121 -400H369L337 572V626H154ZM128 1000V763H363V1000H128Z" />
<glyph unicode="&#xa2;" horiz-adv-x="909" d="M575 -20Q407 -20 293 49T120 233T62 490Q62 635 119 752T292 939T587 1008Q667 1008 735 992T855 948L830 772Q779 797 719 812T595 828Q440 828 358 738T275 495Q275 346 356 252T592 158Q656 158 716 174T832
220L855 48Q810 20 735 0T575 -20ZM476 -288L496 68H629L649 -288H476ZM496 926L476 1268H649L629 926H496Z" />
<glyph unicode="&#xa3;" horiz-adv-x="1040" d="M98 0Q142 110 172 205T222 403T257 636L293 981Q315 1190 414 1309T712 1428Q784 1428 847 1411T972 1358L952 1131Q895 1176 842 1200T726 1225Q629 1225 576 1165T511 997L475 652Q461 522 443 430T397 260T325
98L270 205H982V0H98ZM103 629V788H857V629H103Z" />
<glyph unicode="&#xa4;" horiz-adv-x="1431" d="M716 1208Q869 1208 987 1141T1171 957T1238 696Q1238 549 1172 433T988 251T716 184Q559 184 442 251T259 435T193 696Q193 842 260 958T444 1141T716 1208ZM716 1019Q615 1019 546 977T441 861T405 696Q405 604
440 531T545 416T716 373Q816 373 885 415T990 531T1026 696Q1026 788 991 861T886 976T716 1019ZM192 1301L453 1039L372 960L112 1221L192 1301ZM376 436L455 355L192 91L112 171L376 436ZM1052 439L1320 171L1239 91L971 360L1052 439ZM1239 1301L1320 1221L1058
959L977 1039L1239 1301Z" />
<glyph unicode="&#xa5;" horiz-adv-x="1165" d="M474 0V589L-19 1400H224L633 707H531L941 1400H1184L692 589V0H474ZM179 274V434H986V274H179ZM179 554V714H986V554H179Z" />
<glyph unicode="&#xa6;" horiz-adv-x="457" d="M125 684V1500H332V684H125ZM125 -420V396H332V-420H125Z" />
<glyph unicode="&#xa7;" horiz-adv-x="915" d="M413 -169Q328 -169 251 -145T127 -89L149 72Q208 36 280 10T420 -17Q502 -17 552 19T605 128Q606 188 569 226T471 291T342 345T214 411T115 509T76 662Q76 763 127 836T273 958Q222 996 193 1054T163 1193Q163
1278 201 1348T313 1459T499 1500Q589 1500 667 1475T790 1419L767 1258Q710 1295 637 1322T496 1349Q420 1349 370 1314T320 1217Q320 1161 357 1124T454 1058T580 999T705 927T802 822T840 664Q840 614 822 561T762 458T647 374Q701 338 726 282T751 149Q751
77 721 4T617 -119T413 -169ZM548 448Q604 470 640 521T676 637Q676 695 638 738T534 817T389 887Q329 865 282 820T235 694Q235 631 272 589T380 514T548 448Z" />
<glyph unicode="&#xa8;" horiz-adv-x="973" d="M592 1182V1350H772V1182H592ZM200 1182V1350H380V1182H200Z" />
<glyph unicode="&#xa9;" horiz-adv-x="1424" d="M712 73Q532 73 392 155T171 384T90 730Q90 928 170 1075T391 1303T712 1385Q893 1385 1033 1304T1253 1075T1333 730Q1333 532 1253 385T1033 155T712 73ZM730 388Q636 388 564 430T450 548T408 726Q408 881 498
973T730 1066Q779 1066 830 1055T920 1025L903 883Q861 902 819 913T730 925Q647 925 605 870T563 726Q563 641 605 584T730 527Q776 527 818 539T903 572L920 432Q881 411 830 400T730 388ZM712 183Q878 183 988 255T1152 451T1207 730Q1207 885 1153 1008T988
1203T712 1275Q546 1275 436 1203T271 1008T216 730Q216 575 270 452T435 256T712 183Z" />
<glyph unicode="&#xaa;" horiz-adv-x="708" d="M241 868Q166 868 115 912T63 1036Q63 1094 94 1133T175 1196T282 1232T392 1248Q391 1277 371 1294T297 1311Q256 1311 214 1302T126 1276L115 1413Q173 1435 229 1445T341 1456Q446 1456 507 1403T568 1244V1079Q568
1031 577 1021T611 1010H636L625 868H552Q503 868 470 885T418 931Q389 901 340 885T241 868ZM308 993Q329 993 351 999T394 1020V1134Q333 1128 291 1110T248 1047Q248 1020 264 1007T308 993Z" />
<glyph unicode="&#xab;" horiz-adv-x="1185" d="M338 156L25 568L338 980H588L276 568L588 156H338ZM858 156L545 568L858 980H1108L796 568L1108 156H858Z" />
<glyph unicode="&#xac;" horiz-adv-x="1034" d="M768 302V645H87V812H947V302H768Z" />
<glyph unicode="&#xad;" horiz-adv-x="888" d="M134 533V711H754V533H134Z" />
<glyph unicode="&#xae;" horiz-adv-x="1424" d="M712 73Q532 73 391 154T170 384T89 730Q89 929 169 1076T391 1305T712 1386Q893 1386 1033 1305T1254 1077T1334 730Q1334 532 1254 384T1034 155T712 73ZM712 183Q878 183 988 255T1152 452T1207 730Q1207 885
1153 1008T988 1203T712 1275Q546 1275 436 1203T270 1008T215 730Q215 576 270 452T435 256T712 183ZM472 414V1068H716Q823 1068 883 1018T943 863Q943 802 915 757T841 685L986 414H831L714 644H618V414H472ZM618 777H703Q749 777 770 801T792 863Q792 902 771
925T703 948H618V777Z" />
<glyph unicode="&#xaf;" horiz-adv-x="1047" d="M200 1182V1332H846V1182H200Z" />
<glyph unicode="&#xb0;" horiz-adv-x="580" d="M289 964Q161 964 90 1043T18 1236Q18 1349 89 1429T289 1510Q419 1510 490 1430T562 1236Q562 1123 491 1044T289 964ZM289 1062Q369 1062 408 1114T447 1236Q447 1307 408 1359T289 1412Q213 1412 172 1360T131
1236Q131 1166 172 1114T289 1062Z" />
<glyph unicode="&#xb1;" horiz-adv-x="914" d="M375 360V627H98V786H375V1053H539V786H815V627H539V360H375ZM98 109V268H815V109H98Z" />
<glyph unicode="&#xb2;" horiz-adv-x="659" d="M68 772L290 1088Q340 1160 358 1201T376 1284Q376 1328 349 1357T270 1387Q215 1387 169 1362T83 1301L69 1468Q114 1499 175 1521T306 1544Q419 1544 488 1480T557 1312Q557 1268 547 1228T511 1140T439 1026L277
794L249 924H593V772H68Z" />
<glyph unicode="&#xb3;" horiz-adv-x="690" d="M327 744Q253 744 189 761T70 806L108 958Q154 930 199 912T301 893Q357 893 389 916T422 984Q422 1030 392 1057T295 1085H236V1225H297Q346 1225 375 1248T404 1312Q404 1348 378 1371T299 1395Q251 1395 209 1379T127
1336L113 1493Q160 1517 216 1530T338 1544Q452 1544 515 1488T579 1342Q579 1263 539 1217T441 1148V1172Q515 1153 559 1103T603 973Q603 866 525 805T327 744Z" />
<glyph unicode="&#xb4;" horiz-adv-x="942" d="M280 1147V1284L662 1506V1295L280 1147Z" />
<glyph unicode="&#xb5;" horiz-adv-x="1216" d="M149 -484V988H357V423Q357 295 408 227T575 159Q648 159 700 186T794 262V988H1000V342Q1000 271 1007 229T1034 168T1091 149H1130L1102 -20H1034Q956 -20 903 12T820 108Q771 51 709 16T559 -19Q497 -19 445
-4T356 39V-484H149Z" />
<glyph unicode="&#xb6;" horiz-adv-x="1247" d="M610 0V474Q424 485 304 555T125 728T66 941Q66 1054 128 1159T317 1332T641 1400H1160V1232H1015V0H885V1232H716V0H610Z" />
<glyph unicode="&#xb7;" horiz-adv-x="471" d="M111 426V686H359V426H111Z" />
<glyph unicode="&#xb8;" horiz-adv-x="777" d="M371 -158L299 -128Q323 -119 346 -114T397 -108Q481 -108 529 -152T577 -275Q577 -367 514 -415T359 -463Q307 -463 268 -452T200 -425L233 -319Q264 -334 295 -343T361 -353Q404 -353 430 -335T456 -281Q456 -245
431 -225T355 -205Q333 -205 311 -208T262 -220L315 0H420L371 -158Z" />
<glyph unicode="&#xb9;" horiz-adv-x="484" d="M201 772V1318Q170 1292 139 1276T78 1252L66 1396Q115 1413 164 1446T241 1516H368V772H201Z" />
<glyph unicode="&#xba;" horiz-adv-x="746" d="M373 868Q274 868 205 909T99 1018T62 1163Q62 1240 98 1307T204 1415T373 1456Q471 1456 540 1415T646 1307T683 1163Q683 1085 647 1018T541 910T373 868ZM373 1002Q436 1002 471 1049T506 1163Q506 1229 471 1276T373
1323Q309 1323 275 1276T240 1163Q240 1096 274 1049T373 1002Z" />
<glyph unicode="&#xbb;" horiz-adv-x="1186" d="M599 156L911 568L599 980H849L1161 568L849 156H599ZM79 156L391 568L79 980H329L641 568L329 156H79Z" />
<glyph unicode="&#xbc;" horiz-adv-x="1317" d="M451 656V1202Q420 1176 389 1160T328 1136L316 1280Q365 1297 414 1330T491 1400H618V656H451ZM136 0L950 1400H1131L319 0H136ZM995 0V159H593L1010 744H1143V288H1241V159H1143V0H995ZM808 243L748 288H995V410V632L1051
590L942 432L808 243Z" />
<glyph unicode="&#xbd;" horiz-adv-x="1400" d="M451 656V1202Q420 1176 389 1160T328 1136L316 1280Q365 1297 414 1330T491 1400H618V656H451ZM117 0L931 1400H1112L300 0H117ZM815 0L1037 316Q1087 388 1105 429T1123 512Q1123 556 1096 585T1017 615Q962 615
916 590T830 529L816 696Q861 727 922 749T1053 772Q1166 772 1235 708T1304 540Q1304 496 1294 456T1258 368T1186 254L1024 22L996 152H1340V0H815Z" />
<glyph unicode="&#xbe;" horiz-adv-x="1449" d="M327 628Q253 628 189 645T70 690L108 842Q154 814 199 796T301 777Q357 777 389 800T422 868Q422 914 392 941T295 969H236V1109H297Q346 1109 375 1132T404 1196Q404 1232 378 1255T299 1279Q251 1279 209 1263T127
1220L113 1377Q160 1401 216 1414T338 1428Q452 1428 515 1372T579 1226Q579 1147 539 1101T441 1032V1056Q515 1037 559 987T603 857Q603 750 525 689T327 628ZM277 0L1091 1400H1272L460 0H277ZM1126 0V159H724L1141 744H1274V288H1372V159H1274V0H1126ZM939
243L879 288H1126V410V632L1182 590L1073 432L939 243Z" />
<glyph unicode="&#xbf;" horiz-adv-x="822" d="M627 626V589Q627 506 604 444T543 331T463 234Q393 156 353 98T313 -42Q313 -103 341 -143T415 -204T515 -225Q593 -225 658 -204T786 -149L808 -342Q740 -380 658 -404T463 -428Q338 -428 252 -380T120 -252T74
-74Q74 1 98 60T163 171T253 278Q313 346 360 415T408 577V626H627ZM635 1000V763H401V1000H635Z" />
<glyph unicode="&#xc0;" horiz-adv-x="1240" d="M917 358H323V553H917V358ZM590 1187H650L231 0H11L511 1400H729L1229 0H1009L590 1187ZM810 1524L428 1640V1839L810 1649V1524Z" />
<glyph unicode="&#xc1;" horiz-adv-x="1240" d="M917 358H323V553H917V358ZM590 1187H650L231 0H11L511 1400H729L1229 0H1009L590 1187ZM430 1524V1649L812 1839V1640L430 1524Z" />
<glyph unicode="&#xc2;" horiz-adv-x="1240" d="M917 358H323V553H917V358ZM590 1187H650L231 0H11L511 1400H729L1229 0H1009L590 1187ZM362 1500V1633L620 1814L878 1633V1500L620 1637L362 1500Z" />
<glyph unicode="&#xc3;" horiz-adv-x="1240" d="M917 358H323V553H917V358ZM590 1187H650L231 0H11L511 1400H729L1229 0H1009L590 1187ZM789 1567Q743 1567 693 1588T595 1629T509 1650Q442 1650 442 1579H303Q303 1679 341 1731T451 1783Q497 1783 547 1763T645
1721T731 1700Q798 1700 798 1771H937Q937 1673 900 1620T789 1567Z" />
<glyph unicode="&#xc4;" horiz-adv-x="1240" d="M917 358H323V553H917V358ZM590 1187H650L231 0H11L511 1400H729L1229 0H1009L590 1187ZM334 1579V1738H514V1579H334ZM726 1579V1738H906V1579H726Z" />
<glyph unicode="&#xc5;" horiz-adv-x="1240" d="M917 358H323V553H917V358ZM590 1187H650L231 0H11L511 1400H729L1229 0H1009L590 1187ZM620 1511Q520 1511 465 1570T410 1706Q410 1783 465 1842T620 1902Q722 1902 776 1843T830 1706Q830 1629 776 1570T620
1511ZM620 1606Q661 1606 691 1633T721 1706Q721 1750 692 1778T620 1806Q579 1806 549 1778T519 1706Q519 1660 549 1633T620 1606Z" />
<glyph unicode="&#xc6;" horiz-adv-x="1732" d="M-17 0L666 1400H1641V1195H1031V833H1502V629H1031V204H1660V0H788V1190L203 0H-17ZM328 351V562H820V351H328Z" />
<glyph unicode="&#xc7;" horiz-adv-x="1226" d="M786 -28Q578 -28 418 62T166 315T75 700Q75 921 167 1084T423 1338T794 1428Q902 1428 997 1405T1163 1346L1139 1141Q1064 1177 978 1201T792 1225Q634 1225 528 1156T368 968T313 700Q313 551 366 433T525 245T787
175Q890 175 974 197T1139 258L1163 53Q1086 18 992 -5T786 -28ZM767 -158L695 -128Q719 -119 742 -114T793 -108Q877 -108 925 -152T973 -275Q973 -367 910 -415T755 -463Q703 -463 664 -452T596 -425L629 -319Q660 -334 691 -343T757 -353Q800 -353 826 -335T852
-281Q852 -245 827 -225T751 -205Q729 -205 707 -208T658 -220L711 0H816L767 -158Z" />
<glyph unicode="&#xc8;" horiz-adv-x="1120" d="M157 0V1400H1029V1196H378V833H891V629H378V204H1048V0H157ZM804 1524L422 1640V1839L804 1649V1524Z" />
<glyph unicode="&#xc9;" horiz-adv-x="1120" d="M157 0V1400H1029V1196H378V833H891V629H378V204H1048V0H157ZM424 1524V1649L806 1839V1640L424 1524Z" />
<glyph unicode="&#xca;" horiz-adv-x="1120" d="M157 0V1400H1029V1196H378V833H891V629H378V204H1048V0H157ZM356 1500V1633L614 1814L872 1633V1500L614 1637L356 1500Z" />
<glyph unicode="&#xcb;" horiz-adv-x="1120" d="M157 0V1400H1029V1196H378V833H891V629H378V204H1048V0H157ZM328 1579V1738H508V1579H328ZM720 1579V1738H900V1579H720Z" />
<glyph unicode="&#xcc;" horiz-adv-x="533" d="M157 0V1400H375V0H157ZM457 1524L75 1640V1839L457 1649V1524Z" />
<glyph unicode="&#xcd;" horiz-adv-x="533" d="M157 0V1400H375V0H157ZM77 1524V1649L459 1839V1640L77 1524Z" />
<glyph unicode="&#xce;" horiz-adv-x="533" d="M157 0V1400H375V0H157ZM9 1500V1633L267 1814L525 1633V1500L267 1637L9 1500Z" />
<glyph unicode="&#xcf;" horiz-adv-x="533" d="M157 0V1400H375V0H157ZM-19 1579V1738H161V1579H-19ZM373 1579V1738H553V1579H373Z" />
<glyph unicode="&#xd0;" horiz-adv-x="1460" d="M176 0V623H40V799H176V1400H693Q894 1400 1049 1317T1294 1078T1383 700Q1383 479 1294 323T1050 83T693 0H176ZM388 205H693Q919 205 1033 339T1147 700Q1147 927 1033 1062T693 1197H388V799H645V623H388V205Z" />
<glyph unicode="&#xd1;" horiz-adv-x="1411" d="M157 0V1400H383L1034 413V1400H1253V0H1071L375 1044V0H157ZM878 1567Q832 1567 782 1588T684 1629T598 1650Q531 1650 531 1579H392Q392 1679 430 1731T540 1783Q586 1783 636 1763T734 1721T820 1700Q887 1700
887 1771H1026Q1026 1673 989 1620T878 1567Z" />
<glyph unicode="&#xd2;" horiz-adv-x="1532" d="M766 -28Q566 -28 410 62T165 315T76 700Q76 921 165 1084T410 1338T766 1428Q966 1428 1122 1338T1367 1085T1456 700Q1456 479 1367 316T1122 62T766 -28ZM766 183Q918 183 1020 251T1173 436T1225 700Q1225 846
1174 963T1020 1149T766 1217Q614 1217 512 1149T359 964T307 700Q307 554 358 437T512 251T766 183ZM956 1524L574 1640V1839L956 1649V1524Z" />
<glyph unicode="&#xd3;" horiz-adv-x="1532" d="M766 -28Q566 -28 410 62T165 315T76 700Q76 921 165 1084T410 1338T766 1428Q966 1428 1122 1338T1367 1085T1456 700Q1456 479 1367 316T1122 62T766 -28ZM766 183Q918 183 1020 251T1173 436T1225 700Q1225 846
1174 963T1020 1149T766 1217Q614 1217 512 1149T359 964T307 700Q307 554 358 437T512 251T766 183ZM576 1524V1649L958 1839V1640L576 1524Z" />
<glyph unicode="&#xd4;" horiz-adv-x="1532" d="M766 -28Q566 -28 410 62T165 315T76 700Q76 921 165 1084T410 1338T766 1428Q966 1428 1122 1338T1367 1085T1456 700Q1456 479 1367 316T1122 62T766 -28ZM766 183Q918 183 1020 251T1173 436T1225 700Q1225 846
1174 963T1020 1149T766 1217Q614 1217 512 1149T359 964T307 700Q307 554 358 437T512 251T766 183ZM508 1500V1633L766 1814L1024 1633V1500L766 1637L508 1500Z" />
<glyph unicode="&#xd5;" horiz-adv-x="1532" d="M766 -28Q566 -28 410 62T165 315T76 700Q76 921 165 1084T410 1338T766 1428Q966 1428 1122 1338T1367 1085T1456 700Q1456 479 1367 316T1122 62T766 -28ZM766 183Q918 183 1020 251T1173 436T1225 700Q1225 846
1174 963T1020 1149T766 1217Q614 1217 512 1149T359 964T307 700Q307 554 358 437T512 251T766 183ZM935 1567Q889 1567 839 1588T741 1629T655 1650Q588 1650 588 1579H449Q449 1679 487 1731T597 1783Q643 1783 693 1763T791 1721T877 1700Q944 1700 944 1771H1083Q1083
1673 1046 1620T935 1567Z" />
<glyph unicode="&#xd6;" horiz-adv-x="1532" d="M766 -28Q566 -28 410 62T165 315T76 700Q76 921 165 1084T410 1338T766 1428Q966 1428 1122 1338T1367 1085T1456 700Q1456 479 1367 316T1122 62T766 -28ZM766 183Q918 183 1020 251T1173 436T1225 700Q1225 846
1174 963T1020 1149T766 1217Q614 1217 512 1149T359 964T307 700Q307 554 358 437T512 251T766 183ZM480 1579V1738H660V1579H480ZM872 1579V1738H1052V1579H872Z" />
<glyph unicode="&#xd7;" horiz-adv-x="836" d="M183 201L66 318L653 916L769 799L183 201ZM653 201L66 799L183 916L769 318L653 201Z" />
<glyph unicode="&#xd8;" horiz-adv-x="1532" d="M132 -88L1209 1488H1399L323 -88H132ZM766 -28Q566 -28 410 62T165 315T76 700Q76 921 165 1084T410 1338T766 1428Q966 1428 1122 1338T1367 1085T1456 700Q1456 479 1367 316T1122 62T766 -28ZM766 183Q918 183
1020 251T1173 436T1225 700Q1225 846 1174 963T1020 1149T766 1217Q614 1217 512 1149T359 964T307 700Q307 554 358 437T512 251T766 183Z" />
<glyph unicode="&#xd9;" horiz-adv-x="1443" d="M721 -28Q524 -28 396 48T204 265T141 597V1400H359V654Q359 557 373 470T426 317T535 213T721 175Q836 175 907 213T1017 317T1069 470T1083 654V1400H1301V597Q1301 405 1238 265T1047 49T721 -28ZM911 1524L529
1640V1839L911 1649V1524Z" />
<glyph unicode="&#xda;" horiz-adv-x="1443" d="M721 -28Q524 -28 396 48T204 265T141 597V1400H359V654Q359 557 373 470T426 317T535 213T721 175Q836 175 907 213T1017 317T1069 470T1083 654V1400H1301V597Q1301 405 1238 265T1047 49T721 -28ZM531 1524V1649L913
1839V1640L531 1524Z" />
<glyph unicode="&#xdb;" horiz-adv-x="1443" d="M721 -28Q524 -28 396 48T204 265T141 597V1400H359V654Q359 557 373 470T426 317T535 213T721 175Q836 175 907 213T1017 317T1069 470T1083 654V1400H1301V597Q1301 405 1238 265T1047 49T721 -28ZM463 1500V1633L721
1814L979 1633V1500L721 1637L463 1500Z" />
<glyph unicode="&#xdc;" horiz-adv-x="1443" d="M721 -28Q524 -28 396 48T204 265T141 597V1400H359V654Q359 557 373 470T426 317T535 213T721 175Q836 175 907 213T1017 317T1069 470T1083 654V1400H1301V597Q1301 405 1238 265T1047 49T721 -28ZM435 1579V1738H615V1579H435ZM827
1579V1738H1007V1579H827Z" />
<glyph unicode="&#xdd;" horiz-adv-x="1165" d="M474 0V589L-19 1400H224L633 707H531L941 1400H1184L692 589V0H474ZM392 1524V1649L774 1839V1640L392 1524Z" />
<glyph unicode="&#xde;" horiz-adv-x="1143" d="M157 0V1400H381V1098H671Q889 1098 993 1000T1097 729Q1097 558 993 459T671 360H381V0H157ZM381 549H651Q769 549 821 596T874 729Q874 820 822 865T651 910H381V549Z" />
<glyph unicode="&#xdf;" horiz-adv-x="1199" d="M716 -28Q662 -28 613 -23T512 -4V163Q563 152 613 146T718 139Q820 139 880 183T941 308Q941 376 905 421T814 501T706 569T616 648T579 761Q579 829 614 880T727 1009Q776 1059 801 1096T827 1190Q827 1261 776
1305T627 1349Q506 1349 446 1280T385 1087V0H181V821H34L53 988H181V1083Q181 1308 306 1418T631 1528Q813 1528 922 1445T1032 1218Q1032 1152 1015 1106T968 1023T901 950Q847 892 819 857T790 781Q790 736 826 703T917 637T1025 563T1115 463T1152 315Q1152
198 1090 122T929 9T716 -28Z" />
<glyph unicode="&#xe0;" horiz-adv-x="975" d="M342 -20Q256 -20 189 16T84 118T45 271Q45 355 83 414T184 514T322 577T476 612T621 624Q620 741 571 782T422 824Q362 824 299 807T157 741L133 911Q205 955 294 981T478 1007Q597 1007 675 965T792 826T831 566V336Q831
264 837 224T866 166T933 149H957L931 -20H885Q811 -20 766 -4T692 41T645 112Q592 52 514 16T342 -20ZM406 144Q462 144 521 172T622 250V482Q510 477 430 456T306 391T262 281Q262 209 300 177T406 144ZM668 1147L286 1295V1506L668 1284V1147Z" />
<glyph unicode="&#xe1;" horiz-adv-x="975" d="M342 -20Q256 -20 189 16T84 118T45 271Q45 355 83 414T184 514T322 577T476 612T621 624Q620 741 571 782T422 824Q362 824 299 807T157 741L133 911Q205 955 294 981T478 1007Q597 1007 675 965T792 826T831 566V336Q831
264 837 224T866 166T933 149H957L931 -20H885Q811 -20 766 -4T692 41T645 112Q592 52 514 16T342 -20ZM406 144Q462 144 521 172T622 250V482Q510 477 430 456T306 391T262 281Q262 209 300 177T406 144ZM288 1147V1284L670 1506V1295L288 1147Z" />
<glyph unicode="&#xe2;" horiz-adv-x="975" d="M342 -20Q256 -20 189 16T84 118T45 271Q45 355 83 414T184 514T322 577T476 612T621 624Q620 741 571 782T422 824Q362 824 299 807T157 741L133 911Q205 955 294 981T478 1007Q597 1007 675 965T792 826T831 566V336Q831
264 837 224T866 166T933 149H957L931 -20H885Q811 -20 766 -4T692 41T645 112Q592 52 514 16T342 -20ZM406 144Q462 144 521 172T622 250V482Q510 477 430 456T306 391T262 281Q262 209 300 177T406 144ZM220 1120V1257L478 1478L736 1257V1120L478 1282L220 1120Z"
/>
<glyph unicode="&#xe3;" horiz-adv-x="975" d="M342 -20Q256 -20 189 16T84 118T45 271Q45 355 83 414T184 514T322 577T476 612T621 624Q620 741 571 782T422 824Q362 824 299 807T157 741L133 911Q205 955 294 981T478 1007Q597 1007 675 965T792 826T831 566V336Q831
264 837 224T866 166T933 149H957L931 -20H885Q811 -20 766 -4T692 41T645 112Q592 52 514 16T342 -20ZM406 144Q462 144 521 172T622 250V482Q510 477 430 456T306 391T262 281Q262 209 300 177T406 144ZM642 1158Q592 1158 545 1181T454 1227T368 1250Q300 1250
300 1174H142Q147 1286 190 1345T314 1405Q364 1405 411 1382T502 1336T588 1313Q656 1313 656 1389H814Q810 1277 767 1218T642 1158Z" />
<glyph unicode="&#xe4;" horiz-adv-x="975" d="M342 -20Q256 -20 189 16T84 118T45 271Q45 355 83 414T184 514T322 577T476 612T621 624Q620 741 571 782T422 824Q362 824 299 807T157 741L133 911Q205 955 294 981T478 1007Q597 1007 675 965T792 826T831 566V336Q831
264 837 224T866 166T933 149H957L931 -20H885Q811 -20 766 -4T692 41T645 112Q592 52 514 16T342 -20ZM406 144Q462 144 521 172T622 250V482Q510 477 430 456T306 391T262 281Q262 209 300 177T406 144ZM584 1182V1350H764V1182H584ZM192 1182V1350H372V1182H192Z"
/>
<glyph unicode="&#xe5;" horiz-adv-x="975" d="M342 -20Q256 -20 189 16T84 118T45 271Q45 355 83 414T184 514T322 577T476 612T621 624Q620 741 571 782T422 824Q362 824 299 807T157 741L133 911Q205 955 294 981T478 1007Q597 1007 675 965T792 826T831 566V336Q831
264 837 224T866 166T933 149H957L931 -20H885Q811 -20 766 -4T692 41T645 112Q592 52 514 16T342 -20ZM406 144Q462 144 521 172T622 250V482Q510 477 430 456T306 391T262 281Q262 209 300 177T406 144ZM478 1138Q378 1138 324 1197T270 1335Q270 1413 324 1473T478
1533Q579 1533 632 1473T686 1335Q686 1257 633 1198T478 1138ZM478 1232Q519 1232 549 1260T580 1335Q580 1380 550 1409T478 1438Q436 1438 406 1409T376 1335Q376 1288 407 1260T478 1232Z" />
<glyph unicode="&#xe6;" horiz-adv-x="1563" d="M370 -20Q273 -20 200 15T86 114T45 262Q45 368 101 436T247 543T443 598T651 614H1291Q1291 703 1243 765T1093 828Q979 828 912 748T844 519Q844 386 889 307T1008 194T1165 159Q1234 159 1304 177T1442 227L1461
56Q1404 25 1327 3T1146 -20Q975 -20 860 51T686 241T627 501V571Q627 692 585 758T422 824Q362 824 299 807T157 741L133 911Q205 955 294 981T478 1007Q611 1007 692 955T806 777L697 759Q751 869 855 938T1103 1007Q1233 1007 1323 951T1459 799T1505 584Q1505
558 1503 530T1494 471H647Q448 471 355 424T262 280Q262 209 308 177T424 144Q502 144 572 182T696 295L762 200Q701 105 595 43T370 -20Z" />
<glyph unicode="&#xe7;" horiz-adv-x="909" d="M575 -20Q407 -20 293 49T120 233T62 490Q62 635 119 752T292 939T587 1008Q667 1008 735 992T855 948L830 772Q779 797 719 812T595 828Q440 828 358 738T275 495Q275 346 356 252T592 158Q656 158 716 174T832
220L855 48Q810 20 735 0T575 -20ZM546 -158L474 -128Q498 -119 521 -114T572 -108Q656 -108 704 -152T752 -275Q752 -367 689 -415T534 -463Q482 -463 443 -452T375 -425L408 -319Q439 -334 470 -343T536 -353Q579 -353 605 -335T631 -281Q631 -245 606 -225T530
-205Q508 -205 486 -208T437 -220L490 0H595L546 -158Z" />
<glyph unicode="&#xe8;" horiz-adv-x="1027" d="M595 -20Q418 -20 299 51T120 241T59 501Q59 638 115 753T280 937T543 1007Q674 1007 770 954T917 806T969 584Q969 558 967 530T958 471H275Q288 354 337 286T459 188T617 159Q693 159 767 176T906 227L925 56Q868
29 785 5T595 -20ZM287 614H755Q755 673 733 721T664 799T541 828Q431 828 371 770T287 614ZM749 1147L367 1295V1506L749 1284V1147Z" />
<glyph unicode="&#xe9;" horiz-adv-x="1027" d="M595 -20Q418 -20 299 51T120 241T59 501Q59 638 115 753T280 937T543 1007Q674 1007 770 954T917 806T969 584Q969 558 967 530T958 471H275Q288 354 337 286T459 188T617 159Q693 159 767 176T906 227L925 56Q868
29 785 5T595 -20ZM287 614H755Q755 673 733 721T664 799T541 828Q431 828 371 770T287 614ZM369 1147V1284L751 1506V1295L369 1147Z" />
<glyph unicode="&#xea;" horiz-adv-x="1027" d="M595 -20Q418 -20 299 51T120 241T59 501Q59 638 115 753T280 937T543 1007Q674 1007 770 954T917 806T969 584Q969 558 967 530T958 471H275Q288 354 337 286T459 188T617 159Q693 159 767 176T906 227L925 56Q868
29 785 5T595 -20ZM287 614H755Q755 673 733 721T664 799T541 828Q431 828 371 770T287 614ZM301 1120V1257L559 1478L817 1257V1120L559 1282L301 1120Z" />
<glyph unicode="&#xeb;" horiz-adv-x="1027" d="M595 -20Q418 -20 299 51T120 241T59 501Q59 638 115 753T280 937T543 1007Q674 1007 770 954T917 806T969 584Q969 558 967 530T958 471H275Q288 354 337 286T459 188T617 159Q693 159 767 176T906 227L925 56Q868
29 785 5T595 -20ZM287 614H755Q755 673 733 721T664 799T541 828Q431 828 371 770T287 614ZM665 1182V1350H845V1182H665ZM273 1182V1350H453V1182H273Z" />
<glyph unicode="&#xec;" horiz-adv-x="448" d="M119 0V988H328V0H119ZM414 1147L32 1295V1506L414 1284V1147Z" />
<glyph unicode="&#xed;" horiz-adv-x="448" d="M119 0V988H328V0H119ZM34 1147V1284L416 1506V1295L34 1147Z" />
<glyph unicode="&#xee;" horiz-adv-x="448" d="M119 0V988H328V0H119ZM-34 1120V1257L224 1478L482 1257V1120L224 1282L-34 1120Z" />
<glyph unicode="&#xef;" horiz-adv-x="448" d="M119 0V988H328V0H119ZM330 1182V1350H510V1182H330ZM-62 1182V1350H118V1182H-62Z" />
<glyph unicode="&#xf0;" horiz-adv-x="1020" d="M492 -25Q358 -25 258 33T102 191T46 410Q46 524 97 625T245 789T473 852Q582 852 651 811T757 716L729 688Q722 829 671 951T521 1163T267 1292L302 1402Q456 1377 578 1296T784 1094T913 824T958 515Q958 375
920 273T816 105T667 7T492 -25ZM498 156Q610 156 675 231T740 415Q740 525 676 599T497 674Q418 674 364 638T281 543T252 416Q252 310 316 233T498 156ZM337 990L267 1106L783 1400L851 1284L337 990Z" />
<glyph unicode="&#xf1;" horiz-adv-x="1112" d="M119 0V988H298L323 801L259 851Q340 935 428 971T612 1007Q817 1007 910 882T1003 548V0H794V539Q794 688 741 758T562 828Q469 828 399 786T296 659L328 774V0H119ZM751 1150Q701 1150 654 1173T563 1219T477
1242Q409 1242 409 1166H251Q256 1278 299 1337T423 1397Q473 1397 520 1374T611 1328T697 1305Q765 1305 765 1381H923Q919 1269 876 1210T751 1150Z" />
<glyph unicode="&#xf2;" horiz-adv-x="1117" d="M558 -20Q401 -20 290 49T120 235T61 493Q61 635 119 752T289 938T558 1008Q716 1008 827 939T997 752T1056 493Q1056 352 998 236T828 50T558 -20ZM558 159Q696 159 769 249T843 493Q843 648 770 739T558 830Q422
830 348 739T274 493Q274 339 348 249T558 159ZM748 1147L366 1295V1506L748 1284V1147Z" />
<glyph unicode="&#xf3;" horiz-adv-x="1117" d="M558 -20Q401 -20 290 49T120 235T61 493Q61 635 119 752T289 938T558 1008Q716 1008 827 939T997 752T1056 493Q1056 352 998 236T828 50T558 -20ZM558 159Q696 159 769 249T843 493Q843 648 770 739T558 830Q422
830 348 739T274 493Q274 339 348 249T558 159ZM368 1147V1284L750 1506V1295L368 1147Z" />
<glyph unicode="&#xf4;" horiz-adv-x="1117" d="M558 -20Q401 -20 290 49T120 235T61 493Q61 635 119 752T289 938T558 1008Q716 1008 827 939T997 752T1056 493Q1056 352 998 236T828 50T558 -20ZM558 159Q696 159 769 249T843 493Q843 648 770 739T558 830Q422
830 348 739T274 493Q274 339 348 249T558 159ZM300 1120V1257L558 1478L816 1257V1120L558 1282L300 1120Z" />
<glyph unicode="&#xf5;" horiz-adv-x="1117" d="M558 -20Q401 -20 290 49T120 235T61 493Q61 635 119 752T289 938T558 1008Q716 1008 827 939T997 752T1056 493Q1056 352 998 236T828 50T558 -20ZM558 159Q696 159 769 249T843 493Q843 648 770 739T558 830Q422
830 348 739T274 493Q274 339 348 249T558 159ZM722 1158Q672 1158 625 1181T534 1227T448 1250Q380 1250 380 1174H222Q227 1286 270 1345T394 1405Q444 1405 491 1382T582 1336T668 1313Q736 1313 736 1389H894Q890 1277 847 1218T722 1158Z" />
<glyph unicode="&#xf6;" horiz-adv-x="1117" d="M558 -20Q401 -20 290 49T120 235T61 493Q61 635 119 752T289 938T558 1008Q716 1008 827 939T997 752T1056 493Q1056 352 998 236T828 50T558 -20ZM558 159Q696 159 769 249T843 493Q843 648 770 739T558 830Q422
830 348 739T274 493Q274 339 348 249T558 159ZM664 1182V1350H844V1182H664ZM272 1182V1350H452V1182H272Z" />
<glyph unicode="&#xf7;" horiz-adv-x="971" d="M87 475V642H884V475H87ZM375 105V327H596V105H375ZM375 790V1012H596V790H375Z" />
<glyph unicode="&#xf8;" horiz-adv-x="1117" d="M840 1060H1006L277 -80H111L840 1060ZM558 -20Q401 -20 290 49T120 235T61 493Q61 635 119 752T289 938T558 1008Q716 1008 827 939T997 752T1056 493Q1056 352 998 236T828 50T558 -20ZM558 159Q696 159 769 249T843
493Q843 648 770 739T558 830Q422 830 348 739T274 493Q274 339 348 249T558 159Z" />
<glyph unicode="&#xf9;" horiz-adv-x="1072" d="M498 -20Q365 -20 279 33T151 187T109 432V988H318V461Q318 312 368 236T534 160Q617 160 681 200T777 322L743 212V988H952V0H762L736 184L786 136Q743 64 670 22T498 -20ZM726 1147L344 1295V1506L726 1284V1147Z" />
<glyph unicode="&#xfa;" horiz-adv-x="1072" d="M498 -20Q365 -20 279 33T151 187T109 432V988H318V461Q318 312 368 236T534 160Q617 160 681 200T777 322L743 212V988H952V0H762L736 184L786 136Q743 64 670 22T498 -20ZM346 1147V1284L728 1506V1295L346 1147Z" />
<glyph unicode="&#xfb;" horiz-adv-x="1072" d="M498 -20Q365 -20 279 33T151 187T109 432V988H318V461Q318 312 368 236T534 160Q617 160 681 200T777 322L743 212V988H952V0H762L736 184L786 136Q743 64 670 22T498 -20ZM278 1120V1257L536 1478L794 1257V1120L536
1282L278 1120Z" />
<glyph unicode="&#xfc;" horiz-adv-x="1072" d="M498 -20Q365 -20 279 33T151 187T109 432V988H318V461Q318 312 368 236T534 160Q617 160 681 200T777 322L743 212V988H952V0H762L736 184L786 136Q743 64 670 22T498 -20ZM642 1182V1350H822V1182H642ZM250 1182V1350H430V1182H250Z"
/>
<glyph unicode="&#xfd;" horiz-adv-x="1037" d="M196 -484L420 53L9 988H241L526 296L795 988H1027L416 -484H196ZM329 1147V1284L711 1506V1295L329 1147Z" />
<glyph unicode="&#xfe;" horiz-adv-x="1163" d="M118 -483V1500H327V809L279 841Q352 924 437 965T638 1007Q786 1007 889 937T1047 749T1101 493Q1101 355 1048 238T892 51T638 -20Q514 -20 430 23T283 148L327 184V-483H118ZM607 149Q744 149 816 246T889 493Q889
643 817 735T607 828Q512 828 447 787T348 671T314 493Q314 391 348 314T447 193T607 149Z" />
<glyph unicode="&#xff;" horiz-adv-x="1037" d="M196 -484L420 53L9 988H241L526 296L795 988H1027L416 -484H196ZM625 1182V1350H805V1182H625ZM233 1182V1350H413V1182H233Z" />
<glyph unicode="&#x2013;" horiz-adv-x="1096" d="M0 533V711H1096V533H0Z" />
<glyph unicode="&#x2014;" horiz-adv-x="1457" d="M0 533V711H1457V533H0Z" />
<glyph unicode="&#x2018;" horiz-adv-x="423" d="M226 1400H341L263 1175H346V938H112V1153L226 1400Z" />
<glyph unicode="&#x2019;" horiz-adv-x="409" d="M197 938H82L160 1163H77V1400H311V1185L197 938Z" />
<glyph unicode="&#x201a;" horiz-adv-x="409" d="M453 -225H338L416 0H333V237H567V22L453 -225Z" />
<glyph unicode="&#x201c;" horiz-adv-x="768" d="M226 1411H341L263 1186H346V949H112V1164L226 1411ZM571 1411H686L608 1186H691V949H457V1164L571 1411Z" />
<glyph unicode="&#x201d;" horiz-adv-x="755" d="M197 938H82L160 1163H77V1400H311V1185L197 938ZM542 938H427L505 1163H422V1400H656V1185L542 938Z" />
<glyph unicode="&#x201e;" horiz-adv-x="755" d="M453 -225H338L416 0H333V237H567V22L453 -225ZM542 -225H427L505 0H422V237H656V22L542 -225Z" />
<glyph unicode="&#x2022;" horiz-adv-x="605" d="M303 338Q213 338 149 402T85 556Q85 646 149 710T303 774Q393 774 457 710T521 556Q521 466 457 402T303 338Z" />
<glyph unicode="&#x2039;" horiz-adv-x="665" d="M338 156L25 568L338 980H588L276 568L588 156H338Z" />
<glyph unicode="&#x203a;" horiz-adv-x="666" d="M79 156L391 568L79 980H329L641 568L329 156H79Z" />
</font>
</defs>
</svg>
