<?xml version="1.0" standalone="no"?>
<!DOCTYPE svg PUBLIC "-//W3C//DTD SVG 1.1//EN" "http://www.w3.org/Graphics/SVG/1.1/DTD/svg11.dtd">
<svg xmlns="http://www.w3.org/2000/svg">
<defs >
<font id="BlackHanSans" horiz-adv-x="827" ><font-face
    font-family="Black Han Sans"
    units-per-em="1000"
    panose-1="0 0 0 0 0 0 0 0 0 0"
    ascent="790"
    descent="-210"
    alphabetic="0" />
<glyph unicode=" " glyph-name="space" horiz-adv-x="300" />
<glyph unicode="!" glyph-name="exclam" horiz-adv-x="308" d="M65 400L60 750H248L243 400L233 228H75L65 400ZM154 178Q194 178 220 152T247 84Q247 42 221 16T154 -10Q114 -10 87 17T60 84Q60 126 87 152T154 178Z" />
<glyph unicode="&quot;" glyph-name="quotedbl" horiz-adv-x="370" d="M40 572H160L180 760H60L40 572ZM190 572H310L330 760H210L190 572Z" />
<glyph unicode="#" glyph-name="numbersign" horiz-adv-x="754" d="M694 590H594L605 720H457L446 590H346L357 720H209L198 590H98L86 450H186L172 300H72L60 160H160L149 30H297L308 160H408L397 30H545L556 160H656L668 300H568L582 450H682L694 590ZM320 300L334
450H434L420 300H320Z" />
<glyph unicode="$" glyph-name="dollar" horiz-adv-x="551" d="M222 635L225 718H352L349 638Q389 636 424 632T489 622L460 467H310Q275 467 264 456T251 414L314 407Q371 401 410 386T472 348T506 295T516 229Q516 175 507 134T475 65T416 21T324 1L321 -100H192L196
1Q101 9 35 25L64 184Q145 162 238 162Q257 162 274 163T309 166V208L247 215Q187 221 149 238T90 281T60 342T52 418Q52 472 63 510T96 575T150 615T222 635Z" />
<glyph unicode="%" glyph-name="percent" horiz-adv-x="862" d="M472 170Q472 264 515 309T657 355Q756 355 799 310T842 170Q842 76 799 31T657 -15Q561 -15 517 29T472 170ZM630 209V102H652Q673 102 678 106T684 131V238H662Q641 238 636 234T630 209ZM20 455Q20
549 63 594T205 640Q304 640 347 595T390 455Q390 361 347 316T205 270Q109 270 65 314T20 455ZM178 494V387H200Q221 387 226 391T232 416V523H210Q189 523 184 519T178 494ZM594 625H659L314 25Q304 8 297 4T265 0H200L545 600Q555 617 562 621T594 625Z" />
<glyph unicode="&amp;" glyph-name="ampersand" horiz-adv-x="795" d="M322 759Q336 759 349 758T376 755V592Q356 597 344 597Q311 597 288 579T265 528Q265 504 282 482T335 459H467L525 589H675V459H762V304H675V0H327Q262 0 208 11T114 49T53 116T31 215Q31
350 165 390Q111 407 82 450T53 552Q53 606 77 645T141 709T227 747T322 759ZM459 304H335Q312 304 296 297T268 280T252 256T247 229Q247 191 274 171T340 150H459V304Z" />
<glyph unicode="&apos;" glyph-name="quotesingle" horiz-adv-x="260" d="M40 572H200L220 760H60L40 572Z" />
<glyph unicode="(" glyph-name="parenleft" horiz-adv-x="423" d="M288 226Q288 150 363 150V0Q293 0 243 12T162 55T115 135T100 261V489Q100 560 113 609T156 690T237 735T363 750V600Q288 600 288 523V226Z" />
<glyph unicode=")" glyph-name="parenright" horiz-adv-x="423" d="M60 150Q135 150 135 226V523Q135 600 60 600V750Q130 750 180 738T261 695T308 615T323 489V261Q323 191 310 141T267 60T186 15T60 0V150Z" />
<glyph unicode="*" glyph-name="asterisk" horiz-adv-x="518" d="M327 676L430 713L478 576L370 548L444 455L329 372L259 470L191 373L72 453L147 548L40 576L84 713L192 676L183 790H336L327 676Z" />
<glyph unicode="+" glyph-name="plus" horiz-adv-x="480" d="M315 450V555H165V450H60V300H165V195H315V300H420V450H315Z" />
<glyph unicode="," glyph-name="comma" horiz-adv-x="270" d="M40 -40H190L230 158H70L40 -40Z" />
<glyph unicode="-" glyph-name="hyphen" horiz-adv-x="480" d="M60 300H420V450H60V300Z" />
<glyph unicode="." glyph-name="period" horiz-adv-x="267" d="M134 178Q174 178 200 152T227 84Q227 42 201 16T134 -10Q94 -10 67 17T40 84Q40 126 67 152T134 178Z" />
<glyph unicode="/" glyph-name="slash" horiz-adv-x="508" d="M60 0H248L448 750H260L60 0Z" />
<glyph unicode="0" glyph-name="zero" horiz-adv-x="600" d="M33 313Q33 390 42 450T81 553T162 617T301 640Q388 640 440 618T521 553T559 450T568 312Q568 236 559 175T521 72T440 8T301 -15Q215 -15 163 7T81 72T43 176T33 313ZM239 426V146H281Q326 146 344
155T362 199V479H315Q271 479 255 470T239 426Z" />
<glyph unicode="1" glyph-name="one" horiz-adv-x="600" d="M566 160H454V625H296L66 573V413L244 425V160H66V0H566V160Z" />
<glyph unicode="2" glyph-name="two" horiz-adv-x="600" d="M75 453L49 602Q177 640 300 640Q358 640 405 634T487 607T539 547T558 442Q558 393 546 359T502 296T413 243T266 188V160H548V0H35V125Q35 153 38 176T51 221T77 261T119 302Q133 314 151 325T191
346T235 367T278 386Q298 395 314 402T343 416V470Q320 472 300 473T260 475Q166 475 75 453Z" />
<glyph unicode="3" glyph-name="three" horiz-adv-x="600" d="M177 385L349 405V470Q334 472 310 473T252 475Q186 475 85 454L59 602Q182 640 295 640Q341 640 386 637T468 619T526 571T548 481Q548 381 465 337V332Q564 292 564 183Q564 113 539 74T471 14T376
-10T269 -15Q160 -15 47 11L75 176Q172 153 236 153Q303 153 349 159V223L177 240V385Z" />
<glyph unicode="4" glyph-name="four" horiz-adv-x="600" d="M524 0V100H589V272H524V625H170L16 225V100H324V0H524ZM324 475V272H225L314 475H324Z" />
<glyph unicode="5" glyph-name="five" horiz-adv-x="600" d="M42 11L70 176Q167 153 237 153Q308 153 354 159V209L279 217Q217 223 176 233T111 259T76 301T66 365Q66 370 68 435T76 625H531L516 453L279 467V416L338 409Q404 401 448 385T519 345T557 287T569
209Q569 146 552 103T512 37Q492 19 464 9T405 -7T341 -14T283 -15Q155 -15 42 11Z" />
<glyph unicode="6" glyph-name="six" horiz-adv-x="600" d="M565 200Q565 133 546 92T491 26T407 -6T300 -15Q225 -15 174 4T92 63T48 165T35 312Q35 399 50 461T101 563T197 621T349 640Q368 640 395 638T449 632T502 624T542 614L512 461Q471 468 433 471T358
475Q285 475 250 466V415H300Q358 415 407 407T491 374T545 309T565 200ZM350 178V257H309Q276 257 263 250T250 215V136H291Q324 136 337 143T350 178Z" />
<glyph unicode="7" glyph-name="seven" horiz-adv-x="600" d="M554 625H59L74 448L314 451L135 0H361L554 500V625Z" />
<glyph unicode="8" glyph-name="eight" horiz-adv-x="600" d="M180 625Q233 640 300 640Q346 640 389 632T467 602T523 547T544 459Q544 364 477 315V308Q515 290 540 252T565 171Q565 -15 300 -15Q35 -15 35 171Q35 214 60 252T123 308V315Q56 361 56 459Q56
525 92 567T180 625ZM350 178V201L281 234Q268 240 261 240Q250 240 250 223V136H291Q324 136 337 143T350 178ZM250 442V423L315 389Q322 385 330 385Q350 385 350 403V484H309Q276 484 263 477T250 442Z" />
<glyph unicode="9" glyph-name="nine" horiz-adv-x="600" d="M349 159V217L299 218Q219 220 168 233T87 272T46 336T34 425Q34 492 53 534T108 599T192 631T299 640Q374 640 425 621T507 562T551 461T564 313Q564 227 551 165T507 63T428 4T307 -15Q166 -15 53
11L81 176Q178 153 239 153Q303 153 349 159ZM249 447V376H290Q323 376 336 383T349 418V489H308Q275 489 262 482T249 447Z" />
<glyph unicode=":" glyph-name="colon" horiz-adv-x="307" d="M154 288Q194 288 220 262T247 194Q247 152 221 126T154 100Q114 100 87 127T60 194Q60 236 87 262T154 288ZM154 660Q194 660 220 634T247 566Q247 524 221 498T154 472Q114 472 87 499T60 566Q60
608 87 634T154 660Z" />
<glyph unicode=";" glyph-name="semicolon" horiz-adv-x="310" d="M60 90L90 288H250L210 90H60ZM154 660Q194 660 220 634T247 566Q247 524 221 498T154 472Q114 472 87 499T60 566Q60 608 87 634T154 660Z" />
<glyph unicode="&lt;" glyph-name="less" horiz-adv-x="444" d="M255 375L424 0H229L60 375L229 750H424L255 375Z" />
<glyph unicode="=" glyph-name="equal" horiz-adv-x="480" d="M60 390H420V530H60V390ZM60 220H420V360H60V220Z" />
<glyph unicode="&gt;" glyph-name="greater" horiz-adv-x="444" d="M215 750L384 375L215 0H20L189 375L20 750H215Z" />
<glyph unicode="?" glyph-name="question" horiz-adv-x="421" d="M190 178Q230 178 256 152T283 84Q283 42 257 16T190 -10Q150 -10 123 17T96 84Q96 126 123 152T190 178ZM401 573Q401 537 397 508T383 453T358 402T321 347Q294 311 281 286T268 225H108Q108
259 112 285T125 335T147 379T176 423Q191 444 201 461T218 494T228 529T231 569V570Q231 590 210 590Q190 590 190 570V516L30 506L20 573Q20 657 70 703T210 750Q301 750 351 704T401 573Z" />
<glyph unicode="@" glyph-name="at" horiz-adv-x="816" d="M408 268Q432 268 432 300V443Q432 475 408 475Q386 475 386 443V300Q386 268 408 268ZM60 418Q60 498 83 561T151 669T261 736T408 760Q488 760 552 738T661 673T731 566T756 418V310Q756 232 714 189T595
145Q566 145 541 152T501 173Q487 160 462 153T408 145Q330 145 287 188T243 310V433Q243 511 286 554T408 598Q486 598 529 555T573 433V300Q573 268 595 268Q619 268 619 300V427Q619 529 563 584T403 640Q306 640 253 585T200 427V318Q200 216 254 161T405 105Q473
105 516 127L640 62Q605 26 546 6T408 -15Q326 -15 262 7T152 72T84 177T60 317V418Z" />
<glyph unicode="A" glyph-name="A" horiz-adv-x="731" d="M266 119H464L492 0H745L551 750H180L-14 0H239L266 119ZM372 520L420 310H310L359 520H372Z" />
<glyph unicode="B" glyph-name="B" horiz-adv-x="710" d="M491 0H60V750H449Q557 750 603 708T649 586Q649 505 620 462T541 404V397Q686 372 686 199Q686 109 639 55T491 0ZM394 299H300V176H392Q443 176 443 238Q443 299 394 299ZM376 586H300V474H374Q420 474
420 530Q420 586 376 586Z" />
<glyph unicode="C" glyph-name="C" horiz-adv-x="600" d="M558 215L576 13Q499 -18 386 -18Q279 -18 209 5T98 77T41 199T24 374Q24 472 39 545T95 668T203 743T377 768Q400 768 428 766T484 759T536 750T576 737L540 553Q460 570 397 570Q332 570 307 558T282
510V196Q305 191 328 189T377 186Q477 186 558 215Z" />
<glyph unicode="D" glyph-name="D" horiz-adv-x="774" d="M396 0H60V750H396Q497 750 565 730T674 664T732 548T750 376Q750 275 733 204T674 87T565 21T396 0ZM400 558H300V192H400Q450 192 471 203T493 256V494Q493 535 472 546T400 558Z" />
<glyph unicode="E" glyph-name="E" horiz-adv-x="636" d="M540 457H300V558H558L588 750H60V0H594V192H300V283H540V457Z" />
<glyph unicode="F" glyph-name="F" horiz-adv-x="564" d="M504 457H300V558H522L552 750H60V0H300V278H504V457Z" />
<glyph unicode="G" glyph-name="G" horiz-adv-x="720" d="M444 221V253H383V437H672V36Q530 -18 377 -18Q272 -18 204 7T95 81T40 204T24 376Q24 480 43 554T106 676T223 746T404 768Q428 768 460 766T526 759T588 749T636 737L600 553Q551 561 507 565T425 570Q346
570 314 558Q282 546 282 510V170H361Q405 170 424 179T444 221Z" />
<glyph unicode="H" glyph-name="H" horiz-adv-x="780" d="M720 0V750H480V485H300V750H60V0H300V265H480V0H720Z" />
<glyph unicode="I" glyph-name="I" horiz-adv-x="360" d="M300 0V750H60V0H300Z" />
<glyph unicode="J" glyph-name="J" horiz-adv-x="439" d="M211 0H24L0 192H100Q135 192 148 203Q157 212 157 228V558H58V750H397V198Q397 100 350 50T211 0Z" />
<glyph unicode="K" glyph-name="K" horiz-adv-x="712" d="M305 326H300V0H60V750H300V444H305Q306 462 309 476T317 502L434 750H694L514 382L700 0H440L317 269Q312 280 309 294T305 326Z" />
<glyph unicode="L" glyph-name="L" horiz-adv-x="546" d="M540 192H300V750H60V0H540V192Z" />
<glyph unicode="M" glyph-name="M" horiz-adv-x="973" d="M295 364H302L395 0H578L670 364H678L692 0H943L898 750H584L491 368H482L389 750H76L30 0H281L295 364Z" />
<glyph unicode="N" glyph-name="N" horiz-adv-x="786" d="M726 0H500L317 266Q312 273 309 287T305 324H300V0H60V750H286L469 484Q474 477 477 463T481 426H486V750H726V0Z" />
<glyph unicode="O" glyph-name="O" horiz-adv-x="756" d="M24 374Q24 477 41 551T100 674T210 745T378 768Q479 768 546 745T655 674T714 552T732 374Q732 276 716 203T660 80T551 7T378 -18Q274 -18 206 6T97 80T40 202T24 374ZM282 499V187H382Q432 187 453
198T475 251V563H374Q326 563 304 552T282 499Z" />
<glyph unicode="P" glyph-name="P" horiz-adv-x="708" d="M456 181H300V0H60V750H438Q696 750 696 473Q696 412 684 359T644 267T570 204T456 181ZM355 558H300V373H355Q399 373 418 382T438 424V508Q438 540 419 549T355 558Z" />
<glyph unicode="Q" glyph-name="Q" horiz-adv-x="756" d="M462 -18V28L360 0Q262 0 198 24T95 96T40 213T24 374Q24 477 42 551T101 674T210 745T377 768Q476 768 544 745T654 674T714 551T732 374Q732 297 716 237T668 128L755 78L692 -60L462 -18ZM282 499V187H382Q432
187 453 198T475 251V563H374Q326 563 304 552T282 499Z" />
<glyph unicode="R" glyph-name="R" horiz-adv-x="738" d="M584 250L714 0H450L352 223H300V0H60V750H438Q696 750 696 487Q696 307 584 250ZM355 558H300V408H355Q399 408 418 417T438 458V508Q438 540 419 549T355 558Z" />
<glyph unicode="S" glyph-name="S" horiz-adv-x="692" d="M30 13L64 211Q174 184 263 184Q308 184 342 185T404 191V251L296 260Q223 267 174 284T96 330T54 401T41 499Q41 576 57 627T108 710T198 755T334 768Q493 768 622 738L592 546Q480 564 413 564Q346 564
299 558V499L385 491Q464 483 517 465T602 416T648 345T662 251Q662 175 642 123T594 44Q571 22 537 10T465 -9T389 -16T319 -18Q241 -18 169 -10T30 13Z" />
<glyph unicode="T" glyph-name="T" horiz-adv-x="600" d="M594 750H6V558H180V0H420V558H594V750Z" />
<glyph unicode="U" glyph-name="U" horiz-adv-x="728" d="M42 750H282V187H367Q413 187 429 199T446 251V750H686V329Q686 233 674 167T626 60T527 0T364 -18Q264 -18 201 0T103 59T55 166T42 329V750Z" />
<glyph unicode="V" glyph-name="V" horiz-adv-x="722" d="M366 274H355L253 750H0L186 0H536L722 750H469L366 274Z" />
<glyph unicode="W" glyph-name="W" horiz-adv-x="985" d="M677 331H670L584 750H401L314 331H307L251 750H0L118 0H431L485 276H499L554 0H868L985 750H734L677 331Z" />
<glyph unicode="X" glyph-name="X" horiz-adv-x="710" d="M0 750L163 380L0 0H254L343 216H354L444 0H710L544 388L710 750H450L367 550H355L272 750H0Z" />
<glyph unicode="Y" glyph-name="Y" horiz-adv-x="672" d="M0 750L216 204V0H456V204L672 750H407L340 486H331L265 750H0Z" />
<glyph unicode="Z" glyph-name="Z" horiz-adv-x="707" d="M677 192H372L368 199L672 600V750H60L82 558H334L337 551L30 150V0H677V192Z" />
<glyph unicode="[" glyph-name="bracketleft" horiz-adv-x="429" d="M369 600H287V150H369V0H100V750H369V600Z" />
<glyph unicode="\" glyph-name="backslash" horiz-adv-x="508" d="M60 750L260 0H448L248 750H60Z" />
<glyph unicode="]" glyph-name="bracketright" horiz-adv-x="429" d="M329 750V0H60V150H142V600H60V750H329Z" />
<glyph unicode="^" glyph-name="asciicircum" horiz-adv-x="493" d="M453 480H292L246 572L201 480H40L171 760H322L453 480Z" />
<glyph unicode="_" glyph-name="underscore" horiz-adv-x="480" d="M60 0H420V150H60V0Z" />
<glyph unicode="a" glyph-name="a" horiz-adv-x="680" d="M344 618Q632 618 632 420V0H512L444 68Q426 48 402 32T349 5T292 -12T236 -18Q185 -18 145 -8T76 26T33 87T18 180Q18 396 344 396H392V439Q373 440 358 441T329 442Q194 442 96 409L67 581Q187 618 344
618ZM260 206V157H310Q362 157 378 169Q392 182 392 200V257H343Q300 257 280 248T260 206Z" />
<glyph unicode="b" glyph-name="b" horiz-adv-x="714" d="M60 30V780L300 798V599Q344 618 420 618Q492 618 541 592T620 523T664 421T678 300Q678 131 600 57T364 -18Q206 -18 60 30ZM300 398V157H337Q381 157 400 166T420 208V443H383Q357 443 341 441T313 428Q301
418 300 398Z" />
<glyph unicode="c" glyph-name="c" horiz-adv-x="551" d="M500 180L515 7Q453 -18 354 -18Q186 -18 111 60T36 300Q36 461 111 539T354 618Q461 618 515 593L486 430Q454 436 429 439T385 443Q294 443 294 379V164Q311 161 333 159T384 157Q440 157 500 180Z" />
<glyph unicode="d" glyph-name="d" horiz-adv-x="714" d="M654 798V0H534L482 50Q431 -18 294 -18Q222 -18 173 8T94 77T50 179T36 300Q36 360 48 414T88 510T162 575T276 600H414V780L654 798ZM294 392V157H331Q372 157 391 164T414 200V443H377Q333 443 314
434T294 392Z" />
<glyph unicode="e" glyph-name="e" horiz-adv-x="678" d="M294 204V162Q312 160 330 159T366 158Q478 158 592 194L620 18Q485 -18 354 -18Q186 -18 111 60T36 300Q36 461 111 539T354 618Q438 618 494 608T584 573T633 507T648 402Q648 350 631 313T572 251T463
216T294 204ZM294 392V343H343Q387 343 406 352T426 394V443H377Q333 443 314 434T294 392Z" />
<glyph unicode="f" glyph-name="f" horiz-adv-x="430" d="M434 641L336 650V600H408V444H336V0H96V444H36V600H96L104 672Q121 810 316 810Q367 810 448 798L434 641Z" />
<glyph unicode="g" glyph-name="g" horiz-adv-x="643" d="M28 -162L59 17Q162 -18 298 -18Q318 -18 332 -18T355 -16V26Q301 26 267 28T216 36Q182 45 173 54Q162 63 160 68T158 85L194 188Q108 204 63 253T18 408Q18 512 89 565T319 618Q348 618 373 617T421
611L526 691L652 570L583 490Q599 449 599 382Q599 335 588 300T552 241T485 204T383 185L378 156Q443 152 488 144T561 117T601 71T614 0Q614 -72 585 -112T510 -171T405 -194T287 -198Q168 -198 28 -162ZM244 408V330H281Q324 330 344 339T364 380V458H326Q283
458 264 449T244 408Z" />
<glyph unicode="h" glyph-name="h" horiz-adv-x="714" d="M300 370V0H60V780L300 798V578Q377 618 470 618Q564 618 612 582T660 480V0H420V420H383Q339 420 320 411T300 370Z" />
<glyph unicode="i" glyph-name="i" horiz-adv-x="360" d="M300 0H60V570L300 600V0ZM47 713Q47 740 53 758T74 788T115 805T181 810Q221 810 246 805T287 789T308 759T314 713Q314 686 308 668T287 639T247 623T181 618Q152 618 128 620T85 631T57 660T47 713Z" />
<glyph unicode="j" glyph-name="j" horiz-adv-x="360" d="M114 -198H-60V-42L2 -30Q40 -22 50 -10T60 18V570L300 600V0Q300 -98 253 -148T114 -198ZM47 713Q47 740 53 758T74 788T115 805T181 810Q221 810 246 805T287 789T308 759T314 713Q314 686 308 668T287
639T247 623T181 618Q152 618 128 620T85 631T57 660T47 713Z" />
<glyph unicode="k" glyph-name="k" horiz-adv-x="672" d="M660 0L515 314L654 600H395L308 402H300V798L60 780V0H300V238H308L401 0H660Z" />
<glyph unicode="l" glyph-name="l" horiz-adv-x="371" d="M60 780L300 798V172Q319 168 334 166T359 163L348 -13Q195 -13 145 5Q103 20 82 44T60 113V780Z" />
<glyph unicode="m" glyph-name="m" horiz-adv-x="1025" d="M396 0V420H379Q363 420 349 419T323 413T306 396T300 365V0H60V600H180L234 545Q307 618 426 618Q544 618 598 569Q673 618 768 618Q865 618 918 582T972 480V0H732V420H715Q701 420 687 419T663 414T645
399T636 372V0H396Z" />
<glyph unicode="n" glyph-name="n" horiz-adv-x="714" d="M60 600H180L240 540Q351 618 480 618Q565 618 612 582T660 480V0H420V420H383Q342 420 321 412T300 374V0H60V600Z" />
<glyph unicode="o" glyph-name="o" horiz-adv-x="708" d="M36 300Q36 461 111 539T354 618Q522 618 597 540T672 300Q672 139 597 61T354 -18Q190 -18 113 59T36 300ZM294 392V157H331Q375 157 394 166T414 208V443H377Q333 443 314 434T294 392Z" />
<glyph unicode="p" glyph-name="p" horiz-adv-x="714" d="M60 -198V600H180L224 540Q277 618 420 618Q492 618 541 592T620 523T664 421T678 300Q678 239 666 185T626 90T552 24T438 0H300V-180L60 -198ZM300 398V157H337Q381 157 400 166T420 208V443H383Q357
443 341 441T313 428Q301 418 300 398Z" />
<glyph unicode="q" glyph-name="q" horiz-adv-x="714" d="M500 566L534 600H654V-181L414 -198V0Q368 -18 294 -18Q220 -18 170 9T91 82T49 188T36 312Q36 379 52 435T103 531T191 595T318 618Q424 618 500 566ZM294 392V157H331Q375 157 394 166T414 208V443H377Q333
443 314 434T294 392Z" />
<glyph unicode="r" glyph-name="r" horiz-adv-x="450" d="M60 0V600H180L246 533Q318 599 424 618L438 391Q424 391 404 387T364 377T326 363T300 343V0H60Z" />
<glyph unicode="s" glyph-name="s" horiz-adv-x="631" d="M118 576Q195 618 329 618Q464 618 576 581L548 418Q501 432 455 438T361 444Q347 444 327 443T280 439V401Q335 401 393 396T498 370T576 309T607 198Q607 149 596 111T562 49Q538 26 513 12T446 -8Q414
-13 378 -15T299 -18Q152 -18 30 17L60 187Q111 172 165 164T278 156Q305 156 329 157T377 161V199Q281 199 217 211T113 250T57 318T40 418Q40 534 118 576Z" />
<glyph unicode="t" glyph-name="t" horiz-adv-x="437" d="M84 445H24V600H84V696L324 756V600H407V445H324V172Q339 169 357 167T395 163L384 -13Q220 -13 170 5Q128 20 106 43T84 113V445Z" />
<glyph unicode="u" glyph-name="u" horiz-adv-x="708" d="M48 600H288V157H325Q369 157 388 166T408 208V600H648V0H528L458 68Q386 -18 253 -18Q146 -18 97 27T48 180V600Z" />
<glyph unicode="v" glyph-name="v" horiz-adv-x="624" d="M474 0L624 600H384L318 210H306L240 600H0L150 0H474Z" />
<glyph unicode="w" glyph-name="w" horiz-adv-x="960" d="M420 0L472 258H481L528 0H823L943 600H708L650 244H637L570 600H390L314 244H301L252 600H17L137 0H420Z" />
<glyph unicode="x" glyph-name="x" horiz-adv-x="648" d="M6 600L156 310L0 0H250L318 162H324L398 0H648L492 293L642 600H392L330 451H323L256 600H6Z" />
<glyph unicode="y" glyph-name="y" horiz-adv-x="624" d="M260 62H134L0 600H240L306 210H318L384 600H624L474 0Q458 -59 438 -97T390 -157T328 -189T245 -198H12V-42L125 -20Q212 0 238 23Q245 29 251 37T262 55L260 62Z" />
<glyph unicode="z" glyph-name="z" horiz-adv-x="636" d="M30 0H606V180H371L367 187L599 480V600H54L72 420H262L265 413L30 120V0Z" />
<glyph unicode="{" glyph-name="braceleft" horiz-adv-x="455" d="M135 468V501Q135 570 149 617T193 694T273 737T395 750V600Q321 600 321 524V417L279 375L321 333V225Q321 149 395 149V0Q328 0 279 11T198 51T151 128T135 249V282H60V468H135Z" />
<glyph unicode="|" glyph-name="bar" horiz-adv-x="388" d="M100 -30H288V780H100V-30Z" />
<glyph unicode="}" glyph-name="braceright" horiz-adv-x="455" d="M320 468H395V282H320V249Q320 180 306 133T262 56T182 13T60 0V149Q134 149 134 225V333L176 375L134 417V524Q134 600 60 600V750Q127 750 176 739T257 699T304 623T320 501V468Z" />
<glyph unicode="~" glyph-name="asciitilde" horiz-adv-x="600" d="M481 420L588 330Q556 272 509 238T411 203Q359 203 297 236Q235 268 213 268Q191 268 169 252T118 202L12 293Q33 322 53 345T94 386T138 413T190 423Q228 423 292 389Q356 354 385 354Q433
354 481 420Z" />
<glyph unicode="&#xd7;" glyph-name="multiply" horiz-adv-x="600" d="M299 210L434 75L536 177L401 312L536 447L434 549L299 414L164 549L62 447L197 312L62 177L164 75L299 210Z" />
<glyph unicode="&#xf7;" glyph-name="divide" horiz-adv-x="600" d="M377 167V77Q377 48 338 48H258Q219 48 219 77V167Q219 195 258 195H338Q377 195 377 167ZM377 547V457Q377 428 338 428H258Q219 428 219 457V547Q219 575 258 575H338Q377 575 377 547ZM527
240H72V384H527V240Z" />
<glyph unicode="&#x2018;" glyph-name="quoteleft" horiz-adv-x="273" d="M92 750L42 563V402H233V585H149L186 750H92Z" />
<glyph unicode="&#x2019;" glyph-name="quoteright" horiz-adv-x="266" d="M37 750V567H121L84 402H178L228 589V750H37Z" />
<glyph unicode="&#x201c;" glyph-name="quotedblleft" horiz-adv-x="514" d="M38 750V589L88 402H182L145 567H229V750H38ZM286 750V589L336 402H430L393 567H477V750H286Z" />
<glyph unicode="&#x201d;" glyph-name="quotedblright" horiz-adv-x="514" d="M37 750V567H121L84 402H178L228 589V750H37ZM285 750V567H369L332 402H426L476 589V750H285Z" />
</font>
</defs>
</svg>
