<?xml version="1.0" standalone="no"?>
<!DOCTYPE svg PUBLIC "-//W3C//DTD SVG 1.1//EN" "http://www.w3.org/Graphics/SVG/1.1/DTD/svg11.dtd">
<svg xmlns="http://www.w3.org/2000/svg">
<defs >
<font id="Bitter" horiz-adv-x="568" ><font-face
    font-family="Bitter Thin"
    units-per-em="1000"
    panose-1="0 0 0 0 0 0 0 0 0 0"
    ascent="935"
    descent="-265"
    alphabetic="0" />
<glyph unicode=" " horiz-adv-x="193" />
<glyph unicode="!" horiz-adv-x="321" d="M124 222L187 698H270L182 227L124 222ZM120 -5Q98 -5 86 8T74 42Q74 68 91 83T132 99Q152 99 165 87T178 52Q178 26 161 11T120 -5Z" />
<glyph unicode="&quot;" horiz-adv-x="372" d="M127 528L151 768H226L175 528H127ZM281 528L305 768H380L329 528H281Z" />
<glyph unicode="#" horiz-adv-x="629" d="M103 515H607L599 463H94L103 515ZM23 247H527L520 195H15L23 247ZM262 698H327L122 0H57L262 698ZM496 698H562L356 0H291L496 698Z" />
<glyph unicode="$" horiz-adv-x="604" d="M238 0Q191 0 142 10T48 42L77 206H125L122 79L114 95Q146 79 180 72T249 64Q300 64 342 80T409 128T434 205Q434 240 418 262T374 297T315 320T250 341T190 370T147 417T130 493Q130 559 164 605T256 674T383 698Q429
698 476 688T567 656L536 501H489L494 621L505 609Q476 623 444 629T381 636Q334 636 295 621T233 578T209 507Q209 473 225 453T269 421T328 399T393 378T453 348T497 299T514 221Q514 148 476 99T375 25T238 0ZM210 -138L234 20H291L266 -138H210ZM338 677L362
827H419L395 678L338 677Z" />
<glyph unicode="%" horiz-adv-x="814" d="M104 -9L668 707H736L173 -9H104ZM229 350Q163 350 131 387T99 492Q99 552 122 600T188 678T293 707Q358 707 390 672T422 569Q422 511 399 461T333 381T229 350ZM235 398Q278 398 306 422T349 487T364 570Q364 616 347
637T289 659Q245 659 216 635T172 573T157 492Q157 445 175 422T235 398ZM549 -9Q484 -9 452 28T419 133Q419 193 442 241T508 319T613 348Q679 348 711 313T743 210Q743 152 720 102T654 22T549 -9ZM555 39Q598 39 627 63T670 128T684 211Q684 257 667 278T609
300Q565 300 536 276T492 214T478 133Q478 86 496 63T555 39Z" />
<glyph unicode="&amp;" horiz-adv-x="687" d="M280 -9Q187 -9 133 35T78 164Q78 223 104 269T178 343T287 377L288 368Q216 378 182 417T148 513Q148 573 181 616T272 683T408 707Q456 707 502 698T591 671L562 527H511L514 636L528 623Q465 644 403 644Q322 644
276 609T229 511Q229 455 266 428T374 401H656L648 356L560 338L573 354L551 213Q540 139 502 90T406 16T280 -9ZM297 56Q365 56 412 93T473 211L495 353L509 341H351Q296 341 253 321T186 263T162 177Q162 117 199 87T297 56Z" />
<glyph unicode="&apos;" horiz-adv-x="218" d="M127 528L151 768H226L175 528H127Z" />
<glyph unicode="(" horiz-adv-x="294" d="M345 834Q274 753 221 658T139 459T110 250Q110 164 131 77T197 -90L144 -119Q90 -34 64 63T37 259Q37 373 69 482T161 689T298 870L345 834Z" />
<glyph unicode=")" horiz-adv-x="294" d="M-16 -88Q56 -6 108 89T190 288T219 496Q219 583 198 670T132 837L184 866Q239 780 265 683T292 487Q292 374 259 265T168 57T30 -124L-16 -88Z" />
<glyph unicode="*" horiz-adv-x="446" d="M307 454L251 569L261 596L286 592L352 487L307 454ZM163 453L124 485L223 594L249 596L251 569L163 453ZM224 594L103 623L127 676L241 632L248 607L224 594ZM259 614L243 632L254 760L306 761L282 632L259 614ZM287
592L268 608L281 632L404 677L413 625L287 592Z" />
<glyph unicode="+" horiz-adv-x="550" d="M279 379L261 363L296 588H356L322 363L308 379H517L508 320H298L316 336L281 111H221L256 336L268 320H59L68 379H279Z" />
<glyph unicode="," horiz-adv-x="210" d="M19 41Q19 60 27 73T48 93T74 99Q93 99 106 87T120 50Q120 26 105 -6T62 -73T-7 -148L-35 -123Q-8 -89 6 -68T26 -32T31 -11Q31 -2 28 4T22 20T19 41Z" />
<glyph unicode="-" horiz-adv-x="408" d="M351 325L342 262H67L77 325H351Z" />
<glyph unicode="." horiz-adv-x="213" d="M66 -5Q44 -5 32 8T20 42Q20 68 37 83T78 99Q98 99 111 87T125 52Q125 26 108 11T66 -5Z" />
<glyph unicode="/" horiz-adv-x="295" d="M381 802L2 -79H-55L323 802H381Z" />
<glyph unicode="0" horiz-adv-x="630" d="M266 -9Q204 -9 161 16T95 97T73 242Q73 299 82 363T114 488T173 598T264 677T394 707Q486 707 535 653T584 466Q584 409 575 344T543 217T484 103T394 22T266 -9ZM275 56Q327 56 365 84T430 160T473 264T496 376T504
476Q504 540 490 576T449 627T385 642Q331 642 292 615T226 543T183 444T160 336T153 236Q153 137 185 97T275 56Z" />
<glyph unicode="1" horiz-adv-x="399" d="M236 44L223 66L347 45L341 0H14L21 45L177 69L157 44L250 629L272 626L88 526L69 577L275 701H340L236 44Z" />
<glyph unicode="2" horiz-adv-x="533" d="M5 0L16 72Q71 117 129 164T239 259T334 355T400 449T425 541Q425 594 392 618T303 643Q272 643 237 636T164 617L177 634L145 513H96L111 669Q166 688 218 697T318 707Q374 707 417 692T485 643T510 556Q510 503 486
451T422 348T329 247T220 149T106 55L108 67H455L444 0H5Z" />
<glyph unicode="3" horiz-adv-x="551" d="M203 -8Q150 -8 101 6T9 49L39 108Q115 58 203 58Q258 58 301 79T370 138T395 224Q395 261 379 285T330 323T248 336H172L181 397H258Q342 397 386 439T431 546Q431 603 398 624T315 645Q282 645 245 638T173 620L186
634L157 516H108L123 669Q178 687 232 697T334 707Q385 707 426 693T490 647T513 559Q513 477 461 427T325 366L319 372Q400 366 437 329T474 225Q474 157 439 104T343 22T203 -8Z" />
<glyph unicode="4" horiz-adv-x="557" d="M333 193L350 175H11L10 234L405 709L492 698L417 224L399 240H535L524 175H388L412 193L381 0H303L333 193ZM363 240L338 224L407 659L431 654L66 212L57 240H363Z" />
<glyph unicode="5" horiz-adv-x="525" d="M202 -9Q157 -9 110 3T14 41L43 100Q81 79 119 69T192 59Q249 59 293 83T362 150T387 241Q387 284 369 307T320 341T253 353T180 355H103L171 698H514L503 633H214L240 649L191 398L172 417H226Q252 417 284 416T349 407T410
381T455 330T472 247Q472 176 438 118T342 26T202 -9Z" />
<glyph unicode="6" horiz-adv-x="577" d="M142 292L144 351Q197 386 250 402T350 419Q399 419 439 401T502 345T526 247Q526 174 493 116T400 25T267 -9Q222 -9 185 5T120 48T77 124T62 235Q62 303 79 370T129 498T209 606T317 680T453 707Q502 707 551 695L539
631Q516 637 495 639T456 641Q395 641 346 619T259 556T196 463T158 352T145 234Q145 169 159 130T202 74T269 56Q321 56 360 81T421 149T443 242Q443 306 411 333T326 360Q282 360 233 343T142 292Z" />
<glyph unicode="7" horiz-adv-x="490" d="M528 638L167 0H78L447 645L458 631H134L156 645L117 525H67L95 698H537L528 638Z" />
<glyph unicode="8" horiz-adv-x="588" d="M246 -8Q192 -8 148 10T76 64T48 155Q48 210 75 253T148 328T255 374L304 349Q258 335 218 311T152 251T127 168Q127 112 162 82T255 52Q304 52 344 72T408 126T433 202Q433 243 411 268T353 309T277 339T201 373T143
423T120 505Q120 552 140 589T196 653T276 693T368 707Q419 707 461 691T530 642T556 555Q556 501 529 462T456 399T358 361L300 386Q344 396 385 417T453 470T480 547Q480 583 464 605T420 636T360 646Q316 646 279 629T220 582T197 513Q197 473 219 449T278 409T354
379T430 346T489 295T512 212Q512 163 490 123T431 53T346 8T246 -8Z" />
<glyph unicode="9" horiz-adv-x="578" d="M463 410L460 353Q408 318 355 300T253 282Q204 282 164 300T100 356T77 453Q77 505 96 551T151 632T234 687T339 707Q383 707 420 694T484 652T527 577T542 465Q542 393 524 324T472 195T389 90T281 18T151 -8Q127 -8
103 -5T52 5L65 69Q87 64 108 62T146 59Q208 59 257 82T345 145T408 238T446 350T459 469Q459 533 445 570T403 625T335 642Q279 642 240 615T181 545T160 456Q160 393 194 368T279 342Q323 342 371 359T463 410Z" />
<glyph unicode=":" horiz-adv-x="213" d="M124 357Q102 357 90 370T78 404Q78 430 95 445T136 461Q156 461 169 449T183 414Q183 388 166 373T124 357ZM66 -5Q44 -5 32 8T20 42Q20 68 37 83T78 99Q98 99 111 87T125 52Q125 26 108 11T66 -5Z" />
<glyph unicode=";" horiz-adv-x="214" d="M22 41Q22 60 30 73T51 93T77 99Q96 99 109 87T123 50Q123 26 108 -6T65 -73T-4 -148L-32 -123Q-5 -89 9 -68T29 -32T34 -11Q34 -2 31 4T25 20T22 41ZM124 357Q102 357 90 370T78 404Q78 430 95 445T136 461Q156 461 169
449T183 414Q183 388 166 373T124 357Z" />
<glyph unicode="&lt;" horiz-adv-x="521" d="M440 150L63 320L72 382L494 562L514 502L125 340L126 357L466 208L440 150Z" />
<glyph unicode="=" horiz-adv-x="685" d="M590 471L581 412H151L161 471H590ZM816 539L807 480H377L387 539H816Z" />
<glyph unicode="&gt;" horiz-adv-x="521" d="M110 562L487 392L478 330L57 150L37 210L425 372V355L84 504L110 562Z" />
<glyph unicode="?" horiz-adv-x="400" d="M107 231Q108 240 108 250T110 271Q115 320 139 354T194 414T256 463T307 512T328 576Q328 615 304 630T241 646Q214 646 181 639T118 620L103 676Q143 691 183 699T262 708Q303 708 336 697T389 660T409 590Q409 550
394 520T353 465T298 419T242 375T197 325T173 261Q172 254 171 246T168 230L107 231ZM112 -5Q90 -5 78 8T66 42Q66 68 83 83T124 99Q144 99 157 87T170 52Q170 26 153 11T112 -5Z" />
<glyph unicode="@" horiz-adv-x="865" d="M344 -109Q261 -109 201 -74T107 28T74 191Q74 284 104 366T192 512T327 612T503 648Q594 648 661 613T766 513T803 353Q803 298 790 247T752 154T691 89T608 65Q556 65 532 98T511 193L538 248Q521 188 491 148T425 89T358
70Q316 70 285 104T254 215Q254 287 282 346T360 441T471 477Q499 477 529 468T591 437L560 441L577 469L608 467L565 199Q560 163 569 139T611 115Q641 115 665 135T705 189T730 265T739 349Q739 402 725 447T681 524T606 575T499 593Q413 593 346 560T233 470T162
341T138 192Q138 74 194 11T353 -53Q390 -53 429 -46T507 -23L521 -73Q477 -90 432 -99T344 -109ZM380 121Q402 121 424 135T467 174T502 235T524 317L541 422L558 400Q535 414 513 421T470 429Q426 429 391 401T336 325T316 221Q316 170 334 146T380 121Z" />
<glyph unicode="A" horiz-adv-x="674" d="M570 44L551 65L632 43L626 0H384L391 43L492 63L486 49L460 210L468 197H176L192 210L113 50L110 62L205 43L197 0H-36L-28 43L59 64L35 46L370 697L452 700L570 44ZM207 243L202 257H464L456 241L390 650L409 649L207 243Z" />
<glyph unicode="B" horiz-adv-x="633" d="M372 351L377 362Q467 361 511 325T556 216Q556 149 523 101T429 26T285 0H11L17 43L114 63L100 49L195 647L205 632L113 650L120 693L280 698H395Q426 698 454 694T505 679T546 652T573 610T583 552Q583 495 557 453T483
384T372 351ZM374 638H257L275 652L231 369L220 386H309Q348 386 383 395T444 422T486 469T502 536Q502 572 488 594T446 627T374 638ZM284 61Q374 61 423 103T473 217Q473 254 459 278T416 314T348 327H209L227 347L179 45L163 61H284Z" />
<glyph unicode="C" horiz-adv-x="623" d="M308 -9Q243 -9 189 22T103 116T70 276Q70 358 95 435T166 573T277 671T424 707Q469 707 520 695T624 656L594 501H545L548 624L563 609Q528 624 490 633T420 642Q357 642 308 610T224 525T171 408T153 279Q153 202 176
154T239 83T327 59Q373 59 423 79T519 141L547 89Q490 40 428 16T308 -9Z" />
<glyph unicode="D" horiz-adv-x="710" d="M399 698Q484 698 544 670T636 582T668 429Q668 345 643 268T568 131T449 35T289 0H11L17 43L114 63L101 49L196 647L205 632L113 650L120 693L301 698H399ZM302 61Q357 61 402 83T480 144T537 230T572 331T584 433Q584
502 562 547T496 614T386 637H258L275 652L179 45L168 61H302Z" />
<glyph unicode="E" horiz-adv-x="606" d="M473 164H521L495 0H11L17 43L114 63L100 49L195 647L205 632L113 650L120 693L282 698H594L569 540H521V650L536 637H258L275 650L230 371L220 387H475L465 327H209L226 345L179 46L168 61H458L438 47L473 164Z" />
<glyph unicode="F" horiz-adv-x="551" d="M11 0L17 43L114 63L100 50L195 648L205 632L113 650L120 693L282 698H586L562 539H514V648L528 637H258L275 650L228 358L218 379H463L454 318H206L224 333L179 49L171 64L282 43L275 0H11Z" />
<glyph unicode="G" horiz-adv-x="719" d="M324 -9Q248 -9 191 20T102 111T70 274Q70 365 97 443T173 581T292 674T444 707Q496 707 550 694T660 656L630 500H582L583 623L597 609Q558 626 521 634T450 642Q384 642 330 614T236 536T175 419T154 274Q154 196 176
149T239 79T336 57Q376 57 419 67T512 94L499 73L532 288L544 273L450 286L456 331L694 336L688 291L594 272L606 288L570 47Q502 19 440 5T324 -9Z" />
<glyph unicode="H" horiz-adv-x="769" d="M11 0L17 43L115 63L101 49L196 647L206 632L113 650L120 693L366 698L360 655L262 632L275 647L231 372L221 386H589L571 372L615 647L625 632L533 650L540 693L787 698L780 655L681 632L695 647L600 49L592 64L683 43L676
0H431L437 43L534 63L520 49L566 339L578 325H210L226 339L180 49L173 64L263 43L256 0H11Z" />
<glyph unicode="I" horiz-adv-x="348" d="M360 655L262 632L275 647L180 49L173 64L263 43L256 0H11L17 43L115 63L101 49L195 646L206 632L113 650L120 693L366 698L360 655Z" />
<glyph unicode="J" horiz-adv-x="332" d="M109 693L361 698L354 655L256 632L269 647L173 42Q168 8 156 -25T123 -86T67 -129T-17 -145Q-44 -145 -72 -140L-59 -80Q-51 -81 -43 -82T-25 -83Q11 -83 33 -72T67 -43T84 -7T91 26L190 647L201 632L102 650L109 693Z" />
<glyph unicode="K" horiz-adv-x="687" d="M562 46L541 63L634 43L628 0H495L323 343L344 327H211L227 346L180 49L172 64L261 43L255 0H11L17 43L115 64L101 49L196 648L206 632L113 649L120 692L365 698L358 655L261 633L276 653L231 372L221 388H356L329 373L543
650L551 636L462 650L469 693L703 698L696 655L600 633L624 649L390 350V374L562 46Z" />
<glyph unicode="L" horiz-adv-x="534" d="M443 179H491L463 0H11L17 43L115 63L101 49L196 647L206 632L113 650L120 693L376 698L369 655L262 632L275 647L179 41L169 61H421L405 46L443 179Z" />
<glyph unicode="M" horiz-adv-x="866" d="M877 655L778 632L792 649L697 49L690 64L780 43L774 0H534L540 43L641 65L623 46L712 608L725 605L440 182L387 178L241 608L255 609L166 49L159 64L250 43L243 0H11L17 43L117 64L101 49L196 647L206 632L113 650L120
693L295 698L439 259H425L710 693L884 698L877 655Z" />
<glyph unicode="N" horiz-adv-x="764" d="M560 693L792 698L785 655L689 632L702 647L599 0H515L246 611H256L167 49L160 64L249 43L242 0H11L17 43L114 63L101 49L196 647L205 632L113 650L120 693L295 698L559 97L548 96L635 648L645 632L553 650L560 693Z" />
<glyph unicode="O" horiz-adv-x="727" d="M319 -9Q244 -9 188 21T101 113T69 268Q69 332 84 395T130 514T204 613T306 682T435 707Q511 707 567 677T654 585T685 431Q685 369 670 307T626 188T552 87T449 17T319 -9ZM326 56Q379 56 422 79T498 140T555 227T590
328T602 431Q602 505 579 551T517 620T428 642Q375 642 332 620T255 559T199 472T165 371T153 268Q153 195 175 148T237 79T326 56Z" />
<glyph unicode="P" horiz-adv-x="581" d="M290 267H197L217 283L180 49L173 64L284 43L277 0H11L17 43L115 63L101 49L196 647L206 632L113 650L120 693L285 698H390Q490 698 536 654T582 528Q582 452 546 393T445 301T290 267ZM369 637H261L276 653L222 312L210
328H293Q358 328 404 353T474 423T499 520Q499 578 468 607T369 637Z" />
<glyph unicode="Q" horiz-adv-x="729" d="M581 -174Q544 -174 505 -155T415 -96T291 0L309 -9Q239 -7 185 23T100 115T69 268Q69 331 84 394T130 514T204 613T306 682T435 707Q510 707 566 677T654 585T685 431Q685 359 665 286T604 151T505 48T369 -4V8Q424 -30
461 -55T526 -94T583 -107Q606 -107 632 -98T693 -68L722 -120Q679 -148 645 -161T581 -174ZM326 56Q379 56 422 78T499 139T556 227T591 328T603 431Q603 505 580 551T518 620T428 642Q374 642 331 619T254 558T198 472T164 370T152 268Q152 194 174 147T236 78T326
56Z" />
<glyph unicode="R" horiz-adv-x="638" d="M11 0L17 43L114 63L101 49L196 647L205 632L113 650L120 693L287 698H391Q586 698 586 544Q586 481 557 433T476 354T356 319L352 332Q404 330 428 298T470 215L527 49L507 66L582 43L575 0H459L399 199Q383 250 368
272T330 301T271 307H207L224 321L180 49L173 64L279 43L272 0H11ZM228 347L218 366H299Q363 366 408 388T478 449T503 535Q503 574 489 594T453 624T410 635T374 637H261L276 653L228 347Z" />
<glyph unicode="S" horiz-adv-x="581" d="M227 -9Q180 -9 131 1T37 33L66 197H114L111 69L103 86Q135 70 169 63T238 55Q287 55 329 71T397 118T423 194Q423 235 401 259T345 300T271 330T197 364T141 417T119 503Q119 570 154 615T247 683T372 707Q418 707 465
697T556 665L525 510H478L483 629L494 618Q465 631 433 638T370 645Q325 645 286 631T222 588T198 518Q198 479 220 456T276 418T350 389T424 354T481 300T503 211Q503 138 465 89T364 16T227 -9Z" />
<glyph unicode="T" d="M107 0L114 43L225 63L211 49L306 652L321 637H136L158 654L119 527H71L98 698H608L581 527H533V652L549 637H364L385 652L290 49L283 64L386 43L379 0H107Z" />
<glyph unicode="U" horiz-adv-x="729" d="M519 693L766 698L759 655L660 632L674 647L613 262Q599 172 565 112T471 21T321 -9Q210 -9 159 38T107 179Q107 196 108 215T114 256L176 647L186 633L94 650L101 693L345 698L338 655L243 632L256 647L193 251Q190 231
188 214T186 180Q186 116 218 86T325 56Q395 56 436 80T500 152T534 267L594 647L605 633L513 650L519 693Z" />
<glyph unicode="V" horiz-adv-x="678" d="M248 -1L143 648L161 632L68 650L75 693L332 698L326 655L218 633L231 655L313 72H301L588 650L592 633L491 650L498 693L741 698L734 655L638 634L661 650L332 -1H248Z" />
<glyph unicode="W" horiz-adv-x="990" d="M813 693L1051 698L1044 655L949 634L972 656L691 -1H615L538 596H554L284 -1H208L144 651L152 635L69 650L76 693L322 698L316 655L211 633L225 651L271 75L256 76L530 694L603 698L678 78L662 77L898 650L906 634L806
650L813 693Z" />
<glyph unicode="X" horiz-adv-x="676" d="M558 44L534 63L619 43L612 0H365L371 43L470 63L467 47L331 324H353L127 45L125 64L220 43L213 0H-18L-11 43L81 64L52 44L318 368L317 349L163 650L180 636L97 650L104 693L348 698L342 655L247 634L253 648L377 396L359
398L561 648L565 633L473 650L480 693L707 698L700 655L610 632L637 650L388 350L391 374L558 44Z" />
<glyph unicode="Y" horiz-adv-x="623" d="M147 0L154 43L252 63L239 49L274 272L279 239L137 648L151 634L67 650L73 693L321 698L314 655L208 635L216 651L331 299H314L540 648L546 633L446 650L453 693L686 698L680 655L592 637L612 650L341 239L352 272L317
49L311 64L402 43L395 0H147Z" />
<glyph unicode="Z" horiz-adv-x="590" d="M6 0L12 56L502 644L510 635H169L191 647L155 534H107L133 698H595L589 640L101 49L98 63H459L435 49L473 165H522L493 0H6Z" />
<glyph unicode="[" horiz-adv-x="324" d="M22 -102L173 849L382 844L374 794L231 789L100 -41L241 -46L233 -97L22 -102Z" />
<glyph unicode="\" horiz-adv-x="298" d="M84 802H141L246 -79H189L84 802Z" />
<glyph unicode="]" horiz-adv-x="324" d="M337 849L186 -102L-23 -97L-15 -46L128 -41L259 789L118 794L126 844L337 849Z" />
<glyph unicode="^" horiz-adv-x="503" d="M54 528L286 863H342L468 528H398L291 829H328L125 528H54Z" />
<glyph unicode="_" horiz-adv-x="475" d="M423 -70L414 -125H-62L-54 -70H423Z" />
<glyph unicode="`" horiz-adv-x="384" d="M193 806L367 660L338 619L149 744L193 806Z" />
<glyph unicode="a" horiz-adv-x="585" d="M182 -9Q144 -9 112 11T61 75T42 187Q42 259 64 322T125 434T218 509T334 537Q371 537 411 526T495 486L460 490L480 528H524L444 24L417 73L527 46L520 1L370 -4L402 195L425 232Q402 150 361 97T273 17T182 -9ZM210
56Q237 56 268 72T328 122T380 205T413 324L436 466L450 437Q419 457 390 466T332 476Q286 476 248 454T181 392T138 302T122 195Q122 122 147 89T210 56Z" />
<glyph unicode="b" horiz-adv-x="572" d="M49 14L165 742L192 695L82 722L89 766L247 772L175 336L148 297Q171 380 211 433T299 512T390 538Q428 538 459 518T509 453T528 335Q528 231 488 154T373 34T199 -9Q130 -9 49 14ZM132 45L115 72Q142 62 168 58T219
53Q289 53 340 87T420 184T449 328Q449 407 424 440T361 473Q334 473 303 457T242 407T191 323T157 204L132 45Z" />
<glyph unicode="c" horiz-adv-x="481" d="M227 -9Q175 -9 134 13T68 84T43 206Q43 276 65 336T125 442T215 512T325 537Q360 537 397 527T472 495L452 371H398L399 465L407 453Q360 478 317 478Q274 478 238 456T177 396T137 311T122 211Q122 127 156 90T245 53Q276
53 311 64T383 97L406 48Q361 20 315 6T227 -9Z" />
<glyph unicode="d" horiz-adv-x="586" d="M182 -9Q144 -9 112 11T61 75T42 187Q42 259 64 322T125 434T218 509T334 537Q371 537 411 526T495 486L441 497L480 741L507 695L395 723L402 766L562 772L444 24L417 73L527 46L520 1L370 -4L402 195L426 232Q403 150
362 97T273 17T182 -9ZM210 56Q237 56 267 72T327 122T379 205T413 324L436 463L450 437Q419 457 390 466T332 476Q286 476 248 454T181 392T138 302T122 195Q122 122 147 89T210 56Z" />
<glyph unicode="e" horiz-adv-x="503" d="M231 -9Q178 -9 136 13T68 81T43 202Q43 265 62 325T119 432T208 508T326 537Q400 537 441 503T482 415Q482 370 454 335T377 276T269 240T148 227Q138 227 129 227T110 229L115 286Q127 285 139 284T165 283Q207 283
249 291T327 315T384 354T406 407Q406 439 382 459T315 479Q269 479 233 455T172 390T133 301T120 203Q120 123 154 86T247 49Q282 49 321 61T401 96L421 51Q374 21 325 6T231 -9Z" />
<glyph unicode="f" horiz-adv-x="324" d="M-54 -239Q-70 -239 -83 -238T-108 -234L-96 -177Q-91 -178 -83 -178T-65 -179Q-32 -179 -10 -169T24 -143T44 -104T55 -58L140 479L148 467H57L64 512L159 525L145 510L159 595Q174 691 228 734T357 777Q378 777 400
774T445 763L425 706Q409 712 393 714T362 717Q315 717 281 689T237 599L223 510L213 524H363L353 467H207L218 479L136 -40Q129 -84 115 -120T77 -183T22 -224T-54 -239Z" />
<glyph unicode="g" horiz-adv-x="571" d="M194 -239Q152 -239 107 -230T18 -207L35 -148Q78 -163 118 -171T192 -179Q235 -179 265 -167T316 -133T349 -81T368 -15L400 196L426 232Q403 150 362 97T273 17T182 -9Q144 -9 112 11T61 75T42 187Q42 259 64 322T125
433T218 509T334 537Q371 537 411 525T495 486L461 492L480 528H524L438 -13Q429 -75 407 -118T352 -188T280 -227T194 -239ZM210 56Q237 56 268 72T328 122T379 205T413 324L436 466L450 437Q419 457 390 466T332 476Q286 476 248 454T181 392T138 302T122 195Q122
122 147 89T210 56Z" />
<glyph unicode="h" horiz-adv-x="591" d="M373 -3L430 346Q437 388 430 416T406 459T362 473Q334 473 303 457T243 409T192 327T158 207L126 0H48L162 720L173 703L84 721L91 765L248 772L174 335L145 297Q172 384 213 436T302 513T392 537Q434 537 463 517T506
458T510 361L460 48L428 73L538 46L531 1L373 -3Z" />
<glyph unicode="i" horiz-adv-x="285" d="M62 -3L142 503L170 455L60 482L67 525L224 531L144 25L118 72L226 45L219 1L62 -3ZM204 639Q182 639 170 652T157 689Q157 716 173 733T216 751Q238 751 250 738T263 701Q263 675 247 657T204 639Z" />
<glyph unicode="j" horiz-adv-x="271" d="M-110 -234L-98 -177Q-89 -178 -81 -178T-66 -179Q-9 -179 17 -151T53 -57L137 477L146 464L61 482L67 525L224 531L134 -40Q122 -113 97 -156T32 -219T-59 -239Q-73 -239 -85 -238T-110 -234ZM199 639Q177 639 165 652T152
689Q152 716 168 733T211 751Q233 751 245 738T258 701Q258 675 242 657T199 639Z" />
<glyph unicode="k" horiz-adv-x="542" d="M47 0L165 742L192 695L83 722L90 766L247 772L174 307L161 320H293L271 309L399 481L405 470L329 482L336 525L547 532L540 488L452 471L477 486L328 289L331 313L432 49L419 62L499 43L493 0H370L270 272L282 264H151L168
269L125 0H47Z" />
<glyph unicode="l" horiz-adv-x="271" d="M47 -3L165 742L192 695L84 721L90 765L248 772L130 26L102 73L212 46L205 1L47 -3Z" />
<glyph unicode="m" horiz-adv-x="907" d="M690 -3L745 346Q753 389 747 417T724 459T683 473Q657 473 628 457T570 408T520 325T486 207L454 0H376L431 346Q439 389 433 417T410 459T369 473Q344 473 314 457T256 408T206 325T173 207L140 0H62L138 480L169 455L60
482L67 525L221 531L184 335L160 297Q187 384 228 436T315 513T401 537Q438 537 466 518T507 460T511 366L503 320L475 297Q502 384 543 436T629 513T715 537Q753 537 781 517T822 458T825 361L775 46L742 73L854 46L848 1L690 -3Z" />
<glyph unicode="n" horiz-adv-x="605" d="M388 -3L444 346Q451 388 445 416T421 459T376 473Q349 473 318 457T258 409T206 327T173 207L140 0H62L142 503L169 455L60 482L67 525L221 531L184 335L159 297Q186 384 227 436T316 513T406 537Q448 537 478 517T521
458T524 361L474 46L441 73L553 46L546 1L388 -3Z" />
<glyph unicode="o" horiz-adv-x="556" d="M324 537Q380 537 422 515T488 446T512 322Q512 261 495 202T443 95T356 19T233 -9Q178 -9 136 13T70 82T46 206Q46 268 63 326T114 432T201 508T324 537ZM313 477Q265 477 230 452T172 387T137 300T125 207Q125 132 155
92T244 51Q291 51 326 76T385 141T420 229T432 322Q432 397 403 437T313 477Z" />
<glyph unicode="p" horiz-adv-x="587" d="M-53 -230L-46 -187L70 -159L31 -201L139 480L151 463L60 482L67 525L221 531L185 329L163 297Q187 379 227 432T314 511T405 537Q443 537 474 517T525 454T544 339Q544 243 511 170T418 53T276 -3T95 11L143 17L108 -203L80
-158L199 -187L192 -230H-53ZM147 45L130 72Q206 46 267 54T373 99T440 194T464 332Q464 407 439 440T376 473Q349 473 318 457T258 407T206 324T173 204L147 45Z" />
<glyph unicode="q" horiz-adv-x="571" d="M236 -230L243 -187L368 -159L330 -204L363 1L398 195L426 232Q403 150 362 97T273 17T182 -9Q144 -9 112 11T61 75T42 187Q42 259 64 322T125 433T218 509T334 537Q371 537 411 525T495 486L461 491L480 528H524L407
-206L381 -158L489 -187L482 -230H236ZM210 56Q237 56 267 72T327 122T379 205T413 324L436 466L450 437Q419 457 390 466T332 476Q286 476 248 454T181 392T138 302T122 195Q122 122 147 89T210 56Z" />
<glyph unicode="r" horiz-adv-x="406" d="M62 0L142 503L169 455L60 482L67 525L221 531L184 335L160 296Q181 372 220 425T307 508T401 537Q423 537 440 531L415 385H365L368 484L378 474Q350 476 319 460T258 410T206 325T173 207L140 0H62Z" />
<glyph unicode="s" horiz-adv-x="475" d="M172 -9Q135 -9 95 -3T15 13L40 151H90L85 47L73 66Q97 58 123 53T176 48Q217 48 252 59T307 92T328 145Q329 174 311 192T265 223T204 248T144 276T97 317T80 383Q80 431 107 465T182 518T288 537Q324 537 364 530T445
508L424 392H374L372 477L386 463Q361 472 336 476T289 481Q252 481 223 470T176 440T158 393Q158 366 176 348T222 318T283 293T344 264T391 221T408 155Q407 105 377 68T294 11T172 -9Z" />
<glyph unicode="t" horiz-adv-x="356" d="M306 25Q271 8 239 0T180 -9Q135 -9 107 15T79 92Q79 101 80 109T82 125L139 485L148 472H49L56 516L160 531L144 515L165 647L244 659L222 515L214 528H363L354 472H203L217 485L160 130Q159 126 159 120T158 106Q158
78 171 66T206 53Q223 53 243 59T287 77L306 25Z" />
<glyph unicode="u" horiz-adv-x="605" d="M199 -9Q158 -10 128 10T86 70T81 167L131 482L139 464L54 482L60 525L217 531L161 182Q155 140 161 112T185 69T229 55Q257 55 288 70T348 119T399 202T433 321L465 528H543L468 48L457 64L546 44L540 1L389 -3L422 195L446
231Q421 146 379 94T290 17T199 -9Z" />
<glyph unicode="v" horiz-adv-x="509" d="M180 -2L81 480L90 471L29 482L36 525L153 532L237 47L219 50L426 480L430 471L360 482L366 525L553 532L547 488L483 471L502 481L258 -2H180Z" />
<glyph unicode="w" horiz-adv-x="777" d="M143 -2L88 479L98 470L32 482L39 525L158 532L200 43H188L393 526L477 531L523 46H515L700 480L705 468L633 482L640 525L817 532L811 488L752 473L767 483L551 -2H465L413 470L434 469L228 -2H143Z" />
<glyph unicode="x" horiz-adv-x="535" d="M-30 0L-23 43L67 59L44 46L226 282L250 286L437 525L548 532L542 488L459 473L484 485L304 264L281 260L86 0H-30ZM361 0L233 252L113 485L129 469L61 482L67 525L173 533L291 297L421 46L406 60L489 43L482 0H361Z" />
<glyph unicode="y" horiz-adv-x="509" d="M-53 -234L-43 -175Q-32 -176 -23 -177T-5 -178Q43 -178 76 -156T138 -89T197 23L193 -7L83 480L92 471L28 482L35 525L154 532L246 57L225 61L428 480L432 471L362 482L368 525L555 532L549 488L485 472L501 481L260
-2Q245 -32 228 -65T190 -129T141 -185T79 -224T-3 -239Q-26 -239 -53 -234Z" />
<glyph unicode="z" horiz-adv-x="469" d="M405 146L383 1L1 0L7 49L375 489L385 471H121L147 491L120 394H71L92 528H458L450 479L81 34L80 57L346 58L320 33L357 146H405Z" />
<glyph unicode="{" horiz-adv-x="321" d="M170 -102Q125 -102 97 -87T60 -38T59 52L89 242Q97 289 84 317T18 345L26 402Q61 402 82 416T115 456T132 511L161 700Q169 752 187 785T237 833T319 849H364L357 799Q311 799 286 790T249 756T229 688L199 497Q191 444
170 416T119 378T55 368L53 379Q86 379 113 369T154 329T159 245L129 54Q122 10 126 -12T153 -43T222 -51L213 -102H170Z" />
<glyph unicode="|" horiz-adv-x="323" d="M217 803H278L135 -99H74L217 803Z" />
<glyph unicode="}" horiz-adv-x="321" d="M186 849Q232 849 259 834T296 786T297 695L267 506Q260 459 273 431T339 402L330 345Q295 345 274 331T241 292T224 236L195 47Q187 -4 169 -37T119 -86T37 -102H-8L0 -51Q45 -51 70 -42T108 -8T127 59L157 251Q166 304
187 332T238 369T301 379L303 368Q271 368 244 379T203 419T197 502L228 694Q235 737 231 760T204 791T135 799L143 849H186Z" />
<glyph unicode="~" horiz-adv-x="661" d="M443 287Q413 287 387 298T337 324T290 350T242 362Q218 362 193 349T139 301L106 329Q142 378 176 400T246 422Q276 422 302 411T352 385T400 359T449 347Q472 347 497 360T550 407L582 379Q547 329 513 308T443 287Z" />
<glyph unicode="&#xa0;" horiz-adv-x="193" />
<glyph unicode="&#xa1;" horiz-adv-x="321" d="M187 246L125 -230H41L129 241L187 246ZM191 473Q214 473 226 460T238 426Q238 401 221 385T180 369Q160 369 147 381T133 416Q133 443 150 458T191 473Z" />
<glyph unicode="&#xa2;" horiz-adv-x="555" d="M223 -21L245 123L267 106Q183 105 134 157T84 302Q84 362 102 416T153 511T234 578T341 608L320 589L342 734H395L373 592L353 609Q402 609 443 598T512 569L491 450H444L447 534Q426 545 401 549T358 553Q312 553
275 533T212 476T172 396T158 303Q158 238 191 201T283 163Q319 163 360 178T447 224L470 180Q417 143 369 126T276 106L298 124L276 -21H223Z" />
<glyph unicode="&#xa3;" horiz-adv-x="655" d="M32 0L39 43L140 69L109 51Q149 82 165 129T185 236T190 358L202 341H86L93 386L204 394L193 382Q192 489 213 561T287 670T429 707Q470 707 516 700T614 679L585 529H538L540 645L551 630Q486 645 437 645Q367 645
332 614T284 523T272 379L258 394H449L441 341H253L270 357Q269 289 263 231T237 127T178 53L168 63L474 61L457 46L495 172H543L515 0H32Z" />
<glyph unicode="&#xa4;" horiz-adv-x="648" d="M527 125L483 82L403 171L434 170Q408 147 375 134T304 121Q262 121 232 135T185 173L219 174L110 81L78 121L186 212L180 180Q168 197 162 219T155 267Q155 312 172 351T218 420L212 389L132 479L178 523L258 430H229Q256
452 289 464T360 477Q401 477 429 465T474 432L445 433L548 522L580 482L476 395L479 426Q506 390 506 335Q506 293 490 251T444 180L445 216L527 125ZM308 173Q350 173 379 196T425 257T441 332Q441 377 420 401T356 426Q311 426 281 402T235 342T220 269Q220
223 243 198T308 173Z" />
<glyph unicode="&#xa5;" horiz-adv-x="692" d="M145 276L152 319H300L292 302L175 648L190 635L105 650L112 693L359 698L353 655L246 635L254 651L366 299H349L572 648L578 633L478 650L485 693L718 698L712 655L623 636L644 650L416 301L412 319H559L552 276H145ZM183
0L189 43L287 63L274 49L294 179L304 166H128L135 209H541L534 166H354L372 180L353 49L345 64L437 43L430 0H183Z" />
<glyph unicode="&#xa6;" horiz-adv-x="323" d="M158 438L216 803H278L219 438H158ZM73 -99L131 266H193L134 -99H73Z" />
<glyph unicode="&#xa7;" horiz-adv-x="550" d="M177 -178Q143 -178 107 -172T36 -155L60 -28H109L104 -125L95 -111Q137 -125 179 -125Q241 -125 281 -92T321 -5Q321 25 305 47T262 87T207 124T152 162T110 210T93 275Q93 320 115 353T175 410T253 446L272 418Q246
408 221 389T180 344T163 287Q163 257 179 235T222 193T278 156T334 115T377 65T394 -2Q394 -58 366 -97T289 -157T177 -178ZM300 92L289 120Q312 131 335 152T375 200T391 258Q391 288 375 310T332 352T276 389T221 430T178 480T161 546Q161 598 187 633T258 688T361
707Q394 707 431 700T506 678L486 570H437V654L448 639Q428 645 406 649T365 653Q308 653 271 625T233 547Q233 518 249 496T292 456T348 420T403 380T446 331T463 264Q463 220 440 186T379 128T300 92Z" />
<glyph unicode="&#xa8;" horiz-adv-x="435" d="M187 643Q167 643 156 656T145 691Q145 716 159 731T196 747Q215 747 226 735T238 700Q238 676 224 660T187 643ZM376 643Q357 643 346 656T334 691Q334 716 348 731T385 747Q405 747 416 735T427 700Q427 676 413
660T376 643Z" />
<glyph unicode="&#xa9;" horiz-adv-x="886" d="M454 157Q383 157 336 206T288 346Q288 409 312 453T376 519T468 542Q527 542 589 513L586 420H545L536 487L543 481Q526 489 507 492T472 495Q416 495 385 456T354 350Q354 278 385 242T466 205Q492 205 521 215T580
247L603 213Q566 184 528 171T454 157ZM445 -9Q368 -9 303 17T191 89T118 200T92 341Q92 421 119 488T196 604T314 680T461 707Q539 707 605 681T720 608T796 497T823 357Q823 279 795 212T715 96T594 19T445 -9ZM450 39Q518 39 576 62T676 128T741 227T765 353Q765
442 726 511T617 619T457 659Q365 659 296 619T188 508T149 346Q149 257 186 188T292 79T450 39Z" />
<glyph unicode="&#xaa;" horiz-adv-x="480" d="M54 176L64 234H434L425 176H54ZM186 315Q138 315 107 348T75 455Q75 524 103 581T183 673T299 707Q327 707 357 699T419 670L394 674L408 700H453L393 338L375 376L455 358L449 322L327 319L350 461L368 487Q351
429 321 391T255 334T186 315ZM207 365Q234 365 265 385T322 448T359 554L376 655L386 632Q363 647 341 653T298 660Q254 660 220 632T165 559T145 461Q145 411 163 388T207 365Z" />
<glyph unicode="&#xab;" horiz-adv-x="470" d="M166 64L48 247L54 293L230 476L264 446L103 254L108 288L208 95L166 64ZM348 64L230 247L236 293L412 476L446 446L285 254L290 288L390 95L348 64Z" />
<glyph unicode="&#xac;" horiz-adv-x="654" d="M477 320L468 333L432 113H497L539 379H80L70 320H477Z" />
<glyph unicode="&#xad;" horiz-adv-x="402" d="M604 325L595 262H320L330 325H604Z" />
<glyph unicode="&#xae;" horiz-adv-x="734" d="M257 294V319L308 331L298 320V599L310 587L257 596V620L349 623H404Q462 623 492 601T523 538Q523 504 497 480T415 449L417 458Q448 456 463 442T492 402L534 318L518 330L560 319V294H494L448 393Q437 416 426
426T401 438T370 441H336L345 451V320L337 331L397 319V294H257ZM345 465L336 474H380Q426 474 449 490T473 535Q473 560 454 573T396 587H336L345 600V465ZM389 166Q305 166 241 202T140 302T104 449Q104 534 142 600T248 705T399 744Q485 744 551 708T654 608T692
461Q692 398 669 345T605 251T508 188T389 166ZM390 205Q464 205 522 238T614 328T648 460Q648 532 616 587T528 674T398 705Q326 705 269 672T181 582T149 451Q149 378 179 323T263 236T390 205Z" />
<glyph unicode="&#xaf;" horiz-adv-x="408" d="M406 730L396 671H142L151 730H406Z" />
<glyph unicode="&#xb0;" horiz-adv-x="416" d="M219 439Q162 439 129 471T95 564Q95 613 117 651T176 712T262 734Q319 734 352 702T386 609Q386 563 365 524T307 462T219 439ZM223 486Q259 486 283 504T319 550T332 608Q332 648 313 667T258 687Q223 687 199
670T162 625T149 567Q149 528 168 507T223 486Z" />
<glyph unicode="&#xb1;" horiz-adv-x="571" d="M298 433L279 419L311 627H372L340 419L328 433H527L518 374H317L335 390L301 179H241L274 389L287 374H88L97 433H298ZM475 101L466 42H36L45 101H475Z" />
<glyph unicode="&#xb2;" horiz-adv-x="346" d="M45 346L53 398Q126 458 180 506T264 594T294 671Q294 700 275 712T227 724Q209 724 189 720T149 709L159 722L140 649H100L111 753Q145 763 178 769T242 776Q295 776 329 754T363 684Q363 647 345 613T294 544T218
472T124 392L123 401H327L318 346H45Z" />
<glyph unicode="&#xb3;" horiz-adv-x="360" d="M171 339Q137 339 105 348T46 374L71 418Q94 404 119 397T170 390Q218 390 247 416T277 482Q277 512 258 527T196 542H143L150 587H200Q228 587 250 596T286 625T300 671Q300 702 282 714T232 727Q214 727 194 724T152
714L164 724L146 655H106L117 751Q152 763 186 769T250 775Q302 775 335 754T368 682Q368 635 338 604T256 567L252 570Q300 565 321 543T343 480Q343 437 320 405T258 356T171 339Z" />
<glyph unicode="&#xb4;" horiz-adv-x="368" d="M137 620L107 661L291 804L333 741L137 620Z" />
<glyph unicode="&#xb5;" horiz-adv-x="687" d="M143 -233L66 -230L178 478L187 464L101 482L108 525L265 531L209 182Q203 140 209 112T233 69T277 55Q304 55 335 70T395 119T447 202T480 321L513 528H591L515 46L503 64L594 44L587 1L437 -4L469 195L494 231Q469
146 429 94T344 17T259 -9Q214 -10 184 17T148 100L164 76Q163 36 162 -11T157 -114T143 -233Z" />
<glyph unicode="&#xb6;" horiz-adv-x="576" d="M62 -170L69 -127L168 -106L153 -124L227 348L245 329Q174 329 132 369T90 480Q90 542 117 591T191 669T301 698H588L582 655L482 632L497 651L367 -170H302L433 657L442 637L324 636L343 658L211 -170H62Z" />
<glyph unicode="&#xb7;" horiz-adv-x="213" d="M110 277Q88 277 76 290T64 324Q64 350 81 365T122 381Q142 381 155 369T169 334Q169 308 152 293T110 277Z" />
<glyph unicode="&#xb8;" horiz-adv-x="355" d="M88 -233Q67 -233 45 -228T1 -213L23 -171Q56 -185 90 -185Q117 -185 136 -174T155 -140Q155 -118 132 -108T67 -97L87 0H135L126 -58Q174 -63 194 -82T214 -131Q214 -162 197 -185T152 -220T88 -233Z" />
<glyph unicode="&#xb9;" horiz-adv-x="270" d="M201 384L192 399L269 382L264 346H47L52 382L152 397L140 384L191 713L209 712L94 648L81 689L212 771H262L201 384Z" />
<glyph unicode="&#xba;" horiz-adv-x="442" d="M229 315Q161 315 118 351T74 472Q74 517 87 559T128 634T196 687T292 707Q360 707 402 671T445 550Q445 492 421 438T350 350T229 315ZM38 176L47 234H384L374 176H38ZM235 362Q271 362 297 379T340 425T365 486T374
550Q374 604 351 631T283 659Q248 659 222 643T178 598T153 538T145 474Q145 419 168 391T235 362Z" />
<glyph unicode="&#xbb;" horiz-adv-x="470" d="M305 476L423 293L417 247L242 64L207 94L368 286L364 252L263 445L305 476ZM123 476L241 293L235 247L60 64L25 94L186 286L182 252L81 445L123 476Z" />
<glyph unicode="&#xbc;" horiz-adv-x="801" d="M221 314L212 329L289 312L284 276H67L72 312L172 327L160 314L211 643L229 642L114 578L101 619L232 701H282L221 314ZM114 -7L643 705H709L179 -7H114ZM607 116L613 101H414L413 150L640 430L719 423L674 139L661
150H742L734 101H652L671 116L652 0H589L607 116ZM624 150L610 135L651 391L661 390L453 131L448 150H624Z" />
<glyph unicode="&#xbd;" horiz-adv-x="812" d="M222 314L213 329L290 312L285 276H68L73 312L173 327L161 314L212 643L230 642L115 578L102 619L233 701H283L222 314ZM114 -7L643 705H709L179 -7H114ZM443 0L451 52Q524 112 578 160T662 248T692 325Q692 354
673 366T625 378Q607 378 587 374T547 363L557 376L538 303H498L509 407Q543 417 576 423T640 430Q693 430 727 408T761 338Q761 301 743 267T692 198T616 126T522 46L521 55H725L716 0H443Z" />
<glyph unicode="&#xbe;" horiz-adv-x="856" d="M175 269Q141 269 109 278T50 304L75 348Q98 334 123 327T174 320Q222 320 251 346T281 412Q281 442 262 457T200 472H147L154 517H204Q232 517 254 526T290 555T304 601Q304 632 286 644T236 657Q218 657 198 654T156
644L168 654L150 585H110L121 681Q156 693 190 699T254 705Q306 705 339 684T372 612Q372 565 342 534T260 497L256 500Q304 495 325 473T347 410Q347 367 324 335T262 286T175 269ZM170 -7L699 705H765L235 -7H170ZM662 116L668 101H469L468 150L695 430L774 423L729
139L716 150H797L789 101H707L726 116L707 0H644L662 116ZM679 150L665 135L706 391L716 390L508 131L503 150H679Z" />
<glyph unicode="&#xbf;" horiz-adv-x="400" d="M303 273Q302 264 302 254T301 233Q295 184 272 150T217 90T155 41T104 -8T83 -72Q83 -110 107 -126T169 -142Q197 -142 229 -135T292 -116L307 -172Q268 -187 227 -195T148 -204Q107 -204 74 -193T21 -156T1 -86Q1
-46 17 -16T58 39T112 85T168 129T214 179T237 243Q239 250 240 258T242 274L303 273ZM298 509Q321 509 332 496T344 462Q344 437 328 421T287 405Q266 405 253 417T240 452Q240 479 257 494T298 509Z" />
<glyph unicode="&#xc0;" horiz-adv-x="674" d="M570 44L551 65L632 43L626 0H384L391 43L492 63L486 49L460 210L468 197H176L192 210L113 50L110 62L205 43L197 0H-36L-28 43L59 64L35 46L370 697L452 700L570 44ZM207 243L202 257H464L456 241L390 650L409 649L207
243ZM512 750L296 846L332 911L535 792L512 750Z" />
<glyph unicode="&#xc1;" horiz-adv-x="674" d="M570 44L551 65L632 43L626 0H384L391 43L492 63L486 49L460 210L468 197H176L192 210L113 50L110 62L205 43L197 0H-36L-28 43L59 64L35 46L370 697L452 700L570 44ZM207 243L202 257H464L456 241L390 650L409 649L207
243ZM332 750L311 790L523 913L551 846L332 750Z" />
<glyph unicode="&#xc2;" horiz-adv-x="674" d="M570 44L551 65L632 43L626 0H384L391 43L492 63L486 49L460 210L468 197H176L192 210L113 50L110 62L205 43L197 0H-36L-28 43L59 64L35 46L370 697L452 700L570 44ZM207 243L202 257H464L456 241L390 650L409 649L207
243ZM290 745L267 779L417 898L464 902L585 779L552 745L410 853L460 852L290 745Z" />
<glyph unicode="&#xc3;" horiz-adv-x="674" d="M570 44L551 65L632 43L626 0H384L391 43L492 63L486 49L460 210L468 197H176L192 210L113 50L110 62L205 43L197 0H-36L-28 43L59 64L35 46L370 697L452 700L570 44ZM207 243L202 257H464L456 241L390 650L409 649L207
243ZM303 774L271 795Q295 840 319 859T371 878Q397 878 418 868T459 846T498 835Q531 835 563 881L595 860Q571 815 545 796T492 777Q468 777 448 787T409 808T367 819Q351 819 336 809T303 774Z" />
<glyph unicode="&#xc4;" horiz-adv-x="674" d="M570 44L551 65L632 43L626 0H384L391 43L492 63L486 49L460 210L468 197H176L192 210L113 50L110 62L205 43L197 0H-36L-28 43L59 64L35 46L370 697L452 700L570 44ZM207 243L202 257H464L456 241L390 650L409 649L207
243ZM334 766Q314 766 303 779T292 814Q292 839 306 854T343 870Q362 870 373 858T385 823Q385 799 371 783T334 766ZM523 766Q504 766 493 779T481 814Q481 839 495 854T532 870Q552 870 563 858T574 823Q574 799 560 783T523 766Z" />
<glyph unicode="&#xc5;" horiz-adv-x="674" d="M570 44L551 65L632 43L626 0H384L391 43L492 63L486 49L460 210L468 197H176L192 210L113 50L110 62L205 43L197 0H-36L-28 43L59 64L35 46L370 697L452 700L570 44ZM207 243L202 257H464L456 241L390 650L409 649L207
243ZM419 733Q379 733 355 755T331 815Q331 847 346 872T387 911T448 926Q488 926 512 904T536 843Q536 813 521 788T480 748T419 733ZM423 773Q453 773 469 794T486 842Q486 862 475 873T443 885Q414 885 397 865T380 817Q380 797 391 785T423 773Z" />
<glyph unicode="&#xc6;" horiz-adv-x="918" d="M-36 0L-29 43L64 64L38 45L428 647L435 632L343 650L350 693L534 698H905L881 540H833V651L847 637H574L591 652L547 372L536 387H786L777 327H525L543 344L495 44L484 61H765L749 45L785 164H833L807 0H330L337
43L432 65L417 49L445 229L458 214H210L232 228L113 45L110 64L207 43L200 0H-36ZM251 261L243 273H467L450 260L512 648L525 637H480L501 647L251 261Z" />
<glyph unicode="&#xc7;" horiz-adv-x="623" d="M279 -233Q259 -233 237 -228T193 -213L215 -171Q248 -185 282 -185Q309 -185 328 -174T347 -140Q347 -118 323 -108T259 -97L288 44H336L318 -58Q366 -63 386 -82T406 -131Q406 -162 389 -185T343 -220T279 -233ZM70
276Q70 358 95 435T166 573T277 671T424 707Q469 707 520 695T624 656L594 501H545L548 624L563 609Q528 624 490 633T420 642Q357 642 308 610T224 525T171 408T153 279Q153 202 176 154T239 83T327 59Q373 59 423 79T519 141L547 89Q490 40 428 16T308 -9Q243
-9 189 22T103 116T70 276Z" />
<glyph unicode="&#xc8;" horiz-adv-x="606" d="M473 164H521L495 0H11L17 43L114 63L100 49L195 647L205 632L113 650L120 693L282 698H594L569 540H521V650L536 637H258L275 650L230 371L220 387H475L465 327H209L226 345L179 46L168 61H458L438 47L473 164ZM480
750L264 846L300 911L503 792L480 750Z" />
<glyph unicode="&#xc9;" horiz-adv-x="606" d="M473 164H521L495 0H11L17 43L114 63L100 49L195 647L205 632L113 650L120 693L282 698H594L569 540H521V650L536 637H258L275 650L230 371L220 387H475L465 327H209L226 345L179 46L168 61H458L438 47L473 164ZM300
750L279 790L491 913L519 846L300 750Z" />
<glyph unicode="&#xca;" horiz-adv-x="606" d="M473 164H521L495 0H11L17 43L114 63L100 49L195 647L205 632L113 650L120 693L282 698H594L569 540H521V650L536 637H258L275 650L230 371L220 387H475L465 327H209L226 345L179 46L168 61H458L438 47L473 164ZM258
745L235 779L385 898L432 902L553 779L520 745L378 853L428 852L258 745Z" />
<glyph unicode="&#xcb;" horiz-adv-x="606" d="M473 164H521L495 0H11L17 43L114 63L100 49L195 647L205 632L113 650L120 693L282 698H594L569 540H521V650L536 637H258L275 650L230 371L220 387H475L465 327H209L226 345L179 46L168 61H458L438 47L473 164ZM302
766Q282 766 271 779T260 814Q260 839 274 854T311 870Q330 870 341 858T353 823Q353 799 339 783T302 766ZM491 766Q472 766 461 779T449 814Q449 839 463 854T500 870Q520 870 531 858T542 823Q542 799 528 783T491 766Z" />
<glyph unicode="&#xcc;" horiz-adv-x="348" d="M360 655L262 632L275 647L180 49L173 64L263 43L256 0H11L17 43L115 63L101 49L195 646L206 632L113 650L120 693L366 698L360 655ZM598 750L382 846L418 911L621 792L598 750Z" />
<glyph unicode="&#xcd;" horiz-adv-x="348" d="M360 655L262 632L275 647L180 49L173 64L263 43L256 0H11L17 43L115 63L101 49L195 646L206 632L113 650L120 693L366 698L360 655ZM418 750L397 790L609 913L637 846L418 750Z" />
<glyph unicode="&#xce;" horiz-adv-x="348" d="M360 655L262 632L275 647L180 49L173 64L263 43L256 0H11L17 43L115 63L101 49L195 646L206 632L113 650L120 693L366 698L360 655ZM376 745L353 779L503 898L550 902L671 779L638 745L496 853L546 852L376 745Z" />
<glyph unicode="&#xcf;" horiz-adv-x="348" d="M360 655L262 632L275 647L180 49L173 64L263 43L256 0H11L17 43L115 63L101 49L195 646L206 632L113 650L120 693L366 698L360 655ZM420 766Q400 766 389 779T378 814Q378 839 392 854T429 870Q448 870 459 858T471
823Q471 799 457 783T420 766ZM609 766Q590 766 579 779T567 814Q567 839 581 854T618 870Q638 870 649 858T660 823Q660 799 646 783T609 766Z" />
<glyph unicode="&#xd0;" horiz-adv-x="710" d="M63 328L72 385H384L374 328H63ZM399 698Q484 698 544 670T636 582T668 429Q668 345 643 268T568 131T449 35T289 0H11L17 43L114 63L101 49L196 647L205 632L113 650L120 693L301 698H399ZM302 61Q357 61 402 83T480
144T537 230T572 331T584 433Q584 502 562 547T496 614T386 637H258L275 652L179 45L168 61H302Z" />
<glyph unicode="&#xd1;" horiz-adv-x="764" d="M560 693L792 698L785 655L689 632L702 647L599 0H515L246 611H256L167 49L160 64L249 43L242 0H11L17 43L114 63L101 49L196 647L205 632L113 650L120 693L295 698L559 97L548 96L635 648L645 632L553 650L560 693ZM348
774L316 795Q340 840 364 859T416 878Q442 878 463 868T504 846T543 835Q576 835 608 881L640 860Q616 815 590 796T537 777Q513 777 493 787T454 808T412 819Q396 819 381 809T348 774Z" />
<glyph unicode="&#xd2;" horiz-adv-x="727" d="M319 -9Q244 -9 188 21T101 113T69 268Q69 332 84 395T130 514T204 613T306 682T435 707Q511 707 567 677T654 585T685 431Q685 369 670 307T626 188T552 87T449 17T319 -9ZM326 56Q379 56 422 79T498 140T555 227T590
328T602 431Q602 505 579 551T517 620T428 642Q375 642 332 620T255 559T199 472T165 371T153 268Q153 195 175 148T237 79T326 56ZM550 750L334 846L370 911L573 792L550 750Z" />
<glyph unicode="&#xd3;" horiz-adv-x="727" d="M319 -9Q244 -9 188 21T101 113T69 268Q69 332 84 395T130 514T204 613T306 682T435 707Q511 707 567 677T654 585T685 431Q685 369 670 307T626 188T552 87T449 17T319 -9ZM326 56Q379 56 422 79T498 140T555 227T590
328T602 431Q602 505 579 551T517 620T428 642Q375 642 332 620T255 559T199 472T165 371T153 268Q153 195 175 148T237 79T326 56ZM371 750L350 790L562 913L590 846L371 750Z" />
<glyph unicode="&#xd4;" horiz-adv-x="727" d="M319 -9Q244 -9 188 21T101 113T69 268Q69 332 84 395T130 514T204 613T306 682T435 707Q511 707 567 677T654 585T685 431Q685 369 670 307T626 188T552 87T449 17T319 -9ZM326 56Q379 56 422 79T498 140T555 227T590
328T602 431Q602 505 579 551T517 620T428 642Q375 642 332 620T255 559T199 472T165 371T153 268Q153 195 175 148T237 79T326 56ZM329 745L306 779L456 898L503 902L624 779L591 745L449 853L499 852L329 745Z" />
<glyph unicode="&#xd5;" horiz-adv-x="727" d="M319 -9Q244 -9 188 21T101 113T69 268Q69 332 84 395T130 514T204 613T306 682T435 707Q511 707 567 677T654 585T685 431Q685 369 670 307T626 188T552 87T449 17T319 -9ZM326 56Q379 56 422 79T498 140T555 227T590
328T602 431Q602 505 579 551T517 620T428 642Q375 642 332 620T255 559T199 472T165 371T153 268Q153 195 175 148T237 79T326 56ZM342 774L310 795Q334 840 358 859T410 878Q436 878 457 868T498 846T537 835Q570 835 602 881L634 860Q610 815 584 796T531 777Q507
777 487 787T448 808T406 819Q390 819 375 809T342 774Z" />
<glyph unicode="&#xd6;" horiz-adv-x="727" d="M319 -9Q244 -9 188 21T101 113T69 268Q69 332 84 395T130 514T204 613T306 682T435 707Q511 707 567 677T654 585T685 431Q685 369 670 307T626 188T552 87T449 17T319 -9ZM326 56Q379 56 422 79T498 140T555 227T590
328T602 431Q602 505 579 551T517 620T428 642Q375 642 332 620T255 559T199 472T165 371T153 268Q153 195 175 148T237 79T326 56ZM372 766Q352 766 341 779T330 814Q330 839 344 854T381 870Q400 870 411 858T423 823Q423 799 409 783T372 766ZM561 766Q542 766
531 779T519 814Q519 839 533 854T570 870Q590 870 601 858T612 823Q612 799 598 783T561 766Z" />
<glyph unicode="&#xd7;" horiz-adv-x="525" d="M102 155L66 199L245 360L244 337L113 500L161 544L293 381L271 382L450 544L487 500L307 338L309 362L439 199L391 154L260 317H282L102 155Z" />
<glyph unicode="&#xd8;" horiz-adv-x="739" d="M677 771L718 744L618 614L610 605L204 74L202 68L93 -74L52 -47L169 108L177 115L573 633L577 640L677 771ZM324 -9Q250 -9 194 22T107 113T75 264Q75 329 90 393T135 513T209 613T312 682T441 707Q516 707 572
677T660 586T691 435Q691 371 676 308T632 187T558 86T455 16T324 -9ZM331 56Q384 56 427 78T504 140T561 228T595 330T607 435Q607 506 585 551T523 619T434 642Q381 642 338 620T261 559T205 471T171 369T159 264Q159 194 181 148T243 79T331 56Z" />
<glyph unicode="&#xd9;" horiz-adv-x="729" d="M519 693L766 698L759 655L660 632L674 647L613 262Q599 172 565 112T471 21T321 -9Q210 -9 159 38T107 179Q107 196 108 215T114 256L176 647L186 633L94 650L101 693L345 698L338 655L243 632L256 647L193 251Q190
231 188 214T186 180Q186 116 218 86T325 56Q395 56 436 80T500 152T534 267L594 647L605 633L513 650L519 693ZM530 750L314 846L350 911L553 792L530 750Z" />
<glyph unicode="&#xda;" horiz-adv-x="729" d="M519 693L766 698L759 655L660 632L674 647L613 262Q599 172 565 112T471 21T321 -9Q210 -9 159 38T107 179Q107 196 108 215T114 256L176 647L186 633L94 650L101 693L345 698L338 655L243 632L256 647L193 251Q190
231 188 214T186 180Q186 116 218 86T325 56Q395 56 436 80T500 152T534 267L594 647L605 633L513 650L519 693ZM350 750L329 790L541 913L569 846L350 750Z" />
<glyph unicode="&#xdb;" horiz-adv-x="729" d="M519 693L766 698L759 655L660 632L674 647L613 262Q599 172 565 112T471 21T321 -9Q210 -9 159 38T107 179Q107 196 108 215T114 256L176 647L186 633L94 650L101 693L345 698L338 655L243 632L256 647L193 251Q190
231 188 214T186 180Q186 116 218 86T325 56Q395 56 436 80T500 152T534 267L594 647L605 633L513 650L519 693ZM309 745L286 779L436 898L483 902L604 779L571 745L429 853L479 852L309 745Z" />
<glyph unicode="&#xdc;" horiz-adv-x="729" d="M519 693L766 698L759 655L660 632L674 647L613 262Q599 172 565 112T471 21T321 -9Q210 -9 159 38T107 179Q107 196 108 215T114 256L176 647L186 633L94 650L101 693L345 698L338 655L243 632L256 647L193 251Q190
231 188 214T186 180Q186 116 218 86T325 56Q395 56 436 80T500 152T534 267L594 647L605 633L513 650L519 693ZM352 766Q332 766 321 779T310 814Q310 839 324 854T361 870Q380 870 391 858T403 823Q403 799 389 783T352 766ZM541 766Q522 766 511 779T499 814Q499
839 513 854T550 870Q570 870 581 858T592 823Q592 799 578 783T541 766Z" />
<glyph unicode="&#xdd;" horiz-adv-x="623" d="M147 0L154 43L252 63L239 49L274 272L279 239L137 648L151 634L67 650L73 693L321 698L314 655L208 635L216 651L331 299H314L540 648L546 633L446 650L453 693L686 698L680 655L592 637L612 650L341 239L352 272L317
49L311 64L402 43L395 0H147ZM305 750L284 790L496 913L524 846L305 750Z" />
<glyph unicode="&#xde;" horiz-adv-x="571" d="M11 0L17 43L115 63L101 49L196 647L206 632L113 650L120 693L366 698L360 655L262 632L275 648L259 549L251 557H363Q429 557 470 539T531 485T551 398Q551 325 515 269T415 182T264 151H185L198 162L180 49L173
64L268 43L261 0H11ZM204 201L195 211H267Q331 211 376 234T446 297T471 387Q471 441 440 469T342 497H240L252 508L204 201Z" />
<glyph unicode="&#xdf;" horiz-adv-x="619" d="M-52 -240Q-68 -240 -81 -239T-105 -235L-93 -178Q-84 -179 -76 -179T-61 -180Q-9 -180 18 -154T58 -58L142 476L153 465H56L64 512L161 525L148 512L159 576Q170 646 206 690T295 756T406 777Q456 777 496 762T560
717T584 642Q584 607 571 583T536 542T491 511T446 483T412 451T398 407Q398 382 411 365T446 335T490 308T535 277T569 233T583 168Q583 111 554 72T477 12T370 -9Q340 -9 309 -3T245 15L270 145H319L315 45L304 61Q322 53 339 50T374 46Q409 46 438 59T486 97T505
155Q505 183 492 202T457 235T413 263T368 294T334 335T320 394Q320 429 333 453T368 494T413 524T458 553T493 588T507 637Q507 680 476 700T398 721Q338 721 293 686T235 575L138 -40Q129 -96 112 -134T71 -196T15 -229T-52 -240Z" />
<glyph unicode="&#xe0;" horiz-adv-x="585" d="M182 -9Q144 -9 112 11T61 75T42 187Q42 259 64 322T125 434T218 509T334 537Q371 537 411 526T495 486L460 490L480 528H524L444 24L417 73L527 46L520 1L370 -4L402 195L425 232Q402 150 361 97T273 17T182 -9ZM210
56Q237 56 268 72T328 122T380 205T413 324L436 466L450 437Q419 457 390 466T332 476Q286 476 248 454T181 392T138 302T122 195Q122 122 147 89T210 56ZM290 806L464 660L435 619L246 744L290 806Z" />
<glyph unicode="&#xe1;" horiz-adv-x="585" d="M182 -9Q144 -9 112 11T61 75T42 187Q42 259 64 322T125 434T218 509T334 537Q371 537 411 526T495 486L460 490L480 528H524L444 24L417 73L527 46L520 1L370 -4L402 195L425 232Q402 150 361 97T273 17T182 -9ZM210
56Q237 56 268 72T328 122T380 205T413 324L436 466L450 437Q419 457 390 466T332 476Q286 476 248 454T181 392T138 302T122 195Q122 122 147 89T210 56ZM295 620L265 661L449 804L491 741L295 620Z" />
<glyph unicode="&#xe2;" horiz-adv-x="585" d="M182 -9Q144 -9 112 11T61 75T42 187Q42 259 64 322T125 434T218 509T334 537Q371 537 411 526T495 486L460 490L480 528H524L444 24L417 73L527 46L520 1L370 -4L402 195L425 232Q402 150 361 97T273 17T182 -9ZM210
56Q237 56 268 72T328 122T380 205T413 324L436 466L450 437Q419 457 390 466T332 476Q286 476 248 454T181 392T138 302T122 195Q122 122 147 89T210 56ZM222 883L198 916L346 1044L392 1048L508 916L475 883L338 1001L389 1000L222 883Z" />
<glyph unicode="&#xe3;" horiz-adv-x="585" d="M182 -9Q144 -9 112 11T61 75T42 187Q42 259 64 322T125 434T218 509T334 537Q371 537 411 526T495 486L460 490L480 528H524L444 24L417 73L527 46L520 1L370 -4L402 195L425 232Q402 150 361 97T273 17T182 -9ZM210
56Q237 56 268 72T328 122T380 205T413 324L436 466L450 437Q419 457 390 466T332 476Q286 476 248 454T181 392T138 302T122 195Q122 122 147 89T210 56ZM416 649Q390 649 371 661T333 686T293 699Q275 699 258 687T224 650L191 670Q215 717 242 739T298 761Q325
761 344 749T382 724T423 711Q441 711 457 723T491 760L524 741Q500 694 473 672T416 649Z" />
<glyph unicode="&#xe4;" horiz-adv-x="585" d="M182 -9Q144 -9 112 11T61 75T42 187Q42 259 64 322T125 434T218 509T334 537Q371 537 411 526T495 486L460 490L480 528H524L444 24L417 73L527 46L520 1L370 -4L402 195L425 232Q402 150 361 97T273 17T182 -9ZM210
56Q237 56 268 72T328 122T380 205T413 324L436 466L450 437Q419 457 390 466T332 476Q286 476 248 454T181 392T138 302T122 195Q122 122 147 89T210 56ZM257 643Q237 643 226 656T215 691Q215 716 229 731T266 747Q285 747 296 735T308 700Q308 676 294 660T257
643ZM446 643Q427 643 416 656T404 691Q404 716 418 731T455 747Q475 747 486 735T497 700Q497 676 483 660T446 643Z" />
<glyph unicode="&#xe5;" horiz-adv-x="585" d="M182 -9Q144 -9 112 11T61 75T42 187Q42 259 64 322T125 434T218 509T334 537Q371 537 411 526T495 486L460 490L480 528H524L444 24L417 73L527 46L520 1L370 -4L402 195L425 232Q402 150 361 97T273 17T182 -9ZM210
56Q237 56 268 72T328 122T380 205T413 324L436 466L450 437Q419 457 390 466T332 476Q286 476 248 454T181 392T138 302T122 195Q122 122 147 89T210 56ZM346 619Q306 619 282 641T258 701Q258 733 273 758T314 797T375 812Q415 812 439 790T463 729Q463 699 448
674T407 634T346 619ZM350 659Q380 659 396 680T413 728Q413 748 402 759T370 771Q341 771 324 751T307 703Q307 683 318 671T350 659Z" />
<glyph unicode="&#xe6;" horiz-adv-x="798" d="M364 154Q361 124 340 95T289 43T225 5T159 -9Q100 -9 65 24T29 120Q29 169 54 200T120 247T213 268T321 274H359L345 265Q351 305 358 342T365 403Q365 440 343 458T280 477Q247 477 211 470T137 451L174 492L147
378H99L107 500Q158 516 209 526T304 537Q357 537 389 513T422 442Q422 431 421 422T417 396L400 402Q435 460 492 498T625 537Q698 537 739 503T780 409Q780 366 758 335T697 283T610 250T509 233T406 228L421 246Q420 236 420 226T419 204Q419 125 454 88T545
51Q578 51 617 63T698 99L721 49Q672 21 623 6T529 -9Q441 -9 391 46T340 196Q340 208 340 222T343 250L362 227H329Q290 227 251 224T179 212T127 183T107 129Q107 92 128 71T189 50Q211 50 237 63T286 97T324 145T340 196L364 154ZM422 253L409 278Q444 278 484
280T562 290T632 312T683 348T702 403Q702 438 679 458T613 479Q574 479 541 460T484 408T444 335T422 253Z" />
<glyph unicode="&#xe7;" horiz-adv-x="481" d="M227 -9Q175 -9 134 13T68 84T43 206Q43 276 65 336T125 442T215 512T325 537Q360 537 397 527T472 495L452 371H398L399 465L407 453Q360 478 317 478Q274 478 238 456T177 396T137 311T122 211Q122 127 156 90T245
53Q276 53 311 64T383 97L406 48Q361 20 315 6T227 -9ZM200 -233Q179 -233 157 -228T113 -213L135 -171Q168 -185 202 -185Q229 -185 248 -174T267 -140Q267 -118 244 -108T179 -97L199 0H247L238 -58Q286 -63 306 -82T326 -131Q326 -162 309 -185T264 -220T200
-233Z" />
<glyph unicode="&#xe8;" horiz-adv-x="501" d="M231 -9Q178 -9 136 13T68 81T43 202Q43 265 62 325T119 432T208 508T326 537Q400 537 441 503T482 415Q482 370 454 335T377 276T269 240T148 227Q138 227 129 227T110 229L115 286Q127 285 139 284T165 283Q207
283 249 291T327 315T384 354T406 407Q406 439 382 459T315 479Q269 479 233 455T172 390T133 301T120 203Q120 123 154 86T247 49Q282 49 321 61T401 96L421 51Q374 21 325 6T231 -9ZM277 806L451 660L422 619L233 744L277 806Z" />
<glyph unicode="&#xe9;" horiz-adv-x="501" d="M231 -9Q178 -9 136 13T68 81T43 202Q43 265 62 325T119 432T208 508T326 537Q400 537 441 503T482 415Q482 370 454 335T377 276T269 240T148 227Q138 227 129 227T110 229L115 286Q127 285 139 284T165 283Q207
283 249 291T327 315T384 354T406 407Q406 439 382 459T315 479Q269 479 233 455T172 390T133 301T120 203Q120 123 154 86T247 49Q282 49 321 61T401 96L421 51Q374 21 325 6T231 -9ZM282 620L252 661L436 804L478 741L282 620Z" />
<glyph unicode="&#xea;" horiz-adv-x="501" d="M231 -9Q178 -9 136 13T68 81T43 202Q43 265 62 325T119 432T208 508T326 537Q400 537 441 503T482 415Q482 370 454 335T377 276T269 240T148 227Q138 227 129 227T110 229L115 286Q127 285 139 284T165 283Q207
283 249 291T327 315T384 354T406 407Q406 439 382 459T315 479Q269 479 233 455T172 390T133 301T120 203Q120 123 154 86T247 49Q282 49 321 61T401 96L421 51Q374 21 325 6T231 -9ZM209 883L185 916L333 1044L379 1048L495 916L462 883L325 1001L376 1000L209
883Z" />
<glyph unicode="&#xeb;" horiz-adv-x="501" d="M231 -9Q178 -9 136 13T68 81T43 202Q43 265 62 325T119 432T208 508T326 537Q400 537 441 503T482 415Q482 370 454 335T377 276T269 240T148 227Q138 227 129 227T110 229L115 286Q127 285 139 284T165 283Q207
283 249 291T327 315T384 354T406 407Q406 439 382 459T315 479Q269 479 233 455T172 390T133 301T120 203Q120 123 154 86T247 49Q282 49 321 61T401 96L421 51Q374 21 325 6T231 -9ZM244 643Q224 643 213 656T202 691Q202 716 216 731T253 747Q272 747 283 735T295
700Q295 676 281 660T244 643ZM433 643Q414 643 403 656T391 691Q391 716 405 731T442 747Q462 747 473 735T484 700Q484 676 470 660T433 643Z" />
<glyph unicode="&#xec;" horiz-adv-x="285" d="M62 -3L142 503L170 455L60 482L67 525L224 531L144 25L118 72L226 45L219 1L62 -3ZM399 806L573 660L544 619L355 744L399 806Z" />
<glyph unicode="&#xed;" horiz-adv-x="285" d="M62 -3L142 503L170 455L60 482L67 525L224 531L144 25L118 72L226 45L219 1L62 -3ZM148 620L118 661L302 804L344 741L148 620Z" />
<glyph unicode="&#xee;" horiz-adv-x="285" d="M87 628L60 659L187 788L233 792L322 654L287 628L184 747L232 745L87 628ZM62 -3L142 503L170 455L60 482L67 525L224 531L144 25L118 72L226 45L219 1L62 -3Z" />
<glyph unicode="&#xef;" horiz-adv-x="286" d="M62 -3L142 503L170 455L60 482L67 525L224 531L144 25L118 72L226 45L219 1L62 -3ZM113 643Q94 643 83 656T71 691Q71 716 85 731T122 747Q141 747 152 735T164 700Q164 676 150 660T113 643ZM287 643Q267 643 256
656T245 691Q245 716 259 731T296 747Q315 747 326 735T338 700Q338 676 324 660T287 643Z" />
<glyph unicode="&#xf0;" horiz-adv-x="570" d="M225 -9Q136 -9 88 42T40 192Q40 254 58 311T112 414T196 486T309 513Q356 513 387 498T439 457T468 395H452Q454 495 429 566T349 677T207 717L219 777Q300 776 357 748T451 671T504 554T522 406Q522 317 503 242T445
110T352 22T225 -9ZM235 51Q284 51 321 75T382 138T419 223T432 315Q432 384 404 420T316 456Q267 456 230 433T169 370T133 285T120 192Q120 121 149 86T235 51ZM266 580L245 617L510 778L531 741L266 580Z" />
<glyph unicode="&#xf1;" horiz-adv-x="605" d="M388 -3L444 346Q451 388 445 416T421 459T376 473Q349 473 318 457T258 409T206 327T173 207L140 0H62L142 503L169 455L60 482L67 525L221 531L184 335L159 297Q186 384 227 436T316 513T406 537Q448 537 478 517T521
458T524 361L474 46L441 73L553 46L546 1L388 -3ZM429 649Q403 649 384 661T346 686T306 699Q288 699 271 687T237 650L204 670Q228 717 255 739T311 761Q338 761 357 749T395 724T436 711Q454 711 470 723T504 760L537 741Q513 694 486 672T429 649Z" />
<glyph unicode="&#xf2;" horiz-adv-x="556" d="M324 537Q380 537 422 515T488 446T512 322Q512 261 495 202T443 95T356 19T233 -9Q178 -9 136 13T70 82T46 206Q46 268 63 326T114 432T201 508T324 537ZM313 477Q265 477 230 452T172 387T137 300T125 207Q125
132 155 92T244 51Q291 51 326 76T385 141T420 229T432 322Q432 397 403 437T313 477ZM286 806L460 660L431 619L242 744L286 806Z" />
<glyph unicode="&#xf3;" horiz-adv-x="556" d="M324 537Q380 537 422 515T488 446T512 322Q512 261 495 202T443 95T356 19T233 -9Q178 -9 136 13T70 82T46 206Q46 268 63 326T114 432T201 508T324 537ZM313 477Q265 477 230 452T172 387T137 300T125 207Q125
132 155 92T244 51Q291 51 326 76T385 141T420 229T432 322Q432 397 403 437T313 477ZM291 620L261 661L445 804L487 741L291 620Z" />
<glyph unicode="&#xf4;" horiz-adv-x="556" d="M324 537Q380 537 422 515T488 446T512 322Q512 261 495 202T443 95T356 19T233 -9Q178 -9 136 13T70 82T46 206Q46 268 63 326T114 432T201 508T324 537ZM313 477Q265 477 230 452T172 387T137 300T125 207Q125
132 155 92T244 51Q291 51 326 76T385 141T420 229T432 322Q432 397 403 437T313 477ZM219 883L195 916L343 1044L389 1048L505 916L472 883L335 1001L386 1000L219 883Z" />
<glyph unicode="&#xf5;" horiz-adv-x="556" d="M324 537Q380 537 422 515T488 446T512 322Q512 261 495 202T443 95T356 19T233 -9Q178 -9 136 13T70 82T46 206Q46 268 63 326T114 432T201 508T324 537ZM313 477Q265 477 230 452T172 387T137 300T125 207Q125
132 155 92T244 51Q291 51 326 76T385 141T420 229T432 322Q432 397 403 437T313 477ZM412 649Q386 649 367 661T329 686T289 699Q271 699 254 687T220 650L187 670Q211 717 238 739T294 761Q321 761 340 749T378 724T419 711Q437 711 453 723T487 760L520 741Q496
694 469 672T412 649Z" />
<glyph unicode="&#xf6;" horiz-adv-x="556" d="M324 537Q380 537 422 515T488 446T512 322Q512 261 495 202T443 95T356 19T233 -9Q178 -9 136 13T70 82T46 206Q46 268 63 326T114 432T201 508T324 537ZM313 477Q265 477 230 452T172 387T137 300T125 207Q125
132 155 92T244 51Q291 51 326 76T385 141T420 229T432 322Q432 397 403 437T313 477ZM254 643Q234 643 223 656T212 691Q212 716 226 731T263 747Q282 747 293 735T305 700Q305 676 291 660T254 643ZM443 643Q424 643 413 656T401 691Q401 716 415 731T452 747Q472
747 483 735T494 700Q494 676 480 660T443 643Z" />
<glyph unicode="&#xf7;" horiz-adv-x="685" d="M575 379L566 320H136L146 379H575ZM323 127Q301 127 289 140T277 174Q277 200 294 215T335 231Q355 231 368 219T382 184Q382 158 365 143T323 127ZM377 471Q355 471 343 484T331 518Q331 544 348 559T389 575Q409
575 422 563T436 528Q436 502 419 487T377 471Z" />
<glyph unicode="&#xf8;" horiz-adv-x="582" d="M523 609L557 588L440 433L435 428L163 65L157 56L54 -82L21 -59L137 94L145 102L414 462L418 470L523 609ZM336 537Q392 537 434 515T500 446T524 323Q524 261 507 202T455 95T368 19T246 -9Q191 -9 149 13T82 82T58
206Q58 268 75 326T127 432T214 508T336 537ZM326 477Q278 477 243 452T184 387T150 299T138 206Q138 130 167 91T256 51Q303 51 338 76T397 141T432 229T444 322Q444 399 415 438T326 477Z" />
<glyph unicode="&#xf9;" horiz-adv-x="605" d="M199 -9Q158 -10 128 10T86 70T81 167L131 482L139 464L54 482L60 525L217 531L161 182Q155 140 161 112T185 69T229 55Q257 55 288 70T348 119T399 202T433 321L465 528H543L468 48L457 64L546 44L540 1L389 -3L422
195L446 231Q421 146 379 94T290 17T199 -9ZM297 806L471 660L442 619L253 744L297 806Z" />
<glyph unicode="&#xfa;" horiz-adv-x="605" d="M199 -9Q158 -10 128 10T86 70T81 167L131 482L139 464L54 482L60 525L217 531L161 182Q155 140 161 112T185 69T229 55Q257 55 288 70T348 119T399 202T433 321L465 528H543L468 48L457 64L546 44L540 1L389 -3L422
195L446 231Q421 146 379 94T290 17T199 -9ZM302 620L272 661L456 804L498 741L302 620Z" />
<glyph unicode="&#xfb;" horiz-adv-x="605" d="M199 -9Q158 -10 128 10T86 70T81 167L131 482L139 464L54 482L60 525L217 531L161 182Q155 140 161 112T185 69T229 55Q257 55 288 70T348 119T399 202T433 321L465 528H543L468 48L457 64L546 44L540 1L389 -3L422
195L446 231Q421 146 379 94T290 17T199 -9ZM229 883L205 916L353 1044L399 1048L515 916L482 883L345 1001L396 1000L229 883Z" />
<glyph unicode="&#xfc;" horiz-adv-x="605" d="M199 -9Q158 -10 128 10T86 70T81 167L131 482L139 464L54 482L60 525L217 531L161 182Q155 140 161 112T185 69T229 55Q257 55 288 70T348 119T399 202T433 321L465 528H543L468 48L457 64L546 44L540 1L389 -3L422
195L446 231Q421 146 379 94T290 17T199 -9ZM264 643Q244 643 233 656T222 691Q222 716 236 731T273 747Q292 747 303 735T315 700Q315 676 301 660T264 643ZM453 643Q434 643 423 656T411 691Q411 716 425 731T462 747Q482 747 493 735T504 700Q504 676 490 660T453
643Z" />
<glyph unicode="&#xfd;" horiz-adv-x="509" d="M-53 -234L-43 -175Q-32 -176 -23 -177T-5 -178Q43 -178 76 -156T138 -89T197 23L193 -7L83 480L92 471L28 482L35 525L154 532L246 57L225 61L428 480L432 471L362 482L368 525L555 532L549 488L485 472L501 481L260
-2Q245 -32 228 -65T190 -129T141 -185T79 -224T-3 -239Q-26 -239 -53 -234ZM234 620L204 661L388 804L430 741L234 620Z" />
<glyph unicode="&#xfe;" horiz-adv-x="573" d="M-67 -230L-60 -187L56 -159L16 -201L163 720L174 704L84 722L91 766L249 772L177 330L149 297Q173 380 213 433T300 512T390 538Q428 538 460 518T511 454T530 339Q530 243 497 170T404 53T262 -3T81 11L129 17L94
-203L65 -158L185 -187L178 -230H-67ZM133 45L116 72Q191 46 253 54T359 99T426 194T450 332Q450 407 425 440T362 473Q334 473 304 457T244 407T192 324T158 204L133 45Z" />
<glyph unicode="&#xff;" horiz-adv-x="509" d="M-53 -234L-43 -175Q-32 -176 -23 -177T-5 -178Q43 -178 76 -156T138 -89T197 23L193 -7L83 480L92 471L28 482L35 525L154 532L246 57L225 61L428 480L432 471L362 482L368 525L555 532L549 488L485 472L501 481L260
-2Q245 -32 228 -65T190 -129T141 -185T79 -224T-3 -239Q-26 -239 -53 -234ZM196 643Q176 643 165 656T154 691Q154 716 168 731T205 747Q224 747 235 735T247 700Q247 676 233 660T196 643ZM385 643Q366 643 355 656T343 691Q343 716 357 731T394 747Q414 747
425 735T436 700Q436 676 422 660T385 643Z" />
<glyph unicode="&#x2013;" horiz-adv-x="584" d="M527 325L517 262H69L79 325H527Z" />
<glyph unicode="&#x2014;" horiz-adv-x="821" d="M764 322L754 259H66L76 322H764Z" />
<glyph unicode="&#x2018;" horiz-adv-x="185" d="M182 598Q182 573 167 559T133 545Q116 545 103 557T90 593Q90 613 102 643T139 710T200 783L227 759Q195 713 183 687T170 648Q170 636 176 626T182 598Z" />
<glyph unicode="&#x2019;" horiz-adv-x="186" d="M130 728Q130 753 145 767T179 781Q196 781 209 769T223 733Q223 712 210 682T173 616T112 543L85 567Q117 613 129 639T142 678Q142 690 136 700T130 728Z" />
<glyph unicode="&#x201a;" horiz-adv-x="186" d="M20 36Q20 61 35 75T69 89Q86 89 99 77T113 41Q113 20 100 -10T63 -76T2 -149L-25 -125Q7 -79 19 -53T32 -14Q32 -2 26 8T20 36Z" />
<glyph unicode="&#x201c;" horiz-adv-x="339" d="M185 612Q185 588 170 574T135 559Q119 559 106 571T92 607Q92 628 105 658T142 724T202 797L230 774Q197 727 185 701T173 663Q173 650 179 640T185 612ZM338 612Q338 588 323 574T288 559Q272 559 259 571T245
607Q245 628 257 658T295 724T355 797L382 774Q350 727 338 701T326 663Q326 650 332 640T338 612Z" />
<glyph unicode="&#x201d;" horiz-adv-x="339" d="M283 728Q283 753 298 767T332 781Q349 781 362 769T376 733Q376 712 363 682T326 616T265 543L238 567Q270 613 282 639T295 678Q295 690 289 700T283 728ZM130 728Q130 753 145 767T179 781Q196 781 209 769T223
733Q223 712 210 682T173 616T112 543L85 567Q117 613 129 639T142 678Q142 690 136 700T130 728Z" />
<glyph unicode="&#x201e;" horiz-adv-x="339" d="M173 36Q173 61 188 75T222 89Q239 89 252 77T266 41Q266 20 253 -10T216 -76T155 -149L128 -125Q160 -79 172 -53T185 -14Q185 -2 179 8T173 36ZM20 36Q20 61 35 75T69 89Q86 89 99 77T113 41Q113 20 100 -10T63
-76T2 -149L-25 -125Q7 -79 19 -53T32 -14Q32 -2 26 8T20 36Z" />
<glyph unicode="&#x2022;" horiz-adv-x="365" d="M80 311Q80 347 95 373T136 414T193 429Q225 429 249 415T286 374T300 314Q300 279 286 253T246 213T187 198Q156 198 132 212T94 251T80 311Z" />
<glyph unicode="&#x2039;" horiz-adv-x="287" d="M166 64L48 247L54 293L230 476L264 446L103 254L108 288L208 95L166 64Z" />
<glyph unicode="&#x203a;" horiz-adv-x="288" d="M123 476L241 293L235 247L60 64L25 94L186 286L182 252L81 445L123 476Z" />
</font>
</defs>
</svg>
