<?xml version="1.0" standalone="no"?>
<!DOCTYPE svg PUBLIC "-//W3C//DTD SVG 1.1//EN" "http://www.w3.org/Graphics/SVG/1.1/DTD/svg11.dtd">
<svg xmlns="http://www.w3.org/2000/svg">
<defs >
<font id="Bitter" horiz-adv-x="587" ><font-face
    font-family="Bitter Thin Black"
    units-per-em="1000"
    panose-1="0 0 0 0 0 0 0 0 0 0"
    ascent="935"
    descent="-265"
    alphabetic="0" />
<glyph unicode=" " horiz-adv-x="160" />
<glyph unicode="!" horiz-adv-x="310" d="M83 260L50 710H261L228 269L83 260ZM48 89Q48 136 80 164T155 193Q205 193 233 165T262 89Q262 42 230 14T155 -15Q106 -15 77 13T48 89Z" />
<glyph unicode="&quot;" horiz-adv-x="484" d="M77 477L50 780H222L195 477H77ZM289 477L262 780H434L407 477H289Z" />
<glyph unicode="#" horiz-adv-x="676" d="M55 550H660V430H55V550ZM16 280H621V160H16V280ZM178 710H338L238 0H78L178 710ZM438 710H598L498 0H338L438 710Z" />
<glyph unicode="$" horiz-adv-x="590" d="M235 -125V31L290 0Q284 0 278 0T266 0Q224 0 161 10T39 42V257H161L181 168Q204 158 229 153T279 148Q305 148 325 154T357 173T369 206Q369 232 351 247T303 271T237 288T165 309T99 343T51 399T33 487Q33 561 68 610T165
684T302 709L235 674V833H370V675L317 709H324Q352 709 393 702T474 684T541 663L528 470H408L385 552Q368 557 351 559T316 561Q292 561 273 556T242 540T230 510Q230 487 248 473T297 450T363 431T436 409T502 374T550 318T569 230Q569 158 534 109T439 33T304
1L370 40V-125H235Z" />
<glyph unicode="%" horiz-adv-x="891" d="M124 -16L602 724H762L284 -16H124ZM206 346Q121 346 71 397T20 535Q20 619 70 672T212 725Q304 725 350 673T397 542Q397 455 347 401T206 346ZM209 451Q235 451 243 471T252 536Q252 580 244 600T210 620Q184 620 175
600T165 533Q165 492 174 472T209 451ZM680 -15Q595 -15 545 36T494 174Q494 258 544 311T686 364Q778 364 824 312T871 181Q871 94 821 40T680 -15ZM683 90Q709 90 717 110T726 175Q726 219 718 239T684 259Q658 259 649 239T639 172Q639 131 648 111T683 90Z"
/>
<glyph unicode="&amp;" horiz-adv-x="653" d="M292 -15Q218 -15 158 6T62 72T27 186Q27 237 48 278T115 346T228 384L234 360Q145 368 96 414T46 534Q46 602 84 644T182 705T310 725Q363 725 423 714T541 682L530 508H405L381 585L418 561Q391 569 370 573T329
578Q295 578 274 563T253 513Q253 474 278 456T335 438H647V333L569 305L587 338V234Q587 156 551 100T448 15T292 -15ZM314 141Q350 141 369 162T389 221V320L423 296H318Q293 296 275 286T246 259T236 216Q236 182 258 162T314 141Z" />
<glyph unicode="&apos;" horiz-adv-x="272" d="M77 477L50 780H222L195 477H77Z" />
<glyph unicode="(" horiz-adv-x="323" d="M333 834Q266 731 232 613T198 375Q198 257 232 138T333 -84L205 -159Q104 -40 56 98T8 375Q8 514 56 652T205 909L333 834Z" />
<glyph unicode=")" horiz-adv-x="323" d="M-10 -83Q58 20 91 138T125 376Q125 495 92 613T-10 835L118 910Q219 791 267 653T315 376Q315 237 267 99T118 -158L-10 -83Z" />
<glyph unicode="*" horiz-adv-x="431" d="M274 404L213 513L226 567L282 561L362 470L274 404ZM158 404L64 470L145 563L200 567L213 513L158 404ZM145 563L25 580L61 688L170 644L193 590L145 563ZM212 607L170 644L155 758L268 760L257 643L212 607ZM282 561L237
594L257 643L364 692L401 582L282 561Z" />
<glyph unicode="+" horiz-adv-x="522" d="M216 421L186 391V598H336V391L306 421H503V281H306L336 311V104H186V311L216 281H19V421H216Z" />
<glyph unicode="," horiz-adv-x="268" d="M20 -160Q56 -104 68 -74T80 -31Q80 -14 69 1T46 37T35 89Q35 139 68 166T143 193Q169 193 193 181T232 144T248 78Q248 26 213 -46T91 -207L20 -160Z" />
<glyph unicode="-" horiz-adv-x="434" d="M387 368V218H47V368H387Z" />
<glyph unicode="." horiz-adv-x="254" d="M20 89Q20 136 52 164T127 193Q177 193 205 165T234 89Q234 42 202 14T127 -15Q78 -15 49 13T20 89Z" />
<glyph unicode="/" horiz-adv-x="364" d="M382 813L119 -90H-18L243 813H382Z" />
<glyph unicode="0" horiz-adv-x="628" d="M311 -15Q207 -15 144 26T54 148T26 349Q26 472 54 556T147 682T321 725Q432 725 493 684T578 563T602 364Q602 241 573 157T481 29T311 -15ZM314 138Q349 138 365 162T385 235T390 359Q390 431 386 478T366 548T315 572Q280
572 263 548T242 475T237 354Q237 282 241 234T262 162T314 138Z" />
<glyph unicode="1" horiz-adv-x="457" d="M369 85L331 136L459 100V0H50V100L203 133L164 85V542H219L63 457L-2 580L197 714H369V85Z" />
<glyph unicode="2" horiz-adv-x="582" d="M28 0V170Q136 249 203 304T301 403T332 492Q332 534 309 554T248 575Q229 575 208 570T164 557L185 589L164 486H43L30 688Q98 706 162 715T283 725Q361 725 420 705T513 640T547 521Q547 444 512 380T412 256T262 136L263
158H558V0H28Z" />
<glyph unicode="3" horiz-adv-x="582" d="M255 -15Q191 -15 129 -1T12 40L63 181Q108 163 155 152T244 141Q276 141 300 148T339 173T353 219Q353 245 341 261T305 284T247 292H156V434H238Q287 434 314 451T342 507Q342 546 315 563T247 580Q221 580 197 575T150
561L175 585L161 495H41L32 682Q97 703 163 714T290 725Q362 725 421 708T514 650T549 543Q549 462 498 418T363 364L355 381Q461 374 511 332T561 210Q561 150 536 108T468 38T369 -2T255 -15Z" />
<glyph unicode="4" horiz-adv-x="633" d="M336 174L386 134H23L3 275L301 725L541 710V254L491 289H627V134H491L541 174V0H336V174ZM390 289L340 254V613L411 601L161 216L121 289H390Z" />
<glyph unicode="5" horiz-adv-x="559" d="M263 -13Q143 -13 12 44L65 184Q108 166 151 155T230 144Q258 144 279 152T313 177T325 222Q325 263 301 279T232 299T130 303H54L68 710H507L504 555H212L269 589L259 407L207 449H268Q370 449 429 422T514 347T540 235Q540
150 504 95T404 14T263 -13Z" />
<glyph unicode="6" horiz-adv-x="596" d="M207 276L197 406Q235 423 277 436T366 449Q427 449 476 425T556 352T586 233Q586 154 549 99T449 14T308 -15Q230 -15 165 17T59 122T19 315Q19 444 66 535T198 676T391 725Q457 725 527 706L514 561Q488 566 464 568T420
570Q348 570 307 542T247 456T229 307Q229 222 246 181T307 140Q339 140 357 160T376 224Q376 252 366 270T339 299T297 309Q276 309 253 301T207 276Z" />
<glyph unicode="7" horiz-adv-x="573" d="M565 568L318 0H92L354 579L381 550H122L164 579L136 458H14V710H565V568Z" />
<glyph unicode="8" horiz-adv-x="602" d="M287 -15Q236 -15 188 -3T100 33T39 94T16 179Q16 210 26 240T59 295T116 339T196 367L310 310Q285 304 267 294T237 270T219 241T213 208Q213 186 222 168T251 139T300 128Q329 128 348 138T378 166T388 202Q388 230
369 248T319 281T251 308T176 338T108 378T58 434T39 517Q39 587 77 633T178 702T309 725Q376 725 433 704T527 641T563 534Q563 504 554 478T526 432T477 396T407 371L262 430Q290 431 310 438T343 458T362 486T368 517Q368 538 360 552T336 575T301 583Q283 583
269 576T245 557T236 526Q236 499 255 481T305 448T373 421T448 392T517 352T567 294T586 211Q586 154 560 112T491 41T395 -1T287 -15Z" />
<glyph unicode="9" horiz-adv-x="596" d="M389 430L399 299Q362 283 320 270T229 257Q163 257 114 284T37 360T10 475Q10 555 47 610T147 695T288 725Q366 725 432 693T537 587T577 394Q577 266 530 174T399 34T205 -15Q139 -15 69 4L82 147Q108 143 132 141T176
138Q248 138 290 166T349 252T367 402Q367 486 350 528T289 570Q257 570 239 549T220 486Q220 456 229 436T256 406T298 396Q320 396 343 404T389 430Z" />
<glyph unicode=":" horiz-adv-x="254" d="M20 89Q20 136 52 164T127 193Q177 193 205 165T234 89Q234 42 202 14T127 -15Q78 -15 49 13T20 89ZM20 396Q20 443 52 471T127 500Q177 500 205 472T234 396Q234 349 202 321T127 292Q78 292 49 320T20 396Z" />
<glyph unicode=";" horiz-adv-x="268" d="M20 -160Q56 -104 68 -74T80 -31Q80 -14 69 1T46 37T35 89Q35 139 68 166T143 193Q169 193 193 181T232 144T248 78Q248 26 213 -46T91 -207L20 -160ZM34 396Q34 443 66 471T141 500Q191 500 219 472T248 396Q248 349
216 321T141 292Q92 292 63 320T34 396Z" />
<glyph unicode="&lt;" horiz-adv-x="529" d="M443 94L20 285V429L444 626L496 489L172 342V378L497 236L443 94Z" />
<glyph unicode="=" horiz-adv-x="514" d="M494 522V382H20V522H494ZM494 563V423H20V563H494Z" />
<glyph unicode="&gt;" horiz-adv-x="526" d="M92 603L507 433V289L90 115L41 248L355 375V339L40 453L92 603Z" />
<glyph unicode="?" horiz-adv-x="479" d="M115 260Q111 277 109 292T106 320Q106 360 121 385T160 427T207 458T245 488T261 528Q261 554 241 566T188 579Q158 579 121 570T48 549L6 677Q128 728 247 728Q308 728 358 712T437 660T467 564Q467 513 447 480T397
423T337 380T287 338T267 282Q267 279 267 276T268 268L115 260ZM95 87Q95 135 127 164T205 193Q252 193 280 165T309 91Q309 42 277 14T199 -15Q153 -15 124 13T95 87Z" />
<glyph unicode="@" horiz-adv-x="862" d="M383 -116Q281 -116 199 -72T70 57T22 265Q22 368 56 444T149 572T284 648T445 673Q528 673 601 649T729 578T816 462T847 302Q847 181 790 121T632 60Q574 60 536 81T478 151L506 152Q484 106 446 84T367 61Q334 61 305
76T257 120T239 193Q239 250 274 284T386 318H486L471 296V339Q471 364 454 373T408 383Q383 383 352 377T291 363L268 461Q317 478 363 486T449 495Q526 495 574 458T623 337V198Q623 176 631 168T651 160Q675 160 683 193T692 271Q692 368 662 430T575 522T440
552Q360 552 301 521T209 427T177 266Q177 181 204 123T281 34T401 4Q433 4 469 10T545 30L585 -76Q533 -96 482 -106T383 -116ZM430 170Q443 170 456 178T483 203L471 165V269L486 246H435Q416 246 408 237T399 209Q399 189 408 180T430 170Z" />
<glyph unicode="A" horiz-adv-x="718" d="M689 89L638 135L716 100V0H403V100L471 131L453 104L426 205L455 180H231L252 202L223 108L219 127L279 100V0H1V100L77 133L32 94L260 708L471 713L689 89ZM280 294L268 320H423L404 289L327 605L375 604L280 294Z" />
<glyph unicode="B" horiz-adv-x="648" d="M369 348L381 367Q453 367 509 354T597 306T629 202Q629 134 595 89T497 22T342 0H24V100L109 134L84 95V610L116 569L24 605V705L279 710H362Q435 710 489 693T573 637T603 532Q603 440 543 397T369 348ZM322 568H259L289
598V403L259 430H303Q322 430 344 433T382 451T398 503Q398 536 386 549T356 565T322 568ZM323 143Q342 143 365 146T404 165T421 219Q421 255 407 269T376 287T347 290H259L289 324V113L259 143H323Z" />
<glyph unicode="C" horiz-adv-x="619" d="M332 -15Q248 -15 178 25T65 147T22 351Q22 468 63 552T179 680T357 725Q413 725 469 712T591 671L580 468H460L429 579L463 549Q434 560 411 565T366 570Q321 570 294 547T255 481T242 375Q242 296 259 246T309 172T383
148Q415 148 452 161T529 202L602 86Q536 35 467 10T332 -15Z" />
<glyph unicode="D" horiz-adv-x="706" d="M354 710Q435 710 497 688T600 623T663 516T685 369Q685 249 643 167T522 43T329 0H24V100L110 134L84 95V610L112 570L24 605V705L289 710H354ZM339 145Q359 145 380 149T421 171T453 234T465 358Q465 436 454 478T424
539T386 561T349 565H259L289 595V115L259 145H339Z" />
<glyph unicode="E" horiz-adv-x="596" d="M443 211H563L561 0H24V100L109 134L84 95V610L108 572L24 605V705L284 710H551V508H431L408 591L444 565H259L289 595V400L259 430H468V290H259L289 325V115L259 145H456L419 115L443 211Z" />
<glyph unicode="F" horiz-adv-x="560" d="M24 0V100L103 132L84 105V610L111 571L24 605V705L284 710H548L549 505H429L407 584L442 565H259L289 595V403L259 430H469V285H259L289 315V105L266 132L364 100V0H24Z" />
<glyph unicode="G" horiz-adv-x="695" d="M359 -15Q259 -15 183 27T65 151T23 353Q23 470 64 553T183 681T373 725Q435 725 500 711T633 669L621 468H501L470 577L501 552Q472 561 446 566T395 571Q346 571 312 549T261 479T243 357Q243 258 276 199T383 140Q400
140 420 143T462 154L439 114V277L470 244L379 268V372L689 377V272L611 244L629 277V44Q556 14 487 0T359 -15Z" />
<glyph unicode="H" horiz-adv-x="779" d="M24 0V100L109 134L84 95V610L116 569L24 605V705L349 710V610L260 569L289 611V405L259 435H520L490 405V610L520 569L430 605V705L755 710V610L669 570L695 611V95L669 134L755 100V0H430V100L514 134L490 95V320L520
290H259L289 320V95L265 134L349 100V0H24Z" />
<glyph unicode="I" horiz-adv-x="373" d="M349 610L270 572L289 600V105L270 132L349 100V0H24V100L101 131L84 105V600L108 571L24 605V705L349 710V610Z" />
<glyph unicode="J" horiz-adv-x="354" d="M9 705L339 710V612L259 570L279 610V158Q279 81 269 18T231 -91T154 -161T28 -186Q6 -186 -17 -184T-66 -177L-49 -34Q-39 -35 -32 -36T-17 -37Q36 -37 55 0T74 114V610L96 573L9 605V705Z" />
<glyph unicode="K" horiz-adv-x="726" d="M692 91L639 133L716 100V0H398V100L460 133L457 99L318 329L369 290H259L289 329V95L265 137L344 100V0H24V100L104 132L84 95V611L103 575L24 605V705L344 710V612L266 574L289 616V404L259 435H386L336 404L453 609L468
580L395 605V705L692 710V610L610 574L651 607L489 346V395L692 91Z" />
<glyph unicode="L" horiz-adv-x="564" d="M429 245H549V0H24V100L105 132L84 95V610L105 573L24 605V705L352 710V610L270 573L289 610V115L259 145H428L402 114L429 245Z" />
<glyph unicode="M" horiz-adv-x="855" d="M831 610L745 569L771 620V95L745 134L831 100V0H523V100L615 135L583 95V496L614 495L475 183L350 178L218 496H247V95L227 131L308 100V0H24V100L110 134L84 95V620L110 571L24 605V705L335 710L448 383H425L547 705L831
710V610Z" />
<glyph unicode="N" horiz-adv-x="752" d="M452 705L740 710V610L653 570L680 611V0H443L224 495H252V95L223 135L312 100V0H24V100L113 135L84 95V610L102 574L24 605V705L327 710L541 228H512V610L541 570L452 605V705Z" />
<glyph unicode="O" horiz-adv-x="720" d="M343 -15Q239 -15 168 26T60 148T23 344Q23 438 46 509T115 629T223 701T368 725Q449 725 510 701T613 632T676 520T698 370Q698 252 656 166T534 32T343 -15ZM358 140Q396 140 422 158T463 224T478 362Q478 443 466 488T427
552T359 570Q321 570 295 553T256 488T243 351Q243 272 254 226T291 160T358 140Z" />
<glyph unicode="P" horiz-adv-x="625" d="M315 231H249L289 261V95L262 132L369 100V0H24V100L114 135L84 95V612L119 570L24 605V705L293 710H362Q451 710 506 679T588 595T614 480Q614 413 584 356T487 265T315 231ZM329 566H259L289 596V346L249 376H315Q361
376 383 404T406 476Q406 518 387 542T329 566Z" />
<glyph unicode="Q" horiz-adv-x="722" d="M654 -213Q614 -213 568 -191T457 -122T297 0L341 -15Q238 -14 167 28T60 150T23 345Q23 438 46 509T115 628T224 700T369 725Q450 725 512 701T615 632T678 521T700 371Q700 277 673 202T595 77T469 3L476 26Q521 -3
553 -20T610 -45T657 -53Q683 -53 708 -44T764 -16L835 -139Q778 -174 737 -193T654 -213ZM243 351Q243 273 254 227T290 160T359 140Q404 140 430 161T468 231T480 363Q480 440 469 485T431 550T360 570Q317 570 291 549T254 481T243 351Z" />
<glyph unicode="R" horiz-adv-x="677" d="M24 0V100L108 133L84 95V609L119 568L24 605V705L297 710H375Q502 710 566 657T631 505Q631 419 580 362T413 289L415 312Q454 313 479 305T521 280T550 242L625 104L569 139L667 100V0H463L374 188Q358 223 349 240T329
262T292 266L257 265L289 292V95L264 134L349 100V0H24ZM289 355L257 405H327Q377 405 400 426T423 491Q423 525 406 545T349 566H257L289 596V355Z" />
<glyph unicode="S" horiz-adv-x="603" d="M232 527Q232 506 251 492T301 466T369 442T444 413T512 371T562 307T581 215Q581 135 540 84T429 9T275 -16Q218 -16 159 -6T41 26L46 241H163L189 126L171 157Q196 145 226 139T284 132Q311 132 333 138T368 156T381
188Q381 212 363 227T313 253T245 276T171 303T103 344T54 406T35 500Q35 577 71 626T170 700T311 725Q367 725 429 714T553 679L540 484H420L393 582L413 563Q392 570 370 573T324 577Q299 577 278 572T245 556T232 527Z" />
<glyph unicode="T" horiz-adv-x="639" d="M147 0V100L252 135L217 85V595L257 565H122L166 603L134 477H14V710H625V477H505L475 595L517 565H382L422 595V85L389 135L492 100V0H147Z" />
<glyph unicode="U" horiz-adv-x="736" d="M403 705L728 710V610L647 572L668 621V285Q668 222 655 173T616 89T553 30T468 -4T362 -15Q274 -15 218 6T131 62T87 136T71 210T68 270V620L89 573L8 605V705L333 710V610L255 572L273 620V270Q273 243 275 222T283
186T299 160T326 145T365 140Q389 140 405 145T433 162T451 190T460 230T463 285V621L479 575L403 605V705Z" />
<glyph unicode="V" horiz-adv-x="725" d="M249 0L43 605L89 571L3 605V705L330 710V610L245 575L269 624L390 177H362L499 611L515 572L439 605V705L724 710V610L639 576L684 610L467 0H249Z" />
<glyph unicode="W" horiz-adv-x="1018" d="M737 705L1017 710V610L931 577L976 629L801 0H608L485 466L522 465L394 0H204L45 611L61 580L2 605V705L299 710V610L230 575L254 611L337 182H295L424 705L612 710L739 184L697 183L797 611L813 575L737 605V705Z" />
<glyph unicode="X" horiz-adv-x="724" d="M696 91L638 133L711 100V0H382V100L447 130L454 100L316 276L363 278L221 92L212 135L283 100V0H14V100L86 134L34 89L263 375L261 325L46 610L90 581L24 605V705L347 710V610L286 580L293 604L416 439L372 449L489 604L499
576L434 605V705L700 710V610L629 568L676 610L462 339L468 387L696 91Z" />
<glyph unicode="Y" horiz-adv-x="654" d="M156 0V100L247 135L221 95V281L238 216L33 603L68 573L1 605V705L301 710V610L230 580L245 614L360 354H322L440 605L454 571L379 605V705L653 710V610L584 580L620 609L412 216L426 281V95L399 135L490 100V0H156Z" />
<glyph unicode="Z" horiz-adv-x="630" d="M24 0V135L372 585L393 563H149L194 583L167 480H47V710H594V576L247 117L241 147H494L455 120L475 230H597V0H24Z" />
<glyph unicode="[" horiz-adv-x="351" d="M58 -118V872L346 867V747L228 737V17L346 7V-113L58 -118Z" />
<glyph unicode="\" horiz-adv-x="383" d="M-10 813H132L393 -90H253L-10 813Z" />
<glyph unicode="]" horiz-adv-x="351" d="M293 872V-118L5 -113V7L123 17V737L5 747V867L293 872Z" />
<glyph unicode="^" horiz-adv-x="543" d="M1 540L198 900H343L542 540H359L221 828H317L179 540H1Z" />
<glyph unicode="_" horiz-adv-x="488" d="M489 -51V-176H-1V-51H489Z" />
<glyph unicode="`" horiz-adv-x="383" d="M119 872L356 693L282 592L19 737L119 872Z" />
<glyph unicode="a" horiz-adv-x="575" d="M517 97L491 136L572 100V0L361 -10L336 84L348 81Q314 34 271 10T174 -15Q101 -15 58 31T15 154Q15 209 39 244T112 296T239 313H327L317 303V339Q317 377 301 393T249 410Q234 410 215 408T175 401L190 419L174 348H54L46
515Q124 535 188 545T305 555Q412 555 464 511T517 376V97ZM215 178Q215 150 227 137T259 124Q275 124 292 132T323 157L317 135V234L328 223H272Q241 223 228 213T215 178Z" />
<glyph unicode="b" horiz-adv-x="600" d="M248 -15Q205 -15 156 -11T48 4V694L77 643L-7 675V775L248 785V454L224 483Q256 515 297 535T388 555Q447 555 491 525T560 434T585 283Q585 223 571 170T520 75T417 9T248 -15ZM284 125Q338 125 357 164T377 267Q377
310 370 342T347 392T307 410Q289 410 269 400T225 370L248 427V88L225 133Q259 125 284 125Z" />
<glyph unicode="c" horiz-adv-x="520" d="M274 -15Q200 -15 141 18T47 114T13 267Q13 352 38 407T106 495T200 541T303 555Q360 555 412 542T492 517L487 349H362L346 419L360 411Q354 412 340 413T309 415Q275 415 256 398T229 350T221 278Q221 228 232 195T266
146T320 130Q347 130 380 141T452 174L516 75Q457 29 397 7T274 -15Z" />
<glyph unicode="d" horiz-adv-x="615" d="M214 -15Q155 -15 111 15T41 106T16 255Q16 411 95 483T323 555Q339 555 355 555T388 552L353 531V660L365 643L293 675V775L553 785V108L531 134L608 100V0L397 -10L372 77L392 71Q349 28 307 7T214 -15ZM294 130Q312
130 332 140T376 170L353 113V452L376 407Q342 415 317 415Q263 415 244 377T224 274Q224 231 231 199T254 148T294 130Z" />
<glyph unicode="e" horiz-adv-x="552" d="M273 -15Q195 -15 137 16T46 108T14 259Q14 352 48 418T146 519T296 555Q381 555 433 523T510 436T534 312Q534 290 532 268T525 222H179V325H359L328 303Q329 341 325 366T311 403T279 415Q252 415 240 397T223 350T219
290Q219 248 226 212T255 153T321 130Q350 130 385 140T460 171L525 68Q464 26 400 6T273 -15Z" />
<glyph unicode="f" horiz-adv-x="400" d="M24 0V100L95 128L79 109V424L95 405H19V510L100 540L79 513V558Q79 679 145 737T322 795Q354 795 386 790T455 775L428 644Q412 649 394 652T359 656Q327 656 303 639T279 574V513L255 535H389L386 405H262L279 424V110L263
128L344 100V0H24Z" />
<glyph unicode="g" horiz-adv-x="589" d="M257 -245Q124 -245 60 -213T-4 -113Q-4 -60 34 -28T148 22L145 -19Q99 -14 69 8T39 64Q39 75 43 87T57 116T83 154T125 205L126 173Q70 197 41 241T12 347Q12 446 81 500T275 555Q370 555 434 523L391 531L568 535V435L503
420L515 437Q523 421 528 403T534 358Q534 261 463 205T268 149Q221 149 173 158L194 176L189 92L169 104H374Q478 104 532 63T586 -58Q586 -149 504 -197T257 -245ZM273 -112Q341 -112 368 -103T396 -76Q396 -56 381 -49T343 -41H154L196 -31Q169 -50 169 -79Q169
-95 193 -103T273 -112ZM270 280Q303 280 319 298T336 354Q336 392 321 408T273 424Q241 424 226 408T210 354Q210 317 224 299T270 280Z" />
<glyph unicode="h" horiz-adv-x="640" d="M7 0V100L84 130L62 103V675L84 645L7 675V775L262 785V453L217 461Q264 508 317 531T420 555Q465 555 502 536T560 477T582 380V103L566 129L637 100V0H337V100L403 127L382 99V337Q382 372 367 388T329 405Q312 405
291 396T249 368L262 395V99L246 126L307 100V0H7Z" />
<glyph unicode="i" horiz-adv-x="338" d="M276 112L264 127L331 100V0H21V100L88 127L76 112V421L86 411L21 436V536L276 544V112ZM174 592Q125 592 95 620T64 700Q64 755 95 782T175 809Q222 809 253 783T284 701Q284 647 253 620T174 592Z" />
<glyph unicode="j" horiz-adv-x="311" d="M6 -245Q-16 -245 -35 -243T-78 -236L-63 -97Q-51 -98 -40 -99T-20 -100Q24 -100 43 -83T63 -23V429L80 408L8 436V536L263 544V36Q263 -45 243 -99T186 -185T104 -231T6 -245ZM154 592Q105 592 75 620T44 700Q44 755
75 782T155 809Q202 809 233 783T264 701Q264 647 233 620T154 592Z" />
<glyph unicode="k" horiz-adv-x="620" d="M7 0V100L84 130L62 95V669L74 649L7 675V775L262 785V330L231 357H349L302 336L375 439L389 420L331 435V535L598 545V445L521 424L572 453L450 284L454 332L569 99L543 123L612 100V0H413L307 238L333 227H231L262 238V95L244
131L312 100V0H7Z" />
<glyph unicode="l" horiz-adv-x="324" d="M262 112L250 127L317 100V0H7V100L74 127L62 112V661L72 650L7 675V775L262 785V112Z" />
<glyph unicode="m" horiz-adv-x="954" d="M569 470L541 461Q588 508 641 531T742 555Q807 555 851 512T896 381V103L880 129L951 100V0H656V100L717 127L696 99V337Q696 372 684 388T650 405Q634 405 614 395T571 366L585 408Q586 400 586 396T586 389V103L570
129L626 100V0H346V100L407 127L386 99V337Q386 372 373 388T340 405Q324 405 304 396T264 369L276 394V99L260 126L316 100V0H21V100L98 130L76 103V436L98 406L21 436V536L232 546L256 453L231 461Q277 506 330 530T432 555Q476 555 512 535T569 470Z" />
<glyph unicode="n" horiz-adv-x="654" d="M21 0V100L98 130L76 103V436L98 406L21 436V536L232 546L256 453L231 461Q279 508 332 531T435 555Q503 555 549 511T596 378V103L580 129L651 100V0H351V100L417 127L396 99V336Q396 372 382 388T344 405Q326 405 306
396T264 369L276 395V99L260 126L321 100V0H21Z" />
<glyph unicode="o" horiz-adv-x="578" d="M297 555Q425 555 494 484T564 280Q564 187 530 121T431 20T278 -15Q150 -15 82 57T14 261Q14 354 47 419T144 520T297 555ZM288 415Q251 415 237 383T222 270Q222 189 236 157T288 125Q314 125 328 139T349 186T356 272Q356
352 341 383T288 415Z" />
<glyph unicode="p" horiz-adv-x="621" d="M14 -230V-130L93 -95L69 -126V430L90 406L14 436V536L225 546L246 458L225 470Q272 511 315 533T409 555Q468 555 512 525T581 435T606 288Q606 186 572 119T476 19T333 -15Q312 -15 291 -13T246 -6L269 15V-126L251
-99L334 -130V-230H14ZM305 125Q359 125 378 164T398 267Q398 310 391 342T368 392T328 410Q310 410 290 400T246 370L269 419V97L246 133Q280 125 305 125Z" />
<glyph unicode="q" horiz-adv-x="601" d="M283 -230V-125L372 -91L353 -123V58L392 71Q349 28 307 7T214 -15Q155 -15 111 15T41 106T16 255Q16 371 57 436T171 528T340 555Q389 555 442 550T553 535V-123L532 -91L608 -125V-230H283ZM294 130Q312 130 332 140T376
170L353 113V452L376 407Q342 415 317 415Q263 415 244 377T224 274Q224 231 231 199T254 148T294 130Z" />
<glyph unicode="r" horiz-adv-x="498" d="M21 0V100L93 128L76 100V437L96 406L21 436V536L232 546L256 454L231 459Q278 506 322 530T415 555Q447 555 484 545L474 321H360L343 433L360 396Q356 398 351 399T341 400Q319 400 296 386T261 351L276 402V100L255
128L346 100V0H21Z" />
<glyph unicode="s" horiz-adv-x="519" d="M226 397Q226 381 246 371T297 353T364 334T431 305T483 258T503 183Q503 113 466 70T367 6T228 -15Q181 -15 130 -7T26 14L32 179H156L169 100L154 127Q171 120 193 117T231 114Q249 114 265 117T292 126T302 144Q302
161 283 170T232 188T166 206T100 236T49 287T29 371Q29 437 60 477T147 536T273 555Q323 555 374 548T480 526L473 372H348L330 449L356 420Q314 429 284 429Q258 429 242 422T226 397Z" />
<glyph unicode="t" horiz-adv-x="429" d="M232 -15Q148 -15 107 35T65 184V434L89 410H0V515L92 548L65 515V656L266 693V515L247 540H396L393 410H247L266 434V211Q266 168 277 149T316 130Q330 130 347 134T387 146L423 39Q325 -15 232 -15Z" />
<glyph unicode="u" horiz-adv-x="643" d="M219 -15Q152 -15 105 30T58 167V433L74 407L3 436V536L258 544V199Q258 167 272 151T309 135Q326 135 347 144T390 171L378 139V437L394 407L323 436V536L578 545V100L556 133L633 100V0L422 -10L396 87L423 79Q374 32
321 9T219 -15Z" />
<glyph unicode="v" horiz-adv-x="562" d="M321 535L565 545V445L520 415L544 442L387 -2H153L23 435L48 415L-4 435V535L266 545V445L212 419L225 442L294 124H279L362 431L371 417L321 435V535Z" />
<glyph unicode="w" horiz-adv-x="864" d="M644 535L868 545V445L813 422L836 440L720 -2H505L418 386L456 385L351 -2H136L31 432L49 417L-4 435V535L254 545V445L199 422L218 435L276 117H244L347 535L547 545L637 109H608L676 431L692 414L644 435V535Z" />
<glyph unicode="x" horiz-adv-x="584" d="M11 0V100L90 120L44 96L195 297H241L402 535L564 545V445L481 420L536 450L387 261H344L173 0H11ZM270 0V100L325 113L315 87L206 235L47 447L85 414L22 435V535L304 545V445L248 429L261 457L348 337L532 97L501 123L575
100V0H270Z" />
<glyph unicode="y" horiz-adv-x="583" d="M2 -236L19 -96Q39 -99 56 -100T88 -102Q126 -102 151 -90T195 -49T235 29L227 -35L30 433L45 418L-6 435V535L272 545V445L222 424L230 439L335 114L287 125L370 435L378 417L328 435V535L586 545V445L530 422L554 437L400
5Q377 -59 349 -106T285 -184T203 -230T100 -245Q55 -245 2 -236Z" />
<glyph unicode="z" horiz-adv-x="527" d="M502 200L503 0H28V115L297 445L323 408H112L164 448L150 350H30L29 540H489V425L215 79L210 132H398L349 79L382 200H502Z" />
<glyph unicode="{" horiz-adv-x="382" d="M294 -118Q189 -118 140 -63T90 97V207Q90 256 72 284T0 312V442Q56 442 73 470T90 547V657Q90 762 139 817T294 872H374V752Q329 752 306 743T274 710T265 647V528Q265 473 242 438T175 385T72 368V386Q132 386 175 369T241
317T265 226V107Q265 67 273 44T305 12T374 2V-118H294Z" />
<glyph unicode="|" horiz-adv-x="294" d="M72 819H222V-115H72V819Z" />
<glyph unicode="}" horiz-adv-x="382" d="M88 -118Q193 -118 242 -63T292 97V207Q292 256 311 284T382 312V442Q326 442 309 470T292 547V657Q292 762 243 817T88 872H8V752Q53 752 76 743T108 710T117 647V528Q117 473 140 438T207 385T310 368V386Q250 386 207
369T141 317T117 226V107Q117 67 109 44T77 12T8 2V-118H88Z" />
<glyph unicode="~" horiz-adv-x="569" d="M382 257Q354 257 328 266T278 287T231 308T185 317Q165 317 145 307T102 271L25 321Q63 401 103 431T188 461Q217 461 243 452T293 431T341 410T387 401Q407 401 426 411T467 447L544 395Q506 317 466 287T382 257Z" />
<glyph unicode="&#xa0;" horiz-adv-x="160" />
<glyph unicode="&#xa1;" horiz-adv-x="310" d="M227 280L260 -170H49L82 271L227 280ZM262 451Q262 405 230 376T155 347Q106 347 77 376T48 451Q48 498 80 526T155 555Q205 555 233 527T262 451Z" />
<glyph unicode="&#xa2;" horiz-adv-x="497" d="M481 181Q431 142 380 123T278 99L332 137V-22H202V134L262 99Q190 98 136 128T50 218T19 361Q19 451 52 506T139 588T254 620L202 582V741H332V588L260 619Q298 623 336 618T407 604T459 586L454 437H344L331 490Q324
491 313 492T292 493Q260 493 242 477T217 434T210 369Q210 321 220 291T250 246T301 231Q326 231 357 241T421 273L481 181Z" />
<glyph unicode="&#xa3;" horiz-adv-x="626" d="M33 0V100L140 140L85 95Q105 113 112 140T119 201Q119 232 115 268T106 344L132 309H33V414L113 429L99 399Q97 425 95 453T93 502Q93 589 126 637T217 705T344 725Q396 725 453 716T571 689L558 501H438L413 594L429
569Q412 574 396 577T365 580Q335 580 317 563T298 501Q298 485 300 457T304 405L273 429H448V309H284L311 352Q314 330 316 310T318 270Q318 230 306 194T259 124L237 145H459L433 114L460 230H580V0H33Z" />
<glyph unicode="&#xa4;" horiz-adv-x="639" d="M619 113L524 12L406 122L479 126Q448 101 408 87T318 72Q267 72 226 88T156 132L236 135L109 15L24 106L146 221L145 142Q117 170 102 208T86 290Q86 334 101 372T144 444L130 377L16 482L113 584L233 472L166 462Q198
485 237 498T324 511Q373 511 410 498T475 465L411 470L528 580L613 489L495 378L489 454Q521 423 538 382T555 297Q555 255 540 216T496 147L495 228L619 113ZM320 188Q347 188 363 200T387 235T395 292Q395 342 378 368T321 395Q295 395 278 383T254 348T246
290Q246 242 263 215T320 188Z" />
<glyph unicode="&#xa5;" horiz-adv-x="671" d="M78 306V396H185L171 367L43 603L78 573L16 605V705L311 710V610L240 580L250 614L365 361H332L450 605L464 571L389 605V705L657 710V610L594 580L630 609L497 362L481 396H589V306H78ZM171 0V100L257 135L231 95V206L263
176H78V266H589V176H398L436 209V95L409 135L496 100V0H171Z" />
<glyph unicode="&#xa6;" horiz-adv-x="294" d="M72 435V819H222V435H72ZM72 -115V269H222V-115H72Z" />
<glyph unicode="&#xa7;" horiz-adv-x="531" d="M234 -185Q191 -185 144 -178T48 -158L54 0H174L187 -74L172 -49Q186 -56 201 -59T231 -62Q257 -62 276 -51T296 -16Q296 8 277 26T228 61T164 96T100 139T50 196T31 274Q31 331 62 365T146 415T265 431L282 379Q266
379 247 367T215 336T202 294Q202 268 222 248T274 209T341 171T409 127T461 69T481 -11Q481 -68 449 -106T361 -165T234 -185ZM244 107L240 160Q258 160 279 172T316 205T331 247Q331 273 311 292T260 330T194 368T127 413T76 474T56 558Q56 641 118 682T281 723Q324
723 372 716T473 696L466 549H346L328 621L353 592Q339 597 325 599T297 601Q272 601 255 591T237 558Q237 533 256 514T306 478T371 443T436 401T486 347T506 272Q506 216 471 179T376 125T244 107Z" />
<glyph unicode="&#xa8;" horiz-adv-x="480" d="M360 604Q316 604 293 629T268 701Q267 746 294 772T360 798Q404 798 428 772T453 701Q453 655 426 630T360 604ZM118 604Q75 604 52 629T27 701Q26 746 52 772T118 798Q162 798 187 772T212 701Q212 655 185 630T118 604Z" />
<glyph unicode="&#xa9;" horiz-adv-x="826" d="M405 144Q320 144 267 198T213 351Q213 422 241 469T316 539T421 563Q493 563 566 530L563 415H473L462 463L468 457Q464 458 453 459T433 460Q393 460 380 432T367 361Q367 303 385 277T439 250Q459 250 484 258T535
284L582 210Q539 175 493 160T405 144ZM400 -15Q320 -15 253 11T137 86T60 201T33 348Q33 430 61 499T141 618T263 697T415 725Q495 725 563 699T682 625T762 510T791 364Q791 282 761 213T678 92T553 13T400 -15ZM409 90Q466 90 512 109T592 164T643 248T661 355Q661
433 629 493T540 586T406 620Q330 620 276 587T192 494T163 357Q163 279 192 219T277 125T409 90Z" />
<glyph unicode="&#xaa;" horiz-adv-x="439" d="M391 391L372 419L432 393V321L274 314L256 382L265 379Q240 345 207 328T134 310Q80 310 48 343T15 432Q15 472 33 497T88 534T183 547H249L241 540V570Q241 597 229 609T190 621Q179 621 165 620T135 614L146 627L134
578H43L36 696Q95 711 144 718T232 725Q312 725 351 693T391 596V391ZM165 449Q165 431 173 421T196 411Q207 411 220 416T246 430L241 418V490L250 482H208Q196 482 188 480T175 475T167 465T165 449ZM20 126V261H432V126H20Z" />
<glyph unicode="&#xab;" horiz-adv-x="574" d="M209 29L35 222V316L211 509L304 440L173 233V307L302 103L209 29ZM459 29L285 222V316L461 509L554 440L423 233V307L552 103L459 29Z" />
<glyph unicode="&#xac;" horiz-adv-x="572" d="M367 114V301L386 281H33V421H527V114H367Z" />
<glyph unicode="&#xad;" horiz-adv-x="434" d="M387 368V218H47V368H387Z" />
<glyph unicode="&#xae;" horiz-adv-x="670" d="M187 309V360L225 376L213 357V559L231 538L187 555V605L327 609H353Q410 609 440 586T471 520Q471 486 448 464T371 434L379 448Q406 449 420 442T444 416L473 359L441 376L485 360V309H387L353 394Q349 405 344
410T331 417T314 419H298L314 433V357L301 376L341 360V309H187ZM314 467L298 481H323Q343 481 353 488T364 512Q364 526 356 533T331 540H298L314 554V467ZM325 151Q238 151 170 189T63 294T24 448Q24 539 65 609T177 719T339 759Q427 759 496 721T605 617T646
462Q646 395 622 338T553 239T451 174T325 151ZM328 231Q392 231 443 260T523 341T553 461Q553 527 525 575T448 651T338 678Q274 678 224 649T146 569T117 450Q117 385 144 336T218 259T328 231Z" />
<glyph unicode="&#xaf;" horiz-adv-x="426" d="M381 786V651H45V786H381Z" />
<glyph unicode="&#xb0;" horiz-adv-x="437" d="M206 403Q127 403 76 448T25 575Q25 626 48 665T112 725T206 747Q286 747 336 702T387 580Q387 498 337 451T206 403ZM206 509Q231 509 244 525T257 578Q257 613 243 627T206 642Q184 642 170 628T156 578Q156 542
168 526T206 509Z" />
<glyph unicode="&#xb1;" horiz-adv-x="562" d="M236 513L206 483V666H356V483L326 513H518V373H326L356 403V220H206V403L236 373H44L43 513H236ZM518 169V29H44V169H518Z" />
<glyph unicode="&#xb2;" horiz-adv-x="381" d="M21 345V458Q77 492 114 524T171 585T191 637Q191 656 184 664T161 672Q138 672 120 663L139 690L128 623H28L18 771Q63 781 106 786T189 792Q263 792 311 763T360 666Q360 626 342 592T296 530T242 485T195 457L193
470H362V345H21Z" />
<glyph unicode="&#xb3;" horiz-adv-x="378" d="M166 333Q125 333 83 341T1 366L47 468Q73 460 100 455T149 449Q172 449 187 456T202 482Q202 498 191 504T157 510H91V611H145Q173 611 185 620T198 647Q198 667 185 675T152 683Q141 683 128 681T103 675L127 696L119
643H19L13 764Q55 778 99 785T186 792Q235 792 275 781T340 744T364 676Q364 623 329 597T246 567L237 574Q305 569 337 544T369 472Q369 425 341 394T267 348T166 333Z" />
<glyph unicode="&#xb4;" horiz-adv-x="378" d="M118 592L51 687L284 868L381 737L118 592Z" />
<glyph unicode="&#xb5;" horiz-adv-x="663" d="M145 89L189 39Q201 17 219 -16T251 -100T265 -230H65V433L81 407L10 436V536L265 544V190Q265 162 278 149T312 135Q330 135 352 145T397 174L385 146V437L401 407L330 436V536L585 545V100L563 134L640 100V0L429
-10L403 87L423 79Q381 34 339 10T258 -15Q221 -15 192 10T145 89Z" />
<glyph unicode="&#xb6;" horiz-adv-x="689" d="M145 -170V-70L230 -36L205 -75V302L230 280Q164 280 113 305T33 379T4 495Q4 559 33 607T113 683T230 710H667V610L581 570L607 611V-170H442V610L472 565H341L370 611V-170H145Z" />
<glyph unicode="&#xb7;" horiz-adv-x="254" d="M20 321Q20 368 52 396T127 425Q177 425 205 397T234 321Q234 274 202 246T127 217Q78 217 49 245T20 321Z" />
<glyph unicode="&#xb8;" horiz-adv-x="322" d="M136 -275Q104 -275 71 -268T9 -246L45 -154Q66 -161 91 -166T135 -172Q152 -172 162 -167T172 -151Q172 -140 156 -133T116 -122T66 -117L74 0H189V-39Q247 -46 279 -74T312 -146Q312 -189 287 -217T222 -260T136 -275Z" />
<glyph unicode="&#xb9;" horiz-adv-x="312" d="M257 424L235 456L317 425V345H29V425L124 451L102 424V646L144 648L35 593L-10 689L132 780H257V424Z" />
<glyph unicode="&#xba;" horiz-adv-x="463" d="M221 310Q127 310 74 363T20 511Q20 579 46 626T121 699T239 725Q335 725 389 673T443 528Q443 460 417 411T341 336T221 310ZM40 126V261H425V126H40ZM231 420Q248 420 258 430T273 463T278 522Q278 572 268 593T231
615Q206 615 196 593T185 519Q185 466 195 443T231 420Z" />
<glyph unicode="&#xbb;" horiz-adv-x="574" d="M365 509L539 316V222L363 29L270 98L401 305V231L272 435L365 509ZM115 509L289 316V222L113 29L20 98L151 305V231L22 435L115 509Z" />
<glyph unicode="&#xbc;" horiz-adv-x="961" d="M257 355L235 387L317 356V276H29V356L124 382L102 355V577L144 579L35 524L-10 620L132 711H257V355ZM187 -12L587 723H742L342 -12H187ZM741 105L758 74H561L542 187L698 442L901 431V162L865 184H946V74H865L901
105V0H741V105ZM762 184L741 162V354L763 353L639 142L619 184H762Z" />
<glyph unicode="&#xbd;" horiz-adv-x="985" d="M271 355L249 387L331 356V276H43V356L138 382L116 355V577L158 579L49 524L4 620L146 711H271V355ZM201 -12L601 723H756L356 -12H201ZM621 0V113Q677 147 714 179T771 240T791 292Q791 311 784 319T761 327Q738
327 720 318L739 345L728 278H628L618 426Q663 436 706 441T789 447Q863 447 911 418T960 321Q960 281 942 247T896 185T842 140T795 112L793 125H962V0H621Z" />
<glyph unicode="&#xbe;" horiz-adv-x="992" d="M166 264Q125 264 83 272T1 297L47 399Q73 391 100 386T149 380Q172 380 187 387T202 413Q202 429 191 435T157 441H91V542H145Q173 542 185 551T198 578Q198 598 185 606T152 614Q141 614 128 612T103 606L127 627L119
574H19L13 695Q55 709 99 716T186 723Q235 723 275 712T340 675T364 607Q364 554 329 528T246 498L237 505Q305 500 337 475T369 403Q369 356 341 325T267 279T166 264ZM218 -12L618 723H773L373 -12H218ZM772 105L789 74H592L573 187L729 442L932 431V162L896
184H977V74H896L932 105V0H772V105ZM793 184L772 162V354L794 353L670 142L650 184H793Z" />
<glyph unicode="&#xbf;" horiz-adv-x="456" d="M341 280Q346 264 348 249T350 220Q350 180 335 155T296 113T250 82T211 52T195 12Q195 -14 215 -26T268 -39Q298 -39 335 -30T408 -9L450 -137Q328 -188 209 -188Q148 -188 98 -172T19 -120T-11 -24Q-11 27 9 60T59
117T119 160T169 202T189 258Q189 261 189 264T188 272L341 280ZM361 453Q361 405 330 376T251 347Q205 347 176 375T147 449Q147 498 179 526T257 555Q303 555 332 527T361 453Z" />
<glyph unicode="&#xc0;" horiz-adv-x="718" d="M689 89L638 135L716 100V0H403V100L471 131L453 104L426 205L455 180H231L252 202L223 108L219 127L279 100V0H1V100L77 133L32 94L260 708L471 713L689 89ZM280 294L268 320H423L404 289L327 605L375 604L280 294ZM484
756L204 857L278 1002L536 863L484 756Z" />
<glyph unicode="&#xc1;" horiz-adv-x="718" d="M689 89L638 135L716 100V0H403V100L471 131L453 104L426 205L455 180H231L252 202L223 108L219 127L279 100V0H1V100L77 133L32 94L260 708L471 713L689 89ZM280 294L268 320H423L404 289L327 605L375 604L280 294ZM259
756L204 862L465 1002L537 857L259 756Z" />
<glyph unicode="&#xc2;" horiz-adv-x="718" d="M689 89L638 135L716 100V0H403V100L471 131L453 104L426 205L455 180H231L252 202L223 108L219 127L279 100V0H1V100L77 133L32 94L260 708L471 713L689 89ZM280 294L268 320H423L404 289L327 605L375 604L280 294ZM213
752L150 828L302 970L414 981L580 828L515 752L290 884L431 882L213 752Z" />
<glyph unicode="&#xc3;" horiz-adv-x="718" d="M689 89L638 135L716 100V0H403V100L471 131L453 104L426 205L455 180H231L252 202L223 108L219 127L279 100V0H1V100L77 133L32 94L260 708L471 713L689 89ZM280 294L268 320H423L404 289L327 605L375 604L280 294ZM233
777L153 813Q174 888 204 921T277 955Q305 955 333 944T387 922T433 911Q451 911 465 922T494 958L576 923Q554 847 521 813T442 779Q416 779 388 790T333 811T289 822Q273 822 261 811T233 777Z" />
<glyph unicode="&#xc4;" horiz-adv-x="718" d="M689 89L638 135L716 100V0H403V100L471 131L453 104L426 205L455 180H231L252 202L223 108L219 127L279 100V0H1V100L77 133L32 94L260 708L471 713L689 89ZM280 294L268 320H423L404 289L327 605L375 604L280 294ZM485
756Q441 756 418 781T393 853Q392 898 419 924T485 950Q529 950 553 924T578 853Q578 807 551 782T485 756ZM243 756Q200 756 177 781T152 853Q151 898 177 924T243 950Q287 950 312 924T337 853Q337 807 310 782T243 756Z" />
<glyph unicode="&#xc5;" horiz-adv-x="718" d="M689 89L638 135L716 100V0H403V100L471 131L453 104L426 205L455 180H231L252 202L223 108L219 127L279 100V0H1V100L77 133L32 94L260 708L471 713L689 89ZM280 294L268 320H423L404 289L327 605L375 604L280 294ZM363
730Q309 730 273 750T219 803T201 876Q201 916 219 949T275 1003T367 1024Q421 1024 456 1004T510 951T528 878Q528 839 510 805T455 751T363 730ZM363 818Q389 818 400 834T412 878Q412 904 401 920T365 936Q340 936 329 920T317 876Q317 850 327 834T363 818Z"
/>
<glyph unicode="&#xc6;" horiz-adv-x="939" d="M1 0V100L81 133L29 92L246 598L267 568L169 605V705L432 710H893V508H773L748 601L783 565H606L636 595V400L606 430H810V290H606L636 325V114L606 145H795L760 111L786 211H906L904 0H381V100L455 136L431 104V221L461
190H231L272 221L219 91L209 133L280 100V0H1ZM306 305L284 330H461L431 305V584L461 565H381L418 583L306 305Z" />
<glyph unicode="&#xc7;" horiz-adv-x="619" d="M332 -15Q248 -15 178 25T65 147T22 351Q22 468 63 552T179 680T357 725Q413 725 469 712T591 671L580 468H460L429 579L463 549Q434 560 411 565T366 570Q321 570 294 547T255 481T242 375Q242 296 259 246T309
172T383 148Q415 148 452 161T529 202L602 86Q536 35 467 10T332 -15ZM339 -275Q307 -275 274 -268T212 -246L248 -154Q269 -161 294 -166T338 -172Q355 -172 365 -167T375 -151Q375 -140 359 -133T319 -122T269 -117L277 0H392V-39Q450 -46 482 -74T515 -146Q515
-189 490 -217T425 -260T339 -275Z" />
<glyph unicode="&#xc8;" horiz-adv-x="596" d="M443 211H563L561 0H24V100L109 134L84 95V610L108 572L24 605V705L284 710H551V508H431L408 591L444 565H259L289 595V400L259 430H468V290H259L289 325V115L259 145H456L419 115L443 211ZM423 756L143 857L217
1002L475 863L423 756Z" />
<glyph unicode="&#xc9;" horiz-adv-x="596" d="M443 211H563L561 0H24V100L109 134L84 95V610L108 572L24 605V705L284 710H551V508H431L408 591L444 565H259L289 595V400L259 430H468V290H259L289 325V115L259 145H456L419 115L443 211ZM198 756L143 862L404
1002L476 857L198 756Z" />
<glyph unicode="&#xca;" horiz-adv-x="596" d="M443 211H563L561 0H24V100L109 134L84 95V610L108 572L24 605V705L284 710H551V508H431L408 591L444 565H259L289 595V400L259 430H468V290H259L289 325V115L259 145H456L419 115L443 211ZM152 752L89 828L241 970L353
981L519 828L454 752L229 884L370 882L152 752Z" />
<glyph unicode="&#xcb;" horiz-adv-x="596" d="M443 211H563L561 0H24V100L109 134L84 95V610L108 572L24 605V705L284 710H551V508H431L408 591L444 565H259L289 595V400L259 430H468V290H259L289 325V115L259 145H456L419 115L443 211ZM424 756Q380 756 357
781T332 853Q331 898 358 924T424 950Q468 950 492 924T517 853Q517 807 490 782T424 756ZM182 756Q139 756 116 781T91 853Q90 898 116 924T182 950Q226 950 251 924T276 853Q276 807 249 782T182 756Z" />
<glyph unicode="&#xcc;" horiz-adv-x="373" d="M349 610L270 572L289 600V105L270 132L349 100V0H24V100L101 131L84 105V600L108 571L24 605V705L349 710V610ZM305 756L25 857L99 1002L357 863L305 756Z" />
<glyph unicode="&#xcd;" horiz-adv-x="373" d="M349 610L270 572L289 600V105L270 132L349 100V0H24V100L101 131L84 105V600L108 571L24 605V705L349 710V610ZM336 756L281 862L542 1002L614 857L336 756Z" />
<glyph unicode="&#xce;" horiz-adv-x="373" d="M349 610L270 572L289 600V105L270 132L349 100V0H24V100L101 131L84 105V600L108 571L24 605V705L349 710V610ZM290 752L227 828L379 970L491 981L657 828L592 752L367 884L508 882L290 752Z" />
<glyph unicode="&#xcf;" horiz-adv-x="373" d="M349 610L270 572L289 600V105L270 132L349 100V0H24V100L101 131L84 105V600L108 571L24 605V705L349 710V610ZM306 756Q262 756 239 781T214 853Q213 898 240 924T306 950Q350 950 374 924T399 853Q399 807 372
782T306 756ZM64 756Q21 756 -2 781T-27 853Q-28 898 -2 924T64 950Q108 950 133 924T158 853Q158 807 131 782T64 756Z" />
<glyph unicode="&#xd0;" horiz-adv-x="706" d="M24 294V426H383V294H24ZM354 710Q435 710 497 688T600 623T663 516T685 369Q685 249 643 167T522 43T329 0H24V100L110 134L84 95V610L112 570L24 605V705L289 710H354ZM339 145Q359 145 380 149T421 171T453 234T465
358Q465 436 454 478T424 539T386 561T349 565H259L289 595V115L259 145H339Z" />
<glyph unicode="&#xd1;" horiz-adv-x="752" d="M452 705L740 710V610L653 570L680 611V0H443L224 495H252V95L223 135L312 100V0H24V100L113 135L84 95V610L102 574L24 605V705L327 710L541 228H512V610L541 570L452 605V705ZM255 777L175 813Q196 888 226 921T299
955Q327 955 355 944T409 922T455 911Q473 911 487 922T516 958L598 923Q576 847 543 813T464 779Q438 779 410 790T355 811T311 822Q295 822 283 811T255 777Z" />
<glyph unicode="&#xd2;" horiz-adv-x="720" d="M343 -15Q239 -15 168 26T60 148T23 344Q23 438 46 509T115 629T223 701T368 725Q449 725 510 701T613 632T676 520T698 370Q698 252 656 166T534 32T343 -15ZM358 140Q396 140 422 158T463 224T478 362Q478 443
466 488T427 552T359 570Q321 570 295 553T256 488T243 351Q243 272 254 226T291 160T358 140ZM482 756L202 857L276 1002L534 863L482 756Z" />
<glyph unicode="&#xd3;" horiz-adv-x="720" d="M343 -15Q239 -15 168 26T60 148T23 344Q23 438 46 509T115 629T223 701T368 725Q449 725 510 701T613 632T676 520T698 370Q698 252 656 166T534 32T343 -15ZM358 140Q396 140 422 158T463 224T478 362Q478 443
466 488T427 552T359 570Q321 570 295 553T256 488T243 351Q243 272 254 226T291 160T358 140ZM257 756L202 862L463 1002L535 857L257 756Z" />
<glyph unicode="&#xd4;" horiz-adv-x="720" d="M343 -15Q239 -15 168 26T60 148T23 344Q23 438 46 509T115 629T223 701T368 725Q449 725 510 701T613 632T676 520T698 370Q698 252 656 166T534 32T343 -15ZM358 140Q396 140 422 158T463 224T478 362Q478 443
466 488T427 552T359 570Q321 570 295 553T256 488T243 351Q243 272 254 226T291 160T358 140ZM211 752L148 828L300 970L412 981L578 828L513 752L288 884L429 882L211 752Z" />
<glyph unicode="&#xd5;" horiz-adv-x="720" d="M343 -15Q239 -15 168 26T60 148T23 344Q23 438 46 509T115 629T223 701T368 725Q449 725 510 701T613 632T676 520T698 370Q698 252 656 166T534 32T343 -15ZM358 140Q396 140 422 158T463 224T478 362Q478 443
466 488T427 552T359 570Q321 570 295 553T256 488T243 351Q243 272 254 226T291 160T358 140ZM231 777L151 813Q172 888 202 921T275 955Q303 955 331 944T385 922T431 911Q449 911 463 922T492 958L574 923Q552 847 519 813T440 779Q414 779 386 790T331 811T287
822Q271 822 259 811T231 777Z" />
<glyph unicode="&#xd6;" horiz-adv-x="720" d="M343 -15Q239 -15 168 26T60 148T23 344Q23 438 46 509T115 629T223 701T368 725Q449 725 510 701T613 632T676 520T698 370Q698 252 656 166T534 32T343 -15ZM358 140Q396 140 422 158T463 224T478 362Q478 443
466 488T427 552T359 570Q321 570 295 553T256 488T243 351Q243 272 254 226T291 160T358 140ZM483 756Q439 756 416 781T391 853Q390 898 417 924T483 950Q527 950 551 924T576 853Q576 807 549 782T483 756ZM241 756Q198 756 175 781T150 853Q149 898 175 924T241
950Q285 950 310 924T335 853Q335 807 308 782T241 756Z" />
<glyph unicode="&#xd7;" horiz-adv-x="492" d="M119 120L15 224L163 371L165 326L14 477L120 583L271 432L226 434L373 582L477 478L329 331L327 376L478 225L372 119L221 270L266 268L119 120Z" />
<glyph unicode="&#xd8;" horiz-adv-x="724" d="M563 790L665 729L588 607L559 571L263 100L253 75L154 -83L51 -22L149 133L168 154L477 643L483 663L563 790ZM346 -15Q242 -15 171 26T63 148T26 344Q26 438 49 509T118 629T226 701T371 725Q452 725 513 701T616
632T679 520T701 370Q701 252 659 166T537 32T346 -15ZM361 140Q399 140 425 158T466 224T481 362Q481 443 469 488T430 552T362 570Q324 570 298 553T259 488T246 351Q246 272 257 226T294 160T361 140Z" />
<glyph unicode="&#xd9;" horiz-adv-x="736" d="M403 705L728 710V610L647 572L668 621V285Q668 222 655 173T616 89T553 30T468 -4T362 -15Q274 -15 218 6T131 62T87 136T71 210T68 270V620L89 573L8 605V705L333 710V610L255 572L273 620V270Q273 243 275 222T283
186T299 160T326 145T365 140Q389 140 405 145T433 162T451 190T460 230T463 285V621L479 575L403 605V705ZM490 756L210 857L284 1002L542 863L490 756Z" />
<glyph unicode="&#xda;" horiz-adv-x="736" d="M403 705L728 710V610L647 572L668 621V285Q668 222 655 173T616 89T553 30T468 -4T362 -15Q274 -15 218 6T131 62T87 136T71 210T68 270V620L89 573L8 605V705L333 710V610L255 572L273 620V270Q273 243 275 222T283
186T299 160T326 145T365 140Q389 140 405 145T433 162T451 190T460 230T463 285V621L479 575L403 605V705ZM265 756L210 862L471 1002L543 857L265 756Z" />
<glyph unicode="&#xdb;" horiz-adv-x="736" d="M403 705L728 710V610L647 572L668 621V285Q668 222 655 173T616 89T553 30T468 -4T362 -15Q274 -15 218 6T131 62T87 136T71 210T68 270V620L89 573L8 605V705L333 710V610L255 572L273 620V270Q273 243 275 222T283
186T299 160T326 145T365 140Q389 140 405 145T433 162T451 190T460 230T463 285V621L479 575L403 605V705ZM219 752L156 828L308 970L420 981L586 828L521 752L296 884L437 882L219 752Z" />
<glyph unicode="&#xdc;" horiz-adv-x="736" d="M403 705L728 710V610L647 572L668 621V285Q668 222 655 173T616 89T553 30T468 -4T362 -15Q274 -15 218 6T131 62T87 136T71 210T68 270V620L89 573L8 605V705L333 710V610L255 572L273 620V270Q273 243 275 222T283
186T299 160T326 145T365 140Q389 140 405 145T433 162T451 190T460 230T463 285V621L479 575L403 605V705ZM491 756Q447 756 424 781T399 853Q398 898 425 924T491 950Q535 950 559 924T584 853Q584 807 557 782T491 756ZM249 756Q206 756 183 781T158 853Q157
898 183 924T249 950Q293 950 318 924T343 853Q343 807 316 782T249 756Z" />
<glyph unicode="&#xdd;" horiz-adv-x="654" d="M156 0V100L247 135L221 95V281L238 216L33 603L68 573L1 605V705L301 710V610L230 580L245 614L360 354H322L440 605L454 571L379 605V705L653 710V610L584 580L620 609L412 216L426 281V95L399 135L490 100V0H156ZM227
756L172 862L433 1002L505 857L227 756Z" />
<glyph unicode="&#xde;" horiz-adv-x="615" d="M24 0V100L108 133L84 95V610L108 571L24 605V705L349 710V610L268 568L289 606V524L259 559H391Q493 559 548 516T604 373Q604 260 535 208T351 156H259L289 191V97L264 134L364 100V0H24ZM289 266L259 296H308Q330
296 350 298T385 314T399 360Q399 390 387 402T357 416T320 419H259L289 449V266Z" />
<glyph unicode="&#xdf;" horiz-adv-x="743" d="M516 415Q516 397 532 385T574 360T629 334T684 300T726 250T743 176Q743 109 712 67T627 5T506 -15Q463 -15 418 -7T326 14L332 177H452L466 94L444 127Q458 119 476 115T508 110Q521 110 531 113T547 126T553 149Q553
167 537 181T496 208T441 237T387 272T345 320T329 387Q329 421 340 444T367 486T399 519T426 551T437 590Q437 609 428 623T401 647T360 656Q326 656 303 637T279 576V0H24V100L103 130L79 100V417L103 405H19V510L99 540L79 515V558Q79 626 102 671T166 744T257
783T364 795Q443 795 502 774T596 713T630 612Q630 575 619 549T590 505T556 472T528 444T516 415Z" />
<glyph unicode="&#xe0;" horiz-adv-x="575" d="M517 97L491 136L572 100V0L361 -10L336 84L348 81Q314 34 271 10T174 -15Q101 -15 58 31T15 154Q15 209 39 244T112 296T239 313H327L317 303V339Q317 377 301 393T249 410Q234 410 215 408T175 401L190 419L174
348H54L46 515Q124 535 188 545T305 555Q412 555 464 511T517 376V97ZM215 178Q215 150 227 137T259 124Q275 124 292 132T323 157L317 135V234L328 223H272Q241 223 228 213T215 178ZM224 872L461 693L387 592L124 737L224 872Z" />
<glyph unicode="&#xe1;" horiz-adv-x="575" d="M517 97L491 136L572 100V0L361 -10L336 84L348 81Q314 34 271 10T174 -15Q101 -15 58 31T15 154Q15 209 39 244T112 296T239 313H327L317 303V339Q317 377 301 393T249 410Q234 410 215 408T175 401L190 419L174
348H54L46 515Q124 535 188 545T305 555Q412 555 464 511T517 376V97ZM215 178Q215 150 227 137T259 124Q275 124 292 132T323 157L317 135V234L328 223H272Q241 223 228 213T215 178ZM207 592L140 687L373 868L470 737L207 592Z" />
<glyph unicode="&#xe2;" horiz-adv-x="575" d="M517 97L491 136L572 100V0L361 -10L336 84L348 81Q314 34 271 10T174 -15Q101 -15 58 31T15 154Q15 209 39 244T112 296T239 313H327L317 303V339Q317 377 301 393T249 410Q234 410 215 408T175 401L190 419L174
348H54L46 515Q124 535 188 545T305 555Q412 555 464 511T517 376V97ZM215 178Q215 150 227 137T259 124Q275 124 292 132T323 157L317 135V234L328 223H272Q241 223 228 213T215 178ZM135 611L72 682L224 839L336 850L501 682L436 611L212 756L353 754L135 611Z"
/>
<glyph unicode="&#xe3;" horiz-adv-x="575" d="M517 97L491 136L572 100V0L361 -10L336 84L348 81Q314 34 271 10T174 -15Q101 -15 58 31T15 154Q15 209 39 244T112 296T239 313H327L317 303V339Q317 377 301 393T249 410Q234 410 215 408T175 401L190 419L174
348H54L46 515Q124 535 188 545T305 555Q412 555 464 511T517 376V97ZM215 178Q215 150 227 137T259 124Q275 124 292 132T323 157L317 135V234L328 223H272Q241 223 228 213T215 178ZM364 633Q335 633 311 644T265 667T220 679Q201 679 185 668T154 633L72 668Q94
743 128 782T208 821Q238 821 262 810T308 787T353 775Q373 775 388 787T419 821L501 788Q479 712 445 673T364 633Z" />
<glyph unicode="&#xe4;" horiz-adv-x="575" d="M517 97L491 136L572 100V0L361 -10L336 84L348 81Q314 34 271 10T174 -15Q101 -15 58 31T15 154Q15 209 39 244T112 296T239 313H327L317 303V339Q317 377 301 393T249 410Q234 410 215 408T175 401L190 419L174
348H54L46 515Q124 535 188 545T305 555Q412 555 464 511T517 376V97ZM215 178Q215 150 227 137T259 124Q275 124 292 132T323 157L317 135V234L328 223H272Q241 223 228 213T215 178ZM407 604Q363 604 340 629T315 701Q314 746 341 772T407 798Q451 798 475 772T500
701Q500 655 473 630T407 604ZM165 604Q122 604 99 629T74 701Q73 746 99 772T165 798Q209 798 234 772T259 701Q259 655 232 630T165 604Z" />
<glyph unicode="&#xe5;" horiz-adv-x="575" d="M517 97L491 136L572 100V0L361 -10L336 84L348 81Q314 34 271 10T174 -15Q101 -15 58 31T15 154Q15 209 39 244T112 296T239 313H327L317 303V339Q317 377 301 393T249 410Q234 410 215 408T175 401L190 419L174
348H54L46 515Q124 535 188 545T305 555Q412 555 464 511T517 376V97ZM215 178Q215 150 227 137T259 124Q275 124 292 132T323 157L317 135V234L328 223H272Q241 223 228 213T215 178ZM285 592Q231 592 195 612T141 665T123 738Q123 778 141 811T197 865T289 886Q343
886 378 866T432 813T450 740Q450 701 432 667T377 613T285 592ZM285 680Q311 680 322 696T334 740Q334 766 323 782T287 798Q262 798 251 782T239 738Q239 712 249 696T285 680Z" />
<glyph unicode="&#xe6;" horiz-adv-x="845" d="M54 351L46 515Q121 535 182 545T291 555Q347 555 383 542T436 500L448 481L431 496Q463 525 506 540T596 555Q705 555 766 491T827 311Q827 284 825 261T818 221H508L518 241L519 229Q524 183 550 157T617 131Q674
131 753 172L818 68Q760 28 696 7T569 -14Q497 -14 444 17T363 105H411Q368 44 309 15T192 -15Q145 -15 105 4T40 60T15 151Q15 235 68 275T233 316H327L317 303V339Q317 377 301 394T247 411Q233 411 215 409T175 402L190 419L174 351H54ZM317 138Q317 162 317
185T317 233L327 221H276Q242 221 229 212T215 177Q215 152 227 138T259 124Q273 124 289 131T325 151L317 138ZM516 298L504 316H631L621 307Q621 369 611 392T575 415Q544 415 530 388T516 298Z" />
<glyph unicode="&#xe7;" horiz-adv-x="520" d="M274 -15Q200 -15 141 18T47 114T13 267Q13 352 38 407T106 495T200 541T303 555Q360 555 412 542T492 517L487 349H362L346 419L360 411Q354 412 340 413T309 415Q275 415 256 398T229 350T221 278Q221 228 232
195T266 146T320 130Q347 130 380 141T452 174L516 75Q457 29 397 7T274 -15ZM278 -275Q246 -275 213 -268T151 -246L187 -154Q208 -161 233 -166T277 -172Q294 -172 304 -167T314 -151Q314 -140 298 -133T258 -122T208 -117L216 0H331V-39Q389 -46 421 -74T454
-146Q454 -189 429 -217T364 -260T278 -275Z" />
<glyph unicode="&#xe8;" horiz-adv-x="552" d="M273 -15Q195 -15 137 16T46 108T14 259Q14 352 48 418T146 519T296 555Q381 555 433 523T510 436T534 312Q534 290 532 268T525 222H179V325H359L328 303Q329 341 325 366T311 403T279 415Q252 415 240 397T223
350T219 290Q219 248 226 212T255 153T321 130Q350 130 385 140T460 171L525 68Q464 26 400 6T273 -15ZM220 872L457 693L383 592L120 737L220 872Z" />
<glyph unicode="&#xe9;" horiz-adv-x="552" d="M273 -15Q195 -15 137 16T46 108T14 259Q14 352 48 418T146 519T296 555Q381 555 433 523T510 436T534 312Q534 290 532 268T525 222H179V325H359L328 303Q329 341 325 366T311 403T279 415Q252 415 240 397T223
350T219 290Q219 248 226 212T255 153T321 130Q350 130 385 140T460 171L525 68Q464 26 400 6T273 -15ZM203 592L136 687L369 868L466 737L203 592Z" />
<glyph unicode="&#xea;" horiz-adv-x="552" d="M273 -15Q195 -15 137 16T46 108T14 259Q14 352 48 418T146 519T296 555Q381 555 433 523T510 436T534 312Q534 290 532 268T525 222H179V325H359L328 303Q329 341 325 366T311 403T279 415Q252 415 240 397T223
350T219 290Q219 248 226 212T255 153T321 130Q350 130 385 140T460 171L525 68Q464 26 400 6T273 -15ZM387 611L324 682L476 839L588 850L753 682L688 611L464 756L605 754L387 611Z" />
<glyph unicode="&#xeb;" horiz-adv-x="552" d="M273 -15Q195 -15 137 16T46 108T14 259Q14 352 48 418T146 519T296 555Q381 555 433 523T510 436T534 312Q534 290 532 268T525 222H179V325H359L328 303Q329 341 325 366T311 403T279 415Q252 415 240 397T223
350T219 290Q219 248 226 212T255 153T321 130Q350 130 385 140T460 171L525 68Q464 26 400 6T273 -15ZM403 604Q359 604 336 629T311 701Q310 746 337 772T403 798Q447 798 471 772T496 701Q496 655 469 630T403 604ZM161 604Q118 604 95 629T70 701Q69 746 95
772T161 798Q205 798 230 772T255 701Q255 655 228 630T161 604Z" />
<glyph unicode="&#xec;" horiz-adv-x="338" d="M276 112L264 127L331 100V0H21V100L88 127L76 112V421L86 411L21 436V536L276 544V112ZM369 872L606 693L532 592L269 737L369 872Z" />
<glyph unicode="&#xed;" horiz-adv-x="338" d="M276 112L264 127L331 100V0H21V100L88 127L76 112V421L86 411L21 436V536L276 544V112ZM352 592L285 687L518 868L615 737L352 592Z" />
<glyph unicode="&#xee;" horiz-adv-x="338" d="M50 611L-18 682L111 839L223 850L365 682L295 611L99 756L240 754L50 611ZM276 112L264 127L331 100V0H21V100L88 127L76 112V421L86 411L21 436V536L276 544V112Z" />
<glyph unicode="&#xef;" horiz-adv-x="338" d="M268 604Q228 604 205 629T181 701Q180 746 206 772T268 798Q308 798 332 772T356 701Q356 655 330 630T268 604ZM51 604Q11 604 -11 629T-35 701Q-36 746 -10 772T51 798Q92 798 116 772T140 701Q140 655 113 630T51
604ZM276 112L264 127L331 100V0H21V100L88 127L76 112V421L86 411L21 436V536L276 544V112Z" />
<glyph unicode="&#xf0;" horiz-adv-x="579" d="M268 -15Q181 -15 124 17T38 106T9 235Q9 316 40 371T123 455T235 483Q281 483 322 466T390 409L372 418Q360 502 322 553T226 628T92 655L107 795Q226 795 311 755T451 646T532 493T559 319Q559 253 544 193T494
86T404 12T268 -15ZM283 125Q301 125 316 134T341 169T351 243Q351 309 333 330T284 352Q267 352 252 344T227 312T217 239Q217 172 235 149T283 125ZM206 518L145 596L418 799L479 720L206 518Z" />
<glyph unicode="&#xf1;" horiz-adv-x="654" d="M21 0V100L98 130L76 103V436L98 406L21 436V536L232 546L256 453L231 461Q279 508 332 531T435 555Q503 555 549 511T596 378V103L580 129L651 100V0H351V100L417 127L396 99V336Q396 372 382 388T344 405Q326 405
306 396T264 369L276 395V99L260 126L321 100V0H21ZM413 633Q384 633 360 644T314 667T269 679Q250 679 234 668T203 633L121 668Q143 743 177 782T257 821Q287 821 311 810T357 787T402 775Q422 775 437 787T468 821L550 788Q528 712 494 673T413 633Z" />
<glyph unicode="&#xf2;" horiz-adv-x="578" d="M297 555Q425 555 494 484T564 280Q564 187 530 121T431 20T278 -15Q150 -15 82 57T14 261Q14 354 47 419T144 520T297 555ZM288 415Q251 415 237 383T222 270Q222 189 236 157T288 125Q314 125 328 139T349 186T356
272Q356 352 341 383T288 415ZM226 872L463 693L389 592L126 737L226 872Z" />
<glyph unicode="&#xf3;" horiz-adv-x="578" d="M297 555Q425 555 494 484T564 280Q564 187 530 121T431 20T278 -15Q150 -15 82 57T14 261Q14 354 47 419T144 520T297 555ZM288 415Q251 415 237 383T222 270Q222 189 236 157T288 125Q314 125 328 139T349 186T356
272Q356 352 341 383T288 415ZM209 592L142 687L375 868L472 737L209 592Z" />
<glyph unicode="&#xf4;" horiz-adv-x="578" d="M297 555Q425 555 494 484T564 280Q564 187 530 121T431 20T278 -15Q150 -15 82 57T14 261Q14 354 47 419T144 520T297 555ZM288 415Q251 415 237 383T222 270Q222 189 236 157T288 125Q314 125 328 139T349 186T356
272Q356 352 341 383T288 415ZM137 611L74 682L226 839L338 850L503 682L438 611L214 756L355 754L137 611Z" />
<glyph unicode="&#xf5;" horiz-adv-x="578" d="M297 555Q425 555 494 484T564 280Q564 187 530 121T431 20T278 -15Q150 -15 82 57T14 261Q14 354 47 419T144 520T297 555ZM288 415Q251 415 237 383T222 270Q222 189 236 157T288 125Q314 125 328 139T349 186T356
272Q356 352 341 383T288 415ZM366 633Q337 633 313 644T267 667T222 679Q203 679 187 668T156 633L74 668Q96 743 130 782T210 821Q240 821 264 810T310 787T355 775Q375 775 390 787T421 821L503 788Q481 712 447 673T366 633Z" />
<glyph unicode="&#xf6;" horiz-adv-x="578" d="M297 555Q425 555 494 484T564 280Q564 187 530 121T431 20T278 -15Q150 -15 82 57T14 261Q14 354 47 419T144 520T297 555ZM288 415Q251 415 237 383T222 270Q222 189 236 157T288 125Q314 125 328 139T349 186T356
272Q356 352 341 383T288 415ZM409 604Q365 604 342 629T317 701Q316 746 343 772T409 798Q453 798 477 772T502 701Q502 655 475 630T409 604ZM167 604Q124 604 101 629T76 701Q75 746 101 772T167 798Q211 798 236 772T261 701Q261 655 234 630T167 604Z" />
<glyph unicode="&#xf7;" horiz-adv-x="514" d="M494 421V281H20V421H494ZM150 145Q150 192 182 220T257 249Q307 249 335 221T364 145Q364 98 332 70T257 41Q208 41 179 69T150 145ZM150 555Q150 602 182 630T257 659Q307 659 335 631T364 555Q364 508 332 480T257
451Q208 451 179 479T150 555Z" />
<glyph unicode="&#xf8;" horiz-adv-x="585" d="M468 653L564 598L471 452L440 425L221 80L212 42L117 -109L20 -53L117 101L149 129L373 481L379 513L468 653ZM302 555Q430 555 499 484T569 280Q569 187 535 121T436 20T283 -15Q155 -15 87 57T19 261Q19 354 52
419T149 520T302 555ZM293 415Q256 415 242 383T227 270Q227 189 241 157T293 125Q319 125 333 139T354 186T361 272Q361 352 346 383T293 415Z" />
<glyph unicode="&#xf9;" horiz-adv-x="643" d="M219 -15Q152 -15 105 30T58 167V433L74 407L3 436V536L258 544V199Q258 167 272 151T309 135Q326 135 347 144T390 171L378 139V437L394 407L323 436V536L578 545V100L556 133L633 100V0L422 -10L396 87L423 79Q374
32 321 9T219 -15ZM249 872L486 693L412 592L149 737L249 872Z" />
<glyph unicode="&#xfa;" horiz-adv-x="643" d="M219 -15Q152 -15 105 30T58 167V433L74 407L3 436V536L258 544V199Q258 167 272 151T309 135Q326 135 347 144T390 171L378 139V437L394 407L323 436V536L578 545V100L556 133L633 100V0L422 -10L396 87L423 79Q374
32 321 9T219 -15ZM232 592L165 687L398 868L495 737L232 592Z" />
<glyph unicode="&#xfb;" horiz-adv-x="643" d="M219 -15Q152 -15 105 30T58 167V433L74 407L3 436V536L258 544V199Q258 167 272 151T309 135Q326 135 347 144T390 171L378 139V437L394 407L323 436V536L578 545V100L556 133L633 100V0L422 -10L396 87L423 79Q374
32 321 9T219 -15ZM160 611L97 682L249 839L361 850L526 682L461 611L237 756L378 754L160 611Z" />
<glyph unicode="&#xfc;" horiz-adv-x="643" d="M219 -15Q152 -15 105 30T58 167V433L74 407L3 436V536L258 544V199Q258 167 272 151T309 135Q326 135 347 144T390 171L378 139V437L394 407L323 436V536L578 545V100L556 133L633 100V0L422 -10L396 87L423 79Q374
32 321 9T219 -15ZM432 604Q388 604 365 629T340 701Q339 746 366 772T432 798Q476 798 500 772T525 701Q525 655 498 630T432 604ZM190 604Q147 604 124 629T99 701Q98 746 124 772T190 798Q234 798 259 772T284 701Q284 655 257 630T190 604Z" />
<glyph unicode="&#xfd;" horiz-adv-x="583" d="M2 -236L19 -96Q39 -99 56 -100T88 -102Q126 -102 151 -90T195 -49T235 29L227 -35L30 433L45 418L-6 435V535L272 545V445L222 424L230 439L335 114L287 125L370 435L378 417L328 435V535L586 545V445L530 422L554
437L400 5Q377 -59 349 -106T285 -184T203 -230T100 -245Q55 -245 2 -236ZM214 592L147 687L380 868L477 737L214 592Z" />
<glyph unicode="&#xfe;" horiz-adv-x="603" d="M-4 -230V-130L74 -96L51 -128V672L76 640L-4 675V775L251 785V480L207 470Q254 511 297 533T391 555Q450 555 494 525T563 435T588 288Q588 186 554 119T458 19T315 -15Q294 -15 273 -13T228 -6L251 6V-128L234
-100L316 -130V-230H-4ZM287 125Q341 125 360 164T380 267Q380 310 373 342T350 392T310 410Q292 410 272 400T228 370L251 402V110L228 133Q262 125 287 125Z" />
<glyph unicode="&#xff;" horiz-adv-x="583" d="M2 -236L19 -96Q39 -99 56 -100T88 -102Q126 -102 151 -90T195 -49T235 29L227 -35L30 433L45 418L-6 435V535L272 545V445L222 424L230 439L335 114L287 125L370 435L378 417L328 435V535L586 545V445L530 422L554
437L400 5Q377 -59 349 -106T285 -184T203 -230T100 -245Q55 -245 2 -236ZM414 604Q370 604 347 629T322 701Q321 746 348 772T414 798Q458 798 482 772T507 701Q507 655 480 630T414 604ZM172 604Q129 604 106 629T81 701Q80 746 106 772T172 798Q216 798 241
772T266 701Q266 655 239 630T172 604Z" />
<glyph unicode="&#x2013;" horiz-adv-x="594" d="M547 368V218H47V368H547Z" />
<glyph unicode="&#x2014;" horiz-adv-x="844" d="M797 363V213H47V363H797Z" />
<glyph unicode="&#x2018;" horiz-adv-x="247" d="M201 517Q201 469 172 445T107 421Q70 421 39 447T8 528Q8 578 42 644T161 796L225 754Q191 696 179 668T166 625Q166 610 175 596T192 563T201 517Z" />
<glyph unicode="&#x2019;" horiz-adv-x="247" d="M32 704Q32 752 61 776T126 800Q163 800 194 774T225 693Q225 644 192 577T72 425L8 467Q43 526 55 554T67 596Q67 611 58 625T41 658T32 704Z" />
<glyph unicode="&#x201a;" horiz-adv-x="247" d="M46 78Q46 126 75 150T140 174Q177 174 208 148T239 67Q239 18 206 -49T86 -201L22 -159Q57 -100 69 -72T81 -30Q81 -15 72 -1T55 32T46 78Z" />
<glyph unicode="&#x201c;" horiz-adv-x="473" d="M201 527Q201 479 172 455T107 431Q70 431 39 457T8 538Q8 588 42 654T161 806L225 764Q191 706 179 678T166 635Q166 620 175 606T192 573T201 527ZM427 527Q427 479 398 455T333 431Q296 431 265 457T234 538Q234
588 268 654T387 806L451 764Q417 706 405 678T392 635Q392 620 401 606T418 573T427 527Z" />
<glyph unicode="&#x201d;" horiz-adv-x="473" d="M272 704Q272 752 301 776T366 800Q403 800 434 774T465 693Q465 644 432 577T312 425L248 467Q283 526 295 554T307 596Q307 611 298 625T281 658T272 704ZM46 704Q46 752 75 776T140 800Q177 800 208 774T239
693Q239 644 206 577T86 425L22 467Q57 526 69 554T81 596Q81 611 72 625T55 658T46 704Z" />
<glyph unicode="&#x201e;" horiz-adv-x="473" d="M272 78Q272 126 301 150T366 174Q403 174 434 148T465 67Q465 18 432 -49T312 -201L248 -159Q283 -100 295 -72T307 -30Q307 -15 298 -1T281 32T272 78ZM46 78Q46 126 75 150T140 174Q177 174 208 148T239 67Q239
18 206 -49T86 -201L22 -159Q57 -100 69 -72T81 -30Q81 -15 72 -1T55 32T46 78Z" />
<glyph unicode="&#x2022;" horiz-adv-x="470" d="M28 300Q28 361 56 406T132 477T235 503Q299 503 345 477T416 406T442 300Q442 239 414 194T338 123T235 98Q139 98 84 153T28 300Z" />
<glyph unicode="&#x2039;" horiz-adv-x="324" d="M209 29L35 222V316L211 509L304 440L173 233V307L302 103L209 29Z" />
<glyph unicode="&#x203a;" horiz-adv-x="324" d="M115 509L289 316V222L113 29L20 98L151 305V231L22 435L115 509Z" />
</font>
</defs>
</svg>
