<?xml version="1.0" standalone="no"?>
<!DOCTYPE svg PUBLIC "-//W3C//DTD SVG 1.1//EN" "http://www.w3.org/Graphics/SVG/1.1/DTD/svg11.dtd">
<svg xmlns="http://www.w3.org/2000/svg">
<defs >
<font id="Bitter" horiz-adv-x="568" ><font-face
    font-family="Bitter Thin ExtraBold"
    units-per-em="1000"
    panose-1="0 0 0 0 0 0 0 0 0 0"
    ascent="935"
    descent="-265"
    alphabetic="0" />
<glyph unicode=" " horiz-adv-x="168" />
<glyph unicode="!" horiz-adv-x="309" d="M92 255L136 707H309L212 263L92 255ZM115 -13Q75 -13 53 10T30 70Q30 114 59 142T133 170Q172 170 195 148T218 86Q218 41 188 14T115 -13Z" />
<glyph unicode="&quot;" horiz-adv-x="445" d="M110 489L132 777H276L208 489H110ZM308 489L330 777H474L406 489H308Z" />
<glyph unicode="#" horiz-adv-x="655" d="M104 542H666L650 438H87L104 542ZM24 272H586L570 168H7L24 272ZM251 707H384L176 0H43L251 707ZM497 707H630L422 0H289L497 707Z" />
<glyph unicode="$" horiz-adv-x="605" d="M242 0Q189 0 133 11T21 43L54 244H154L160 126L144 152Q172 140 202 134T261 127Q295 127 322 136T366 163T383 209Q383 235 368 250T326 274T269 292T207 312T150 342T109 394T93 476Q93 552 131 603T233 681T376 707Q429
707 484 696T595 661L558 479H460L452 581L471 565Q447 573 421 577T370 582Q339 582 314 574T274 551T259 511Q259 487 274 473T316 451T374 434T436 415T493 383T535 329T551 245Q551 163 509 109T396 28T242 0ZM185 -128L209 28H321L297 -128H185ZM312 675L336
832H448L424 676L312 675Z" />
<glyph unicode="%" horiz-adv-x="848" d="M81 -14L654 720H790L217 -14H81ZM219 347Q149 347 110 387T70 503Q70 565 96 614T168 692T277 721Q347 721 386 681T426 567Q426 506 400 456T328 377T219 347ZM230 438Q256 438 273 456T300 505T309 569Q309 600 300
615T268 630Q241 630 223 611T196 562T187 500Q187 469 197 454T230 438ZM598 -14Q528 -14 489 26T449 142Q449 204 475 253T547 331T656 360Q726 360 765 321T805 206Q805 145 779 95T707 16T598 -14ZM609 78Q635 78 653 96T680 145T689 209Q689 240 680 254T648
269Q620 269 602 250T575 201T566 140Q566 108 576 93T609 78Z" />
<glyph unicode="&amp;" horiz-adv-x="669" d="M258 -14Q154 -14 96 34T37 169Q37 230 64 276T143 349T261 382L263 362Q188 370 149 411T109 515Q109 577 146 623T247 695T395 721Q446 721 498 711T599 679L564 513H460L452 597L480 576Q428 594 385 594Q336 594
308 572T279 506Q279 468 302 449T367 429H664L650 339L568 313L589 342L570 220Q558 144 513 92T401 13T258 -14ZM299 120Q338 120 367 143T406 220L422 328L448 307H330Q295 307 269 293T230 254T216 199Q216 160 239 140T299 120Z" />
<glyph unicode="&apos;" horiz-adv-x="247" d="M110 489L132 777H276L208 489H110Z" />
<glyph unicode="(" horiz-adv-x="319" d="M401 830Q333 746 284 648T207 444T180 232Q180 149 197 67T251 -89L142 -146Q83 -56 55 45T27 252Q27 374 60 490T156 711T302 903L401 830Z" />
<glyph unicode=")" horiz-adv-x="319" d="M-48 -80Q20 4 69 102T146 306T174 518Q174 601 157 683T102 839L211 895Q270 806 298 705T326 498Q326 377 293 261T198 39T51 -153L-48 -80Z" />
<glyph unicode="*" horiz-adv-x="415" d="M291 416L244 527L261 574L306 569L371 474L291 416ZM171 416L99 474L192 570L239 574L244 527L171 416ZM195 570L78 591L122 685L224 641L237 594L195 570ZM258 609L228 641L232 758L326 760L300 640L258 609ZM309 569L275
597L297 640L411 688L427 592L309 569Z" />
<glyph unicode="+" horiz-adv-x="536" d="M255 411L226 384L258 596H382L350 384L329 411H521L502 290H306L336 317L304 106H181L213 317L234 290H41L60 411H255Z" />
<glyph unicode="," horiz-adv-x="278" d="M22 68Q22 102 36 124T74 158T120 170Q152 170 176 150T201 86Q201 40 176 -6T110 -99T17 -193L-39 -146Q-6 -106 11 -83T34 -44T41 -18Q41 -4 37 7T27 32T22 68Z" />
<glyph unicode="-" horiz-adv-x="407" d="M375 357L355 229H40L61 357H375Z" />
<glyph unicode="." horiz-adv-x="280" d="M100 -13Q60 -13 38 10T15 70Q15 114 44 142T118 170Q157 170 180 148T204 86Q204 41 174 14T100 -13Z" />
<glyph unicode="/" horiz-adv-x="341" d="M438 810L47 -87H-68L321 810H438Z" />
<glyph unicode="0" horiz-adv-x="625" d="M264 -14Q193 -14 144 12T70 98T45 256Q45 307 53 369T83 493T144 606T243 689T389 721Q497 721 551 660T606 453Q606 399 597 336T566 211T506 98T408 17T264 -14ZM285 118Q322 118 348 146T392 218T419 312T433 405T437
476Q437 518 429 542T405 578T367 589Q329 589 303 563T259 494T232 403T218 312T213 241Q213 171 233 145T285 118Z" />
<glyph unicode="1" horiz-adv-x="440" d="M309 75L283 119L402 87L388 0H11L25 87L179 125L140 75L219 563H265L96 474L58 579L269 711H410L309 75Z" />
<glyph unicode="2" horiz-adv-x="565" d="M-3 0L18 149Q67 184 118 220T216 294T300 368T358 442T380 518Q380 557 357 573T298 590Q276 590 251 585T199 570L222 600L188 492H88L103 685Q163 702 221 711T333 721Q399 721 450 704T530 650T560 548Q560 496 540
448T485 355T405 269T309 188T207 113L212 136H511L488 0H-3Z" />
<glyph unicode="3" horiz-adv-x="566" d="M213 -13Q149 -13 94 2T-10 44L46 163Q123 122 205 122Q247 122 280 135T333 172T353 231Q353 263 337 278T298 298T250 303H162L181 425H265Q328 425 358 456T388 528Q388 567 365 581T305 595Q277 595 247 589T192 574L213
597L186 500H88L103 680Q167 701 229 711T344 721Q406 721 455 706T532 655T561 560Q561 478 507 426T363 364L349 379Q439 372 480 336T521 229Q521 156 482 102T373 17T213 -13Z" />
<glyph unicode="4" horiz-adv-x="592" d="M307 179L342 144H8V265L376 721L560 707L487 247L451 277H582L560 144H429L476 179L448 0H279L307 179ZM369 277L318 247L378 624L434 614L117 215L97 277H369Z" />
<glyph unicode="5" horiz-adv-x="548" d="M221 -14Q166 -14 109 0T-7 45L50 161Q86 143 123 134T194 124Q234 124 265 138T314 178T332 240Q332 270 320 286T287 308T238 315T178 316H73L149 707H552L528 574H245L297 604L257 405L220 441H273Q296 441 327 439T390
429T451 401T496 346T514 255Q514 176 477 116T374 21T221 -14Z" />
<glyph unicode="6" horiz-adv-x="593" d="M201 279L204 395Q247 419 290 430T375 442Q428 442 471 422T540 360T566 252Q566 172 528 112T426 19T284 -14Q235 -14 190 1T111 48T56 133T36 262Q36 337 56 405T115 531T207 631T326 697T469 721Q524 721 578 709L555
578Q533 582 514 584T476 587Q424 587 383 571T309 524T256 452T223 360T211 254Q211 199 221 170T249 131T286 120Q316 120 339 136T376 180T390 243Q390 288 368 304T313 321Q284 321 254 310T201 279Z" />
<glyph unicode="7" horiz-adv-x="544" d="M579 585L244 0H56L404 595L424 570H158L198 595L154 474H53L90 707H598L579 585Z" />
<glyph unicode="8" horiz-adv-x="590" d="M245 -13Q185 -13 133 5T49 62T17 159Q17 205 39 248T106 323T217 369L312 319Q274 309 244 290T198 244T181 185Q181 146 206 128T266 110Q299 110 326 123T369 158T386 209Q386 241 365 260T310 294T239 322T168 358T113
413T91 499Q91 554 115 595T179 665T268 707T367 721Q424 721 472 703T551 649T582 554Q582 505 559 468T495 405T403 368L284 419Q319 423 350 438T401 479T421 536Q421 558 412 571T386 591T350 598Q326 598 304 588T267 560T253 515Q253 484 274 465T329 432T401
404T472 369T527 315T549 228Q549 171 524 127T455 51T357 3T245 -13Z" />
<glyph unicode="9" horiz-adv-x="594" d="M420 429L417 314Q374 291 331 279T245 266Q193 266 150 286T80 347T54 454Q54 514 77 563T141 648T232 702T340 721Q386 721 430 706T509 660T564 575T584 445Q584 369 563 300T503 174T410 75T291 10T153 -13Q127 -13
99 -10T42 1L66 133Q86 129 105 128T140 126Q195 126 238 143T314 193T368 266T399 357T409 459Q409 512 400 539T373 576T334 587Q300 587 277 569T242 523T230 464Q230 420 253 404T308 387Q337 387 367 398T420 429Z" />
<glyph unicode=":" horiz-adv-x="280" d="M151 307Q111 307 89 330T66 390Q66 434 95 462T169 490Q208 490 231 468T255 406Q255 361 225 334T151 307ZM100 -13Q60 -13 38 10T15 70Q15 114 44 142T118 170Q157 170 180 148T204 86Q204 41 174 14T100 -13Z" />
<glyph unicode=";" horiz-adv-x="280" d="M276 68Q276 102 290 124T328 158T374 170Q406 170 430 150T455 86Q455 40 430 -6T364 -99T271 -193L215 -146Q248 -106 265 -83T288 -44T295 -18Q295 -4 291 7T281 32T276 68ZM151 307Q111 307 89 330T66 390Q66 434
95 462T169 490Q208 490 231 468T255 406Q255 361 225 334T151 307Z" />
<glyph unicode="&lt;" horiz-adv-x="516" d="M426 124L41 294L59 418L477 593L518 469L173 334L177 365L479 243L426 124Z" />
<glyph unicode="=" horiz-adv-x="628" d="M577 510L558 389H109L128 510H577ZM800 557L781 436H332L351 557H800Z" />
<glyph unicode="&gt;" horiz-adv-x="516" d="M118 593L503 423L485 299L67 124L26 247L371 383L367 351L65 474L118 593Z" />
<glyph unicode="?" horiz-adv-x="448" d="M109 258Q109 264 108 273T106 296Q107 339 128 369T178 420T236 460T284 499T304 548Q304 575 287 585T242 596Q212 596 175 587T107 565L78 678Q129 699 184 711T291 723Q342 723 384 710T452 665T477 580Q477 538 460
507T416 451T357 406T299 366T253 324T234 273Q234 268 234 265T233 257L109 258ZM151 -13Q111 -13 89 10T67 70Q67 114 96 142T169 170Q208 170 231 148T255 86Q255 41 225 14T151 -13Z" />
<glyph unicode="@" horiz-adv-x="875" d="M336 -114Q249 -114 183 -80T80 25T42 199Q42 298 75 382T170 531T316 631T504 667Q602 667 678 632T798 527T842 351Q842 288 826 236T781 144T711 83T620 61Q559 61 527 92T489 176L529 262Q519 201 492 159T429 94T356
72Q314 72 281 107T247 220Q247 294 277 353T360 448T476 484Q510 484 544 473T611 436L557 448L579 473L640 469L596 203Q594 187 598 172T624 157Q643 157 659 172T688 214T706 275T713 347Q713 389 703 427T669 494T603 541T500 559Q417 559 355 529T252 447T191
332T171 199Q171 96 216 45T352 -6Q388 -6 425 1T501 22L528 -77Q478 -95 429 -104T336 -114ZM410 172Q428 172 442 185T467 220T483 264T494 306L510 406L534 367Q518 381 503 387T474 393Q445 393 422 370T385 311T372 234Q372 204 381 188T410 172Z" />
<glyph unicode="A" horiz-adv-x="693" d="M622 78L587 118L657 86L643 0H368L382 86L450 114L443 91L427 206L438 184H204L228 205L175 92L173 111L236 86L222 0H-37L-23 86L59 116L12 82L332 705L507 710L622 78ZM262 279L255 305H431L420 275L376 616L417 615L262 279Z" />
<glyph unicode="B" horiz-adv-x="638" d="M376 346L382 369Q489 370 542 337T595 224Q595 154 558 104T453 27T295 0H-6L7 86L91 114L70 91L153 611L169 586L91 616L105 702L328 707H411Q433 707 460 705T515 695T568 671T606 625T621 553Q621 488 589 443T502
372T376 346ZM367 585H290L321 613L287 391L267 419H320Q338 419 360 422T402 436T436 465T449 517Q449 548 438 562T408 580T367 585ZM290 123Q355 123 387 152T419 228Q419 259 407 274T376 294T340 299H246L278 335L238 90L208 123H290Z" />
<glyph unicode="C" horiz-adv-x="611" d="M305 -14Q234 -14 175 19T81 119T45 289Q45 374 70 451T144 589T261 685T416 721Q468 721 521 707T632 666L594 479H495L485 590L514 565Q486 577 461 582T415 587Q366 587 330 561T270 492T235 397T223 296Q223 235 239
198T283 143T346 126Q382 126 422 142T502 189L556 84Q496 35 431 11T305 -14Z" />
<glyph unicode="D" horiz-adv-x="699" d="M409 707Q500 707 561 677T652 585T682 430Q682 343 656 265T580 128T454 34T280 0H-6L7 86L91 114L70 91L153 611L169 586L91 616L105 702L341 707H409ZM310 125Q355 125 388 147T443 206T479 286T498 371T504 444Q504
487 493 517T456 565T384 582H290L321 613L238 90L221 125H310Z" />
<glyph unicode="E" horiz-adv-x="590" d="M434 200H534L501 0H-6L7 86L91 114L70 92L153 611L169 586L91 616L105 702L333 707H603L573 516H475L467 605L493 582H290L320 608L286 393L268 419H480L460 299H246L276 330L238 91L221 125H434L398 98L434 200Z" />
<glyph unicode="F" horiz-adv-x="550" d="M-6 0L7 86L91 114L70 92L153 612L169 586L91 616L105 702L333 707H599L569 513H471L464 600L489 582H290L320 608L286 388L266 418H477L459 293H245L275 323L238 91L225 115L318 86L305 0H-6Z" />
<glyph unicode="G" horiz-adv-x="690" d="M313 -14Q232 -14 172 18T78 115T44 282Q44 370 70 449T145 590T265 686T425 721Q482 721 540 707T657 664L620 476H522L512 588L538 566Q510 578 485 582T438 587Q386 587 346 563T278 496T236 398T222 281Q222 223 235
188T274 138T337 122Q362 122 390 128T450 145L428 106L453 280L474 251L389 272L403 362L687 367L674 277L589 251L609 280L578 51Q504 17 437 2T313 -14Z" />
<glyph unicode="H" horiz-adv-x="762" d="M-6 0L7 86L91 114L70 91L153 611L170 586L91 616L105 702L402 707L388 621L301 587L321 611L288 401L269 423H545L515 401L549 611L565 586L487 616L501 702L798 707L784 621L697 587L717 611L634 91L625 115L699 86L685
0H389L403 86L487 114L466 91L503 324L522 298H247L275 323L238 91L229 115L303 86L289 0H-6Z" />
<glyph unicode="I" horiz-adv-x="365" d="M388 621L301 587L320 610L238 91L229 115L303 86L289 0H-6L7 86L91 114L70 91L152 609L170 586L91 616L105 702L402 707L388 621Z" />
<glyph unicode="J" horiz-adv-x="344" d="M94 702L392 707L378 621L292 587L311 611L229 92Q219 28 199 -21T147 -105T70 -158T-33 -176Q-72 -176 -112 -168L-84 -45Q-76 -47 -67 -48T-50 -49Q-17 -49 2 -39T32 -12T47 22T54 54L143 611L159 586L80 616L94 702Z" />
<glyph unicode="K" horiz-adv-x="704" d="M620 80L583 116L659 86L646 0H468L320 332L357 299H248L277 333L238 91L226 117L300 86L286 0H-6L7 86L92 115L70 91L153 612L170 586L91 616L105 702L398 707L385 623L299 588L324 625L287 396L269 424H390L342 397L502
619L516 594L446 616L459 702L732 707L720 621L631 588L672 617L467 345L466 390L620 80Z" />
<glyph unicode="L" horiz-adv-x="550" d="M421 229H521L485 0H-6L7 86L91 114L70 91L153 611L170 586L91 616L105 702L404 707L390 621L301 587L321 611L238 89L221 125H405L378 97L421 229Z" />
<glyph unicode="M" horiz-adv-x="839" d="M861 621L774 587L794 616L711 91L702 115L776 86L763 0H481L495 86L589 118L556 83L626 523L654 522L447 183L343 178L243 523L275 524L205 91L196 115L270 86L257 0H-6L7 86L98 117L70 91L153 611L170 586L91 616L105
702L362 707L451 353H426L624 702L875 707L861 621Z" />
<glyph unicode="N" horiz-adv-x="738" d="M521 702L782 707L768 621L686 587L706 611L608 0H426L257 523H276L207 91L198 115L269 86L256 0H-6L7 86L91 114L70 91L153 611L169 586L91 616L105 702L361 707L523 196H503L569 612L585 586L507 616L521 702Z" />
<glyph unicode="O" horiz-adv-x="713" d="M314 -14Q223 -14 163 20T74 119T44 275Q44 334 57 397T98 517T172 621T280 694T427 721Q518 721 577 687T666 589T696 433Q696 374 683 312T642 191T569 87T461 13T314 -14ZM329 120Q372 120 404 142T458 200T493 279T513
364T519 439Q519 493 506 525T469 572T412 587Q369 587 337 566T283 508T248 430T228 346T222 271Q222 217 235 184T272 135T329 120Z" />
<glyph unicode="P" horiz-adv-x="605" d="M303 240H228L267 270L238 91L229 115L320 86L306 0H-6L7 86L91 114L70 91L153 611L170 586L91 616L105 702L339 707H410Q522 707 570 658T619 520Q619 438 581 375T472 276T303 240ZM361 583H298L321 612L277 336L256
364H307Q356 364 386 383T430 435T444 504Q444 541 427 562T361 583Z" />
<glyph unicode="Q" horiz-adv-x="715" d="M573 -204Q530 -204 486 -180T389 -109T261 4L292 -13Q209 -8 154 27T72 125T44 276Q44 335 57 397T98 517T172 621T280 694T426 721Q516 721 576 687T666 589T696 433Q696 368 680 299T630 168T540 61T408 -2L403 23Q444
-6 474 -26T529 -56T578 -66Q601 -66 626 -57T685 -29L741 -136Q690 -171 650 -187T573 -204ZM328 118Q372 118 404 140T459 199T495 278T515 363T521 438Q521 492 508 525T471 572T412 587Q367 587 335 565T280 508T245 429T225 345T219 270Q219 216 232 182T270
133T328 118Z" />
<glyph unicode="R" horiz-adv-x="654" d="M-6 0L7 86L91 114L70 91L153 611L169 586L91 616L105 702L344 707H420Q633 707 633 533Q633 465 603 415T520 335T396 297L397 325Q452 326 479 300T519 236L568 91L527 121L608 86L594 0H422L369 200Q359 237 351 253T329
273T288 277L243 276L273 301L238 91L229 115L307 86L293 0H-6ZM283 358L263 396H326Q368 396 397 413T442 458T458 518Q458 543 450 556T430 575T405 582T382 583H298L321 613L283 358Z" />
<glyph unicode="S" horiz-adv-x="590" d="M235 -14Q182 -14 126 -3T15 29L48 230H147L153 112L138 139Q165 127 195 121T255 114Q288 114 315 123T360 150T377 195Q377 225 356 243T302 274T232 301T161 337T107 395T86 489Q86 565 124 616T227 694T370 720Q423
720 478 709T589 674L552 492H454L446 593L465 578Q440 586 414 590T364 594Q333 594 308 587T267 564T252 524Q252 496 273 480T328 451T398 425T469 388T523 328T545 231Q545 149 503 95T390 14T235 -14Z" />
<glyph unicode="T" horiz-adv-x="613" d="M108 0L122 86L217 114L195 91L277 609L304 582H161L202 615L155 489H57L91 707H663L627 489H528L520 609L551 582H406L446 609L363 91L354 115L439 86L425 0H108Z" />
<glyph unicode="U" horiz-adv-x="718" d="M474 702L771 707L757 621L670 587L690 611L637 275Q622 173 581 110T474 16T316 -14Q196 -14 135 37T74 195Q74 212 76 231T81 271L136 611L150 588L74 616L88 702L380 707L366 621L285 587L304 611L249 261Q246 243
245 228T243 199Q243 158 262 139T327 119Q373 119 401 137T445 193T470 285L521 611L538 586L460 616L474 702Z" />
<glyph unicode="V" horiz-adv-x="708" d="M219 0L113 616L147 586L61 616L75 702L377 707L366 621L276 589L303 631L359 151H336L557 621L565 587L489 616L502 702L770 707L758 621L667 590L710 620L400 0H219Z" />
<glyph unicode="W" horiz-adv-x="988" d="M789 702L1051 707L1038 621L948 591L993 636L724 0H566L508 498L542 497L329 0H173L112 621L122 593L62 616L75 702L352 707L339 621L259 589L284 621L306 156H272L493 702L648 707L698 158L663 157L839 621L852 589L776
616L789 702Z" />
<glyph unicode="X" horiz-adv-x="703" d="M628 80L584 116L655 86L642 0H348L361 86L434 116L432 87L318 287H360L175 81L173 118L244 86L230 0H-22L-9 86L71 117L18 78L287 372L284 343L119 620L149 594L84 616L98 702L389 707L376 621L305 591L314 615L416 435L386
441L538 615L542 588L474 616L487 702L739 707L727 621L647 587L697 620L444 342L448 384L628 80Z" />
<glyph unicode="Y" horiz-adv-x="643" d="M131 0L144 86L232 114L211 91L241 279L250 222L104 614L126 591L62 616L74 702L353 707L340 621L259 593L271 623L363 336H329L508 616L517 586L444 616L457 702L706 707L693 621L624 597L657 619L388 222L409 279L379
91L370 115L448 86L434 0H131Z" />
<glyph unicode="Z" horiz-adv-x="612" d="M-8 0L6 116L431 594L446 581H182L224 599L184 500H83L116 707H630L616 586L190 100L187 126H464L426 103L462 207H563L529 0H-8Z" />
<glyph unicode="[" horiz-adv-x="340" d="M3 -114L159 866L418 861L402 758L280 750L162 3L281 -6L265 -109L3 -114Z" />
<glyph unicode="\" horiz-adv-x="340" d="M74 810H189L296 -87H182L74 810Z" />
<glyph unicode="]" horiz-adv-x="340" d="M371 866L215 -114L-44 -109L-28 -6L94 3L212 750L93 758L109 861L371 866Z" />
<glyph unicode="^" horiz-adv-x="501" d="M12 537L255 891H375L507 537H359L267 828H346L161 537H12Z" />
<glyph unicode="_" horiz-adv-x="470" d="M420 -56L403 -164H-69L-52 -56H420Z" />
<glyph unicode="`" horiz-adv-x="386" d="M188 856L403 680L345 597L107 737L188 856Z" />
<glyph unicode="a" horiz-adv-x="594" d="M167 -14Q127 -14 93 7T39 73T18 190Q18 265 41 330T107 445T207 523T329 551Q375 551 422 536T515 487L441 503L471 536L560 537L480 31L422 139L558 89L543 0L328 -6L357 157L406 248Q392 164 354 106T265 17T167 -14ZM236
119Q254 119 273 132T308 169T338 229T359 308L381 445L408 392Q386 410 366 418T326 427Q295 427 270 409T225 359T196 289T185 209Q185 164 198 142T236 119Z" />
<glyph unicode="b" horiz-adv-x="578" d="M20 13L135 744L194 640L57 688L71 774L306 782L239 400L177 291Q192 376 228 434T314 522T412 552Q451 552 484 532T538 465T559 342Q559 232 514 152T388 30T197 -13Q114 -13 20 13ZM195 89L163 131Q184 122 203 118T239
113Q287 113 321 140T373 216T391 324Q391 375 378 397T341 419Q323 419 304 407T269 370T239 310T218 231L195 89Z" />
<glyph unicode="c" horiz-adv-x="488" d="M232 -14Q173 -14 125 11T48 89T19 220Q19 293 43 354T110 459T209 527T330 551Q369 551 410 541T494 509L470 354H362L357 430L373 414Q341 431 312 431Q282 431 259 414T220 368T196 304T187 230Q187 166 209 138T270
110Q295 110 324 120T388 148L433 49Q382 18 331 2T232 -14Z" />
<glyph unicode="d" horiz-adv-x="594" d="M167 -14Q127 -14 93 7T39 73T18 190Q18 265 41 330T107 445T207 523T329 551Q375 551 422 536T515 487L393 523L429 744L487 640L351 688L365 774L598 782L480 31L422 139L558 89L543 0L328 -6L357 157L407 248Q393 164
354 106T265 17T167 -14ZM236 119Q254 119 272 132T308 169T338 229T359 308L380 440L408 392Q386 410 366 418T326 427Q295 427 270 409T225 359T196 289T185 209Q185 164 198 142T236 119Z" />
<glyph unicode="e" horiz-adv-x="522" d="M236 -13Q175 -13 126 11T49 85T20 214Q20 278 40 338T100 446T197 522T328 550Q417 550 467 510T518 402Q518 353 492 317T422 256T321 219T203 206Q191 206 183 206T168 207L177 307Q186 306 195 306T214 305Q240 305
265 310T311 325T343 350T355 385Q355 406 342 419T305 433Q277 433 255 413T217 360T193 290T185 218Q185 159 209 133T274 107Q305 107 342 119T421 152L465 53Q406 20 348 4T236 -13Z" />
<glyph unicode="f" horiz-adv-x="379" d="M-49 -244Q-74 -244 -95 -241T-131 -235L-104 -120Q-96 -120 -86 -121T-66 -123Q-45 -123 -29 -118T1 -101T22 -71T35 -28L109 440L120 420H30L45 510L142 536L120 508L129 569Q147 683 215 737T377 791Q407 791 439 785T503
768L464 655Q448 662 430 665T394 669Q359 669 331 649T295 580L284 510L269 532H414L395 420H257L273 440L206 13Q193 -63 167 -113T106 -192T31 -232T-49 -244Z" />
<glyph unicode="g" horiz-adv-x="578" d="M174 -244Q122 -244 71 -234T-21 -209L12 -94Q52 -108 93 -115T167 -122Q218 -122 248 -108T296 -71T320 -25T331 18L352 157L407 248Q393 164 354 106T265 17T167 -14Q127 -14 93 7T39 73T18 190Q18 264 41 329T107 444T207
522T329 551Q375 551 422 536T515 487L444 506L471 536L560 537L478 20Q466 -56 437 -107T366 -188T275 -231T174 -244ZM236 119Q254 119 273 132T308 169T338 229T359 308L381 445L408 392Q386 410 366 418T326 427Q295 427 270 409T225 359T196 289T185 209Q185
164 198 142T236 119Z" />
<glyph unicode="h" horiz-adv-x="605" d="M323 -5L377 322Q382 349 381 371T372 407T342 420Q324 420 305 409T270 375T240 318T220 236L183 0H18L127 687L147 660L60 684L74 773L305 782L233 383L169 290Q188 381 228 438T319 523T419 551Q466 551 498 527T543
460T547 362L503 87L432 139L572 89L558 0L323 -5Z" />
<glyph unicode="i" horiz-adv-x="318" d="M34 -5L115 504L174 399L38 447L52 533L285 541L204 29L146 136L281 87L267 0L34 -5ZM216 603Q176 603 154 626T132 689Q132 736 161 765T235 795Q274 795 296 773T319 709Q319 664 291 634T216 603Z" />
<glyph unicode="j" horiz-adv-x="303" d="M-134 -235L-108 -120Q-97 -121 -88 -122T-70 -123Q-22 -123 1 -98T31 -27L104 441L116 422L40 447L53 533L285 541L202 13Q186 -85 148 -141T57 -220T-58 -244Q-80 -244 -97 -241T-134 -235ZM211 603Q171 603 149 626T127
689Q127 736 156 765T230 795Q269 795 291 773T314 709Q314 664 286 634T211 603Z" />
<glyph unicode="k" horiz-adv-x="581" d="M18 0L135 744L194 640L59 688L73 774L306 782L233 323L211 348H329L286 330L383 449L392 432L334 446L347 533L594 542L580 456L500 435L547 461L401 285L411 327L491 87L472 108L542 86L529 0H351L278 246L299 236H193L221
246L182 0H18Z" />
<glyph unicode="l" horiz-adv-x="302" d="M17 -5L136 744L194 641L59 684L73 773L306 782L187 31L125 139L266 89L251 0L17 -5Z" />
<glyph unicode="m" horiz-adv-x="902" d="M620 -5L672 322Q677 350 677 372T670 407T644 420Q628 420 611 409T578 375T549 318T529 236L493 0H328L380 322Q384 350 384 372T377 407T352 420Q336 420 319 409T286 375T257 318T236 236L200 0H35L106 447L174 399L38
447L52 533L275 541L238 383L187 290Q206 381 246 438T335 523T429 551Q472 551 501 529T543 467T548 376L545 353L483 290Q501 381 540 438T628 523T722 551Q767 551 796 527T839 460T842 362L799 86L728 139L868 89L855 0L620 -5Z" />
<glyph unicode="n" horiz-adv-x="622" d="M340 -5L393 322Q398 349 397 371T388 407T359 420Q341 420 322 409T287 375T257 318T236 236L200 0H35L115 504L174 399L38 447L52 533L275 541L238 383L186 290Q203 380 244 437T335 523T432 551Q482 551 514 527T560
460T563 362L519 86L448 139L589 89L574 0L340 -5Z" />
<glyph unicode="o" horiz-adv-x="563" d="M331 551Q394 551 441 529T516 459T543 329Q543 266 525 205T468 95T372 16T232 -14Q170 -14 122 8T48 78T21 207Q21 270 39 331T95 441T191 521T331 551ZM308 430Q273 430 250 406T214 346T195 271T189 205Q189 160 203
134T254 107Q289 107 312 131T349 192T369 267T375 333Q375 377 360 403T308 430Z" />
<glyph unicode="p" horiz-adv-x="596" d="M-69 -230L-55 -144L94 -96L6 -190L106 447L126 420L37 447L51 533L276 541L241 382L196 291Q210 375 246 433T332 521T430 551Q469 551 502 531T556 465T577 343Q577 247 543 174T447 56T300 -4T113 4L203 19L169 -195L111
-94L251 -144L237 -230H-69ZM214 89L181 131Q234 108 276 114T348 149T394 222T410 325Q410 375 397 397T359 419Q341 419 323 407T287 370T257 310T236 231L214 89Z" />
<glyph unicode="q" horiz-adv-x="578" d="M200 -230L213 -144L363 -96L279 -197L310 -2L347 157L407 248Q393 164 354 106T265 17T167 -14Q127 -14 93 7T39 73T18 190Q18 264 41 329T107 444T207 522T329 551Q375 551 422 536T515 487L443 505L471 536L560 537L443
-201L386 -94L520 -144L506 -230H200ZM236 119Q254 119 272 132T308 169T338 229T359 308L381 445L408 392Q386 410 366 418T326 427Q295 427 270 409T225 359T196 289T185 209Q185 164 198 142T236 119Z" />
<glyph unicode="r" horiz-adv-x="450" d="M35 0L115 504L174 399L38 447L52 533L275 541L238 383L186 290Q203 378 243 435T334 522T434 551Q463 551 485 542L451 347H351L349 436L367 423Q343 425 322 412T284 372T255 311T236 236L200 0H35Z" />
<glyph unicode="s" horiz-adv-x="510" d="M185 -14Q139 -14 90 -7T-4 12L24 185H128V91L107 123Q125 114 147 109T197 104Q225 104 246 109T280 126T293 153Q294 171 277 182T232 203T175 224T117 254T73 299T57 370Q57 425 88 465T176 528T310 551Q355 551 404
544T501 522L472 366H370L365 442L390 420Q375 428 354 431T313 435Q288 435 269 430T238 414T226 390Q225 373 242 362T287 342T345 320T404 291T449 246T466 175Q466 119 432 77T334 10T185 -14Z" />
<glyph unicode="t" horiz-adv-x="411" d="M366 24Q323 6 282 -4T205 -14Q140 -14 100 20T59 129Q59 140 59 150T62 174L105 446L121 425H31L45 515L145 544L116 515L138 654L308 683L281 515L270 537H414L396 425H249L270 446L228 183Q227 179 227 173T226 159Q226
134 236 123T266 112Q280 112 297 117T334 130L366 24Z" />
<glyph unicode="u" horiz-adv-x="621" d="M186 -14Q138 -14 106 10T62 77T58 174L101 451L113 421L35 447L49 533L281 541L228 215Q224 188 224 166T233 131T262 117Q280 117 299 128T334 161T364 219T385 301L421 537H586L516 87L496 116L585 86L571 0L355 -5L384
156L435 247Q418 157 377 100T286 15T186 -14Z" />
<glyph unicode="v" horiz-adv-x="557" d="M163 -2L64 444L75 431L26 446L39 533L223 542L283 83L242 92L398 446L403 430L351 446L364 533L600 542L589 456L528 432L555 448L329 -2H163Z" />
<glyph unicode="w" horiz-adv-x="837" d="M119 -2L68 443L82 430L27 446L41 533L222 542L239 99H218L388 533L556 542L579 94H560L698 446L707 424L646 446L659 533L878 542L867 456L818 436L836 454L636 -2H458L420 411L466 406L296 -2H119Z" />
<glyph unicode="x" horiz-adv-x="558" d="M-28 0L-15 86L65 105L27 84L188 293L239 294L418 533L574 542L561 456L480 436L523 459L359 262L311 261L125 0H-28ZM334 0L206 239L85 456L112 427L50 446L63 533L217 546L333 328L469 85L446 108L518 86L504 0H334Z" />
<glyph unicode="y" horiz-adv-x="554" d="M-58 -236L-36 -115Q-21 -117 -8 -118T17 -120Q58 -120 88 -105T143 -58T195 28L188 -28L64 444L75 431L26 446L39 533L219 542L297 100L253 109L398 446L403 430L351 446L364 533L599 542L586 456L528 434L551 448L336
3Q325 -21 308 -52T264 -117T204 -179T123 -226T18 -244Q-19 -244 -58 -236Z" />
<glyph unicode="z" horiz-adv-x="505" d="M459 190L430 0H-7L6 99L330 456L348 421H130L180 459L152 357H52L80 537H503L489 438L159 68L160 116H362L313 68L359 190H459Z" />
<glyph unicode="{" horiz-adv-x="361" d="M210 -114Q148 -114 112 -91T63 -22T61 91L81 220Q89 269 77 294T11 320L28 432Q65 432 86 447T118 488T133 543L153 672Q162 733 186 776T253 843T364 866H434L417 763Q374 763 349 753T312 718T293 652L272 516Q264
461 239 429T174 382T83 368L76 384Q126 384 163 369T217 318T226 226L205 90Q198 49 202 27T228 -3T295 -11L278 -114H210Z" />
<glyph unicode="|" horiz-adv-x="297" d="M173 815H297L150 -111H26L173 815Z" />
<glyph unicode="}" horiz-adv-x="361" d="M185 866Q247 866 283 843T333 774T335 662L314 532Q306 484 319 458T384 432L367 320Q331 320 310 305T278 265T263 210L243 80Q233 19 210 -24T143 -91T32 -114H-38L-22 -11Q22 -11 46 -1T83 34T102 100L123 237Q132
291 157 323T221 370T312 384L319 368Q269 368 232 384T178 435T169 526L191 663Q198 704 194 725T168 755T101 763L117 866H185Z" />
<glyph unicode="~" horiz-adv-x="591" d="M398 264Q369 264 344 273T298 296T255 318T212 328Q190 328 168 316T119 275L57 327Q103 400 142 425T220 451Q250 451 274 442T321 420T364 398T407 388Q430 388 452 401T499 441L560 387Q514 315 475 290T398 264Z" />
<glyph unicode="&#xa0;" horiz-adv-x="168" />
<glyph unicode="&#xa1;" horiz-adv-x="309" d="M208 222L164 -230H-10L87 215L208 222ZM184 490Q225 490 247 467T269 407Q269 364 240 336T166 307Q127 307 104 329T81 391Q81 436 111 463T184 490Z" />
<glyph unicode="&#xa2;" horiz-adv-x="523" d="M180 -22L203 131L252 101Q163 100 110 154T57 308Q57 372 74 426T125 522T208 587T321 617L277 584L300 739H408L384 589L348 618Q397 618 439 606T507 580L483 440H393V502Q382 505 369 506T347 508Q313 508 288
491T245 444T220 379T212 305Q212 259 232 237T290 214Q319 214 353 227T425 264L469 178Q415 139 365 122T265 101L311 134L287 -22H180Z" />
<glyph unicode="&#xa3;" horiz-adv-x="630" d="M8 0L22 86L129 123L73 87Q106 114 119 155T136 246T139 349L157 317H58L72 407L160 420L146 399Q144 511 171 582T257 687T403 721Q449 721 503 712T619 685L583 508H487L479 606L493 585Q452 595 421 595Q375 595
352 573T320 506T313 394L290 420H462L446 317H280L309 349Q309 292 303 249T279 170T226 104L208 125H444L416 97L458 216H557L523 0H8Z" />
<glyph unicode="&#xa4;" horiz-adv-x="639" d="M569 116L479 29L386 134H448Q416 109 378 97T299 84Q248 84 212 101T154 145H219L87 31L26 110L153 219L146 154Q129 175 120 203T111 265Q111 315 131 360T187 442L170 380L78 481L170 569L264 462L206 457Q239
480 275 491T352 503Q402 503 435 489T490 454L439 461L561 566L622 487L500 382V444Q539 398 539 327Q539 276 520 230T465 152L471 225L569 116ZM306 184Q342 184 364 205T398 259T409 324Q409 364 394 383T346 402Q309 402 286 381T252 328T241 264Q241 225
257 205T306 184Z" />
<glyph unicode="&#xa5;" horiz-adv-x="678" d="M110 299L122 377H237L222 351L130 614L151 592L88 616L100 702L380 707L366 621L285 593L297 623L380 336H347L517 616L527 586L453 616L466 702L715 707L702 621L631 596L666 619L488 347L480 377H593L580 299H110ZM149
0L162 86L250 114L229 91L246 198L266 174H90L102 252H573L561 174H377L414 201L397 91L387 115L466 86L452 0H149Z" />
<glyph unicode="&#xa6;" horiz-adv-x="296" d="M113 436L173 815H297L236 436H113ZM26 -111L86 268H210L150 -111H26Z" />
<glyph unicode="&#xa7;" horiz-adv-x="536" d="M174 -183Q132 -183 89 -176T3 -156L29 -7H128V-86L114 -66Q142 -78 172 -78Q214 -78 241 -57T268 -3Q268 21 253 38T213 71T161 103T109 141T69 191T53 260Q53 315 82 353T163 411T277 435L295 382Q270 380 247
367T210 332T195 286Q195 259 211 239T253 201T308 165T362 124T404 72T421 1Q421 -57 388 -98T300 -161T174 -183ZM242 103L236 156Q260 158 284 174T326 214T343 263Q343 288 327 306T285 342T232 377T179 418T137 472T121 545Q121 603 150 641T230 700T347 720Q386
720 431 713T522 690L498 554H400L394 629L416 605Q401 609 387 611T360 614Q322 614 296 597T269 546Q269 523 285 504T326 469T379 435T432 396T473 346T489 278Q489 222 455 184T365 126T242 103Z" />
<glyph unicode="&#xa8;" horiz-adv-x="460" d="M182 614Q148 614 129 635T110 693Q110 733 133 759T195 786Q229 786 248 765T267 707Q267 665 243 640T182 614ZM402 614Q368 614 349 635T330 693Q330 733 353 759T415 786Q449 786 468 765T488 707Q488 665 464
640T402 614Z" />
<glyph unicode="&#xa9;" horiz-adv-x="845" d="M431 147Q349 147 297 200T245 350Q245 419 272 465T344 534T446 558Q515 558 585 526L582 416H504L494 469L500 463Q493 465 480 467T456 469Q412 469 395 438T377 358Q377 297 399 268T459 239Q481 239 507 247T560
275L601 211Q559 177 515 162T431 147ZM425 -14Q345 -14 279 12T163 87T88 201T61 346Q61 428 89 496T168 615T289 693T440 721Q519 721 586 695T705 621T784 507T812 362Q812 281 783 212T700 93T577 14T425 -14ZM433 78Q492 78 541 98T626 155T680 243T700 355Q700
435 666 497T572 595T432 630Q352 630 294 595T205 498T173 354Q173 274 204 212T294 114T433 78Z" />
<glyph unicode="&#xaa;" horiz-adv-x="496" d="M23 138L42 254H474L455 138H23ZM179 311Q122 311 87 345T51 458Q51 531 82 590T170 685T300 720Q333 720 368 709T437 673L383 685L404 709L496 710L436 343L405 424L498 393L486 321L300 317L321 434L354 500Q343
439 316 397T252 333T179 311ZM230 409Q249 409 267 425T299 471T321 544L338 643L358 604Q342 617 327 623T297 629Q268 629 246 607T211 548T197 472Q197 440 206 425T230 409Z" />
<glyph unicode="&#xab;" horiz-adv-x="526" d="M164 37L31 228L41 310L234 501L303 441L145 238L153 302L247 101L164 37ZM390 37L257 228L267 310L460 501L529 441L371 238L379 302L473 101L390 37Z" />
<glyph unicode="&#xac;" horiz-adv-x="610" d="M409 290L395 309L363 114H495L542 411H72L53 290H409Z" />
<glyph unicode="&#xad;" horiz-adv-x="406" d="M630 357L610 229H295L316 357H630Z" />
<glyph unicode="&#xae;" horiz-adv-x="700" d="M233 305V350L275 365L263 348V569L280 550L233 565V609L362 612H395Q452 612 482 589T513 524Q513 490 489 468T411 438L418 450Q446 451 460 442T485 413L517 349L489 365L533 350V305H443L406 394Q400 408 393
414T378 422T357 424H337L351 437V348L339 365L384 350V305H233ZM351 467L337 479H366Q393 479 406 489T420 518Q420 534 410 542T376 551H337L351 565V467ZM370 155Q284 155 217 192T111 296T73 448Q73 538 113 607T224 715T383 755Q471 755 539 718T647 615T687
462Q687 396 663 340T595 242T495 178T370 155ZM373 225Q439 225 491 255T575 338T606 461Q606 528 577 578T497 656T382 684Q316 684 265 655T184 573T154 450Q154 383 182 332T259 253T373 225Z" />
<glyph unicode="&#xaf;" horiz-adv-x="389" d="M428 772L409 656H103L121 772H428Z" />
<glyph unicode="&#xb0;" horiz-adv-x="418" d="M225 412Q159 412 119 449T78 556Q78 611 103 653T170 720T267 744Q333 744 373 706T414 599Q414 548 391 505T325 437T225 412ZM233 503Q260 503 276 518T299 554T307 597Q307 627 294 640T259 653Q234 653 218
639T194 604T186 560Q186 531 198 517T233 503Z" />
<glyph unicode="&#xb1;" horiz-adv-x="557" d="M279 494L248 467L277 657H402L372 467L351 494H538L519 373H330L361 400L331 210H207L237 400L258 373H71L89 494H279ZM484 152L465 32H16L35 152H484Z" />
<glyph unicode="&#xb2;" horiz-adv-x="365" d="M38 345L54 447Q105 481 151 516T228 585T258 652Q258 671 247 678T221 685Q210 685 198 682T173 674L193 697L172 629H89L103 766Q141 775 181 781T256 788Q321 788 361 762T402 679Q402 637 381 601T327 534T260
478T197 436V453H369L352 345H38Z" />
<glyph unicode="&#xb3;" horiz-adv-x="367" d="M176 333Q137 333 99 342T26 368L74 456Q99 446 124 440T173 434Q204 434 223 447T242 484Q242 506 227 512T193 518H132L146 605H198Q208 605 224 608T252 623T265 656Q265 677 252 685T218 694Q206 694 192 692T163
684L186 703L169 646H87L100 761Q140 774 180 781T256 788Q320 788 363 764T407 682Q407 632 371 602T280 567L273 573Q330 568 354 543T379 477Q379 431 351 399T277 350T176 333Z" />
<glyph unicode="&#xb4;" horiz-adv-x="381" d="M135 599L76 682L302 852L381 736L135 599Z" />
<glyph unicode="&#xb5;" horiz-adv-x="676" d="M187 -235L24 -230L130 444L144 421L65 447L79 533L311 541L258 215Q254 188 254 166T264 131T293 117Q311 117 330 128T365 161T395 219T415 301L452 537H617L546 87L526 116L615 86L601 -1L386 -6L415 156L466
247Q450 157 414 100T333 15T246 -14Q203 -14 176 14T140 96L168 44Q174 17 183 -19T195 -108T187 -235Z" />
<glyph unicode="&#xb6;" horiz-adv-x="652" d="M78 -170L91 -84L182 -53L156 -87L217 313L241 292Q160 292 111 338T61 466Q61 536 91 590T176 676T299 707H691L678 621L588 585L612 621L486 -170H352L478 621L494 582H371L403 622L278 -170H78Z" />
<glyph unicode="&#xb7;" horiz-adv-x="280" d="M139 231Q99 231 77 254T54 314Q54 358 83 386T157 414Q196 414 219 392T243 330Q243 285 213 258T139 231Z" />
<glyph unicode="&#xb8;" horiz-adv-x="350" d="M75 -265Q47 -265 18 -259T-39 -238L1 -158Q40 -175 80 -175Q100 -175 113 -169T127 -148Q127 -129 99 -121T35 -112L58 0H152L146 -44Q196 -50 220 -73T244 -135Q244 -174 221 -203T159 -249T75 -265Z" />
<glyph unicode="&#xb9;" horiz-adv-x="297" d="M258 414L244 442L317 414L307 345H38L48 414L154 438L132 414L169 662L205 663L92 606L67 689L211 778H315L258 414Z" />
<glyph unicode="&#xba;" horiz-adv-x="440" d="M224 311Q146 311 98 349T49 476Q49 522 63 565T108 644T185 700T295 721Q372 721 420 684T469 557Q469 496 443 440T363 347T224 311ZM14 138L33 254H406L387 138H14ZM240 402Q264 402 280 418T305 460T318 511T323
558Q323 595 312 612T276 630Q253 630 237 614T212 574T199 524T195 476Q195 440 205 421T240 402Z" />
<glyph unicode="&#xbb;" horiz-adv-x="527" d="M363 501L496 310L485 228L293 37L223 97L381 300L373 236L279 437L363 501ZM137 501L270 310L259 228L67 37L-3 97L155 300L147 236L53 437L137 501Z" />
<glyph unicode="&#xbc;" horiz-adv-x="906" d="M266 345L252 373L325 345L315 276H46L56 345L162 369L140 345L177 593L213 594L100 537L75 620L219 709H323L266 345ZM140 -11L648 719H779L271 -11H140ZM675 108L684 81H495L493 178L691 439L858 429L815 156L788
176H866L852 81H771L807 108L790 0H658L675 108ZM705 176L681 147L716 363L735 362L571 139L559 176H705Z" />
<glyph unicode="&#xbd;" horiz-adv-x="916" d="M266 345L252 373L325 345L315 276H46L56 345L162 369L140 345L177 593L213 594L100 537L75 620L219 709H323L266 345ZM142 -11L650 719H781L273 -11H142ZM525 0L541 102Q592 136 638 171T715 240T745 307Q745 326
734 333T708 340Q697 340 685 337T660 329L680 352L659 284H576L590 421Q628 430 668 436T743 443Q808 443 848 417T889 334Q889 292 868 256T814 189T747 133T684 91V108H856L839 0H525Z" />
<glyph unicode="&#xbe;" horiz-adv-x="946" d="M169 264Q130 264 92 273T19 299L67 387Q92 377 117 371T166 365Q197 365 216 378T235 415Q235 437 220 443T186 449H125L139 536H191Q201 536 217 539T245 554T258 587Q258 608 245 616T211 625Q199 625 185 623T156
615L179 634L162 577H80L93 692Q133 705 173 712T249 719Q313 719 356 695T400 613Q400 563 364 533T273 498L266 504Q323 499 347 474T372 408Q372 362 344 330T270 281T169 264ZM184 -11L692 719H823L315 -11H184ZM714 108L723 81H534L532 178L730 439L897 429L854
156L827 176H905L891 81H810L846 108L829 0H697L714 108ZM744 176L720 147L755 363L774 362L610 139L598 176H744Z" />
<glyph unicode="&#xbf;" horiz-adv-x="422" d="M344 256Q344 250 345 241T346 217Q345 174 325 144T275 93T216 53T168 14T148 -35Q148 -62 165 -72T211 -83Q242 -83 278 -73T345 -52L374 -165Q323 -186 268 -198T161 -210Q110 -210 68 -197T1 -152T-25 -67Q-25
-25 -8 6T36 62T95 107T153 147T199 189T218 240Q218 245 218 248T219 256H344ZM301 526Q341 526 363 503T386 443Q386 400 357 372T283 343Q244 343 221 365T198 427Q198 472 228 499T301 526Z" />
<glyph unicode="&#xc0;" horiz-adv-x="693" d="M622 78L587 118L657 86L643 0H368L382 86L450 114L443 91L427 206L438 184H204L228 205L175 92L173 111L236 86L222 0H-37L-23 86L59 116L12 82L332 705L507 710L622 78ZM262 279L255 305H431L420 275L376 616L417
615L262 279ZM539 755L278 855L341 977L584 836L539 755Z" />
<glyph unicode="&#xc1;" horiz-adv-x="693" d="M622 78L587 118L657 86L643 0H368L382 86L450 114L443 91L427 206L438 184H204L228 205L175 92L173 111L236 86L222 0H-37L-23 86L59 116L12 82L332 705L507 710L622 78ZM262 279L255 305H431L420 275L376 616L417
615L262 279ZM328 755L289 833L549 979L600 855L328 755Z" />
<glyph unicode="&#xc2;" horiz-adv-x="693" d="M622 78L587 118L657 86L643 0H368L382 86L450 114L443 91L427 206L438 184H204L228 205L175 92L173 111L236 86L222 0H-37L-23 86L59 116L12 82L332 705L507 710L622 78ZM262 279L255 305H431L420 275L376 616L417
615L262 279ZM289 750L245 816L408 953L501 962L635 816L572 750L388 876L503 875L289 750Z" />
<glyph unicode="&#xc3;" horiz-adv-x="693" d="M622 78L587 118L657 86L643 0H368L382 86L450 114L443 91L427 206L438 184H204L228 205L175 92L173 111L236 86L222 0H-37L-23 86L59 116L12 82L332 705L507 710L622 78ZM262 279L255 305H431L420 275L376 616L417
615L262 279ZM310 776L248 815Q278 880 309 908T376 936Q404 936 428 925T475 904T516 893Q548 893 581 939L644 902Q614 836 580 808T508 779Q482 779 459 789T415 810T371 821Q355 821 342 811T310 776Z" />
<glyph unicode="&#xc4;" horiz-adv-x="693" d="M622 78L587 118L657 86L643 0H368L382 86L450 114L443 91L427 206L438 184H204L228 205L175 92L173 111L236 86L222 0H-37L-23 86L59 116L12 82L332 705L507 710L622 78ZM262 279L255 305H431L420 275L376 616L417
615L262 279ZM330 759Q296 759 277 780T258 838Q258 878 281 904T343 931Q377 931 396 910T415 852Q415 810 391 785T330 759ZM550 759Q516 759 497 780T478 838Q478 878 501 904T563 931Q597 931 616 910T636 852Q636 810 612 785T550 759Z" />
<glyph unicode="&#xc5;" horiz-adv-x="693" d="M622 78L587 118L657 86L643 0H368L382 86L450 114L443 91L427 206L438 184H204L228 205L175 92L173 111L236 86L222 0H-37L-23 86L59 116L12 82L332 705L507 710L622 78ZM262 279L255 305H431L420 275L376 616L417
615L262 279ZM431 730Q366 730 335 764T304 847Q304 888 323 922T379 978T467 1000Q531 1000 561 966T592 882Q592 844 573 809T519 752T431 730ZM437 807Q468 807 482 830T497 880Q497 900 488 912T459 924Q428 924 414 901T400 850Q400 830 408 819T437 807Z"
/>
<glyph unicode="&#xc6;" horiz-adv-x="914" d="M-37 0L-23 86L62 116L12 81L326 610L339 584L250 616L264 702L500 707H927L897 516H799L791 607L816 582H617L648 609L614 393L595 419H804L785 299H572L603 330L565 91L548 125H748L720 95L758 200H858L826 0H328L342
86L423 119L396 91L418 223L441 196H214L252 223L169 80L166 116L237 86L224 0H-37ZM291 294L275 316H459L430 294L479 600L501 582H432L467 599L291 294Z" />
<glyph unicode="&#xc7;" horiz-adv-x="611" d="M260 -265Q232 -265 203 -259T146 -238L186 -158Q225 -175 265 -175Q285 -175 298 -169T312 -148Q312 -129 284 -121T220 -112L263 94H357L331 -44Q381 -50 405 -73T429 -135Q429 -174 406 -203T345 -249T260 -265ZM45
289Q45 374 70 451T144 589T261 685T416 721Q468 721 521 707T632 666L594 479H495L485 590L514 565Q486 577 461 582T415 587Q366 587 330 561T270 492T235 397T223 296Q223 235 239 198T283 143T346 126Q382 126 422 142T502 189L556 84Q496 35 431 11T305 -14Q234
-14 175 19T81 119T45 289Z" />
<glyph unicode="&#xc8;" horiz-adv-x="590" d="M434 200H534L501 0H-6L7 86L91 114L70 92L153 611L169 586L91 616L105 702L333 707H603L573 516H475L467 605L493 582H290L320 608L286 393L268 419H480L460 299H246L276 330L238 91L221 125H434L398 98L434 200ZM486
755L225 855L288 977L531 836L486 755Z" />
<glyph unicode="&#xc9;" horiz-adv-x="590" d="M434 200H534L501 0H-6L7 86L91 114L70 92L153 611L169 586L91 616L105 702L333 707H603L573 516H475L467 605L493 582H290L320 608L286 393L268 419H480L460 299H246L276 330L238 91L221 125H434L398 98L434 200ZM275
755L236 833L496 979L547 855L275 755Z" />
<glyph unicode="&#xca;" horiz-adv-x="590" d="M434 200H534L501 0H-6L7 86L91 114L70 92L153 611L169 586L91 616L105 702L333 707H603L573 516H475L467 605L493 582H290L320 608L286 393L268 419H480L460 299H246L276 330L238 91L221 125H434L398 98L434 200ZM236
750L192 816L355 953L448 962L582 816L519 750L335 876L450 875L236 750Z" />
<glyph unicode="&#xcb;" horiz-adv-x="590" d="M434 200H534L501 0H-6L7 86L91 114L70 92L153 611L169 586L91 616L105 702L333 707H603L573 516H475L467 605L493 582H290L320 608L286 393L268 419H480L460 299H246L276 330L238 91L221 125H434L398 98L434 200ZM276
759Q242 759 223 780T204 838Q204 878 227 904T289 931Q323 931 342 910T361 852Q361 810 337 785T276 759ZM496 759Q462 759 443 780T424 838Q424 878 447 904T509 931Q543 931 562 910T582 852Q582 810 558 785T496 759Z" />
<glyph unicode="&#xcc;" horiz-adv-x="365" d="M388 621L301 587L320 610L238 91L229 115L303 86L289 0H-6L7 86L91 114L70 91L152 609L170 586L91 616L105 702L402 707L388 621ZM624 755L363 855L426 977L669 836L624 755Z" />
<glyph unicode="&#xcd;" horiz-adv-x="365" d="M388 621L301 587L320 610L238 91L229 115L303 86L289 0H-6L7 86L91 114L70 91L152 609L170 586L91 616L105 702L402 707L388 621ZM413 755L374 833L634 979L685 855L413 755Z" />
<glyph unicode="&#xce;" horiz-adv-x="365" d="M388 621L301 587L320 610L238 91L229 115L303 86L289 0H-6L7 86L91 114L70 91L152 609L170 586L91 616L105 702L402 707L388 621ZM374 750L330 816L493 953L586 962L720 816L657 750L473 876L588 875L374 750Z" />
<glyph unicode="&#xcf;" horiz-adv-x="365" d="M388 621L301 587L320 610L238 91L229 115L303 86L289 0H-6L7 86L91 114L70 91L152 609L170 586L91 616L105 702L402 707L388 621ZM158 759Q124 759 105 780T86 838Q86 878 109 904T171 931Q205 931 224 910T243
852Q243 810 219 785T158 759ZM378 759Q344 759 325 780T306 838Q306 878 329 904T391 931Q425 931 444 910T464 852Q464 810 440 785T378 759Z" />
<glyph unicode="&#xd0;" horiz-adv-x="699" d="M41 302L61 416H388L368 302H41ZM409 707Q500 707 561 677T652 585T682 430Q682 343 656 265T580 128T454 34T280 0H-6L7 86L91 114L70 91L153 611L169 586L91 616L105 702L341 707H409ZM310 125Q355 125 388 147T443
206T479 286T498 371T504 444Q504 487 493 517T456 565T384 582H290L321 613L238 90L221 125H310Z" />
<glyph unicode="&#xd1;" horiz-adv-x="738" d="M521 702L782 707L768 621L686 587L706 611L608 0H426L257 523H276L207 91L198 115L269 86L256 0H-6L7 86L91 114L70 91L153 611L169 586L91 616L105 702L361 707L523 196H503L569 612L585 586L507 616L521 702ZM333
776L271 815Q301 880 332 908T399 936Q427 936 451 925T498 904T539 893Q571 893 604 939L667 902Q637 836 603 808T531 779Q505 779 482 789T438 810T394 821Q378 821 365 811T333 776Z" />
<glyph unicode="&#xd2;" horiz-adv-x="713" d="M314 -14Q223 -14 163 20T74 119T44 275Q44 334 57 397T98 517T172 621T280 694T427 721Q518 721 577 687T666 589T696 433Q696 374 683 312T642 191T569 87T461 13T314 -14ZM329 120Q372 120 404 142T458 200T493
279T513 364T519 439Q519 493 506 525T469 572T412 587Q369 587 337 566T283 508T248 430T228 346T222 271Q222 217 235 184T272 135T329 120ZM556 755L295 855L358 977L601 836L556 755Z" />
<glyph unicode="&#xd3;" horiz-adv-x="713" d="M314 -14Q223 -14 163 20T74 119T44 275Q44 334 57 397T98 517T172 621T280 694T427 721Q518 721 577 687T666 589T696 433Q696 374 683 312T642 191T569 87T461 13T314 -14ZM329 120Q372 120 404 142T458 200T493
279T513 364T519 439Q519 493 506 525T469 572T412 587Q369 587 337 566T283 508T248 430T228 346T222 271Q222 217 235 184T272 135T329 120ZM345 755L306 833L566 979L617 855L345 755Z" />
<glyph unicode="&#xd4;" horiz-adv-x="713" d="M314 -14Q223 -14 163 20T74 119T44 275Q44 334 57 397T98 517T172 621T280 694T427 721Q518 721 577 687T666 589T696 433Q696 374 683 312T642 191T569 87T461 13T314 -14ZM329 120Q372 120 404 142T458 200T493
279T513 364T519 439Q519 493 506 525T469 572T412 587Q369 587 337 566T283 508T248 430T228 346T222 271Q222 217 235 184T272 135T329 120ZM306 750L262 816L425 953L518 962L652 816L589 750L405 876L520 875L306 750Z" />
<glyph unicode="&#xd5;" horiz-adv-x="713" d="M314 -14Q223 -14 163 20T74 119T44 275Q44 334 57 397T98 517T172 621T280 694T427 721Q518 721 577 687T666 589T696 433Q696 374 683 312T642 191T569 87T461 13T314 -14ZM329 120Q372 120 404 142T458 200T493
279T513 364T519 439Q519 493 506 525T469 572T412 587Q369 587 337 566T283 508T248 430T228 346T222 271Q222 217 235 184T272 135T329 120ZM327 776L265 815Q295 880 326 908T393 936Q421 936 445 925T492 904T533 893Q565 893 598 939L661 902Q631 836 597
808T525 779Q499 779 476 789T432 810T388 821Q372 821 359 811T327 776Z" />
<glyph unicode="&#xd6;" horiz-adv-x="713" d="M314 -14Q223 -14 163 20T74 119T44 275Q44 334 57 397T98 517T172 621T280 694T427 721Q518 721 577 687T666 589T696 433Q696 374 683 312T642 191T569 87T461 13T314 -14ZM329 120Q372 120 404 142T458 200T493
279T513 364T519 439Q519 493 506 525T469 572T412 587Q369 587 337 566T283 508T248 430T228 346T222 271Q222 217 235 184T272 135T329 120ZM347 759Q313 759 294 780T275 838Q275 878 298 904T360 931Q394 931 413 910T432 852Q432 810 408 785T347 759ZM567
759Q533 759 514 780T495 838Q495 878 518 904T580 931Q614 931 633 910T653 852Q653 810 629 785T567 759Z" />
<glyph unicode="&#xd7;" horiz-adv-x="506" d="M107 128L32 218L200 368L198 329L73 483L172 574L297 420L260 421L427 573L501 483L333 333L335 373L460 219L361 128L236 281L274 280L107 128Z" />
<glyph unicode="&#xd8;" horiz-adv-x="719" d="M640 785L720 733L620 601L605 588L233 101L231 92L101 -81L20 -28L170 168L185 181L536 643L540 654L640 785ZM317 -14Q226 -14 167 20T78 119T48 274Q48 334 61 396T102 517T176 621T284 694T430 721Q521 721 581
687T670 589T700 434Q700 375 687 312T646 191T573 87T465 13T317 -14ZM333 120Q376 120 407 142T461 200T497 279T516 364T522 440Q522 493 510 525T473 572T417 587Q373 587 341 565T286 508T251 429T231 344T225 269Q225 216 238 183T276 135T333 120Z" />
<glyph unicode="&#xd9;" horiz-adv-x="718" d="M474 702L771 707L757 621L670 587L690 611L637 275Q622 173 581 110T474 16T316 -14Q196 -14 135 37T74 195Q74 212 76 231T81 271L136 611L150 588L74 616L88 702L380 707L366 621L285 587L304 611L249 261Q246
243 245 228T243 199Q243 158 262 139T327 119Q373 119 401 137T445 193T470 285L521 611L538 586L460 616L474 702ZM545 755L284 855L347 977L590 836L545 755Z" />
<glyph unicode="&#xda;" horiz-adv-x="718" d="M474 702L771 707L757 621L670 587L690 611L637 275Q622 173 581 110T474 16T316 -14Q196 -14 135 37T74 195Q74 212 76 231T81 271L136 611L150 588L74 616L88 702L380 707L366 621L285 587L304 611L249 261Q246
243 245 228T243 199Q243 158 262 139T327 119Q373 119 401 137T445 193T470 285L521 611L538 586L460 616L474 702ZM333 755L294 833L554 979L605 855L333 755Z" />
<glyph unicode="&#xdb;" horiz-adv-x="718" d="M474 702L771 707L757 621L670 587L690 611L637 275Q622 173 581 110T474 16T316 -14Q196 -14 135 37T74 195Q74 212 76 231T81 271L136 611L150 588L74 616L88 702L380 707L366 621L285 587L304 611L249 261Q246
243 245 228T243 199Q243 158 262 139T327 119Q373 119 401 137T445 193T470 285L521 611L538 586L460 616L474 702ZM295 750L251 816L414 953L507 962L641 816L578 750L394 876L509 875L295 750Z" />
<glyph unicode="&#xdc;" horiz-adv-x="718" d="M474 702L771 707L757 621L670 587L690 611L637 275Q622 173 581 110T474 16T316 -14Q196 -14 135 37T74 195Q74 212 76 231T81 271L136 611L150 588L74 616L88 702L380 707L366 621L285 587L304 611L249 261Q246
243 245 228T243 199Q243 158 262 139T327 119Q373 119 401 137T445 193T470 285L521 611L538 586L460 616L474 702ZM335 759Q301 759 282 780T263 838Q263 878 286 904T348 931Q382 931 401 910T420 852Q420 810 396 785T335 759ZM555 759Q521 759 502 780T483
838Q483 878 506 904T568 931Q602 931 621 910T641 852Q641 810 617 785T555 759Z" />
<glyph unicode="&#xdd;" horiz-adv-x="643" d="M131 0L144 86L232 114L211 91L241 279L250 222L104 614L126 591L62 616L74 702L353 707L340 621L259 593L271 623L363 336H329L508 616L517 586L444 616L457 702L706 707L693 621L624 597L657 619L388 222L409 279L379
91L370 115L448 86L434 0H131ZM310 755L271 833L531 979L582 855L310 755Z" />
<glyph unicode="&#xde;" horiz-adv-x="592" d="M-6 0L7 86L91 114L70 91L153 611L170 586L91 616L105 702L402 707L388 621L301 587L321 614L310 545L302 559H390Q463 559 506 540T569 484T588 399Q588 323 551 269T445 185T283 155H234L251 174L238 91L229 115L315
86L301 0H-6ZM265 263L254 275H287Q333 275 362 287T405 322T420 376Q420 404 404 421T340 438H279L295 452L265 263Z" />
<glyph unicode="&#xdf;" horiz-adv-x="696" d="M-43 -244Q-68 -244 -88 -241T-124 -235L-98 -120Q-88 -121 -79 -122T-59 -123Q-23 -123 4 -103T41 -28L113 431L132 416H30L45 510L149 536L129 514L138 571Q151 648 195 696T302 768T431 791Q492 791 541 773T620
718T649 629Q649 596 639 572T612 528T577 494T542 465T515 437T504 407Q504 390 516 378T548 354T588 329T628 297T660 251T672 183Q672 119 640 75T554 9T434 -14Q396 -14 356 -7T274 16L300 173H399L400 82L380 109Q395 101 409 98T436 94Q457 94 473 101T499
122T509 153Q509 173 497 187T465 213T425 238T384 270T352 314T340 377Q340 412 350 437T377 481T413 515T449 546T476 578T486 618Q486 648 467 663T415 679Q377 679 343 654T300 571L212 13Q200 -65 174 -115T112 -193T36 -232T-43 -244Z" />
<glyph unicode="&#xe0;" horiz-adv-x="594" d="M167 -14Q127 -14 93 7T39 73T18 190Q18 265 41 330T107 445T207 523T329 551Q375 551 422 536T515 487L441 503L471 536L560 537L480 31L422 139L558 89L543 0L328 -6L357 157L406 248Q392 164 354 106T265 17T167
-14ZM236 119Q254 119 273 132T308 169T338 229T359 308L381 445L408 392Q386 410 366 418T326 427Q295 427 270 409T225 359T196 289T185 209Q185 164 198 142T236 119ZM278 856L493 680L435 597L197 737L278 856Z" />
<glyph unicode="&#xe1;" horiz-adv-x="594" d="M167 -14Q127 -14 93 7T39 73T18 190Q18 265 41 330T107 445T207 523T329 551Q375 551 422 536T515 487L441 503L471 536L560 537L480 31L422 139L558 89L543 0L328 -6L357 157L406 248Q392 164 354 106T265 17T167
-14ZM236 119Q254 119 273 132T308 169T338 229T359 308L381 445L408 392Q386 410 366 418T326 427Q295 427 270 409T225 359T196 289T185 209Q185 164 198 142T236 119ZM280 599L221 682L447 852L526 736L280 599Z" />
<glyph unicode="&#xe2;" horiz-adv-x="594" d="M167 -14Q127 -14 93 7T39 73T18 190Q18 265 41 330T107 445T207 523T329 551Q375 551 422 536T515 487L441 503L471 536L560 537L480 31L422 139L558 89L543 0L328 -6L357 157L406 248Q392 164 354 106T265 17T167
-14ZM236 119Q254 119 273 132T308 169T338 229T359 308L381 445L408 392Q386 410 366 418T326 427Q295 427 270 409T225 359T196 289T185 209Q185 164 198 142T236 119ZM204 869L159 931L319 1081L413 1090L540 931L478 869L301 1008L415 1006L204 869Z" />
<glyph unicode="&#xe3;" horiz-adv-x="594" d="M167 -14Q127 -14 93 7T39 73T18 190Q18 265 41 330T107 445T207 523T329 551Q375 551 422 536T515 487L441 503L471 536L560 537L480 31L422 139L558 89L543 0L328 -6L357 157L406 248Q392 164 354 106T265 17T167
-14ZM236 119Q254 119 273 132T308 169T338 229T359 308L381 445L408 392Q386 410 366 418T326 427Q295 427 270 409T225 359T196 289T185 209Q185 164 198 142T236 119ZM413 637Q386 637 365 648T325 672T283 684Q265 684 248 673T212 637L152 672Q182 739 218
772T294 806Q322 806 342 795T382 771T423 759Q443 759 459 771T494 806L555 773Q524 705 489 671T413 637Z" />
<glyph unicode="&#xe4;" horiz-adv-x="594" d="M167 -14Q127 -14 93 7T39 73T18 190Q18 265 41 330T107 445T207 523T329 551Q375 551 422 536T515 487L441 503L471 536L560 537L480 31L422 139L558 89L543 0L328 -6L357 157L406 248Q392 164 354 106T265 17T167
-14ZM236 119Q254 119 273 132T308 169T338 229T359 308L381 445L408 392Q386 410 366 418T326 427Q295 427 270 409T225 359T196 289T185 209Q185 164 198 142T236 119ZM235 614Q201 614 182 635T163 693Q163 733 186 759T248 786Q282 786 301 765T320 707Q320
665 296 640T235 614ZM455 614Q421 614 402 635T383 693Q383 733 406 759T468 786Q502 786 521 765T541 707Q541 665 517 640T455 614Z" />
<glyph unicode="&#xe5;" horiz-adv-x="594" d="M167 -14Q127 -14 93 7T39 73T18 190Q18 265 41 330T107 445T207 523T329 551Q375 551 422 536T515 487L441 503L471 536L560 537L480 31L422 139L558 89L543 0L328 -6L357 157L406 248Q392 164 354 106T265 17T167
-14ZM236 119Q254 119 273 132T308 169T338 229T359 308L381 445L408 392Q386 410 366 418T326 427Q295 427 270 409T225 359T196 289T185 209Q185 164 198 142T236 119ZM340 598Q275 598 244 632T213 715Q213 756 232 790T288 846T376 868Q440 868 470 834T501
750Q501 712 482 677T428 620T340 598ZM346 675Q377 675 391 698T406 748Q406 768 397 780T368 792Q337 792 323 769T309 718Q309 698 317 687T346 675Z" />
<glyph unicode="&#xe6;" horiz-adv-x="809" d="M350 135Q342 96 321 68T273 22T214 -5T151 -14Q90 -14 50 23T10 133Q10 180 29 212T81 264T160 291T257 299H335L316 282Q322 312 325 338T329 375Q329 406 312 417T264 429Q233 429 198 422T125 408L206 495L169
358H72L85 513Q141 527 202 539T315 551Q371 551 406 531T441 460Q441 457 441 454T439 443L398 453Q437 498 492 524T617 551Q706 551 755 510T805 398Q805 355 785 322T730 266T650 229T552 210T447 207L474 243Q474 238 474 232T473 218Q473 160 497 134T563
108Q593 108 630 120T709 154L754 53Q699 21 640 4T525 -14Q424 -14 366 44T307 202Q307 216 308 229T310 254L346 208H278Q260 208 242 207T208 201T183 184T173 153Q173 131 185 119T218 106Q231 106 246 112T275 129T298 159T307 202L350 135ZM475 251L451 303Q476
301 503 302T555 309T599 323T630 347T642 384Q642 405 630 419T593 434Q567 434 547 417T512 372T488 313T475 251Z" />
<glyph unicode="&#xe7;" horiz-adv-x="488" d="M232 -14Q173 -14 125 11T48 89T19 220Q19 293 43 354T110 459T209 527T330 551Q369 551 410 541T494 509L470 354H362L357 430L373 414Q341 431 312 431Q282 431 259 414T220 368T196 304T187 230Q187 166 209 138T270
110Q295 110 324 120T388 148L433 49Q382 18 331 2T232 -14ZM196 -265Q168 -265 139 -259T82 -238L122 -158Q161 -175 201 -175Q221 -175 234 -169T248 -148Q248 -129 220 -121T156 -112L179 0H273L267 -44Q317 -50 341 -73T365 -135Q365 -174 342 -203T280 -249T196
-265Z" />
<glyph unicode="&#xe8;" horiz-adv-x="521" d="M236 -13Q175 -13 126 11T49 85T20 214Q20 278 40 338T100 446T197 522T328 550Q417 550 467 510T518 402Q518 353 492 317T422 256T321 219T203 206Q191 206 183 206T168 207L177 307Q186 306 195 306T214 305Q240
305 265 310T311 325T343 350T355 385Q355 406 342 419T305 433Q277 433 255 413T217 360T193 290T185 218Q185 159 209 133T274 107Q305 107 342 119T421 152L465 53Q406 20 348 4T236 -13ZM271 856L486 680L428 597L190 737L271 856Z" />
<glyph unicode="&#xe9;" horiz-adv-x="521" d="M236 -13Q175 -13 126 11T49 85T20 214Q20 278 40 338T100 446T197 522T328 550Q417 550 467 510T518 402Q518 353 492 317T422 256T321 219T203 206Q191 206 183 206T168 207L177 307Q186 306 195 306T214 305Q240
305 265 310T311 325T343 350T355 385Q355 406 342 419T305 433Q277 433 255 413T217 360T193 290T185 218Q185 159 209 133T274 107Q305 107 342 119T421 152L465 53Q406 20 348 4T236 -13ZM273 599L214 682L440 852L519 736L273 599Z" />
<glyph unicode="&#xea;" horiz-adv-x="521" d="M236 -13Q175 -13 126 11T49 85T20 214Q20 278 40 338T100 446T197 522T328 550Q417 550 467 510T518 402Q518 353 492 317T422 256T321 219T203 206Q191 206 183 206T168 207L177 307Q186 306 195 306T214 305Q240
305 265 310T311 325T343 350T355 385Q355 406 342 419T305 433Q277 433 255 413T217 360T193 290T185 218Q185 159 209 133T274 107Q305 107 342 119T421 152L465 53Q406 20 348 4T236 -13ZM197 869L152 931L312 1081L406 1090L533 931L471 869L294 1008L408 1006L197
869Z" />
<glyph unicode="&#xeb;" horiz-adv-x="521" d="M236 -13Q175 -13 126 11T49 85T20 214Q20 278 40 338T100 446T197 522T328 550Q417 550 467 510T518 402Q518 353 492 317T422 256T321 219T203 206Q191 206 183 206T168 207L177 307Q186 306 195 306T214 305Q240
305 265 310T311 325T343 350T355 385Q355 406 342 419T305 433Q277 433 255 413T217 360T193 290T185 218Q185 159 209 133T274 107Q305 107 342 119T421 152L465 53Q406 20 348 4T236 -13ZM228 614Q194 614 175 635T156 693Q156 733 179 759T241 786Q275 786
294 765T313 707Q313 665 289 640T228 614ZM448 614Q414 614 395 635T376 693Q376 733 399 759T461 786Q495 786 514 765T534 707Q534 665 510 640T448 614Z" />
<glyph unicode="&#xec;" horiz-adv-x="318" d="M34 -5L115 504L174 399L38 447L52 533L285 541L204 29L146 136L281 87L267 0L34 -5ZM410 856L625 680L567 597L329 737L410 856Z" />
<glyph unicode="&#xed;" horiz-adv-x="318" d="M34 -5L115 504L174 399L38 447L52 533L285 541L204 29L146 136L281 87L267 0L34 -5ZM156 599L97 682L323 852L402 736L156 599Z" />
<glyph unicode="&#xee;" horiz-adv-x="318" d="M92 614L43 675L182 825L276 834L376 666L311 614L173 756L279 750L92 614ZM34 -5L115 504L174 399L38 447L52 533L285 541L204 29L146 136L281 87L267 0L34 -5Z" />
<glyph unicode="&#xef;" horiz-adv-x="321" d="M34 -5L115 504L174 399L38 447L52 533L285 541L204 29L146 136L281 87L267 0L34 -5ZM111 614Q78 614 59 635T40 693Q40 733 63 759T125 786Q158 786 177 765T197 707Q197 665 173 640T111 614ZM310 614Q277 614
258 635T239 693Q239 733 262 759T324 786Q357 786 376 765T396 707Q396 665 372 640T310 614Z" />
<glyph unicode="&#xf0;" horiz-adv-x="566" d="M221 -14Q119 -14 66 42T13 194Q13 254 32 307T86 402T170 466T276 490Q313 490 343 480T397 451T432 402H402Q403 497 377 555T298 641T169 670L193 791Q287 790 354 760T463 677T526 552T546 401Q546 315 525 240T463
108T360 19T221 -14ZM243 107Q277 107 300 125T338 173T358 234T364 293Q364 333 350 355T300 377Q267 377 244 359T207 311T187 250T181 190Q181 149 195 128T243 107ZM252 533L210 601L494 794L536 725L252 533Z" />
<glyph unicode="&#xf1;" horiz-adv-x="622" d="M340 -5L393 322Q398 349 397 371T388 407T359 420Q341 420 322 409T287 375T257 318T236 236L200 0H35L115 504L174 399L38 447L52 533L275 541L238 383L186 290Q203 380 244 437T335 523T432 551Q482 551 514 527T560
460T563 362L519 86L448 139L589 89L574 0L340 -5ZM436 637Q409 637 388 648T348 672T306 684Q288 684 271 673T235 637L175 672Q205 739 241 772T317 806Q345 806 365 795T405 771T446 759Q466 759 482 771T517 806L578 773Q547 705 512 671T436 637Z" />
<glyph unicode="&#xf2;" horiz-adv-x="563" d="M331 551Q394 551 441 529T516 459T543 329Q543 266 525 205T468 95T372 16T232 -14Q170 -14 122 8T48 78T21 207Q21 270 39 331T95 441T191 521T331 551ZM308 430Q273 430 250 406T214 346T195 271T189 205Q189
160 203 134T254 107Q289 107 312 131T349 192T369 267T375 333Q375 377 360 403T308 430ZM279 856L494 680L436 597L198 737L279 856Z" />
<glyph unicode="&#xf3;" horiz-adv-x="563" d="M331 551Q394 551 441 529T516 459T543 329Q543 266 525 205T468 95T372 16T232 -14Q170 -14 122 8T48 78T21 207Q21 270 39 331T95 441T191 521T331 551ZM308 430Q273 430 250 406T214 346T195 271T189 205Q189
160 203 134T254 107Q289 107 312 131T349 192T369 267T375 333Q375 377 360 403T308 430ZM281 599L222 682L448 852L527 736L281 599Z" />
<glyph unicode="&#xf4;" horiz-adv-x="563" d="M331 551Q394 551 441 529T516 459T543 329Q543 266 525 205T468 95T372 16T232 -14Q170 -14 122 8T48 78T21 207Q21 270 39 331T95 441T191 521T331 551ZM308 430Q273 430 250 406T214 346T195 271T189 205Q189
160 203 134T254 107Q289 107 312 131T349 192T369 267T375 333Q375 377 360 403T308 430ZM205 869L160 931L320 1081L414 1090L541 931L479 869L302 1008L416 1006L205 869Z" />
<glyph unicode="&#xf5;" horiz-adv-x="563" d="M331 551Q394 551 441 529T516 459T543 329Q543 266 525 205T468 95T372 16T232 -14Q170 -14 122 8T48 78T21 207Q21 270 39 331T95 441T191 521T331 551ZM308 430Q273 430 250 406T214 346T195 271T189 205Q189
160 203 134T254 107Q289 107 312 131T349 192T369 267T375 333Q375 377 360 403T308 430ZM414 637Q387 637 366 648T326 672T284 684Q266 684 249 673T213 637L153 672Q183 739 219 772T295 806Q323 806 343 795T383 771T424 759Q444 759 460 771T495 806L556
773Q525 705 490 671T414 637Z" />
<glyph unicode="&#xf6;" horiz-adv-x="563" d="M331 551Q394 551 441 529T516 459T543 329Q543 266 525 205T468 95T372 16T232 -14Q170 -14 122 8T48 78T21 207Q21 270 39 331T95 441T191 521T331 551ZM308 430Q273 430 250 406T214 346T195 271T189 205Q189
160 203 134T254 107Q289 107 312 131T349 192T369 267T375 333Q375 377 360 403T308 430ZM236 614Q202 614 183 635T164 693Q164 733 187 759T249 786Q283 786 302 765T321 707Q321 665 297 640T236 614ZM456 614Q422 614 403 635T384 693Q384 733 407 759T469
786Q503 786 522 765T542 707Q542 665 518 640T456 614Z" />
<glyph unicode="&#xf7;" horiz-adv-x="627" d="M561 411L542 290H93L112 411H561ZM285 61Q245 61 223 84T200 144Q200 188 229 216T303 244Q342 244 365 222T389 160Q389 115 359 88T285 61ZM348 455Q308 455 286 478T263 538Q263 582 292 610T366 638Q405 638
428 616T452 554Q452 509 422 482T348 455Z" />
<glyph unicode="&#xf8;" horiz-adv-x="584" d="M525 639L586 599L418 379L410 374L199 94L193 81L56 -98L-5 -58L157 155L170 166L378 439L382 453L525 639ZM341 551Q403 551 451 529T526 459T553 330Q553 266 535 205T478 95T381 16T242 -14Q180 -14 132 8T58
79T31 207Q31 270 49 331T106 441T202 521T341 551ZM321 430Q284 430 260 406T223 345T204 270T198 204Q198 155 212 131T261 107Q298 107 321 131T359 193T379 268T385 333Q385 382 370 406T321 430Z" />
<glyph unicode="&#xf9;" horiz-adv-x="621" d="M186 -14Q138 -14 106 10T62 77T58 174L101 451L113 421L35 447L49 533L281 541L228 215Q224 188 224 166T233 131T262 117Q280 117 299 128T334 161T364 219T385 301L421 537H586L516 87L496 116L585 86L571 0L355
-5L384 156L435 247Q418 157 377 100T286 15T186 -14ZM297 856L512 680L454 597L216 737L297 856Z" />
<glyph unicode="&#xfa;" horiz-adv-x="621" d="M186 -14Q138 -14 106 10T62 77T58 174L101 451L113 421L35 447L49 533L281 541L228 215Q224 188 224 166T233 131T262 117Q280 117 299 128T334 161T364 219T385 301L421 537H586L516 87L496 116L585 86L571 0L355
-5L384 156L435 247Q418 157 377 100T286 15T186 -14ZM299 599L240 682L466 852L545 736L299 599Z" />
<glyph unicode="&#xfb;" horiz-adv-x="621" d="M186 -14Q138 -14 106 10T62 77T58 174L101 451L113 421L35 447L49 533L281 541L228 215Q224 188 224 166T233 131T262 117Q280 117 299 128T334 161T364 219T385 301L421 537H586L516 87L496 116L585 86L571 0L355
-5L384 156L435 247Q418 157 377 100T286 15T186 -14ZM223 869L178 931L338 1081L432 1090L559 931L497 869L320 1008L434 1006L223 869Z" />
<glyph unicode="&#xfc;" horiz-adv-x="621" d="M186 -14Q138 -14 106 10T62 77T58 174L101 451L113 421L35 447L49 533L281 541L228 215Q224 188 224 166T233 131T262 117Q280 117 299 128T334 161T364 219T385 301L421 537H586L516 87L496 116L585 86L571 0L355
-5L384 156L435 247Q418 157 377 100T286 15T186 -14ZM254 614Q220 614 201 635T182 693Q182 733 205 759T267 786Q301 786 320 765T339 707Q339 665 315 640T254 614ZM474 614Q440 614 421 635T402 693Q402 733 425 759T487 786Q521 786 540 765T560 707Q560 665
536 640T474 614Z" />
<glyph unicode="&#xfd;" horiz-adv-x="554" d="M-58 -236L-36 -115Q-21 -117 -8 -118T17 -120Q58 -120 88 -105T143 -58T195 28L188 -28L64 444L75 431L26 446L39 533L219 542L297 100L253 109L398 446L403 430L351 446L364 533L599 542L586 456L528 434L551 448L336
3Q325 -21 308 -52T264 -117T204 -179T123 -226T18 -244Q-19 -244 -58 -236ZM254 599L195 682L421 852L500 736L254 599Z" />
<glyph unicode="&#xfe;" horiz-adv-x="578" d="M-87 -230L-73 -144L76 -96L-12 -190L127 688L147 661L58 688L72 774L307 782L239 384L178 291Q192 376 228 434T314 522T412 552Q452 552 485 532T538 465T559 343Q559 247 525 174T429 56T282 -4T95 4L185 19L151
-195L93 -94L233 -144L220 -230H-87ZM196 89L164 131Q216 108 258 114T330 149T376 222T392 325Q392 375 379 397T341 419Q323 419 305 407T269 370T239 310T219 231L196 89Z" />
<glyph unicode="&#xff;" horiz-adv-x="554" d="M-58 -236L-36 -115Q-21 -117 -8 -118T17 -120Q58 -120 88 -105T143 -58T195 28L188 -28L64 444L75 431L26 446L39 533L219 542L297 100L253 109L398 446L403 430L351 446L364 533L599 542L586 456L528 434L551 448L336
3Q325 -21 308 -52T264 -117T204 -179T123 -226T18 -244Q-19 -244 -58 -236ZM208 614Q174 614 155 635T136 693Q136 733 159 759T221 786Q255 786 274 765T293 707Q293 665 269 640T208 614ZM428 614Q394 614 375 635T356 693Q356 733 379 759T441 786Q475 786
494 765T514 707Q514 665 490 640T428 614Z" />
<glyph unicode="&#x2013;" horiz-adv-x="571" d="M539 357L519 229H46L67 357H539Z" />
<glyph unicode="&#x2014;" horiz-adv-x="805" d="M772 353L752 224H39L60 353H772Z" />
<glyph unicode="&#x2018;" horiz-adv-x="227" d="M222 542Q222 500 197 476T138 451Q108 451 84 472T60 534Q60 562 76 600T128 688T228 796L280 751Q241 697 224 667T206 618Q206 602 214 585T222 542Z" />
<glyph unicode="&#x2019;" horiz-adv-x="228" d="M110 704Q110 746 136 770T195 795Q225 795 248 775T272 712Q272 685 257 646T205 559T104 451L52 495Q91 549 109 580T127 629Q127 645 119 661T110 704Z" />
<glyph unicode="&#x201a;" horiz-adv-x="228" d="M16 62Q16 104 42 128T101 153Q131 153 154 133T178 70Q178 43 163 4T111 -83T10 -191L-42 -147Q-3 -93 15 -62T33 -13Q33 3 25 19T16 62Z" />
<glyph unicode="&#x201c;" horiz-adv-x="436" d="M224 553Q224 512 198 487T139 462Q109 462 86 483T62 545Q62 573 77 611T129 699T229 807L281 763Q242 708 225 678T207 629Q207 613 215 596T224 553ZM432 553Q432 512 407 487T347 462Q317 462 294 483T270
545Q270 573 285 611T337 699T437 807L490 763Q451 708 433 678T415 629Q415 613 423 596T432 553Z" />
<glyph unicode="&#x201d;" horiz-adv-x="436" d="M326 704Q326 746 352 770T411 795Q441 795 464 775T488 712Q488 685 473 646T421 559T320 451L268 495Q307 549 325 580T343 629Q343 645 335 661T326 704ZM118 704Q118 746 144 770T203 795Q233 795 256 775T280
712Q280 685 265 646T213 559T112 451L60 495Q99 549 117 580T135 629Q135 645 127 661T118 704Z" />
<glyph unicode="&#x201e;" horiz-adv-x="436" d="M224 62Q224 104 250 128T309 153Q339 153 362 133T386 70Q386 43 371 4T319 -83T218 -191L166 -147Q205 -93 223 -62T241 -13Q241 3 233 19T224 62ZM16 62Q16 104 42 128T101 153Q131 153 154 133T178 70Q178
43 163 4T111 -83T10 -191L-42 -147Q-3 -93 15 -62T33 -13Q33 3 25 19T16 62Z" />
<glyph unicode="&#x2022;" horiz-adv-x="443" d="M49 300Q49 356 73 397T138 462T230 485Q282 485 321 462T382 399T404 304Q404 249 381 208T316 145T223 122Q171 122 132 144T71 207T49 300Z" />
<glyph unicode="&#x2039;" horiz-adv-x="300" d="M164 37L31 228L41 310L234 501L303 441L145 238L153 302L247 101L164 37Z" />
<glyph unicode="&#x203a;" horiz-adv-x="301" d="M137 501L270 310L259 228L67 37L-3 97L155 300L147 236L53 437L137 501Z" />
</font>
</defs>
</svg>
