<?xml version="1.0" standalone="no"?>
<!DOCTYPE svg PUBLIC "-//W3C//DTD SVG 1.1//EN" "http://www.w3.org/Graphics/SVG/1.1/DTD/svg11.dtd">
<svg xmlns="http://www.w3.org/2000/svg">
<defs >
<font id="Bitter" horiz-adv-x="568" ><font-face
    font-family="Bitter Thin"
    units-per-em="1000"
    panose-1="0 0 0 0 0 0 0 0 0 0"
    ascent="935"
    descent="-265"
    alphabetic="0" />
<glyph unicode=" " horiz-adv-x="176" />
<glyph unicode="!" horiz-adv-x="313" d="M102 245L151 704H297L203 251L102 245ZM116 -10Q82 -10 63 9T44 61Q44 100 69 124T132 148Q166 148 186 129T206 75Q206 36 180 13T116 -10Z" />
<glyph unicode="&quot;" horiz-adv-x="422" d="M115 501L138 774H261L198 501H115ZM299 501L322 774H445L382 501H299Z" />
<glyph unicode="#" horiz-adv-x="647" d="M103 533H647L634 446H89L103 533ZM24 264H568L554 177H10L24 264ZM254 704H366L159 0H48L254 704ZM497 704H609L401 0H290L497 704Z" />
<glyph unicode="$" horiz-adv-x="604" d="M241 0Q190 0 136 11T30 43L61 232H145L148 111L135 134Q164 121 195 115T257 108Q296 108 328 119T379 152T399 207Q399 236 383 253T341 281T284 301T221 321T163 351T120 401T104 481Q104 554 141 603T240 678T378
704Q429 704 482 693T587 660L551 486H469L465 593L482 579Q456 588 428 593T374 599Q338 599 308 589T261 559T243 510Q243 482 259 467T301 441T359 423T422 403T481 372T523 320T539 238Q539 158 498 106T390 27T241 0ZM193 -131L217 26H312L288 -131H193ZM320
675L344 830H439L415 676L320 675Z" />
<glyph unicode="%" horiz-adv-x="838" d="M88 -13L659 716H773L203 -13H88ZM222 348Q153 348 116 387T79 499Q79 561 104 610T174 687T282 716Q350 716 387 678T425 567Q425 507 400 457T330 378T222 348ZM231 426Q263 426 284 446T315 500T326 569Q326 605 315
622T275 639Q242 639 221 618T189 565T178 498Q178 461 190 444T231 426ZM583 -12Q514 -12 477 27T440 139Q440 201 465 250T535 327T643 356Q711 356 748 318T786 207Q786 147 761 97T690 18T583 -12ZM592 66Q624 66 645 86T676 139T687 209Q687 245 676 262T636
279Q603 279 581 258T549 205T538 138Q538 101 551 84T592 66Z" />
<glyph unicode="&amp;" horiz-adv-x="674" d="M265 -12Q164 -12 107 34T50 168Q50 228 77 274T154 348T269 381L271 364Q196 373 159 413T121 514Q121 575 157 621T255 691T399 716Q449 716 499 707T597 677L564 517H476L471 609L495 591Q440 610 390 610Q332
610 298 584T263 507Q263 464 291 443T369 421H662L650 344L566 321L584 346L564 218Q553 142 509 91T402 14T265 -12ZM298 100Q347 100 382 128T427 217L445 336L467 317H336Q295 317 264 301T216 257T199 192Q199 147 226 124T298 100Z" />
<glyph unicode="&apos;" horiz-adv-x="238" d="M115 501L138 774H261L198 501H115Z" />
<glyph unicode="(" horiz-adv-x="311" d="M383 832Q314 748 264 651T186 448T158 237Q158 154 177 71T234 -90L143 -137Q85 -49 58 51T30 254Q30 374 63 487T157 704T301 893L383 832Z" />
<glyph unicode=")" horiz-adv-x="311" d="M-38 -83Q31 1 81 98T160 301T188 511Q188 596 170 679T111 838L203 886Q261 798 288 698T315 494Q315 376 282 262T188 45T45 -144L-38 -83Z" />
<glyph unicode="*" horiz-adv-x="424" d="M296 428L246 540L261 581L300 576L365 478L296 428ZM169 427L107 477L202 578L242 581L246 540L169 427ZM204 578L86 601L124 682L229 638L241 598L204 578ZM259 610L233 638L239 759L320 761L295 638L259 610ZM302 576L273
601L292 638L409 685L422 602L302 576Z" />
<glyph unicode="+" horiz-adv-x="540" d="M263 401L237 378L270 593H374L341 378L322 401H520L504 299H304L330 323L297 107H193L226 323L245 299H46L62 401H263Z" />
<glyph unicode="," horiz-adv-x="257" d="M21 59Q21 89 33 109T65 138T106 148Q133 148 154 131T176 75Q176 36 154 -6T95 -91T10 -179L-38 -139Q-7 -101 9 -78T32 -41T38 -16Q38 -3 34 6T26 28T21 59Z" />
<glyph unicode="-" horiz-adv-x="408" d="M367 347L351 239H49L66 347H367Z" />
<glyph unicode="." horiz-adv-x="259" d="M90 -10Q55 -10 36 9T17 61Q17 100 42 124T106 148Q139 148 159 129T179 75Q179 36 153 13T90 -10Z" />
<glyph unicode="/" horiz-adv-x="327" d="M420 808L33 -85H-64L322 808H420Z" />
<glyph unicode="0" horiz-adv-x="626" d="M265 -12Q197 -12 150 14T78 98T53 252Q53 305 62 367T93 491T153 604T249 685T391 716Q494 716 546 657T599 457Q599 402 590 338T559 213T499 100T404 19T265 -12ZM282 99Q323 99 353 127T404 200T436 297T453 396T458
476Q458 525 448 553T418 593T372 606Q330 606 300 579T249 509T217 416T200 320T195 240Q195 161 218 130T282 99Z" />
<glyph unicode="1" horiz-adv-x="427" d="M286 65L265 103L385 74L373 0H12L23 74L179 107L145 65L229 584L267 582L94 490L61 579L271 708H388L286 65Z" />
<glyph unicode="2" horiz-adv-x="555" d="M-1 0L17 125Q68 163 121 203T223 283T310 363T371 444T394 525Q394 568 368 587T299 606Q275 606 246 601T188 585L208 611L175 499H90L105 680Q164 698 220 707T328 716Q391 716 439 700T516 647T544 551Q544 498 523
449T465 353T381 262T281 176T176 95L180 114H494L474 0H-1Z" />
<glyph unicode="3" horiz-adv-x="561" d="M210 -12Q150 -12 96 3T-4 46L44 146Q121 102 204 102Q250 102 286 117T344 161T366 229Q366 262 350 280T308 305T250 313H165L181 416H263Q332 416 366 450T401 533Q401 578 375 594T308 611Q279 611 247 605T186 588L205
609L177 505H94L109 677Q170 696 230 706T341 716Q399 716 445 702T519 653T546 560Q546 477 493 426T351 364L340 377Q427 370 466 334T506 228Q506 157 468 103T364 19T210 -12Z" />
<glyph unicode="4" horiz-adv-x="581" d="M315 183L345 154H9V255L385 717L539 704L465 240L435 266H567L549 154H416L456 183L427 0H287L315 183ZM367 266L324 240L387 635L433 626L101 214L85 266H367Z" />
<glyph unicode="5" horiz-adv-x="541" d="M215 -12Q163 -12 109 1T-1 44L48 142Q84 123 122 114T194 104Q239 104 274 121T329 169T349 240Q349 274 335 292T297 318T243 327T178 328H82L156 704H540L520 592H236L279 618L237 403L205 434H258Q282 434 313 432T377
422T438 395T483 341T501 252Q501 176 465 116T364 22T215 -12Z" />
<glyph unicode="6" horiz-adv-x="588" d="M182 283L185 381Q231 409 277 422T367 435Q419 435 461 416T529 356T554 251Q554 173 517 114T418 21T279 -12Q231 -12 189 2T114 48T63 130T44 254Q44 326 63 394T119 520T207 623T323 692T464 717Q517 717 569 704L550
595Q528 599 508 601T470 604Q415 604 371 586T293 534T237 456T203 358T191 248Q191 190 202 158T234 113T281 100Q317 100 345 119T390 171T407 243Q407 293 381 313T317 333Q283 333 247 320T182 283Z" />
<glyph unicode="7" horiz-adv-x="527" d="M564 602L220 0H63L417 610L434 589H150L185 611L142 490H57L91 704H579L564 602Z" />
<glyph unicode="8" horiz-adv-x="590" d="M245 -12Q187 -12 138 6T58 63T27 158Q27 207 50 250T119 325T229 371L310 328Q269 317 236 296T183 246T164 180Q164 136 192 114T263 92Q300 92 331 107T382 148T401 207Q401 242 379 263T323 298T251 327T178 362T122
416T100 501Q100 553 123 593T184 661T270 702T368 716Q422 716 469 699T545 646T574 555Q574 503 549 466T483 403T389 366L289 409Q327 414 361 431T417 476T439 539Q439 566 428 582T397 605T353 613Q323 613 296 601T252 567T235 514Q235 481 257 460T313 425T386
396T459 362T515 309T537 223Q537 169 513 126T448 52T354 5T245 -12Z" />
<glyph unicode="9" horiz-adv-x="589" d="M433 423L430 326Q385 299 338 285T248 271Q197 271 154 290T86 350T61 453Q61 511 83 559T144 643T232 697T340 716Q385 716 427 702T501 657T552 576T571 451Q571 376 551 307T493 180T403 80T288 13T152 -11Q127 -11
100 -8T45 2L66 113Q87 109 106 107T142 105Q199 105 244 124T324 178T380 258T414 355T425 462Q425 518 414 548T382 591T335 604Q294 604 266 584T223 530T208 462Q208 411 235 392T299 373Q332 373 368 386T433 423Z" />
<glyph unicode=":" horiz-adv-x="259" d="M143 323Q108 323 89 342T70 394Q70 433 95 457T159 481Q192 481 212 462T232 408Q232 369 206 346T143 323ZM90 -10Q55 -10 36 9T17 61Q17 100 42 124T106 148Q139 148 159 129T179 75Q179 36 153 13T90 -10Z" />
<glyph unicode=";" horiz-adv-x="259" d="M21 59Q21 89 33 109T65 138T106 148Q133 148 154 131T176 75Q176 36 154 -6T95 -91T10 -179L-38 -139Q-7 -101 9 -78T32 -41T38 -16Q38 -3 34 6T26 28T21 59ZM143 323Q108 323 89 342T70 394Q70 433 95 457T159 481Q192
481 212 462T232 408Q232 369 206 346T143 323Z" />
<glyph unicode="&lt;" horiz-adv-x="517" d="M430 132L48 302L63 407L482 583L516 479L158 336L161 363L475 232L430 132Z" />
<glyph unicode="=" horiz-adv-x="646" d="M581 498L565 396H122L138 498H581ZM805 552L789 450H346L362 552H805Z" />
<glyph unicode="&gt;" horiz-adv-x="517" d="M116 583L498 413L483 308L64 132L30 236L388 379L385 352L71 483L116 583Z" />
<glyph unicode="?" horiz-adv-x="433" d="M108 249Q109 256 108 265T107 288Q110 333 131 364T183 418T242 461T292 503T312 556Q312 587 292 599T242 611Q212 611 177 603T111 582L86 677Q134 697 184 707T282 718Q330 718 369 706T432 664T456 583Q456 542 440
511T396 455T339 410T281 369T236 324T215 269Q215 264 215 259T213 249H108ZM139 -10Q105 -10 86 9T66 61Q66 100 91 124T155 148Q188 148 208 129T229 75Q229 36 203 13T139 -10Z" />
<glyph unicode="@" horiz-adv-x="872" d="M338 -113Q253 -113 189 -78T88 26T52 197Q52 293 84 377T177 525T319 625T503 661Q599 661 672 626T788 523T830 352Q830 291 815 239T772 147T705 85T616 63Q558 63 529 94T496 181L532 257Q520 197 492 155T428 92T357
71Q314 71 282 106T249 219Q249 292 279 351T360 446T475 482Q506 482 539 472T605 437L558 446L578 471L630 468L586 201Q583 180 589 162T620 144Q643 144 661 161T693 207T714 272T721 348Q721 393 710 433T672 504T604 551T499 569Q415 569 352 538T246 454T182
335T161 197Q161 89 209 34T353 -21Q388 -21 426 -14T503 8L526 -75Q477 -94 430 -103T338 -113ZM401 156Q420 156 437 169T467 205T489 255T503 310L519 411L541 377Q523 391 506 397T472 404Q439 404 412 380T370 315T355 230Q355 193 367 175T401 156Z" />
<glyph unicode="A" horiz-adv-x="687" d="M606 68L576 101L649 73L638 0H373L385 73L463 99L456 78L437 208L447 188H196L216 206L156 79L154 96L226 73L214 0H-36L-24 73L59 100L19 71L344 703L490 707L606 68ZM245 268L239 290H441L431 265L380 626H415L245 268Z" />
<glyph unicode="B" horiz-adv-x="637" d="M375 347L381 367Q482 367 532 333T583 221Q583 153 547 104T446 27T292 0H-1L10 73L98 99L79 78L166 623L181 600L98 626L110 699L313 704H406Q431 704 458 701T512 690T561 665T596 621T609 553Q609 490 579 446T496
376T375 347ZM369 601H280L307 625L269 384L252 409H316Q341 409 367 414T416 431T451 466T465 523Q465 555 453 571T420 594T369 601ZM288 104Q361 104 398 137T436 224Q436 258 423 275T388 300T343 307H235L262 339L219 76L194 104H288Z" />
<glyph unicode="C" horiz-adv-x="615" d="M306 -12Q237 -12 180 20T88 118T53 285Q53 369 78 446T151 584T266 680T418 716Q469 716 521 703T629 663L594 486H511L505 600L529 579Q499 592 470 598T416 604Q363 604 323 576T256 502T215 401T201 291Q201 225 219
184T269 124T340 105Q379 105 422 123T507 174L553 85Q494 36 430 12T306 -12Z" />
<glyph unicode="D" horiz-adv-x="702" d="M406 704Q495 704 556 675T647 585T677 430Q677 344 652 266T576 128T453 34T283 0H-1L10 73L98 99L79 78L166 623L181 600L98 626L110 699L329 704H406ZM308 105Q356 105 392 127T455 187T497 269T521 359T529 441Q529
492 515 527T468 580T384 599H280L307 625L219 76L205 105H308Z" />
<glyph unicode="E" horiz-adv-x="595" d="M446 189H530L499 0H-1L10 73L98 99L79 79L166 623L181 600L98 626L110 699L317 704H600L572 523H489L484 619L506 599H280L306 621L269 386L253 409H479L462 308H235L261 335L219 77L205 105H442L410 82L446 189Z" />
<glyph unicode="F" horiz-adv-x="550" d="M-1 0L10 73L98 99L79 79L166 623L181 600L98 626L110 699L317 704H595L567 521H484L479 615L501 599H280L306 621L268 379L251 406H473L458 301H233L259 326L220 78L208 99L306 73L296 0H-1Z" />
<glyph unicode="G" horiz-adv-x="699" d="M317 -12Q237 -12 178 19T85 114T52 280Q52 369 78 448T154 587T274 682T431 716Q487 716 543 702T658 662L623 483H541L534 599L556 579Q525 593 496 598T442 604Q385 604 341 579T265 509T217 405T201 279Q201 214 217
176T263 120T337 102Q367 102 399 109T469 129L450 96L477 282L496 258L408 277L420 352L689 357L678 281L591 257L608 282L575 50Q503 18 438 3T317 -12Z" />
<glyph unicode="H" horiz-adv-x="764" d="M-1 0L10 73L99 99L79 78L166 623L181 600L98 626L110 699L391 704L379 631L289 601L307 623L270 392L254 411H559L533 392L569 623L584 600L501 626L513 699L794 704L783 631L692 601L710 623L623 78L615 99L694 73L682
0H402L414 73L502 99L483 78L522 329L539 307H235L260 328L220 78L212 99L291 73L279 0H-1Z" />
<glyph unicode="I" horiz-adv-x="360" d="M379 631L289 601L306 621L220 78L212 99L291 73L279 0H-1L10 73L99 99L79 78L165 621L181 600L98 626L110 699L391 704L379 631Z" />
<glyph unicode="J" horiz-adv-x="340" d="M99 699L382 704L371 631L281 601L298 623L212 77Q203 22 185 -22T139 -99T69 -149T-28 -166Q-63 -166 -100 -159L-76 -56Q-68 -58 -60 -58T-42 -59Q-8 -59 12 -49T43 -22T59 13T66 46L158 623L172 600L87 626L99 699Z" />
<glyph unicode="K" horiz-adv-x="699" d="M602 69L570 100L651 73L641 0H476L321 336L353 307H236L262 337L220 78L209 101L288 73L276 0H-1L10 73L99 99L79 78L166 623L181 600L98 626L110 699L388 704L376 633L287 602L309 634L270 389L254 412H380L338 389L515
628L527 607L451 626L462 699L723 704L712 631L622 602L657 627L443 347V385L602 69Z" />
<glyph unicode="L" horiz-adv-x="545" d="M428 213H512L478 0H-1L10 73L99 99L79 78L166 622L181 600L98 626L110 699L395 704L384 631L289 601L307 623L219 74L205 105H410L386 82L428 213Z" />
<glyph unicode="M" horiz-adv-x="847" d="M866 631L776 601L794 626L707 78L698 99L778 73L766 0H497L509 73L605 101L577 71L653 549L676 548L445 183L357 178L242 549L269 550L193 78L185 99L264 73L252 0H-1L10 73L104 101L79 78L166 623L182 600L98 626L110
699L341 704L447 324H426L650 699L878 704L866 631Z" />
<glyph unicode="N" horiz-adv-x="746" d="M533 699L785 704L773 631L687 601L704 623L605 0H454L253 550L270 551L195 78L186 99L263 73L251 0H-1L10 73L98 99L79 78L166 623L181 600L98 626L110 699L341 704L534 165H517L589 623L604 600L521 626L533 699Z" />
<glyph unicode="O" horiz-adv-x="717" d="M315 -12Q229 -12 171 21T82 117T52 273Q52 333 65 396T108 516T182 619T288 690T429 716Q516 716 574 684T663 588T693 433Q693 373 679 311T637 190T564 87T458 15T315 -12ZM328 100Q374 100 409 122T470 181T512 263T536
353T544 437Q544 497 528 533T484 587T417 604Q371 604 336 582T275 524T233 443T208 354T200 270Q200 210 216 173T262 118T328 100Z" />
<glyph unicode="P" horiz-adv-x="597" d="M299 248H218L252 274L220 78L212 99L308 73L297 0H-1L10 73L99 99L79 78L166 623L181 600L98 626L110 699L322 704H404Q512 704 559 656T607 523Q607 442 570 380T463 283T299 248ZM363 600H287L307 625L260 328L242
353H303Q357 353 392 374T444 431T461 509Q461 552 440 576T363 600Z" />
<glyph unicode="Q" horiz-adv-x="719" d="M576 -195Q534 -195 492 -172T397 -105T270 3L297 -11Q218 -7 164 26T81 122T52 273Q52 334 65 396T108 516T182 619T288 690T429 716Q514 716 573 684T662 588T693 432Q693 365 676 295T622 163T529 57T396 -3L393 18Q438
-14 470 -35T528 -68T579 -79Q602 -79 628 -70T688 -41L735 -131Q687 -164 649 -179T576 -195ZM327 99Q374 99 410 121T472 180T514 262T539 352T547 436Q547 496 531 533T485 587T417 604Q369 604 333 582T272 524T230 442T206 352T198 269Q198 209 214 171T259
116T327 99Z" />
<glyph unicode="R" horiz-adv-x="649" d="M-1 0L10 73L98 99L79 78L166 623L181 600L98 626L110 699L326 704H411Q618 704 618 536Q618 470 589 421T507 341T384 304L383 327Q437 327 463 299T504 229L555 78L521 104L600 73L588 0H434L378 199Q367 241 356 259T329
282T283 286L231 285L258 307L220 78L212 99L298 73L287 0H-1ZM266 355L249 387H317Q367 387 401 406T453 456T472 523Q472 552 462 568T437 590T406 598T380 600H287L307 625L266 355Z" />
<glyph unicode="S" horiz-adv-x="587" d="M233 -12Q182 -12 128 -1T22 31L53 220H137L140 99L127 122Q156 109 187 102T250 95Q288 95 320 106T371 140T391 194Q391 228 370 248T316 282T244 310T173 345T118 402T96 493Q96 567 133 616T233 690T371 716Q421 716
474 705T579 671L543 497H461L457 605L474 590Q448 600 420 605T366 610Q331 610 301 601T253 571T235 522Q235 491 256 473T312 441T383 413T455 377T510 319T532 225Q532 146 491 94T382 15T233 -12Z" />
<glyph unicode="T" horiz-adv-x="599" d="M108 0L119 73L219 99L200 78L286 622L309 599H153L188 627L144 501H61L93 704H646L613 501H530L524 622L551 599H393L427 622L341 78L332 99L422 73L411 0H108Z" />
<glyph unicode="U" horiz-adv-x="722" d="M488 699L769 704L758 631L667 601L685 623L630 271Q615 172 576 110T473 18T318 -12Q200 -12 142 37T84 190Q84 207 86 226T91 266L148 623L161 602L80 626L92 699L369 704L358 631L272 601L289 623L231 258Q228 239
227 223T225 193Q225 145 248 123T326 100Q380 100 412 120T462 180T490 280L544 623L559 601L476 626L488 699Z" />
<glyph unicode="V" horiz-adv-x="699" d="M228 -1L122 626L152 600L63 626L75 699L363 704L354 631L258 603L281 639L345 127H325L566 630L573 601L490 626L500 699L761 704L750 631L658 604L695 629L379 -1H228Z" />
<glyph unicode="W" horiz-adv-x="989" d="M797 699L1051 704L1040 631L948 604L987 642L714 -1H581L517 528H546L315 -1H184L122 630L131 606L64 626L75 699L343 704L332 631L244 603L265 630L295 131H267L505 700L634 704L692 133L662 132L858 630L869 603L785
626L797 699Z" />
<glyph unicode="X" horiz-adv-x="694" d="M606 69L569 100L643 73L633 0H353L364 73L445 100L443 75L322 299H358L160 69L158 101L236 73L225 0H-20L-9 73L74 100L28 67L297 370L294 345L133 629L159 607L88 626L100 699L376 704L365 631L287 604L295 625L404
423L377 428L545 625L549 602L474 626L485 699L729 704L718 631L635 601L678 629L427 345L430 381L606 69Z" />
<glyph unicode="Y" horiz-adv-x="637" d="M136 0L147 73L238 99L219 78L251 277L259 227L114 624L134 604L63 626L74 699L343 704L332 631L243 606L254 632L353 325H324L518 626L526 601L445 626L455 699L700 704L689 631L614 609L643 628L373 227L391 277L360
78L351 99L434 73L422 0H136Z" />
<glyph unicode="Z" horiz-adv-x="605" d="M-4 0L8 97L453 610L466 598H178L214 614L175 510H91L121 704H619L607 603L162 84L159 107H463L429 86L465 194H550L518 0H-4Z" />
<glyph unicode="[" horiz-adv-x="335" d="M9 -110L163 861L407 856L394 769L265 762L143 -11L269 -18L255 -105L9 -110Z" />
<glyph unicode="\" horiz-adv-x="327" d="M77 808H174L280 -85H184L77 808Z" />
<glyph unicode="]" horiz-adv-x="335" d="M360 861L206 -110L-38 -105L-24 -18L105 -11L227 762L101 769L114 856L360 861Z" />
<glyph unicode="^" horiz-adv-x="501" d="M25 534L265 882H365L495 534H371L274 829H341L150 534H25Z" />
<glyph unicode="_" horiz-adv-x="472" d="M421 -60L406 -152H-67L-53 -60H421Z" />
<glyph unicode="`" horiz-adv-x="385" d="M189 840L392 674L343 604L120 739L189 840Z" />
<glyph unicode="a" horiz-adv-x="591" d="M172 -12Q132 -12 99 9T45 74T25 189Q25 263 48 328T113 442T210 519T331 547Q374 547 419 533T509 486L447 499L474 534H548L468 29L421 118L548 76L536 1L341 -5L371 169L412 243Q395 159 356 102T267 17T172 -12ZM228
100Q249 100 271 113T314 154T351 221T376 313L398 452L421 406Q396 425 373 433T328 442Q292 442 263 423T211 370T178 294T166 205Q166 151 183 126T228 100Z" />
<glyph unicode="b" horiz-adv-x="576" d="M29 14L144 744L193 657L65 699L76 772L288 779L219 380L168 293Q185 377 223 433T309 519T405 548Q444 548 477 528T530 462T550 340Q550 231 506 152T383 31T198 -11Q119 -11 29 14ZM176 75L148 112Q171 103 192 99T233
95Q287 95 326 124T387 206T409 325Q409 385 392 410T347 436Q326 436 304 422T261 381T224 314T199 222L176 75Z" />
<glyph unicode="c" horiz-adv-x="486" d="M231 -12Q174 -12 128 12T54 87T27 216Q27 288 50 349T115 454T211 522T328 546Q366 546 406 536T487 505L465 359H374L370 441L384 426Q347 446 314 446Q280 446 253 428T206 377T177 306T167 224Q167 154 193 123T262
92Q289 92 320 103T386 133L424 48Q376 18 326 3T231 -12Z" />
<glyph unicode="d" horiz-adv-x="592" d="M172 -12Q132 -12 99 9T45 74T25 189Q25 263 48 328T113 442T210 519T331 547Q374 547 419 533T509 486L408 515L444 743L493 657L365 699L376 772L587 779L468 29L421 118L548 76L536 1L341 -5L371 169L413 243Q396 159
357 102T268 17T172 -12ZM228 100Q249 100 271 113T314 154T351 221T376 313L397 447L421 406Q396 425 373 433T328 442Q292 442 263 423T211 370T178 294T166 205Q166 151 183 126T228 100Z" />
<glyph unicode="e" horiz-adv-x="517" d="M234 -12Q176 -12 129 11T55 83T27 210Q27 274 47 334T106 442T201 518T328 546Q412 546 459 508T507 406Q507 359 480 323T408 263T305 226T185 213Q174 213 166 213T150 214L157 303Q168 302 178 301T200 300Q231 300
261 305T316 322T356 351T371 392Q371 416 355 431T309 447Q274 447 248 426T203 369T174 293T164 213Q164 147 191 118T265 89Q298 89 336 101T415 134L451 53Q396 21 341 5T234 -12Z" />
<glyph unicode="f" horiz-adv-x="362" d="M-50 -242Q-72 -242 -91 -240T-124 -235L-102 -138Q-94 -138 -85 -139T-65 -141Q-41 -141 -23 -134T8 -114T29 -81T41 -37L119 452L129 435H39L51 511L147 533L128 509L138 577Q156 685 219 735T371 786Q398 786 427 782T485
766L452 671Q436 678 418 681T384 684Q345 684 315 662T277 586L265 510L252 530H398L382 435H241L256 452L184 -4Q173 -70 151 -115T97 -189T28 -229T-50 -242Z" />
<glyph unicode="g" horiz-adv-x="576" d="M180 -242Q131 -242 82 -233T-9 -208L19 -111Q60 -125 101 -132T175 -140Q223 -140 253 -126T302 -90T329 -42T342 8L367 169L413 243Q396 159 357 102T268 17T172 -12Q132 -12 99 9T45 74T25 189Q25 263 48 327T113 441T210
518T331 546Q374 546 419 532T509 486L449 501L474 534H548L466 10Q454 -62 427 -110T361 -188T276 -229T180 -242ZM228 100Q249 100 271 113T314 154T351 221T376 313L398 452L421 406Q396 425 373 433T328 442Q292 442 263 423T211 370T178 294T166 205Q166 151
183 126T228 100Z" />
<glyph unicode="h" horiz-adv-x="601" d="M339 -5L393 330Q399 361 396 385T382 423T348 437Q327 437 305 424T262 386T225 321T201 227L165 0H27L138 697L155 673L67 695L79 771L287 779L214 368L162 292Q183 382 223 438T314 520T410 546Q456 546 487 524T531
460T535 361L490 75L431 118L562 76L549 1L339 -5Z" />
<glyph unicode="i" horiz-adv-x="308" d="M42 -5L123 503L173 416L45 458L57 531L266 538L185 27L137 116L264 74L252 1L42 -5ZM212 615Q178 615 159 635T139 689Q139 730 164 755T229 781Q263 781 282 762T302 707Q302 667 277 641T212 615Z" />
<glyph unicode="j" horiz-adv-x="293" d="M-127 -235L-105 -138Q-95 -139 -86 -140T-68 -141Q-18 -141 6 -115T38 -36L114 452L125 435L47 458L58 531L266 538L181 -3Q166 -93 132 -145T49 -220T-58 -242Q-78 -242 -93 -240T-127 -235ZM207 615Q173 615 154 635T134
689Q134 730 159 755T224 781Q258 781 277 762T297 707Q297 667 272 641T207 615Z" />
<glyph unicode="k" horiz-adv-x="569" d="M27 0L144 744L193 657L66 699L78 772L288 779L214 318L196 340H318L281 323L388 459L396 444L332 457L344 530L579 539L568 466L485 447L525 469L379 287L386 323L473 75L456 94L529 73L517 0H357L276 254L294 245H180L204
253L164 0H27Z" />
<glyph unicode="l" horiz-adv-x="292" d="M26 -5L145 744L194 658L67 695L78 771L288 779L169 30L118 118L249 76L237 1L26 -5Z" />
<glyph unicode="m" horiz-adv-x="904" d="M642 -5L695 330Q701 362 699 386T687 423T656 437Q637 437 616 424T576 385T540 320T516 227L481 0H343L396 330Q401 362 399 386T387 423T357 437Q338 437 317 424T277 385T241 320T217 227L181 0H43L116 457L172 416L45
458L57 531L258 538L221 368L179 292Q200 382 240 438T329 520T420 546Q462 546 490 525T531 465T536 373L532 343L480 292Q501 382 541 438T629 520T720 546Q762 546 791 524T834 460T837 361L792 74L732 118L864 76L853 1L642 -5Z" />
<glyph unicode="n" horiz-adv-x="617" d="M355 -5L409 330Q415 361 412 385T398 423T364 437Q343 437 321 424T278 386T241 321T217 227L181 0H43L123 503L172 416L45 458L57 531L258 538L221 368L177 292Q198 381 239 437T329 519T424 546Q471 546 503 524T548
460T551 361L505 74L446 118L577 76L565 1L355 -5Z" />
<glyph unicode="o" horiz-adv-x="561" d="M329 546Q389 546 435 525T507 455T533 327Q533 264 515 204T460 95T367 17T233 -12Q172 -12 126 10T55 80T29 206Q29 269 46 329T101 439T194 517T329 546ZM310 445Q271 445 244 421T201 359T177 280T169 206Q169 152
188 121T251 89Q290 89 317 113T361 176T385 255T393 329Q393 383 374 414T310 445Z" />
<glyph unicode="p" horiz-adv-x="593" d="M-64 -230L-52 -157L87 -116L14 -193L116 457L134 433L44 458L56 531L259 538L223 365L186 293Q203 377 240 433T326 518T422 546Q461 546 494 526T547 461T567 342Q567 245 533 172T438 54T293 -4T108 6L184 19L150 -197L101
-114L235 -157L223 -230H-64ZM193 75L166 112Q225 89 273 96T356 133T408 214T427 327Q427 385 410 410T364 436Q343 436 321 422T278 381T241 314T217 222L193 75Z" />
<glyph unicode="q" horiz-adv-x="576" d="M211 -230L222 -157L364 -116L294 -199L326 -1L363 169L413 243Q396 159 357 102T268 17T172 -12Q132 -12 99 9T45 74T25 189Q25 263 48 327T113 441T210 518T331 546Q374 546 419 532T509 486L448 500L474 534H548L432
-203L384 -114L510 -157L499 -230H211ZM228 100Q249 100 271 113T314 154T351 221T376 313L398 452L421 406Q396 425 373 433T328 442Q292 442 263 423T211 370T178 294T166 205Q166 151 183 126T228 100Z" />
<glyph unicode="r" horiz-adv-x="436" d="M43 0L123 503L172 416L45 458L57 531L258 538L221 368L178 292Q196 376 235 432T325 517T424 546Q451 546 471 538L439 359H356L355 451L371 438Q345 441 321 427T276 384T240 316T217 227L181 0H43Z" />
<glyph unicode="s" horiz-adv-x="494" d="M178 -12Q136 -12 90 -6T1 13L28 175H114L113 78L94 105Q114 97 137 92T188 87Q219 87 244 94T285 115T300 149Q300 171 283 185T239 209T182 231T124 260T80 305T63 375Q64 428 94 466T177 525T300 546Q341 546 387 539T479
517L453 374H367L362 453L385 434Q366 442 345 446T303 450Q275 450 253 443T217 423T203 392Q203 372 220 358T264 334T323 311T381 281T426 236T443 168Q442 113 409 73T317 10T178 -12Z" />
<glyph unicode="t" horiz-adv-x="394" d="M348 24Q307 6 269 -3T197 -12Q139 -12 102 19T65 118Q65 128 66 137T68 159L115 458L129 440H36L49 516L150 540L124 515L147 652L288 676L262 515L252 534H399L383 440H235L253 458L207 167Q206 163 206 157T205 143Q205
116 216 105T248 93Q262 93 280 98T319 113L348 24Z" />
<glyph unicode="u" horiz-adv-x="616" d="M190 -12Q144 -12 113 10T70 74T65 172L110 460L121 434L41 458L52 531L261 538L207 205Q202 173 204 149T218 112T252 98Q273 98 295 110T338 148T375 213T400 307L435 534H573L501 75L484 100L573 73L561 1L366 -5L396
168L439 242Q419 154 378 98T288 15T190 -12Z" />
<glyph unicode="v" horiz-adv-x="542" d="M168 -2L69 455L80 443L27 457L38 530L201 539L269 71L235 79L407 457L411 443L354 457L365 530L585 539L576 466L514 444L538 458L307 -2H168Z" />
<glyph unicode="w" horiz-adv-x="819" d="M126 -2L74 455L87 442L29 457L40 530L202 539L227 82H209L389 531L531 538L562 79H546L699 457L706 438L642 457L653 530L859 539L850 466L797 447L814 463L609 -2H460L418 430L456 425L275 -2H126Z" />
<glyph unicode="x" horiz-adv-x="551" d="M-29 0L-17 73L65 91L32 72L200 290L242 292L424 530L566 539L555 466L473 447L511 467L342 263L302 261L113 0H-29ZM343 0L214 243L94 465L117 440L53 457L65 530L203 542L320 318L454 73L434 93L509 73L497 0H343Z" />
<glyph unicode="y" horiz-adv-x="540" d="M-56 -235L-38 -134Q-24 -136 -13 -137T10 -138Q53 -138 84 -121T141 -67T196 26L189 -22L70 455L80 443L26 457L37 530L199 539L281 87L244 94L407 457L412 443L355 457L366 530L585 539L574 466L515 446L536 458L313
2Q300 -24 283 -56T241 -121T184 -181T109 -225T11 -242Q-21 -242 -56 -235Z" />
<glyph unicode="z" horiz-adv-x="494" d="M442 176L415 0H-5L7 83L344 466L360 436H127L170 469L142 369H58L84 534H489L477 451L135 57V98H357L315 57L358 176H442Z" />
<glyph unicode="{" horiz-adv-x="349" d="M198 -110Q141 -110 107 -90T62 -27T60 79L84 227Q92 275 79 301T13 328L28 423Q64 423 85 438T117 478T132 533L155 681Q164 739 186 779T248 840T350 861H412L399 774Q354 774 330 764T293 730T273 664L250 510Q242
456 218 425T157 381T75 368L69 383Q114 383 147 369T197 321T205 232L181 78Q175 37 179 15T204 -15T272 -23L258 -110H198Z" />
<glyph unicode="|" horiz-adv-x="305" d="M187 811H291L145 -107H41L187 811Z" />
<glyph unicode="}" horiz-adv-x="349" d="M186 861Q242 861 276 841T322 778T323 672L299 524Q292 476 305 450T370 423L355 328Q320 328 299 313T267 273T251 218L228 70Q219 12 197 -28T135 -89T33 -110H-29L-15 -23Q29 -23 54 -13T91 21T110 87L134 241Q143
295 167 326T227 370T309 383L314 368Q270 368 236 382T186 430T178 519L202 672Q209 714 205 736T179 766T111 774L125 861H186Z" />
<glyph unicode="~" horiz-adv-x="613" d="M412 271Q383 271 358 281T310 305T266 328T221 338Q199 338 176 326T125 283L72 328Q115 393 152 417T228 442Q258 442 283 432T331 409T375 385T420 375Q443 375 466 388T515 431L567 384Q524 320 487 296T412 271Z" />
<glyph unicode="&#xa0;" horiz-adv-x="176" />
<glyph unicode="&#xa1;" horiz-adv-x="313" d="M201 230L152 -230H6L100 223L201 230ZM186 485Q221 485 240 465T259 413Q259 376 234 351T171 326Q137 326 117 345T97 399Q97 438 123 461T186 485Z" />
<glyph unicode="&#xa2;" horiz-adv-x="533" d="M193 -21L216 129L257 102Q169 101 117 155T65 306Q65 369 82 423T134 518T216 585T327 614L290 585L313 738H404L381 590L349 615Q398 615 440 603T508 577L486 443H408L410 512Q396 517 379 519T350 522Q313 522
284 504T235 454T205 384T195 305Q195 253 219 226T288 199Q319 199 356 212T432 252L469 178Q416 141 366 124T268 102L307 131L284 -21H193Z" />
<glyph unicode="&#xa3;" horiz-adv-x="638" d="M15 0L27 73L133 106L84 76Q119 104 133 147T151 242T155 352L171 324H66L79 401L174 412L161 394Q159 504 185 575T267 681T411 716Q456 716 508 708T618 683L584 514H502L498 618L511 599Q462 610 426 610Q373
610 346 585T309 511T300 389L280 412H458L444 324H271L297 351Q297 291 291 243T266 157T211 88L196 106L453 105L429 81L469 202H553L520 0H15Z" />
<glyph unicode="&#xa4;" horiz-adv-x="642" d="M556 119L480 46L391 146L443 145Q413 121 377 109T300 96Q252 96 218 112T164 154H219L94 47L42 113L163 217L156 162Q141 182 133 208T125 266Q125 314 144 357T196 435L183 383L95 481L172 555L262 452L213 449Q244
472 279 483T355 495Q401 495 433 481T485 447L441 453L557 552L609 486L492 386L494 439Q529 396 529 329Q529 281 510 237T458 161L463 222L556 119ZM306 181Q344 181 369 203T406 258T419 327Q419 368 402 389T349 410Q310 410 285 388T247 332T235 265Q235
224 253 203T306 181Z" />
<glyph unicode="&#xa5;" horiz-adv-x="682" d="M121 292L131 359H257L244 336L144 624L163 605L93 626L104 699L373 704L362 631L273 606L284 632L376 325H348L534 626L542 601L461 626L472 699L716 704L705 631L629 608L659 628L466 333L459 359H582L571 292H121ZM159
0L170 73L261 99L243 78L261 192L278 171H102L112 239H563L552 171H370L401 194L383 78L374 99L457 73L445 0H159Z" />
<glyph unicode="&#xa6;" horiz-adv-x="305" d="M127 436L186 811H291L231 436H127ZM41 -107L100 268H205L145 -107H41Z" />
<glyph unicode="&#xa7;" horiz-adv-x="540" d="M175 -182Q135 -182 95 -175T13 -156L39 -13H122L121 -98L108 -80Q141 -93 174 -93Q222 -93 253 -68T284 -3Q284 23 269 41T228 76T175 110T122 147T81 196T65 265Q65 317 92 353T166 411T269 438L288 394Q262 389
239 374T200 336T185 287Q185 259 201 238T244 199T299 162T354 122T396 70T412 0Q412 -57 381 -98T296 -160T175 -182ZM260 100L252 144Q276 150 300 167T341 210T358 262Q358 288 342 308T300 345T246 381T192 421T150 474T133 545Q133 601 161 639T239 696T351
716Q388 716 431 709T517 686L494 559H412L407 637L426 615Q410 621 393 623T361 626Q317 626 288 605T258 546Q258 521 274 501T315 465T369 430T423 391T465 342T481 274Q481 221 450 185T369 127T260 100Z" />
<glyph unicode="&#xa8;" horiz-adv-x="452" d="M183 623Q154 623 138 642T121 692Q121 728 141 751T195 774Q224 774 241 756T258 705Q258 669 237 646T183 623ZM394 623Q365 623 349 642T332 692Q332 728 352 751T406 774Q435 774 452 756T469 705Q469 669 448
646T394 623Z" />
<glyph unicode="&#xa9;" horiz-adv-x="858" d="M438 150Q360 150 309 202T258 348Q258 416 284 461T354 530T453 553Q519 553 586 522L584 417H517L507 474L513 468Q503 473 488 475T461 477Q413 477 392 443T370 356Q370 291 395 260T461 229Q484 229 511 238T566
267L602 211Q561 179 519 165T438 150ZM431 -12Q352 -12 286 14T172 88T97 201T70 345Q70 426 98 494T177 611T297 688T446 716Q525 716 592 690T709 617T788 504T816 361Q816 280 787 212T705 94T582 16T431 -12ZM438 66Q500 66 552 87T641 147T699 238T720 354Q720
437 685 501T586 602T440 639Q356 639 295 602T200 501T166 352Q166 269 199 205T293 103T438 66Z" />
<glyph unicode="&#xaa;" horiz-adv-x="491" d="M33 150L49 248H462L446 150H33ZM181 312Q127 312 93 346T59 457Q59 529 89 587T174 681T300 716Q331 716 365 706T432 672L386 682L406 706L483 707L423 342L396 409L485 382L474 321L309 317L330 443L358 496Q346
436 317 395T252 333T181 312ZM223 395Q244 395 266 412T306 464T333 547L350 647L367 612Q348 626 331 632T297 638Q264 638 238 614T197 551T181 469Q181 431 192 413T223 395Z" />
<glyph unicode="&#xab;" horiz-adv-x="508" d="M165 46L36 234L45 305L232 493L291 443L132 243L139 298L235 99L165 46ZM377 46L248 234L257 305L444 493L503 443L344 243L351 298L447 99L377 46Z" />
<glyph unicode="&#xac;" horiz-adv-x="624" d="M430 299L418 316L385 113H495L541 401H74L58 299H430Z" />
<glyph unicode="&#xad;" horiz-adv-x="404" d="M621 347L605 239H303L320 347H621Z" />
<glyph unicode="&#xae;" horiz-adv-x="710" d="M241 302V340L285 355L274 339V578L289 561L241 574V612L358 616H398Q455 616 485 593T516 529Q516 495 491 472T412 441L418 453Q446 452 461 442T487 409L522 340L498 354L541 340V302H458L419 393Q412 410 404
417T385 427T361 429H336L349 442V339L338 355L388 340V302H241ZM349 466L336 478H371Q403 478 419 489T436 523Q436 542 423 552T382 563H336L349 576V466ZM376 158Q290 158 224 195T120 297T82 449Q82 537 122 605T231 712T388 752Q475 752 542 715T649 613T688
461Q688 397 665 342T598 245T499 181T376 158ZM378 219Q447 219 501 249T587 335T619 460Q619 530 589 581T506 662T387 691Q319 691 266 660T183 575T153 450Q153 382 181 330T260 248T378 219Z" />
<glyph unicode="&#xaf;" horiz-adv-x="395" d="M421 759L405 661H115L130 759H421Z" />
<glyph unicode="&#xb0;" horiz-adv-x="417" d="M223 420Q160 420 122 456T83 559Q83 612 107 653T172 717T265 741Q328 741 367 705T406 602Q406 553 383 511T319 445T223 420ZM230 498Q259 498 278 513T306 553T315 600Q315 634 300 649T258 664Q230 664 212
649T184 610T174 562Q174 530 188 514T230 498Z" />
<glyph unicode="&#xb1;" horiz-adv-x="561" d="M285 475L257 452L288 648H393L362 452L344 475H535L518 373H326L353 397L322 201H217L248 396L267 373H76L91 475H285ZM481 137L465 35H22L38 137H481Z" />
<glyph unicode="&#xb2;" horiz-adv-x="359" d="M40 345L53 432Q112 474 161 513T239 588T269 657Q269 680 256 688T223 697Q210 697 195 694T166 684L182 705L162 635H93L105 762Q142 771 180 777T252 784Q313 784 351 759T390 680Q390 640 370 604T317 536T247
476T174 422V436H356L342 345H40Z" />
<glyph unicode="&#xb3;" horiz-adv-x="365" d="M174 335Q137 335 101 343T32 369L73 444Q97 433 123 427T172 420Q208 420 230 437T253 483Q253 507 237 516T194 525H136L147 599H199Q214 599 232 604T263 623T276 660Q276 684 261 694T223 704Q208 704 192 701T160
693L179 709L162 648H93L105 757Q144 770 182 776T254 783Q315 783 355 760T395 682Q395 632 361 602T272 566L266 571Q321 567 344 543T368 478Q368 432 342 400T271 352T174 335Z" />
<glyph unicode="&#xb4;" horiz-adv-x="377" d="M135 605L85 675L299 837L366 737L135 605Z" />
<glyph unicode="&#xb5;" horiz-adv-x="679" d="M173 -234L37 -230L145 455L157 434L77 458L88 531L297 538L243 205Q238 173 240 149T254 112T288 98Q309 98 331 110T374 148T411 213T435 307L471 534H609L536 74L519 100L609 73L597 0L401 -5L432 168L474 242Q456
153 418 97T336 15T250 -12Q207 -12 179 15T143 98L166 54Q170 23 176 -17T183 -110T173 -234Z" />
<glyph unicode="&#xb6;" horiz-adv-x="629" d="M73 -170L84 -97L178 -69L155 -99L220 324L243 303Q165 303 118 347T70 470Q70 538 99 590T181 673T300 704H659L648 631L555 600L577 630L449 -170H336L464 633L478 599H356L385 633L257 -170H73Z" />
<glyph unicode="&#xb7;" horiz-adv-x="259" d="M130 246Q95 246 76 265T57 317Q57 356 82 380T146 404Q179 404 199 385T219 331Q219 292 193 269T130 246Z" />
<glyph unicode="&#xb8;" horiz-adv-x="352" d="M79 -255Q53 -255 26 -249T-27 -230L8 -162Q45 -178 83 -178Q105 -178 120 -170T136 -146Q136 -126 109 -117T45 -107L67 0H147L140 -48Q189 -54 212 -76T235 -134Q235 -170 214 -197T157 -240T79 -255Z" />
<glyph unicode="&#xb9;" horiz-adv-x="288" d="M240 404L228 428L302 404L294 345H41L50 404L153 425L134 404L176 677L206 678L93 619L71 688L212 775H298L240 404Z" />
<glyph unicode="&#xba;" horiz-adv-x="441" d="M225 312Q151 312 104 350T57 475Q57 520 71 563T114 641T188 696T294 716Q368 716 415 679T462 555Q462 494 437 439T359 348T225 312ZM22 150L38 248H399L383 150H22ZM239 390Q266 390 285 406T315 449T333 503T339
556Q339 598 324 618T278 639Q251 639 232 623T202 581T185 528T179 475Q179 433 193 412T239 390Z" />
<glyph unicode="&#xbb;" horiz-adv-x="509" d="M345 493L473 305L464 234L277 46L218 96L377 296L370 241L274 440L345 493ZM132 493L261 305L252 234L65 46L6 96L165 296L158 241L62 440L132 493Z" />
<glyph unicode="&#xbc;" horiz-adv-x="874" d="M252 335L240 359L314 335L306 276H53L62 335L165 356L146 335L188 608L218 609L105 550L83 619L224 706H310L252 335ZM132 -9L647 714H757L243 -9H132ZM654 111L661 87H469L467 169L675 436L814 427L771 151L748
168H827L815 87H734L764 110L747 0H636L654 111ZM679 168L659 143L695 371L712 370L534 137L524 168H679Z" />
<glyph unicode="&#xbd;" horiz-adv-x="884" d="M252 335L240 359L314 335L306 276H53L62 335L165 356L146 335L188 608L218 609L105 550L83 619L224 706H310L252 335ZM133 -9L648 714H758L244 -9H133ZM500 0L513 87Q572 129 621 168T699 243T729 312Q729 335 716
343T683 352Q670 352 655 349T626 339L642 360L622 290H553L565 417Q602 426 640 432T712 439Q773 439 811 414T850 335Q850 295 830 259T777 191T707 131T634 77V91H816L802 0H500Z" />
<glyph unicode="&#xbe;" horiz-adv-x="918" d="M170 266Q133 266 97 274T28 300L69 375Q93 364 119 358T168 351Q204 351 226 368T249 414Q249 438 233 447T190 456H132L143 530H195Q210 530 228 535T259 554T272 591Q272 615 257 625T219 635Q204 635 188 632T156
624L175 640L158 579H89L101 688Q140 701 178 707T250 714Q311 714 351 691T391 613Q391 563 357 533T268 497L262 502Q317 498 340 474T364 409Q364 363 338 331T267 283T170 266ZM179 -9L694 714H804L290 -9H179ZM699 111L706 87H514L512 169L720 436L859 427L816
151L793 168H872L860 87H779L809 110L792 0H681L699 111ZM724 168L704 143L740 371L757 370L579 137L569 168H724Z" />
<glyph unicode="&#xbf;" horiz-adv-x="415" d="M331 261Q331 255 332 245T332 222Q330 177 308 146T257 92T198 49T148 7T128 -46Q128 -77 147 -89T198 -101Q228 -101 263 -92T329 -72L353 -167Q306 -187 255 -197T157 -208Q109 -208 70 -196T7 -153T-17 -73Q-17
-31 0 0T43 55T100 100T158 142T204 186T224 241Q225 246 225 251T226 261H331ZM300 521Q335 521 354 501T373 449Q373 412 348 387T284 362Q251 362 231 381T211 435Q211 474 237 497T300 521Z" />
<glyph unicode="&#xc0;" horiz-adv-x="687" d="M606 68L576 101L649 73L638 0H373L385 73L463 99L456 78L437 208L447 188H196L216 206L156 79L154 96L226 73L214 0H-36L-24 73L59 100L19 71L344 703L490 707L606 68ZM245 268L239 290H441L431 265L380 626H415L245
268ZM531 753L284 852L338 956L569 822L531 753Z" />
<glyph unicode="&#xc1;" horiz-adv-x="687" d="M606 68L576 101L649 73L638 0H373L385 73L463 99L456 78L437 208L447 188H196L216 206L156 79L154 96L226 73L214 0H-36L-24 73L59 100L19 71L344 703L490 707L606 68ZM245 268L239 290H441L431 265L380 626H415L245
268ZM329 753L296 820L541 959L585 852L329 753Z" />
<glyph unicode="&#xc2;" horiz-adv-x="687" d="M606 68L576 101L649 73L638 0H373L385 73L463 99L456 78L437 208L447 188H196L216 206L156 79L154 96L226 73L214 0H-36L-24 73L59 100L19 71L344 703L490 707L606 68ZM245 268L239 290H441L431 265L380 626H415L245
268ZM290 749L252 805L411 936L490 943L620 805L566 749L395 869L490 868L290 749Z" />
<glyph unicode="&#xc3;" horiz-adv-x="687" d="M606 68L576 101L649 73L638 0H373L385 73L463 99L456 78L437 208L447 188H196L216 206L156 79L154 96L226 73L214 0H-36L-24 73L59 100L19 71L344 703L490 707L606 68ZM245 268L239 290H441L431 265L380 626H415L245
268ZM308 775L255 809Q283 868 312 893T375 918Q401 918 424 907T469 886T510 875Q542 875 575 921L629 889Q601 830 569 804T503 778Q477 778 455 789T413 810T369 821Q354 821 340 810T308 775Z" />
<glyph unicode="&#xc4;" horiz-adv-x="687" d="M606 68L576 101L649 73L638 0H373L385 73L463 99L456 78L437 208L447 188H196L216 206L156 79L154 96L226 73L214 0H-36L-24 73L59 100L19 71L344 703L490 707L606 68ZM245 268L239 290H441L431 265L380 626H415L245
268ZM330 761Q301 761 285 780T268 830Q268 866 288 889T342 912Q371 912 388 894T405 843Q405 807 384 784T330 761ZM541 761Q512 761 496 780T479 830Q479 866 499 889T553 912Q582 912 599 894T616 843Q616 807 595 784T541 761Z" />
<glyph unicode="&#xc5;" horiz-adv-x="687" d="M606 68L576 101L649 73L638 0H373L385 73L463 99L456 78L437 208L447 188H196L216 206L156 79L154 96L226 73L214 0H-36L-24 73L59 100L19 71L344 703L490 707L606 68ZM245 268L239 290H441L431 265L380 626H415L245
268ZM427 732Q370 732 341 762T312 837Q312 876 330 907T382 958T461 978Q517 978 545 948T574 871Q574 835 557 803T507 752T427 732ZM433 797Q463 797 478 820T493 869Q493 889 484 900T454 912Q424 912 409 890T393 840Q393 820 402 809T433 797Z" />
<glyph unicode="&#xc6;" horiz-adv-x="916" d="M-36 0L-25 73L63 100L20 70L358 621L369 599L279 626L291 699L510 704H920L892 523H810L804 621L825 599H604L630 622L593 387L577 409H799L783 308H557L585 334L543 76L528 105H753L729 80L767 189H850L820 0H329L341
73L426 102L403 78L426 225L446 201H213L246 224L152 69L149 100L228 73L216 0H-36ZM279 284L265 303H461L436 284L489 615L509 599H447L477 614L279 284Z" />
<glyph unicode="&#xc7;" horiz-adv-x="615" d="M266 -255Q241 -255 214 -249T161 -230L195 -162Q232 -178 270 -178Q292 -178 307 -170T323 -146Q323 -126 296 -117T232 -107L271 79H351L327 -48Q376 -54 399 -76T422 -134Q422 -170 401 -197T344 -240T266 -255ZM53
285Q53 369 78 446T151 584T266 680T418 716Q469 716 521 703T629 663L594 486H511L505 600L529 579Q499 592 470 598T416 604Q363 604 323 576T256 502T215 401T201 291Q201 225 219 184T269 124T340 105Q379 105 422 123T507 174L553 85Q494 36 430 12T306 -12Q237
-12 180 20T88 118T53 285Z" />
<glyph unicode="&#xc8;" horiz-adv-x="595" d="M446 189H530L499 0H-1L10 73L98 99L79 79L166 623L181 600L98 626L110 699L317 704H600L572 523H489L484 619L506 599H280L306 621L269 386L253 409H479L462 308H235L261 335L219 77L205 105H442L410 82L446 189ZM484
753L237 852L291 956L522 822L484 753Z" />
<glyph unicode="&#xc9;" horiz-adv-x="595" d="M446 189H530L499 0H-1L10 73L98 99L79 79L166 623L181 600L98 626L110 699L317 704H600L572 523H489L484 619L506 599H280L306 621L269 386L253 409H479L462 308H235L261 335L219 77L205 105H442L410 82L446 189ZM283
753L250 820L495 959L539 852L283 753Z" />
<glyph unicode="&#xca;" horiz-adv-x="595" d="M446 189H530L499 0H-1L10 73L98 99L79 79L166 623L181 600L98 626L110 699L317 704H600L572 523H489L484 619L506 599H280L306 621L269 386L253 409H479L462 308H235L261 335L219 77L205 105H442L410 82L446 189ZM243
749L205 805L364 936L443 943L573 805L519 749L348 869L443 868L243 749Z" />
<glyph unicode="&#xcb;" horiz-adv-x="595" d="M446 189H530L499 0H-1L10 73L98 99L79 79L166 623L181 600L98 626L110 699L317 704H600L572 523H489L484 619L506 599H280L306 621L269 386L253 409H479L462 308H235L261 335L219 77L205 105H442L410 82L446 189ZM284
761Q255 761 239 780T222 830Q222 866 242 889T296 912Q325 912 342 894T359 843Q359 807 338 784T284 761ZM495 761Q466 761 450 780T433 830Q433 866 453 889T507 912Q536 912 553 894T570 843Q570 807 549 784T495 761Z" />
<glyph unicode="&#xcc;" horiz-adv-x="360" d="M379 631L289 601L306 621L220 78L212 99L291 73L279 0H-1L10 73L99 99L79 78L165 621L181 600L98 626L110 699L391 704L379 631ZM616 753L369 852L423 956L654 822L616 753Z" />
<glyph unicode="&#xcd;" horiz-adv-x="360" d="M379 631L289 601L306 621L220 78L212 99L291 73L279 0H-1L10 73L99 99L79 78L165 621L181 600L98 626L110 699L391 704L379 631ZM414 753L381 820L626 959L670 852L414 753Z" />
<glyph unicode="&#xce;" horiz-adv-x="360" d="M379 631L289 601L306 621L220 78L212 99L291 73L279 0H-1L10 73L99 99L79 78L165 621L181 600L98 626L110 699L391 704L379 631ZM375 749L337 805L496 936L575 943L705 805L651 749L480 869L575 868L375 749Z" />
<glyph unicode="&#xcf;" horiz-adv-x="360" d="M379 631L289 601L306 621L220 78L212 99L291 73L279 0H-1L10 73L99 99L79 78L165 621L181 600L98 626L110 699L391 704L379 631ZM159 761Q130 761 114 780T97 830Q97 866 117 889T171 912Q200 912 217 894T234 843Q234
807 213 784T159 761ZM370 761Q341 761 325 780T308 830Q308 866 328 889T382 912Q411 912 428 894T445 843Q445 807 424 784T370 761Z" />
<glyph unicode="&#xd0;" horiz-adv-x="702" d="M48 310L64 406H386L370 310H48ZM406 704Q495 704 556 675T647 585T677 430Q677 344 652 266T576 128T453 34T283 0H-1L10 73L98 99L79 78L166 623L181 600L98 626L110 699L329 704H406ZM308 105Q356 105 392 127T455
187T497 269T521 359T529 441Q529 492 515 527T468 580T384 599H280L307 625L219 76L205 105H308Z" />
<glyph unicode="&#xd1;" horiz-adv-x="746" d="M533 699L785 704L773 631L687 601L704 623L605 0H454L253 550L270 551L195 78L186 99L263 73L251 0H-1L10 73L98 99L79 78L166 623L181 600L98 626L110 699L341 704L534 165H517L589 623L604 600L521 626L533 699ZM338
775L285 809Q313 868 342 893T405 918Q431 918 454 907T499 886T540 875Q572 875 605 921L659 889Q631 830 599 804T533 778Q507 778 485 789T443 810T399 821Q384 821 370 810T338 775Z" />
<glyph unicode="&#xd2;" horiz-adv-x="717" d="M315 -12Q229 -12 171 21T82 117T52 273Q52 333 65 396T108 516T182 619T288 690T429 716Q516 716 574 684T663 588T693 433Q693 373 679 311T637 190T564 87T458 15T315 -12ZM328 100Q374 100 409 122T470 181T512
263T536 353T544 437Q544 497 528 533T484 587T417 604Q371 604 336 582T275 524T233 443T208 354T200 270Q200 210 216 173T262 118T328 100ZM554 753L307 852L361 956L592 822L554 753Z" />
<glyph unicode="&#xd3;" horiz-adv-x="717" d="M315 -12Q229 -12 171 21T82 117T52 273Q52 333 65 396T108 516T182 619T288 690T429 716Q516 716 574 684T663 588T693 433Q693 373 679 311T637 190T564 87T458 15T315 -12ZM328 100Q374 100 409 122T470 181T512
263T536 353T544 437Q544 497 528 533T484 587T417 604Q371 604 336 582T275 524T233 443T208 354T200 270Q200 210 216 173T262 118T328 100ZM353 753L320 820L565 959L609 852L353 753Z" />
<glyph unicode="&#xd4;" horiz-adv-x="717" d="M315 -12Q229 -12 171 21T82 117T52 273Q52 333 65 396T108 516T182 619T288 690T429 716Q516 716 574 684T663 588T693 433Q693 373 679 311T637 190T564 87T458 15T315 -12ZM328 100Q374 100 409 122T470 181T512
263T536 353T544 437Q544 497 528 533T484 587T417 604Q371 604 336 582T275 524T233 443T208 354T200 270Q200 210 216 173T262 118T328 100ZM314 749L276 805L435 936L514 943L644 805L590 749L419 869L514 868L314 749Z" />
<glyph unicode="&#xd5;" horiz-adv-x="717" d="M315 -12Q229 -12 171 21T82 117T52 273Q52 333 65 396T108 516T182 619T288 690T429 716Q516 716 574 684T663 588T693 433Q693 373 679 311T637 190T564 87T458 15T315 -12ZM328 100Q374 100 409 122T470 181T512
263T536 353T544 437Q544 497 528 533T484 587T417 604Q371 604 336 582T275 524T233 443T208 354T200 270Q200 210 216 173T262 118T328 100ZM332 775L279 809Q307 868 336 893T399 918Q425 918 448 907T493 886T534 875Q566 875 599 921L653 889Q625 830 593
804T527 778Q501 778 479 789T437 810T393 821Q378 821 364 810T332 775Z" />
<glyph unicode="&#xd6;" horiz-adv-x="717" d="M315 -12Q229 -12 171 21T82 117T52 273Q52 333 65 396T108 516T182 619T288 690T429 716Q516 716 574 684T663 588T693 433Q693 373 679 311T637 190T564 87T458 15T315 -12ZM328 100Q374 100 409 122T470 181T512
263T536 353T544 437Q544 497 528 533T484 587T417 604Q371 604 336 582T275 524T233 443T208 354T200 270Q200 210 216 173T262 118T328 100ZM354 761Q325 761 309 780T292 830Q292 866 312 889T366 912Q395 912 412 894T429 843Q429 807 408 784T354 761ZM565
761Q536 761 520 780T503 830Q503 866 523 889T577 912Q606 912 623 894T640 843Q640 807 619 784T565 761Z" />
<glyph unicode="&#xd7;" horiz-adv-x="512" d="M105 137L42 212L214 366L212 331L85 488L169 565L295 408L263 409L434 564L496 488L325 334L327 369L453 213L370 136L243 293L276 291L105 137Z" />
<glyph unicode="&#xd8;" horiz-adv-x="725" d="M652 781L719 736L619 605L606 593L224 92L222 84L98 -79L30 -34L170 150L182 160L547 640L551 650L652 781ZM319 -12Q234 -12 175 21T86 117T56 271Q56 332 70 395T113 516T186 619T292 690T434 716Q520 716 578
684T667 588T697 435Q697 374 684 311T642 190T568 87T462 15T319 -12ZM332 100Q378 100 413 122T474 181T516 263T541 353T549 439Q549 497 533 533T489 587T422 604Q375 604 340 582T279 524T237 442T213 352T205 267Q205 209 221 172T266 118T332 100Z" />
<glyph unicode="&#xd9;" horiz-adv-x="722" d="M488 699L769 704L758 631L667 601L685 623L630 271Q615 172 576 110T473 18T318 -12Q200 -12 142 37T84 190Q84 207 86 226T91 266L148 623L161 602L80 626L92 699L369 704L358 631L272 601L289 623L231 258Q228
239 227 223T225 193Q225 145 248 123T326 100Q380 100 412 120T462 180T490 280L544 623L559 601L476 626L488 699ZM540 753L293 852L347 956L578 822L540 753Z" />
<glyph unicode="&#xda;" horiz-adv-x="722" d="M488 699L769 704L758 631L667 601L685 623L630 271Q615 172 576 110T473 18T318 -12Q200 -12 142 37T84 190Q84 207 86 226T91 266L148 623L161 602L80 626L92 699L369 704L358 631L272 601L289 623L231 258Q228
239 227 223T225 193Q225 145 248 123T326 100Q380 100 412 120T462 180T490 280L544 623L559 601L476 626L488 699ZM338 753L305 820L550 959L594 852L338 753Z" />
<glyph unicode="&#xdb;" horiz-adv-x="722" d="M488 699L769 704L758 631L667 601L685 623L630 271Q615 172 576 110T473 18T318 -12Q200 -12 142 37T84 190Q84 207 86 226T91 266L148 623L161 602L80 626L92 699L369 704L358 631L272 601L289 623L231 258Q228
239 227 223T225 193Q225 145 248 123T326 100Q380 100 412 120T462 180T490 280L544 623L559 601L476 626L488 699ZM299 749L261 805L420 936L499 943L629 805L575 749L404 869L499 868L299 749Z" />
<glyph unicode="&#xdc;" horiz-adv-x="722" d="M488 699L769 704L758 631L667 601L685 623L630 271Q615 172 576 110T473 18T318 -12Q200 -12 142 37T84 190Q84 207 86 226T91 266L148 623L161 602L80 626L92 699L369 704L358 631L272 601L289 623L231 258Q228
239 227 223T225 193Q225 145 248 123T326 100Q380 100 412 120T462 180T490 280L544 623L559 601L476 626L488 699ZM340 761Q311 761 295 780T278 830Q278 866 298 889T352 912Q381 912 398 894T415 843Q415 807 394 784T340 761ZM551 761Q522 761 506 780T489
830Q489 866 509 889T563 912Q592 912 609 894T626 843Q626 807 605 784T551 761Z" />
<glyph unicode="&#xdd;" horiz-adv-x="637" d="M136 0L147 73L238 99L219 78L251 277L259 227L114 624L134 604L63 626L74 699L343 704L332 631L243 606L254 632L353 325H324L518 626L526 601L445 626L455 699L700 704L689 631L614 609L643 628L373 227L391 277L360
78L351 99L434 73L422 0H136ZM308 753L275 820L520 959L564 852L308 753Z" />
<glyph unicode="&#xde;" horiz-adv-x="586" d="M-1 0L10 73L99 99L79 78L166 623L181 600L98 626L110 699L391 704L379 631L289 601L307 625L295 546L286 558H381Q453 558 495 539T557 484T576 398Q576 324 540 269T436 184T277 154H219L234 170L220 78L212 99L300
73L289 0H-1ZM246 244L235 255H281Q332 255 366 271T417 315T435 379Q435 416 415 436T341 457H267L282 469L246 244Z" />
<glyph unicode="&#xdf;" horiz-adv-x="672" d="M-46 -242Q-68 -242 -86 -240T-118 -235L-96 -138Q-87 -139 -78 -140T-60 -141Q-18 -141 9 -119T46 -37L122 445L139 431H38L51 511L153 533L135 513L145 573Q157 648 199 695T300 764T423 786Q481 786 527 769T601
718T629 633Q629 600 618 576T588 533T550 499T512 470T483 441T471 407Q471 387 484 374T516 348T558 322T599 291T631 245T644 178Q644 117 613 75T530 10T414 -12Q379 -12 341 -5T265 15L291 165L374 164L373 70L357 94Q373 86 388 83T417 79Q442 79 462 88T495
114T507 154Q507 176 495 191T463 220T421 246T379 277T347 320T334 382Q334 417 345 442T374 485T413 518T451 548T481 581T493 624Q493 658 470 675T410 692Q365 692 328 664T280 573L189 -3Q178 -75 155 -121T99 -194T30 -231T-46 -242Z" />
<glyph unicode="&#xe0;" horiz-adv-x="591" d="M172 -12Q132 -12 99 9T45 74T25 189Q25 263 48 328T113 442T210 519T331 547Q374 547 419 533T509 486L447 499L474 534H548L468 29L421 118L548 76L536 1L341 -5L371 169L412 243Q395 159 356 102T267 17T172 -12ZM228
100Q249 100 271 113T314 154T351 221T376 313L398 452L421 406Q396 425 373 433T328 442Q292 442 263 423T211 370T178 294T166 205Q166 151 183 126T228 100ZM281 840L484 674L435 604L212 739L281 840Z" />
<glyph unicode="&#xe1;" horiz-adv-x="591" d="M172 -12Q132 -12 99 9T45 74T25 189Q25 263 48 328T113 442T210 519T331 547Q374 547 419 533T509 486L447 499L474 534H548L468 29L421 118L548 76L536 1L341 -5L371 169L412 243Q395 159 356 102T267 17T172 -12ZM228
100Q249 100 271 113T314 154T351 221T376 313L398 452L421 406Q396 425 373 433T328 442Q292 442 263 423T211 370T178 294T166 205Q166 151 183 126T228 100ZM284 605L234 675L448 837L515 737L284 605Z" />
<glyph unicode="&#xe2;" horiz-adv-x="591" d="M172 -12Q132 -12 99 9T45 74T25 189Q25 263 48 328T113 442T210 519T331 547Q374 547 419 533T509 486L447 499L474 534H548L468 29L421 118L548 76L536 1L341 -5L371 169L412 243Q395 159 356 102T267 17T172 -12ZM228
100Q249 100 271 113T314 154T351 221T376 313L398 452L421 406Q396 425 373 433T328 442Q292 442 263 423T211 370T178 294T166 205Q166 151 183 126T228 100ZM209 874L171 927L327 1070L406 1078L530 927L477 874L312 1006L407 1005L209 874Z" />
<glyph unicode="&#xe3;" horiz-adv-x="591" d="M172 -12Q132 -12 99 9T45 74T25 189Q25 263 48 328T113 442T210 519T331 547Q374 547 419 533T509 486L447 499L474 534H548L468 29L421 118L548 76L536 1L341 -5L371 169L412 243Q395 159 356 102T267 17T172 -12ZM228
100Q249 100 271 113T314 154T351 221T376 313L398 452L421 406Q396 425 373 433T328 442Q292 442 263 423T211 370T178 294T166 205Q166 151 183 126T228 100ZM414 641Q387 641 366 653T327 677T286 689Q267 689 250 677T215 641L164 671Q192 732 225 762T295
792Q322 792 342 780T382 756T423 744Q442 744 458 756T493 792L544 763Q516 702 484 672T414 641Z" />
<glyph unicode="&#xe4;" horiz-adv-x="591" d="M172 -12Q132 -12 99 9T45 74T25 189Q25 263 48 328T113 442T210 519T331 547Q374 547 419 533T509 486L447 499L474 534H548L468 29L421 118L548 76L536 1L341 -5L371 169L412 243Q395 159 356 102T267 17T172 -12ZM228
100Q249 100 271 113T314 154T351 221T376 313L398 452L421 406Q396 425 373 433T328 442Q292 442 263 423T211 370T178 294T166 205Q166 151 183 126T228 100ZM241 623Q212 623 196 642T179 692Q179 728 199 751T253 774Q282 774 299 756T316 705Q316 669 295
646T241 623ZM452 623Q423 623 407 642T390 692Q390 728 410 751T464 774Q493 774 510 756T527 705Q527 669 506 646T452 623Z" />
<glyph unicode="&#xe5;" horiz-adv-x="591" d="M172 -12Q132 -12 99 9T45 74T25 189Q25 263 48 328T113 442T210 519T331 547Q374 547 419 533T509 486L447 499L474 534H548L468 29L421 118L548 76L536 1L341 -5L371 169L412 243Q395 159 356 102T267 17T172 -12ZM228
100Q249 100 271 113T314 154T351 221T376 313L398 452L421 406Q396 425 373 433T328 442Q292 442 263 423T211 370T178 294T166 205Q166 151 183 126T228 100ZM342 605Q285 605 256 635T227 710Q227 749 245 780T297 831T376 851Q432 851 460 821T489 744Q489
708 472 676T422 625T342 605ZM348 670Q378 670 393 693T408 742Q408 762 399 773T369 785Q339 785 324 763T308 713Q308 693 317 682T348 670Z" />
<glyph unicode="&#xe6;" horiz-adv-x="806" d="M355 141Q348 104 327 76T278 29T217 -1T153 -12Q93 -12 55 23T16 129Q16 177 36 208T93 258T176 284T277 291H342L325 277Q331 310 335 339T340 384Q340 417 322 430T269 444Q238 444 202 437T129 421L196 494L162
364H81L92 509Q146 524 204 535T312 546Q367 546 401 525T435 455Q435 449 435 444T432 428L398 437Q437 486 493 516T620 546Q704 546 750 508T797 402Q797 358 777 326T720 271T637 236T539 217T434 213L458 244Q457 237 457 230T456 214Q456 149 484 120T558
90Q588 90 626 102T706 137L744 52Q690 21 634 5T526 -12Q429 -12 373 45T317 200Q317 213 318 227T320 252L351 214H294Q269 214 244 213T199 204T165 184T152 146Q152 119 167 104T209 89Q225 89 243 97T278 119T306 155T317 200L355 141ZM459 252L438 295Q466
294 497 296T558 303T610 320T647 348T661 390Q661 415 645 431T599 448Q569 448 545 430T503 383T474 320T459 252Z" />
<glyph unicode="&#xe7;" horiz-adv-x="486" d="M231 -12Q174 -12 128 12T54 87T27 216Q27 288 50 349T115 454T211 522T328 546Q366 546 406 536T487 505L465 359H374L370 441L384 426Q347 446 314 446Q280 446 253 428T206 377T177 306T167 224Q167 154 193 123T262
92Q289 92 320 103T386 133L424 48Q376 18 326 3T231 -12ZM197 -255Q171 -255 144 -249T91 -230L126 -162Q163 -178 201 -178Q223 -178 238 -170T254 -146Q254 -126 227 -117T163 -107L185 0H265L258 -48Q307 -54 330 -76T353 -134Q353 -170 332 -197T275 -240T197
-255Z" />
<glyph unicode="&#xe8;" horiz-adv-x="515" d="M234 -12Q176 -12 129 11T55 83T27 210Q27 274 47 334T106 442T201 518T328 546Q412 546 459 508T507 406Q507 359 480 323T408 263T305 226T185 213Q174 213 166 213T150 214L157 303Q168 302 178 301T200 300Q231
300 261 305T316 322T356 351T371 392Q371 416 355 431T309 447Q274 447 248 426T203 369T174 293T164 213Q164 147 191 118T265 89Q298 89 336 101T415 134L451 53Q396 21 341 5T234 -12ZM272 840L475 674L426 604L203 739L272 840Z" />
<glyph unicode="&#xe9;" horiz-adv-x="515" d="M234 -12Q176 -12 129 11T55 83T27 210Q27 274 47 334T106 442T201 518T328 546Q412 546 459 508T507 406Q507 359 480 323T408 263T305 226T185 213Q174 213 166 213T150 214L157 303Q168 302 178 301T200 300Q231
300 261 305T316 322T356 351T371 392Q371 416 355 431T309 447Q274 447 248 426T203 369T174 293T164 213Q164 147 191 118T265 89Q298 89 336 101T415 134L451 53Q396 21 341 5T234 -12ZM275 605L225 675L439 837L506 737L275 605Z" />
<glyph unicode="&#xea;" horiz-adv-x="515" d="M234 -12Q176 -12 129 11T55 83T27 210Q27 274 47 334T106 442T201 518T328 546Q412 546 459 508T507 406Q507 359 480 323T408 263T305 226T185 213Q174 213 166 213T150 214L157 303Q168 302 178 301T200 300Q231
300 261 305T316 322T356 351T371 392Q371 416 355 431T309 447Q274 447 248 426T203 369T174 293T164 213Q164 147 191 118T265 89Q298 89 336 101T415 134L451 53Q396 21 341 5T234 -12ZM201 874L163 927L319 1070L398 1078L522 927L469 874L304 1006L399 1005L201
874Z" />
<glyph unicode="&#xeb;" horiz-adv-x="515" d="M234 -12Q176 -12 129 11T55 83T27 210Q27 274 47 334T106 442T201 518T328 546Q412 546 459 508T507 406Q507 359 480 323T408 263T305 226T185 213Q174 213 166 213T150 214L157 303Q168 302 178 301T200 300Q231
300 261 305T316 322T356 351T371 392Q371 416 355 431T309 447Q274 447 248 426T203 369T174 293T164 213Q164 147 191 118T265 89Q298 89 336 101T415 134L451 53Q396 21 341 5T234 -12ZM232 623Q203 623 187 642T170 692Q170 728 190 751T244 774Q273 774 290
756T307 705Q307 669 286 646T232 623ZM443 623Q414 623 398 642T381 692Q381 728 401 751T455 774Q484 774 501 756T518 705Q518 669 497 646T443 623Z" />
<glyph unicode="&#xec;" horiz-adv-x="308" d="M42 -5L123 503L173 416L45 458L57 531L266 538L185 27L137 116L264 74L252 1L42 -5ZM406 840L609 674L560 604L337 739L406 840Z" />
<glyph unicode="&#xed;" horiz-adv-x="308" d="M42 -5L123 503L173 416L45 458L57 531L266 538L185 27L137 116L264 74L252 1L42 -5ZM153 605L103 675L317 837L384 737L153 605Z" />
<glyph unicode="&#xee;" horiz-adv-x="308" d="M91 618L48 670L184 814L263 821L359 662L304 618L176 753L264 749L91 618ZM42 -5L123 503L173 416L45 458L57 531L266 538L185 27L137 116L264 74L252 1L42 -5Z" />
<glyph unicode="&#xef;" horiz-adv-x="310" d="M42 -5L123 503L173 416L45 458L57 531L266 538L185 27L137 116L264 74L252 1L42 -5ZM112 623Q83 623 67 642T50 692Q50 728 70 751T124 774Q153 774 170 756T187 705Q187 669 166 646T112 623ZM303 623Q274 623
258 642T241 692Q241 728 261 751T315 774Q344 774 361 756T378 705Q378 669 357 646T303 623Z" />
<glyph unicode="&#xf0;" horiz-adv-x="567" d="M222 -12Q124 -12 73 43T21 194Q21 254 40 308T94 405T178 472T286 497Q326 497 357 486T410 452T443 400H418Q419 496 393 558T314 652T181 685L201 786Q291 786 355 757T459 675T519 553T539 402Q539 316 518 241T457
109T357 20T222 -12ZM241 89Q279 89 307 109T352 162T377 231T385 300Q385 349 367 375T305 402Q267 402 240 382T196 330T170 261T162 191Q162 141 181 115T241 89ZM256 548L221 606L499 789L535 730L256 548Z" />
<glyph unicode="&#xf1;" horiz-adv-x="617" d="M355 -5L409 330Q415 361 412 385T398 423T364 437Q343 437 321 424T278 386T241 321T217 227L181 0H43L123 503L172 416L45 458L57 531L258 538L221 368L177 292Q198 381 239 437T329 519T424 546Q471 546 503 524T548
460T551 361L505 74L446 118L577 76L565 1L355 -5ZM435 641Q408 641 387 653T348 677T307 689Q288 689 271 677T236 641L185 671Q213 732 246 762T316 792Q343 792 363 780T403 756T444 744Q463 744 479 756T514 792L565 763Q537 702 505 672T435 641Z" />
<glyph unicode="&#xf2;" horiz-adv-x="561" d="M329 546Q389 546 435 525T507 455T533 327Q533 264 515 204T460 95T367 17T233 -12Q172 -12 126 10T55 80T29 206Q29 269 46 329T101 439T194 517T329 546ZM310 445Q271 445 244 421T201 359T177 280T169 206Q169
152 188 121T251 89Q290 89 317 113T361 176T385 255T393 329Q393 383 374 414T310 445ZM281 840L484 674L435 604L212 739L281 840Z" />
<glyph unicode="&#xf3;" horiz-adv-x="561" d="M329 546Q389 546 435 525T507 455T533 327Q533 264 515 204T460 95T367 17T233 -12Q172 -12 126 10T55 80T29 206Q29 269 46 329T101 439T194 517T329 546ZM310 445Q271 445 244 421T201 359T177 280T169 206Q169
152 188 121T251 89Q290 89 317 113T361 176T385 255T393 329Q393 383 374 414T310 445ZM284 605L234 675L448 837L515 737L284 605Z" />
<glyph unicode="&#xf4;" horiz-adv-x="561" d="M329 546Q389 546 435 525T507 455T533 327Q533 264 515 204T460 95T367 17T233 -12Q172 -12 126 10T55 80T29 206Q29 269 46 329T101 439T194 517T329 546ZM310 445Q271 445 244 421T201 359T177 280T169 206Q169
152 188 121T251 89Q290 89 317 113T361 176T385 255T393 329Q393 383 374 414T310 445ZM209 874L171 927L327 1070L406 1078L530 927L477 874L312 1006L407 1005L209 874Z" />
<glyph unicode="&#xf5;" horiz-adv-x="561" d="M329 546Q389 546 435 525T507 455T533 327Q533 264 515 204T460 95T367 17T233 -12Q172 -12 126 10T55 80T29 206Q29 269 46 329T101 439T194 517T329 546ZM310 445Q271 445 244 421T201 359T177 280T169 206Q169
152 188 121T251 89Q290 89 317 113T361 176T385 255T393 329Q393 383 374 414T310 445ZM414 641Q387 641 366 653T327 677T286 689Q267 689 250 677T215 641L164 671Q192 732 225 762T295 792Q322 792 342 780T382 756T423 744Q442 744 458 756T493 792L544 763Q516
702 484 672T414 641Z" />
<glyph unicode="&#xf6;" horiz-adv-x="561" d="M329 546Q389 546 435 525T507 455T533 327Q533 264 515 204T460 95T367 17T233 -12Q172 -12 126 10T55 80T29 206Q29 269 46 329T101 439T194 517T329 546ZM310 445Q271 445 244 421T201 359T177 280T169 206Q169
152 188 121T251 89Q290 89 317 113T361 176T385 255T393 329Q393 383 374 414T310 445ZM241 623Q212 623 196 642T179 692Q179 728 199 751T253 774Q282 774 299 756T316 705Q316 669 295 646T241 623ZM452 623Q423 623 407 642T390 692Q390 728 410 751T464 774Q493
774 510 756T527 705Q527 669 506 646T452 623Z" />
<glyph unicode="&#xf7;" horiz-adv-x="645" d="M565 401L549 299H106L122 401H565ZM297 82Q262 82 243 101T224 153Q224 192 249 216T313 240Q346 240 366 221T386 167Q386 128 360 105T297 82ZM357 461Q322 461 303 480T284 532Q284 571 309 595T373 619Q406
619 426 600T446 546Q446 507 420 484T357 461Z" />
<glyph unicode="&#xf8;" horiz-adv-x="583" d="M525 630L577 596L425 396L418 391L187 85L182 73L56 -93L3 -59L151 136L162 146L389 446L394 458L525 630ZM340 546Q400 546 446 525T518 455T544 328Q544 265 526 204T470 95T377 17T243 -12Q183 -12 137 10T65
80T39 206Q39 269 57 329T112 439T205 517T340 546ZM322 445Q282 445 255 421T211 358T187 279T180 205Q180 147 199 118T260 89Q299 89 326 114T371 177T396 256T404 329Q404 387 384 416T322 445Z" />
<glyph unicode="&#xf9;" horiz-adv-x="616" d="M190 -12Q144 -12 113 10T70 74T65 172L110 460L121 434L41 458L52 531L261 538L207 205Q202 173 204 149T218 112T252 98Q273 98 295 110T338 148T375 213T400 307L435 534H573L501 75L484 100L573 73L561 1L366
-5L396 168L439 242Q419 154 378 98T288 15T190 -12ZM297 840L500 674L451 604L228 739L297 840Z" />
<glyph unicode="&#xfa;" horiz-adv-x="616" d="M190 -12Q144 -12 113 10T70 74T65 172L110 460L121 434L41 458L52 531L261 538L207 205Q202 173 204 149T218 112T252 98Q273 98 295 110T338 148T375 213T400 307L435 534H573L501 75L484 100L573 73L561 1L366
-5L396 168L439 242Q419 154 378 98T288 15T190 -12ZM299 605L249 675L463 837L530 737L299 605Z" />
<glyph unicode="&#xfb;" horiz-adv-x="616" d="M190 -12Q144 -12 113 10T70 74T65 172L110 460L121 434L41 458L52 531L261 538L207 205Q202 173 204 149T218 112T252 98Q273 98 295 110T338 148T375 213T400 307L435 534H573L501 75L484 100L573 73L561 1L366
-5L396 168L439 242Q419 154 378 98T288 15T190 -12ZM225 874L187 927L343 1070L422 1078L546 927L493 874L328 1006L423 1005L225 874Z" />
<glyph unicode="&#xfc;" horiz-adv-x="616" d="M190 -12Q144 -12 113 10T70 74T65 172L110 460L121 434L41 458L52 531L261 538L207 205Q202 173 204 149T218 112T252 98Q273 98 295 110T338 148T375 213T400 307L435 534H573L501 75L484 100L573 73L561 1L366
-5L396 168L439 242Q419 154 378 98T288 15T190 -12ZM256 623Q227 623 211 642T194 692Q194 728 214 751T268 774Q297 774 314 756T331 705Q331 669 310 646T256 623ZM467 623Q438 623 422 642T405 692Q405 728 425 751T479 774Q508 774 525 756T542 705Q542 669
521 646T467 623Z" />
<glyph unicode="&#xfd;" horiz-adv-x="540" d="M-56 -235L-38 -134Q-24 -136 -13 -137T10 -138Q53 -138 84 -121T141 -67T196 26L189 -22L70 455L80 443L26 457L37 530L199 539L281 87L244 94L407 457L412 443L355 457L366 530L585 539L574 466L515 446L536 458L313
2Q300 -24 283 -56T241 -121T184 -181T109 -225T11 -242Q-21 -242 -56 -235ZM247 605L197 675L411 837L478 737L247 605Z" />
<glyph unicode="&#xfe;" horiz-adv-x="577" d="M-81 -230L-69 -157L70 -116L-3 -193L138 698L155 674L66 699L78 772L289 779L220 367L169 293Q186 377 223 433T309 519T405 548Q444 548 477 528T530 462T550 342Q550 245 517 172T422 54T276 -4T91 6L167 19L133
-197L85 -114L218 -157L207 -230H-81ZM176 75L149 112Q208 89 256 96T339 133T391 214T410 327Q410 385 393 410T348 436Q326 436 304 422T261 381T224 314T200 222L176 75Z" />
<glyph unicode="&#xff;" horiz-adv-x="540" d="M-56 -235L-38 -134Q-24 -136 -13 -137T10 -138Q53 -138 84 -121T141 -67T196 26L189 -22L70 455L80 443L26 457L37 530L199 539L281 87L244 94L407 457L412 443L355 457L366 530L585 539L574 466L515 446L536 458L313
2Q300 -24 283 -56T241 -121T184 -181T109 -225T11 -242Q-21 -242 -56 -235ZM204 623Q175 623 159 642T142 692Q142 728 162 751T216 774Q245 774 262 756T279 705Q279 669 258 646T204 623ZM415 623Q386 623 370 642T353 692Q353 728 373 751T427 774Q456 774
473 756T490 705Q490 669 469 646T415 623Z" />
<glyph unicode="&#x2013;" horiz-adv-x="575" d="M535 347L518 239H53L71 347H535Z" />
<glyph unicode="&#x2014;" horiz-adv-x="810" d="M770 343L752 235H48L65 343H770Z" />
<glyph unicode="&#x2018;" horiz-adv-x="214" d="M210 559Q210 523 188 502T136 480Q110 480 90 498T69 552Q69 578 84 614T132 695T219 792L264 754Q227 702 211 673T195 627Q195 612 202 598T210 559Z" />
<glyph unicode="&#x2019;" horiz-adv-x="215" d="M116 711Q116 748 139 769T190 790Q216 790 236 772T257 718Q257 693 242 657T194 576T107 479L62 517Q99 569 115 598T131 643Q131 658 124 673T116 711Z" />
<glyph unicode="&#x201a;" horiz-adv-x="215" d="M17 54Q17 91 40 112T91 133Q117 133 137 115T158 61Q158 36 143 0T95 -81T8 -178L-37 -140Q0 -88 16 -59T32 -14Q32 1 25 16T17 54Z" />
<glyph unicode="&#x201c;" horiz-adv-x="406" d="M212 572Q212 535 190 514T138 492Q112 492 92 510T71 564Q71 590 86 626T133 707T221 804L265 766Q228 714 212 685T196 639Q196 625 204 610T212 572ZM403 572Q403 535 381 514T329 492Q303 492 283 510T262
564Q262 590 277 626T324 707T412 804L456 766Q419 714 403 685T387 639Q387 625 395 610T403 572Z" />
<glyph unicode="&#x201d;" horiz-adv-x="406" d="M312 711Q312 748 335 769T386 790Q412 790 432 772T453 718Q453 693 438 657T390 576T303 479L258 517Q295 569 311 598T327 643Q327 658 320 673T312 711ZM121 711Q121 748 144 769T195 790Q221 790 241 772T262
718Q262 693 247 657T199 576T112 479L67 517Q104 569 120 598T136 643Q136 658 129 673T121 711Z" />
<glyph unicode="&#x201e;" horiz-adv-x="406" d="M208 54Q208 91 231 112T282 133Q308 133 328 115T349 61Q349 36 334 0T286 -81T199 -178L154 -140Q191 -88 207 -59T223 -14Q223 1 216 16T208 54ZM17 54Q17 91 40 112T91 133Q117 133 137 115T158 61Q158 36
143 0T95 -81T8 -178L-37 -140Q0 -88 16 -59T32 -14Q32 1 25 16T17 54Z" />
<glyph unicode="&#x2022;" horiz-adv-x="419" d="M58 303Q58 353 79 390T137 447T218 467Q264 467 298 447T352 391T372 307Q372 258 351 222T294 166T212 146Q166 146 132 166T78 221T58 303Z" />
<glyph unicode="&#x2039;" horiz-adv-x="296" d="M165 46L36 234L45 305L232 493L291 443L132 243L139 298L235 99L165 46Z" />
<glyph unicode="&#x203a;" horiz-adv-x="297" d="M132 493L261 305L252 234L65 46L6 96L165 296L158 241L62 440L132 493Z" />
</font>
</defs>
</svg>
