<?xml version="1.0" standalone="no"?>
<!DOCTYPE svg PUBLIC "-//W3C//DTD SVG 1.1//EN" "http://www.w3.org/Graphics/SVG/1.1/DTD/svg11.dtd">
<svg xmlns="http://www.w3.org/2000/svg">
<defs >
<font id="Bitter" horiz-adv-x="587" ><font-face
    font-family="Bitter Thin"
    units-per-em="1000"
    panose-1="0 0 0 0 0 0 0 0 0 0"
    ascent="935"
    descent="-265"
    alphabetic="0" />
<glyph unicode=" " horiz-adv-x="180" />
<glyph unicode="!" horiz-adv-x="321" d="M109 240L87 704H235L213 247L109 240ZM81 66Q81 101 105 122T161 144Q198 144 219 123T240 66Q240 31 217 10T161 -12Q124 -12 103 9T81 66Z" />
<glyph unicode="&quot;" horiz-adv-x="434" d="M84 503L63 774H188L168 503H84ZM267 503L246 774H371L351 503H267Z" />
<glyph unicode="#" horiz-adv-x="672" d="M73 533H638V447H73V533ZM35 263H600V177H35V263ZM203 704H316L217 0H104L203 704ZM455 704H568L469 0H356L455 704Z" />
<glyph unicode="$" horiz-adv-x="607" d="M262 -131V25L301 2Q295 2 289 2T276 1Q232 1 174 11T62 43L64 233H150L167 132Q195 119 225 113T285 107Q322 107 351 117T398 147T416 198Q416 230 397 249T347 281T277 303T202 327T133 360T82 414T63 499Q63 566 95
610T184 678T309 702L262 675V830H359V676L320 702H330Q358 702 395 696T469 679T533 658L523 484H438L419 580Q397 588 373 592T323 597Q291 597 263 589T218 563T201 515Q201 486 220 468T271 437T341 414T417 390T486 355T537 300T556 215Q556 148 524 103T436
32T312 2L359 32V-131H262Z" />
<glyph unicode="%" horiz-adv-x="868" d="M139 -13L613 715H727L254 -13H139ZM214 348Q131 348 86 398T40 530Q40 613 86 664T221 716Q309 716 351 667T393 540Q393 454 347 401T214 348ZM216 424Q257 424 273 452T289 534Q290 587 275 613T219 640Q178 640 161
612T144 530Q144 479 160 452T216 424ZM649 -12Q566 -12 521 38T475 170Q475 253 521 304T656 356Q743 356 785 307T828 180Q828 94 782 41T649 -12ZM651 64Q692 64 708 92T724 174Q724 227 709 253T654 279Q612 279 595 252T578 169Q578 119 594 92T651 64Z" />
<glyph unicode="&amp;" horiz-adv-x="672" d="M307 -12Q236 -12 179 10T90 76T57 189Q57 237 77 277T141 344T249 380L253 364Q166 373 121 418T75 530Q75 596 109 637T200 697T323 716Q376 716 431 706T538 676L529 518H441L422 610L448 592Q418 601 391 606T335
611Q283 611 252 589T220 517Q220 470 255 445T345 420H646V345L563 321L577 346V225Q577 149 544 96T450 16T307 -12ZM323 98Q376 98 407 128T439 216V337L464 318H332Q289 318 260 304T217 265T203 209Q203 157 236 128T323 98Z" />
<glyph unicode="&apos;" horiz-adv-x="251" d="M84 503L63 774H188L168 503H84Z" />
<glyph unicode="(" horiz-adv-x="316" d="M311 835Q239 731 202 612T165 374Q165 257 202 138T311 -87L222 -140Q125 -25 78 108T31 374Q31 506 78 640T222 888L311 835Z" />
<glyph unicode=")" horiz-adv-x="316" d="M4 -86Q78 18 114 137T151 375Q151 492 115 611T4 835L94 889Q191 774 237 641T284 375Q284 242 238 109T94 -140L4 -86Z" />
<glyph unicode="*" horiz-adv-x="456" d="M295 429L227 541L236 581L278 577L361 478L295 429ZM162 428L93 477L177 578L217 581L227 541L162 428ZM177 578L51 602L78 682L195 638L212 598L177 578ZM226 611L195 638L183 759L267 761L259 637L226 611ZM278 577L244
601L259 637L373 685L401 603L278 577Z" />
<glyph unicode="+" horiz-adv-x="546" d="M243 400L220 377V593H326V377L303 400H511V300H303L326 323V107H220V323L243 300H35V400H243Z" />
<glyph unicode="," horiz-adv-x="251" d="M37 -141Q69 -92 80 -65T91 -25Q91 -10 82 2T64 29T55 68Q55 106 80 126T136 146Q155 146 173 137T202 109T214 60Q214 19 186 -41T88 -176L37 -141Z" />
<glyph unicode="-" horiz-adv-x="446" d="M380 346V240H66V346H380Z" />
<glyph unicode="." horiz-adv-x="233" d="M37 68Q37 103 60 124T116 146Q153 146 174 125T196 68Q196 33 172 12T116 -10Q80 -10 59 11T37 68Z" />
<glyph unicode="/" horiz-adv-x="339" d="M348 808L89 -85H-9L249 808H348Z" />
<glyph unicode="0" horiz-adv-x="635" d="M313 -12Q219 -12 160 28T74 147T46 346Q46 468 74 550T164 674T326 716Q425 716 482 677T563 560T588 364Q588 241 559 157T470 31T313 -12ZM316 97Q363 97 389 125T427 211T439 358Q440 446 429 501T392 581T321 607Q273
607 245 579T206 494T194 350Q194 264 205 208T244 125T316 97Z" />
<glyph unicode="1" horiz-adv-x="432" d="M323 64L296 101L427 72V0H52V72L208 99L180 64V586L219 584L53 492L7 579L204 708H323V64Z" />
<glyph unicode="2" horiz-adv-x="563" d="M35 0V120Q149 214 221 281T329 401T364 507Q364 559 331 584T247 609Q223 609 195 604T137 588L153 612L135 499H50L39 678Q101 697 160 706T271 716Q342 716 397 697T483 636T514 527Q514 454 477 387T370 250T200 96V112H529V0H35Z"
/>
<glyph unicode="3" horiz-adv-x="576" d="M253 -12Q194 -12 136 2T26 44L63 144Q108 123 155 111T247 99Q287 99 318 110T368 146T387 209Q387 242 372 265T326 301T247 314H159V415H242Q307 415 340 440T374 515Q374 568 340 590T253 613Q222 613 192 607T133
591L152 610L139 506H54L46 675Q106 695 166 705T283 716Q350 716 403 699T488 643T519 539Q519 462 473 419T342 365L337 377Q437 370 484 326T532 204Q532 148 510 108T449 40T360 1T253 -12Z" />
<glyph unicode="4" horiz-adv-x="609" d="M351 184L387 155H23L8 254L326 717L494 704V239L459 265H598V155H459L494 184V0H351V184ZM389 265L354 239V636L402 628L120 214L93 265H389Z" />
<glyph unicode="5" horiz-adv-x="547" d="M254 -11Q145 -11 28 42L67 142Q109 123 152 112T232 101Q271 101 301 114T347 154T364 218Q364 265 338 288T262 320T141 329H70L84 704H483L481 594H185L225 619L214 403L177 433H237Q337 433 398 408T486 337T514 226Q514
148 481 96T388 16T254 -11Z" />
<glyph unicode="6" horiz-adv-x="591" d="M169 284L163 378Q206 403 253 418T351 434Q410 434 458 411T536 341T565 225Q565 150 531 97T439 16T307 -12Q231 -12 171 21T75 124T39 309Q39 436 83 527T206 667T389 716Q448 716 512 699L502 596Q476 602 452 604T408
606Q329 606 281 572T209 470T186 305Q186 199 215 149T307 98Q358 98 387 129T417 219Q417 258 403 283T363 321T305 334Q272 334 237 322T169 284Z" />
<glyph unicode="7" horiz-adv-x="538" d="M525 603L266 0H107L377 612L397 591H99L130 612L105 492H19V704H525V603Z" />
<glyph unicode="8" horiz-adv-x="602" d="M289 -12Q241 -12 197 0T116 36T60 96T39 179Q39 216 52 248T91 304T149 345T220 370L303 329Q279 323 257 312T217 284T188 247T177 199Q177 166 192 142T235 104T298 90Q335 90 363 104T406 142T422 196Q422 231 403
253T351 291T279 320T202 348T131 386T79 440T59 521Q59 587 94 630T187 694T309 716Q371 716 425 696T512 636T545 534Q545 499 533 471T497 423T444 389T378 366L277 410Q306 413 329 422T371 445T398 479T408 523Q408 553 394 573T356 604T303 615Q275 615 251
605T212 576T197 527Q197 494 217 473T269 436T340 408T418 380T489 342T541 286T561 203Q561 150 538 110T476 43T389 2T289 -12Z" />
<glyph unicode="9" horiz-adv-x="591" d="M421 421L428 326Q386 301 338 285T239 269Q177 269 129 293T54 365T26 477Q26 553 59 606T151 687T284 716Q360 716 420 684T516 580T552 394Q552 270 509 179T387 38T201 -12Q143 -12 79 5L89 107Q115 102 139 100T182
97Q262 97 311 131T382 233T405 399Q405 504 376 555T284 606Q233 606 204 575T174 486Q174 446 188 420T228 381T285 368Q319 368 354 381T421 421Z" />
<glyph unicode=":" horiz-adv-x="233" d="M37 68Q37 103 60 124T116 146Q153 146 174 125T196 68Q196 33 172 12T116 -10Q80 -10 59 11T37 68ZM37 403Q37 438 60 459T116 481Q153 481 174 460T196 403Q196 368 172 347T116 325Q80 325 59 346T37 403Z" />
<glyph unicode=";" horiz-adv-x="251" d="M37 -141Q69 -92 80 -65T91 -25Q91 -10 82 2T64 29T55 68Q55 106 80 126T136 146Q155 146 173 137T202 109T214 60Q214 19 186 -41T88 -176L37 -141ZM55 403Q55 438 78 459T134 481Q171 481 192 460T214 403Q214 368 190
347T134 325Q98 325 77 346T55 403Z" />
<glyph unicode="&lt;" horiz-adv-x="545" d="M457 112L37 303V406L457 604L494 507L143 343V370L495 213L457 112Z" />
<glyph unicode="=" horiz-adv-x="533" d="M497 496V396H36V496H497ZM497 551V451H36V551H497Z" />
<glyph unicode="&gt;" horiz-adv-x="541" d="M90 582L504 412V309L89 133L54 227L399 371V345L53 476L90 582Z" />
<glyph unicode="?" horiz-adv-x="448" d="M118 244Q115 260 113 276T111 305Q111 344 127 370T169 416T218 454T259 494T276 544Q276 579 251 595T186 612Q157 612 123 605T54 585L24 676Q126 718 226 718Q280 718 324 703T394 656T420 569Q420 520 401 487T352
429T294 383T245 337T225 278Q225 273 225 265T227 250L118 244ZM104 65Q104 101 128 122T186 144Q221 144 242 123T264 67Q264 31 240 10T182 -12Q148 -12 126 9T104 65Z" />
<glyph unicode="@" horiz-adv-x="868" d="M394 -112Q294 -112 216 -68T93 61T48 263Q48 361 79 435T164 559T292 635T447 660Q529 660 598 636T719 565T799 451T828 297Q828 183 777 123T634 63Q581 63 548 85T501 155H521Q497 112 458 88T376 63Q344 63 317 77T274
120T257 188Q257 244 292 276T404 308H510L496 291V348Q496 380 475 393T420 406Q394 406 363 400T301 383L284 453Q327 470 369 478T449 487Q517 487 560 454T604 344V187Q604 159 615 148T648 136Q685 136 701 176T718 276Q718 373 685 439T591 539T443 573Q357
573 293 538T193 435T158 265Q158 174 188 109T274 9T407 -26Q441 -26 479 -19T556 2L585 -74Q537 -93 488 -102T394 -112ZM419 142Q442 142 465 157T506 199L496 167V271L510 254H437Q401 254 386 240T371 199Q371 171 384 157T419 142Z" />
<glyph unicode="A" horiz-adv-x="713" d="M661 67L624 100L710 72V0H423V72L510 97L496 77L456 207L478 189H214L231 206L188 79L184 94L264 72V0H3V72L86 98L54 70L290 702L437 706L661 67ZM250 269L240 288H455L441 266L337 627H370L250 269Z" />
<glyph unicode="B" horiz-adv-x="647" d="M368 350L377 364Q447 363 498 347T577 294T605 196Q605 134 575 90T484 23T335 0H36V72L129 99L110 70V630L133 600L36 627V699L247 704H350Q423 704 474 686T552 629T579 530Q579 448 527 404T368 350ZM322 603H231L253
625V388L231 408H300Q338 408 368 417T417 448T435 510Q435 547 420 567T380 595T322 603ZM322 102Q361 102 392 111T441 143T459 206Q459 245 443 267T402 299T347 308H231L253 333V79L231 102H322Z" />
<glyph unicode="C" horiz-adv-x="632" d="M341 -12Q259 -12 191 28T82 149T41 348Q41 464 81 546T194 672T365 716Q417 716 472 703T590 664L581 484H496L472 601L496 578Q461 592 429 599T370 606Q313 606 274 578T215 495T195 366Q195 278 218 220T283 133T377
104Q416 104 459 120T547 171L600 88Q538 38 472 13T341 -12Z" />
<glyph unicode="D" horiz-adv-x="712" d="M351 704Q424 704 483 683T585 619T649 513T672 364Q672 245 630 164T511 42T330 0H36V72L129 99L110 70V630L131 601L36 627V699L263 704H351ZM337 103Q369 103 401 112T459 148T502 224T518 356Q518 435 503 483T463
557T408 592T347 601H231L253 623V81L231 103H337Z" />
<glyph unicode="E" horiz-adv-x="609" d="M474 188H559L557 0H36V72L129 99L110 70V630L128 602L36 627V699L250 704H546V524H461L441 621L468 601H231L253 623V386L231 408H468V309H231L253 334V81L231 103H480L453 81L474 188Z" />
<glyph unicode="F" horiz-adv-x="562" d="M36 0V72L125 98L110 77V630L130 601L36 627V699L250 704H541V522H456L437 616L463 601H231L253 623V384L231 404H464V301H231L253 324V77L235 98L344 72V0H36Z" />
<glyph unicode="G" horiz-adv-x="716" d="M369 -12Q271 -12 197 29T83 150T42 348Q42 464 82 546T199 672T382 716Q440 716 502 703T629 663L619 484H534L510 600L532 580Q497 592 461 599T393 607Q331 607 287 578T220 492T196 350Q196 232 244 165T386 98Q414
98 445 104T509 123L492 93V283L515 258L419 277V351L697 356V281L611 258L625 283V44Q556 16 491 2T369 -12Z" />
<glyph unicode="H" horiz-adv-x="787" d="M36 0V72L129 99L110 70V630L133 600L36 627V699L326 704V632L231 600L253 631V388L231 410H557L535 388V630L557 601L461 627V699L751 704V632L658 601L678 631V70L658 99L751 72V0H461V72L553 99L535 70V330L557 307H231L253
330V70L235 99L326 72V0H36Z" />
<glyph unicode="I" horiz-adv-x="362" d="M326 632L238 602L253 624V77L238 98L326 72V0H36V72L123 97L110 77V624L128 602L36 627V699L326 704V632Z" />
<glyph unicode="J" horiz-adv-x="342" d="M20 699L316 704V634L227 601L243 630V106Q243 43 233 -7T199 -92T135 -146T32 -165Q14 -165 -4 -164T-44 -159L-32 -57Q-22 -58 -14 -59T2 -60Q56 -60 78 -27T100 77V630L117 603L20 627V699Z" />
<glyph unicode="K" horiz-adv-x="718" d="M658 68L619 98L705 72V0H421V72L497 98L494 74L323 336L361 308H231L253 337V70L235 101L323 72V0H36V72L125 98L110 70V631L125 604L36 627V699L323 704V634L235 604L253 634V388L231 411H371L334 389L476 629L487 608L403
627V699L673 704V632L584 604L615 628L442 348V385L658 68Z" />
<glyph unicode="L" horiz-adv-x="558" d="M452 212H537V0H36V72L126 98L110 70V630L126 603L36 627V699L333 704V632L238 603L253 630V81L231 103H449L429 80L452 212Z" />
<glyph unicode="M" horiz-adv-x="873" d="M837 632L744 600L764 637V70L744 99L837 72V0H558V72L655 100L632 70V551L653 550L470 183L380 178L204 552H225V70L209 97L299 72V0H36V72L129 99L110 70V637L129 602L36 627V699L285 704L450 321H433L606 699L837 704V632Z" />
<glyph unicode="N" horiz-adv-x="772" d="M483 699L748 704V632L654 601L675 631V0H510L208 553H228V70L207 100L302 72V0H36V72L131 100L110 70V630L124 604L36 627V699L280 704L577 162H556V631L578 602L483 627V699Z" />
<glyph unicode="O" horiz-adv-x="732" d="M352 -12Q257 -12 188 28T80 148T42 343Q42 436 66 506T134 622T238 692T373 716Q446 716 504 693T604 626T669 517T692 365Q692 248 650 164T531 34T352 -12ZM363 98Q413 98 452 122T514 204T538 359Q538 449 517 503T457
582T367 606Q317 606 278 582T218 502T196 348Q196 258 216 204T273 124T363 98Z" />
<glyph unicode="P" horiz-adv-x="610" d="M303 249H224L253 271V70L233 98L348 72V0H36V72L132 100L110 70V632L135 601L36 627V699L256 704H347Q430 704 483 676T561 598T587 487Q587 420 557 366T464 280T303 249ZM324 602H231L253 624V330L224 352H304Q371
352 406 388T441 484Q441 539 412 570T324 602Z" />
<glyph unicode="Q" horiz-adv-x="738" d="M662 -193Q625 -193 582 -173T476 -111T319 -1L352 -12Q257 -11 187 30T80 149T42 344Q42 436 66 505T134 622T240 692T376 716Q449 716 508 693T610 626T674 517T697 366Q697 266 666 190T579 66T447 0L451 17Q508 -17
546 -38T612 -70T664 -80Q689 -80 714 -71T771 -42L822 -129Q771 -160 735 -176T662 -193ZM196 348Q196 259 216 204T274 124T365 98Q421 98 461 124T522 209T543 360Q543 447 523 501T464 581T369 606Q315 606 276 580T217 497T196 348Z" />
<glyph unicode="R" horiz-adv-x="667" d="M36 0V72L128 98L110 70V630L135 600L36 627V699L259 704H356Q476 704 537 654T598 510Q598 426 547 371T385 304L386 320Q425 319 450 308T491 278T522 231L602 77L561 102L653 72V0H489L399 193Q381 231 368 251T336
279T281 286H229L253 306V70L234 99L335 72V0H36ZM253 350L229 385H312Q382 385 417 414T452 500Q452 548 424 575T338 602H229L253 624V350Z" />
<glyph unicode="S" horiz-adv-x="601" d="M195 527Q195 498 215 479T267 447T338 421T415 393T485 354T537 294T557 204Q557 130 519 82T416 11T274 -13Q221 -13 166 -3T56 29L61 219H144L165 98L152 122Q182 108 215 101T281 93Q318 93 349 103T398 134T416 186Q416
217 397 237T346 270T275 295T199 322T128 360T76 418T57 508Q57 579 91 624T183 693T314 716Q366 716 422 705T534 672L523 497H438L417 606L433 590Q408 600 380 605T322 611Q288 611 259 603T213 576T195 527Z" />
<glyph unicode="T" horiz-adv-x="612" d="M149 0V72L260 100L234 64V623L263 601H100L132 629L105 502H20V704H592V502H507L482 623L512 601H349L378 623V64L353 100L463 72V0H149Z" />
<glyph unicode="U" horiz-adv-x="742" d="M434 699L724 704V632L635 602L651 638V275Q651 224 642 181T611 102T557 41T477 2T367 -12Q284 -12 232 8T151 61T110 131T95 203T92 262V637L108 603L18 627V699L308 704V632L221 602L235 637V262Q235 236 237 212T247
167T268 131T307 107T369 98Q407 98 432 107T472 132T495 171T505 219T508 275V638L521 605L434 627V699Z" />
<glyph unicode="V" horiz-adv-x="709" d="M274 -1L62 627L95 602L4 627V699L300 704V632L202 604L219 639L372 124H352L519 631L530 603L439 627V699L706 704V632L616 605L649 630L426 -1H274Z" />
<glyph unicode="W" horiz-adv-x="1021" d="M755 699L1018 704V632L927 606L960 643L779 -1H644L494 531H520L364 -1H230L64 631L78 608L4 627V699L280 704V632L193 604L210 631L323 128L294 129L451 700L583 704L735 131L706 130L834 631L846 605L755 627V699Z" />
<glyph unicode="X" horiz-adv-x="711" d="M654 68L612 98L694 72V0H399V72L482 96L485 74L323 300L357 301L193 68L186 99L273 72V0H18V72L100 99L61 66L287 371L286 334L74 630L107 608L30 627V699L319 704V632L241 608L246 626L392 416L360 423L504 626L511
605L430 627V699L681 704V632L600 600L635 630L424 345L428 381L654 68Z" />
<glyph unicode="Y" horiz-adv-x="648" d="M173 0V72L269 100L250 70V277L262 228L55 625L81 603L2 627V699L281 704V632L192 608L203 633L347 328H320L466 627L477 602L385 627V699L645 704V632L565 608L593 629L382 228L393 277V70L373 100L469 72V0H173Z" />
<glyph unicode="Z" horiz-adv-x="623" d="M34 0V95L421 616L436 599H132L165 615L142 502H57V704H577V609L191 83L186 105H505L475 84L495 202H581L580 0H34Z" />
<glyph unicode="[" horiz-adv-x="348" d="M85 -110V861L338 856V770L205 763V-12L338 -20V-105L85 -110Z" />
<glyph unicode="\" horiz-adv-x="351" d="M-4 808H97L355 -85H256L-4 808Z" />
<glyph unicode="]" horiz-adv-x="348" d="M263 861V-110L10 -105V-20L143 -12V763L10 770V856L263 861Z" />
<glyph unicode="^" horiz-adv-x="544" d="M29 534L221 881H322L515 534H386L237 829H304L154 534H29Z" />
<glyph unicode="_" horiz-adv-x="491" d="M492 -61V-150H-1V-61H492Z" />
<glyph unicode="`" horiz-adv-x="346" d="M103 839L311 678L258 606L30 741L103 839Z" />
<glyph unicode="a" horiz-adv-x="561" d="M482 71L463 99L549 72V1L374 -8L355 88L365 85Q325 36 278 12T181 -12Q117 -12 75 29T33 147Q33 204 57 237T129 286T243 301H352L342 290V356Q342 403 320 423T254 443Q233 443 209 439T157 427L171 442L158 361H71L63
507Q131 527 187 536T291 546Q384 546 433 506T482 382V71ZM174 161Q174 124 191 107T236 89Q261 89 291 104T348 147L342 123V237L352 227H266Q214 227 194 211T174 161Z" />
<glyph unicode="b" horiz-adv-x="589" d="M249 -12Q210 -12 165 -7T68 8V710L90 672L1 698V770L208 778V448L191 469Q227 505 270 525T361 546Q419 546 463 516T532 425T558 277Q558 214 543 162T492 70T397 10T249 -12ZM274 88Q346 88 379 135T412 266Q412 321
399 360T363 421T306 443Q280 443 251 429T191 386L208 429V66L191 100Q238 88 274 88Z" />
<glyph unicode="c" horiz-adv-x="516" d="M273 -12Q204 -12 149 20T61 114T29 262Q29 341 52 395T114 482T201 531T300 546Q348 546 397 534T477 507L473 360H383L368 442L379 434Q364 440 343 443T303 446Q260 446 232 425T189 364T175 270Q175 212 191 172T236
112T305 91Q336 91 373 104T450 143L497 72Q441 29 385 9T273 -12Z" />
<glyph unicode="d" horiz-adv-x="604" d="M230 -12Q172 -12 128 18T58 109T32 255Q32 403 107 474T318 546Q340 546 362 544T408 537L382 521V686L392 672L310 699V770L522 778V78L505 98L589 72V1L413 -7L395 79L409 74Q365 31 322 10T230 -12ZM284 91Q310 91
339 105T399 148L382 106V465L399 433Q352 446 314 446Q243 446 211 399T178 268Q178 214 191 174T227 113T284 91Z" />
<glyph unicode="e" horiz-adv-x="549" d="M275 -12Q202 -12 147 18T62 109T31 257Q31 347 63 411T155 511T294 546Q372 546 421 515T493 431T516 310Q516 293 515 276T510 240H144V323H390L372 310Q373 350 365 380T337 428T283 445Q244 445 220 423T186 362T175
277Q175 224 188 182T230 116T308 92Q342 92 381 104T464 142L511 67Q453 27 393 8T275 -12Z" />
<glyph unicode="f" horiz-adv-x="374" d="M31 0V72L111 95L98 80V451L111 436H28V511L114 533L98 512V576Q98 683 155 734T308 786Q336 786 365 781T429 767L409 674Q390 680 370 683T332 687Q291 687 265 665T238 588V512L220 529H363L360 436H224L238 451V80L225
95L318 72V0H31Z" />
<glyph unicode="g" horiz-adv-x="574" d="M260 -242Q135 -242 74 -209T13 -111Q13 -61 47 -28T149 28L147 0Q109 3 85 20T61 65Q61 74 64 84T75 109T97 148T132 206L134 183Q84 206 58 248T32 348Q32 441 95 493T272 546Q353 546 410 518L378 524L545 530V455L466
439L475 454Q490 436 498 412T506 357Q506 264 441 211T266 157Q214 157 166 171L189 185L173 78L152 88H352Q453 88 505 49T557 -65Q557 -151 483 -196T260 -242ZM272 -144Q352 -144 387 -127T423 -77Q423 -45 399 -30T330 -15H156L189 -8Q135 -42 135 -85Q135
-114 168 -129T272 -144ZM266 251Q315 251 341 277T367 354Q367 405 343 428T271 452Q222 452 197 427T172 352Q172 303 196 277T266 251Z" />
<glyph unicode="h" horiz-adv-x="630" d="M16 0V72L99 96L82 76V696L99 674L16 698V770L222 778V443L191 450Q239 499 293 522T396 546Q441 546 477 527T533 471T553 376V76L540 96L620 72V0H353V72L430 94L413 73V346Q414 394 392 417T335 440Q308 440 276 425T212
380L222 401V73L209 94L282 72V0H16Z" />
<glyph unicode="i" horiz-adv-x="318" d="M236 82L226 94L303 72V0H29V72L106 94L96 82V447L105 438L29 459V531L236 538V82ZM162 616Q125 616 103 637T80 697Q80 739 103 759T163 780Q198 780 221 760T244 698Q244 657 221 637T162 616Z" />
<glyph unicode="j" horiz-adv-x="291" d="M7 -242Q-9 -242 -25 -240T-59 -235L-49 -136Q-38 -137 -28 -138T-9 -139Q40 -139 61 -117T83 -41V452L96 436L16 459V531L223 538V1Q223 -65 208 -111T164 -186T96 -228T7 -242ZM144 616Q107 616 85 637T62 697Q62 739
85 759T145 780Q180 780 203 760T226 698Q226 657 203 637T144 616Z" />
<glyph unicode="k" horiz-adv-x="594" d="M16 0V72L99 96L82 70V692L93 676L16 698V770L222 778V318L199 339H327L293 323L383 460L393 445L323 459V530L567 538V467L483 448L521 469L398 287L400 323L532 74L511 92L587 71V0H425L298 255L318 246H199L222 255V70L208
97L286 72V0H16Z" />
<glyph unicode="l" horiz-adv-x="305" d="M222 82L212 94L289 72V0H16V72L93 94L82 82V687L91 677L16 698V770L222 778V82Z" />
<glyph unicode="m" horiz-adv-x="954" d="M544 453L524 448Q572 497 626 521T729 546Q792 546 834 505T877 377V76L864 96L944 72V0H681V72L754 94L737 73V346Q737 394 718 417T667 440Q641 440 609 424T545 377L555 408Q557 400 557 394T557 382V76L544 96L614
72V0H360V72L433 94L417 73V346Q417 394 397 417T347 440Q321 440 289 425T227 380L236 401V73L223 94L293 72V0H29V72L113 96L96 76V457L113 434L29 459V531L205 539L223 443L205 450Q252 497 305 521T408 546Q454 546 490 524T544 453Z" />
<glyph unicode="n" horiz-adv-x="644" d="M29 0V72L113 96L96 76V457L113 434L29 459V531L205 539L223 443L205 450Q253 499 307 522T410 546Q478 546 523 504T567 375V76L554 96L634 72V0H367V72L443 94L427 73V345Q427 394 406 417T349 440Q322 440 290 425T227
380L236 401V73L223 94L296 72V0H29Z" />
<glyph unicode="o" horiz-adv-x="577" d="M296 546Q414 546 480 476T546 277Q546 187 514 123T422 23T278 -12Q160 -12 96 58T31 257Q31 347 62 411T153 511T296 546ZM289 446Q232 446 204 402T176 264Q176 171 203 130T285 88Q325 88 350 108T388 169T401 270Q401
361 373 403T289 446Z" />
<glyph unicode="p" horiz-adv-x="608" d="M20 -230V-158L105 -130L87 -154V453L103 434L20 459V531L196 539L212 452L196 460Q243 502 287 524T380 546Q438 546 482 516T551 426T577 280Q577 183 544 118T452 21T313 -12Q289 -12 263 -9T209 1L227 17V-154L212
-133L305 -158V-230H20ZM295 87Q366 87 398 135T431 266Q431 321 418 360T382 421T325 443Q299 443 270 429T210 386L227 423V74L210 101Q257 87 295 87Z" />
<glyph unicode="q" horiz-adv-x="590" d="M300 -230V-155L397 -128L382 -152V66L409 74Q365 31 322 10T230 -12Q172 -12 128 18T58 109T32 255Q32 362 69 426T174 518T330 546Q374 546 422 540T522 524V-152L506 -128L589 -155V-230H300ZM284 91Q310 91 339 105T399
148L382 106V466L399 433Q352 446 314 446Q243 446 211 399T178 268Q178 214 191 174T227 113T284 91Z" />
<glyph unicode="r" horiz-adv-x="470" d="M29 0V72L110 95L96 74V458L112 434L29 459V531L205 539L223 444L205 448Q250 495 294 520T388 546Q420 546 456 536L447 351H366L351 459L364 432Q358 434 352 435T339 436Q308 436 278 417T225 368L236 406V74L220 95L319
72V0H29Z" />
<glyph unicode="s" horiz-adv-x="493" d="M183 399Q183 376 203 362T254 338T321 317T388 289T440 242T460 167Q460 108 428 68T341 8T217 -12Q177 -12 133 -5T41 14L47 165H135L146 77L134 94Q154 88 178 85T220 81Q246 81 268 88T305 108T320 143Q320 167 300
181T249 205T183 226T117 255T65 303T45 381Q45 439 74 475T151 529T258 546Q299 546 345 539T439 517L434 383H345L329 462L348 441Q301 454 265 454Q228 454 206 440T183 399Z" />
<glyph unicode="t" horiz-adv-x="395" d="M224 -12Q155 -12 120 29T84 153V459L102 441H6V516L104 539L84 515V651L225 676V515L210 534H362L360 441H210L225 459V172Q225 129 239 110T281 91Q297 91 316 96T359 111L385 34Q301 -12 224 -12Z" />
<glyph unicode="u" horiz-adv-x="631" d="M233 -12Q166 -12 121 31T76 163V455L89 435L10 459V531L216 538V186Q216 139 237 117T293 94Q320 94 352 108T417 154L407 129V458L420 435L341 459V531L547 538V74L530 98L614 72V1L438 -7L419 91L439 84Q389 36 336
12T233 -12Z" />
<glyph unicode="v" horiz-adv-x="544" d="M322 530L548 538V467L491 442L510 463L345 -2H181L36 458L56 442L-4 458V530L241 538V467L168 445L178 463L280 87H269L382 455L390 444L322 458V530Z" />
<glyph unicode="w" horiz-adv-x="832" d="M623 530L836 538V467L774 447L792 462L665 -2H514L406 428L433 427L311 -2H160L42 456L57 443L-4 458V530L232 538V467L159 447L174 458L258 82H235L354 531L497 539L607 77H586L678 455L691 442L623 458V530Z" />
<glyph unicode="x" horiz-adv-x="569" d="M10 0V71L93 90L59 71L216 288L248 291L409 530L546 538V467L461 445L501 467L349 262L319 260L148 0H10ZM292 0V72L357 84L349 65L224 242L63 466L91 442L22 458V530L270 538V467L203 452L213 473L322 315L501 72L477
91L557 72V0H292Z" />
<glyph unicode="y" horiz-adv-x="556" d="M8 -235L21 -136Q37 -138 50 -139T76 -140Q120 -140 147 -123T195 -69T236 26L231 -21L39 456L52 444L-6 458V530L243 538V467L173 448L180 460L307 86L273 93L386 458L393 444L324 458V530L560 538V467L497 447L516 459L351
2Q330 -56 306 -101T252 -177T181 -225T86 -242Q51 -242 8 -235Z" />
<glyph unicode="z" horiz-adv-x="504" d="M470 172L471 0H34V82L325 467L343 440H100L138 470L124 373H39L38 534H459V452L166 56L161 94H394L358 56L385 172H470Z" />
<glyph unicode="{" horiz-adv-x="361" d="M279 -110Q189 -110 148 -65T107 73V223Q107 271 89 300T17 329V422Q72 422 89 451T107 528V677Q107 770 148 815T279 861H342V775Q296 775 272 766T240 734T231 669V514Q231 460 210 428T153 382T69 368V383Q117 383
153 369T210 323T231 237V82Q231 40 239 17T272 -15T342 -25V-110H279Z" />
<glyph unicode="|" horiz-adv-x="312" d="M103 811H209V-107H103V811Z" />
<glyph unicode="}" horiz-adv-x="361" d="M82 -110Q172 -110 213 -65T254 73V223Q254 271 273 300T345 329V422Q290 422 272 451T254 528V677Q254 770 213 815T82 861H19V775Q65 775 89 766T122 734T131 669V514Q131 460 151 428T208 382T292 368V383Q245 383
209 369T152 323T131 237V82Q131 40 122 17T89 -15T19 -25V-110H82Z" />
<glyph unicode="~" horiz-adv-x="589" d="M398 272Q369 272 342 282T288 305T238 329T189 339Q167 339 146 328T100 287L43 324Q76 388 113 414T191 441Q221 441 248 431T302 408T353 384T402 374Q424 374 445 385T490 426L546 388Q512 324 476 298T398 272Z" />
<glyph unicode="&#xa0;" horiz-adv-x="180" />
<glyph unicode="&#xa1;" horiz-adv-x="321" d="M212 274L235 -190H86L109 267L212 274ZM240 448Q240 413 217 392T161 370Q124 370 103 391T81 448Q81 483 105 504T161 526Q198 526 219 505T240 448Z" />
<glyph unicode="&#xa2;" horiz-adv-x="534" d="M490 181Q441 143 392 125T294 102L331 131V-21H239V129L281 102Q211 102 159 132T76 219T46 357Q46 442 77 497T161 581T275 614L239 586V738H331V590L280 614Q317 616 352 612T419 598T470 578L466 444H386L374
512Q358 518 339 520T305 523Q263 523 235 503T194 447T180 363Q180 310 195 273T238 216T306 197Q337 197 373 209T446 248L490 181Z" />
<glyph unicode="&#xa3;" horiz-adv-x="653" d="M54 0V72L158 105L117 73Q141 92 149 124T158 195Q158 230 154 269T144 350L164 325H54V400L151 411L139 389Q136 421 133 453T130 510Q130 589 160 634T243 697T363 716Q410 716 462 708T572 685L561 515H476L456
620L469 600Q444 606 420 609T376 613Q328 613 301 591T274 511Q274 490 277 457T283 393L259 411H447V325H267L288 356Q292 326 295 298T298 241Q298 196 286 158T238 89L222 104L492 103L472 79L495 201H580V0H54Z" />
<glyph unicode="&#xa4;" horiz-adv-x="655" d="M594 119L526 47L419 147L471 149Q444 125 408 111T325 97Q279 97 242 111T180 152L237 155L124 48L63 114L173 217L171 160Q147 186 134 220T121 293Q121 332 134 367T172 431L163 383L58 481L127 554L236 451L188
445Q216 468 252 481T333 494Q378 494 412 482T470 449L423 452L529 551L589 486L483 386L480 441Q507 413 521 377T535 301Q535 263 522 228T484 164L482 222L594 119ZM327 181Q360 181 380 195T411 236T421 296Q422 349 400 379T330 410Q298 410 277 396T245
355T235 293Q235 243 257 212T327 181Z" />
<glyph unicode="&#xa5;" horiz-adv-x="695" d="M113 291V357H243L233 334L80 625L106 603L31 627V699L306 704V632L217 608L225 633L369 332H345L491 627L502 602L410 627V699L666 704V632L590 608L618 629L461 331L449 357H580V291H113ZM201 0V72L294 100L275
70V193L297 171H113V237H580V171H391L418 195V70L398 100L491 72V0H201Z" />
<glyph unicode="&#xa6;" horiz-adv-x="312" d="M103 436V811H209V436H103ZM103 -107V268H209V-107H103Z" />
<glyph unicode="&#xa7;" horiz-adv-x="550" d="M243 -182Q204 -182 162 -176T75 -157L82 -14H167L179 -99L167 -80Q185 -87 204 -90T242 -94Q282 -94 309 -76T337 -22Q337 8 318 30T266 71T199 109T133 152T81 207T61 283Q61 333 86 365T154 414T248 437L264 398Q247
395 228 381T195 345T182 298Q182 268 202 246T256 204T325 164T394 120T447 62T468 -18Q468 -72 439 -108T358 -163T243 -182ZM290 99L284 139Q302 144 322 159T356 196T370 242Q370 273 350 295T297 337T229 376T160 421T108 480T87 561Q87 637 144 676T293 715Q332
715 376 708T466 687L460 560H374L358 637L377 615Q358 621 340 624T302 627Q264 627 240 611T215 562Q215 532 235 510T287 469T354 431T421 389T473 335T494 259Q494 211 466 177T392 124T290 99Z" />
<glyph unicode="&#xa8;" horiz-adv-x="466" d="M342 624Q309 624 291 643T273 698Q272 733 292 753T342 773Q375 773 394 753T413 698Q413 663 393 644T342 624ZM122 624Q90 624 72 643T53 698Q52 733 72 753T122 773Q155 773 174 753T193 698Q193 663 172 644T122 624Z" />
<glyph unicode="&#xa9;" horiz-adv-x="859" d="M424 151Q346 151 296 202T245 348Q245 415 271 460T341 529T439 553Q505 553 572 521L569 417H504L494 475L500 469Q490 473 475 475T447 478Q399 478 377 444T355 355Q355 290 380 259T447 228Q470 228 497 237T552
266L587 211Q547 180 505 166T424 151ZM417 -12Q339 -12 273 14T159 88T84 201T57 345Q57 425 85 493T163 611T283 688T433 716Q512 716 579 690T696 616T774 503T802 360Q802 280 773 212T691 94T568 16T417 -12ZM424 64Q487 64 539 85T628 146T687 238T708 354Q708
438 672 502T573 603T426 640Q342 640 281 603T185 501T151 352Q151 268 184 204T279 102T424 64Z" />
<glyph unicode="&#xaa;" horiz-adv-x="438" d="M370 372L354 395L419 374V321L287 316L274 384L281 382Q253 348 218 330T143 312Q93 312 62 343T31 428Q31 469 49 493T102 528T187 539H271L264 532V580Q264 612 247 626T197 640Q181 640 163 638T123 629L133
641L122 583H57L50 688Q101 702 145 709T225 716Q297 716 333 687T370 598V372ZM138 440Q138 415 150 401T184 386Q203 386 225 395T268 422L264 409V497L271 489H205Q193 489 181 487T159 481T144 466T138 440ZM34 151V247H419V151H34Z" />
<glyph unicode="&#xab;" horiz-adv-x="536" d="M209 46L46 235V304L210 493L276 443L143 243V297L275 99L209 46ZM428 46L265 235V304L429 493L495 443L362 243V297L494 99L428 46Z" />
<glyph unicode="&#xac;" horiz-adv-x="593" d="M416 113V317L432 300H44V400H530V113H416Z" />
<glyph unicode="&#xad;" horiz-adv-x="433" d="M629 346V240H315V346H629Z" />
<glyph unicode="&#xae;" horiz-adv-x="712" d="M212 302V339L256 354L245 338V579L260 562L212 575V613L328 616H368Q426 616 456 594T487 529Q487 495 462 472T383 442L388 453Q417 452 432 442T458 409L493 339L469 353L512 339V302H430L390 393Q383 411 375
418T356 428T332 430H307L319 442V338L309 354L359 339V302H212ZM319 466L307 478H341Q374 478 391 489T408 524Q408 543 395 553T353 564H307L319 577V466ZM347 158Q261 159 195 196T92 298T54 449Q54 537 93 605T202 712T359 752Q446 752 513 715T620 612T659
461Q659 397 635 342T569 245T470 181T347 158ZM349 218Q418 218 472 249T558 335T590 460Q590 530 560 581T478 662T358 691Q290 691 237 661T153 576T123 450Q123 381 151 329T231 247T349 218Z" />
<glyph unicode="&#xaf;" horiz-adv-x="428" d="M364 758V661H64V758H364Z" />
<glyph unicode="&#xb0;" horiz-adv-x="441" d="M202 421Q129 421 83 463T37 581Q37 629 58 665T116 721T203 741Q276 741 322 699T368 584Q368 509 322 465T202 421ZM202 498Q237 498 255 519T274 583Q275 624 255 644T202 665Q170 665 151 645T130 583Q131 541
149 520T202 498Z" />
<glyph unicode="&#xb1;" horiz-adv-x="580" d="M260 473L237 450V647H343V450L320 473H520V373H320L343 396V200H237V396L260 373H60L59 473H260ZM520 135V35H60V135H520Z" />
<glyph unicode="&#xb2;" horiz-adv-x="368" d="M27 345V427Q89 473 130 512T193 585T215 646Q215 674 201 685T161 697Q129 697 101 685L114 705L105 635H34L26 761Q66 772 105 777T180 783Q246 783 290 756T335 666Q335 630 318 597T273 533T214 476T151 425L149
435H340V345H27Z" />
<glyph unicode="&#xb3;" horiz-adv-x="373" d="M165 336Q127 336 89 344T15 369L49 442Q75 432 102 426T153 419Q184 419 205 432T227 475Q227 499 211 512T157 526H97V599H150Q188 599 205 612T222 652Q222 681 204 693T158 705Q143 705 127 702T93 694L111 710L103
649H32L27 757Q66 770 105 776T182 783Q226 783 261 772T318 737T339 672Q339 623 309 598T231 566L225 571Q287 567 316 541T345 468Q345 423 321 394T255 350T165 336Z" />
<glyph unicode="&#xb4;" horiz-adv-x="348" d="M107 606L58 674L266 836L337 740L107 606Z" />
<glyph unicode="&#xb5;" horiz-adv-x="658" d="M138 111L170 59Q179 28 191 -12T213 -106T223 -230H83V456L96 435L16 459V531L223 537V180Q223 136 243 115T297 94Q325 94 358 109T423 156L414 133V458L427 435L347 459V531L554 537V74L537 98L620 72V1L445 -7L426
91L440 84Q396 37 349 13T261 -12Q215 -12 182 17T138 111Z" />
<glyph unicode="&#xb6;" horiz-adv-x="644" d="M140 -170V-98L232 -71L213 -100V325L236 304Q175 304 129 328T56 397T29 504Q29 564 55 609T129 679T237 704H603V632L510 601L530 631V-170H413V634L435 601H308L330 634V-170H140Z" />
<glyph unicode="&#xb7;" horiz-adv-x="233" d="M37 325Q37 360 60 381T116 403Q153 403 174 382T196 325Q196 290 172 269T116 247Q80 247 59 268T37 325Z" />
<glyph unicode="&#xb8;" horiz-adv-x="322" d="M144 -254Q117 -254 89 -248T35 -229L61 -162Q80 -169 102 -174T143 -179Q164 -179 177 -171T191 -148Q191 -135 177 -126T140 -113T88 -107L94 0H177V-49Q235 -55 263 -80T291 -143Q291 -180 271 -204T217 -241T144 -254Z" />
<glyph unicode="&#xb9;" horiz-adv-x="294" d="M223 403L206 427L289 403V345H34V403L130 423L113 403V679L143 680L34 620L2 688L135 775H223V403Z" />
<glyph unicode="&#xba;" horiz-adv-x="472" d="M226 312Q138 312 88 364T37 506Q37 571 61 618T132 690T243 716Q333 716 384 665T435 524Q435 460 410 412T339 338T226 312ZM54 151V247H419V151H54ZM234 391Q262 391 281 406T309 449T318 519Q318 577 298 606T237
636Q195 636 175 605T154 513Q154 452 174 422T234 391Z" />
<glyph unicode="&#xbb;" horiz-adv-x="536" d="M327 493L490 304V235L326 46L260 96L393 296V242L261 440L327 493ZM108 493L271 304V235L106 46L40 96L174 296V242L42 440L108 493Z" />
<glyph unicode="&#xbc;" horiz-adv-x="897" d="M234 334L217 358L300 334V276H45V334L141 354L124 334V610L154 611L45 551L13 619L146 706H234V334ZM170 -9L587 714H698L281 -9H170ZM702 110L715 88H512L498 168L672 436L815 427V150L789 167H871V88H789L815
110V0H702V110ZM718 167L702 150V372L718 371L569 137L555 167H718Z" />
<glyph unicode="&#xbd;" horiz-adv-x="921" d="M244 334L227 358L310 334V276H55V334L151 354L134 334V610L164 611L55 551L23 619L156 706H244V334ZM179 -9L596 714H707L290 -9H179ZM570 0V82Q632 128 673 167T736 240T758 301Q758 329 744 340T704 352Q672 352
644 340L657 360L648 290H577L569 416Q609 427 648 432T723 438Q789 438 833 411T878 321Q878 285 861 252T816 188T757 131T694 80L692 90H883V0H570Z" />
<glyph unicode="&#xbe;" horiz-adv-x="932" d="M165 267Q127 267 89 275T15 300L49 373Q75 363 102 357T153 350Q184 350 205 363T227 406Q227 430 211 443T157 457H97V530H150Q188 530 205 543T222 583Q222 612 204 624T158 636Q143 636 127 633T93 625L111 641L103
580H32L27 688Q66 701 105 707T182 714Q226 714 261 703T318 668T339 603Q339 554 309 529T231 497L225 502Q287 498 316 472T345 399Q345 354 321 325T255 281T165 267ZM206 -9L623 714H734L317 -9H206ZM737 110L750 88H547L533 168L707 436L850 427V150L824 167H906V88H824L850
110V0H737V110ZM753 167L737 150V372L753 371L604 137L590 167H753Z" />
<glyph unicode="&#xbf;" horiz-adv-x="438" d="M313 290Q317 274 319 258T321 229Q321 190 305 164T264 118T214 80T173 40T156 -10Q156 -45 181 -61T246 -78Q274 -78 309 -70T378 -51L408 -142Q305 -184 206 -184Q152 -184 108 -169T37 -121T11 -35Q11 14 31
47T80 105T138 151T187 197T207 256Q207 261 207 269T205 284L313 290ZM327 469Q327 433 304 412T246 390Q211 390 190 411T168 467Q168 503 192 524T250 546Q284 546 305 525T327 469Z" />
<glyph unicode="&#xc0;" horiz-adv-x="713" d="M661 67L624 100L710 72V0H423V72L510 97L496 77L456 207L478 189H214L231 206L188 79L184 94L264 72V0H3V72L86 98L54 70L290 702L437 706L661 67ZM250 269L240 288H455L441 266L337 627H370L250 269ZM470 753L224
851L279 957L508 829L470 753Z" />
<glyph unicode="&#xc1;" horiz-adv-x="713" d="M661 67L624 100L710 72V0H423V72L510 97L496 77L456 207L478 189H214L231 206L188 79L184 94L264 72V0H3V72L86 98L54 70L290 702L437 706L661 67ZM250 269L240 288H455L441 266L337 627H370L250 269ZM267 753L227
829L457 957L511 851L267 753Z" />
<glyph unicode="&#xc2;" horiz-adv-x="713" d="M661 67L624 100L710 72V0H423V72L510 97L496 77L456 207L478 189H214L231 206L188 79L184 94L264 72V0H3V72L86 98L54 70L290 702L437 706L661 67ZM250 269L240 288H455L441 266L337 627H370L250 269ZM219 749L173
804L318 934L398 941L553 804L506 749L311 868L408 867L219 749Z" />
<glyph unicode="&#xc3;" horiz-adv-x="713" d="M661 67L624 100L710 72V0H423V72L510 97L496 77L456 207L478 189H214L231 206L188 79L184 94L264 72V0H3V72L86 98L54 70L290 702L437 706L661 67ZM250 269L240 288H455L441 266L337 627H370L250 269ZM233 776L175
802Q194 863 220 889T283 916Q310 916 336 906T386 884T430 873Q448 873 462 884T491 919L550 893Q530 832 502 805T435 778Q410 778 384 789T334 810T290 821Q274 821 261 810T233 776Z" />
<glyph unicode="&#xc4;" horiz-adv-x="713" d="M661 67L624 100L710 72V0H423V72L510 97L496 77L456 207L478 189H214L231 206L188 79L184 94L264 72V0H3V72L86 98L54 70L290 702L437 706L661 67ZM250 269L240 288H455L441 266L337 627H370L250 269ZM472 762Q439
762 421 781T403 836Q402 871 422 891T472 911Q505 911 524 891T543 836Q543 801 523 782T472 762ZM252 762Q220 762 202 781T183 836Q182 871 202 891T252 911Q285 911 304 891T323 836Q323 801 302 782T252 762Z" />
<glyph unicode="&#xc5;" horiz-adv-x="713" d="M661 67L624 100L710 72V0H423V72L510 97L496 77L456 207L478 189H214L231 206L188 79L184 94L264 72V0H3V72L86 98L54 70L290 702L437 706L661 67ZM250 269L240 288H455L441 266L337 627H370L250 269ZM361 731Q319
731 290 747T244 790T228 852Q228 887 244 914T290 958T365 975Q407 975 436 959T481 916T497 854Q497 821 481 793T435 748T361 731ZM362 796Q388 796 400 812T413 854Q413 879 401 894T363 910Q338 910 325 894T312 852Q312 827 324 812T362 796Z" />
<glyph unicode="&#xc6;" horiz-adv-x="942" d="M1 0V72L87 98L49 69L312 622L327 600L229 627V699L455 704H879V524H794L773 627L799 601H569L591 623V390L569 413H801V313H569L591 339V80L569 103H811L785 78L807 188H892L891 0H381V72L466 100L448 76V225L470
202H226L257 225L183 68L175 98L263 72V0H1ZM281 283L265 302H470L448 283V616L470 601H407L435 615L281 283Z" />
<glyph unicode="&#xc7;" horiz-adv-x="632" d="M341 -12Q259 -12 191 28T82 149T41 348Q41 464 81 546T194 672T365 716Q417 716 472 703T590 664L581 484H496L472 601L496 578Q461 592 429 599T370 606Q313 606 274 578T215 495T195 366Q195 278 218 220T283
133T377 104Q416 104 459 120T547 171L600 88Q538 38 472 13T341 -12ZM352 -254Q325 -254 297 -248T243 -229L269 -162Q288 -169 310 -174T351 -179Q372 -179 385 -171T399 -148Q399 -135 385 -126T348 -113T296 -107L302 0H385V-49Q443 -55 471 -80T499 -143Q499
-180 479 -204T425 -241T352 -254Z" />
<glyph unicode="&#xc8;" horiz-adv-x="609" d="M474 188H559L557 0H36V72L129 99L110 70V630L128 602L36 627V699L250 704H546V524H461L441 621L468 601H231L253 623V386L231 408H468V309H231L253 334V81L231 103H480L453 81L474 188ZM419 753L173 851L228 957L457
829L419 753Z" />
<glyph unicode="&#xc9;" horiz-adv-x="609" d="M474 188H559L557 0H36V72L129 99L110 70V630L128 602L36 627V699L250 704H546V524H461L441 621L468 601H231L253 623V386L231 408H468V309H231L253 334V81L231 103H480L453 81L474 188ZM216 753L176 829L406 957L460
851L216 753Z" />
<glyph unicode="&#xca;" horiz-adv-x="609" d="M474 188H559L557 0H36V72L129 99L110 70V630L128 602L36 627V699L250 704H546V524H461L441 621L468 601H231L253 623V386L231 408H468V309H231L253 334V81L231 103H480L453 81L474 188ZM168 749L122 804L267 934L347
941L502 804L455 749L260 868L357 867L168 749Z" />
<glyph unicode="&#xcb;" horiz-adv-x="609" d="M474 188H559L557 0H36V72L129 99L110 70V630L128 602L36 627V699L250 704H546V524H461L441 621L468 601H231L253 623V386L231 408H468V309H231L253 334V81L231 103H480L453 81L474 188ZM421 762Q388 762 370 781T352
836Q351 871 371 891T421 911Q454 911 473 891T492 836Q492 801 472 782T421 762ZM201 762Q169 762 151 781T132 836Q131 871 151 891T201 911Q234 911 253 891T272 836Q272 801 251 782T201 762Z" />
<glyph unicode="&#xcc;" horiz-adv-x="362" d="M326 632L238 602L253 624V77L238 98L326 72V0H36V72L123 97L110 77V624L128 602L36 627V699L326 704V632ZM544 753L298 851L353 957L582 829L544 753Z" />
<glyph unicode="&#xcd;" horiz-adv-x="362" d="M326 632L238 602L253 624V77L238 98L326 72V0H36V72L123 97L110 77V624L128 602L36 627V699L326 704V632ZM85 753L45 829L275 957L329 851L85 753Z" />
<glyph unicode="&#xce;" horiz-adv-x="362" d="M326 632L238 602L253 624V77L238 98L326 72V0H36V72L123 97L110 77V624L128 602L36 627V699L326 704V632ZM293 749L247 804L392 934L472 941L627 804L580 749L385 868L482 867L293 749Z" />
<glyph unicode="&#xcf;" horiz-adv-x="362" d="M326 632L238 602L253 624V77L238 98L326 72V0H36V72L123 97L110 77V624L128 602L36 627V699L326 704V632ZM290 762Q257 762 239 781T221 836Q220 871 240 891T290 911Q323 911 342 891T361 836Q361 801 341 782T290
762ZM70 762Q38 762 20 781T1 836Q0 871 20 891T70 911Q103 911 122 891T141 836Q141 801 120 782T70 762Z" />
<glyph unicode="&#xd0;" horiz-adv-x="712" d="M36 311V405H382V311H36ZM351 704Q424 704 483 683T585 619T649 513T672 364Q672 245 630 164T511 42T330 0H36V72L129 99L110 70V630L131 601L36 627V699L263 704H351ZM337 103Q369 103 401 112T459 148T502 224T518
356Q518 435 503 483T463 557T408 592T347 601H231L253 623V81L231 103H337Z" />
<glyph unicode="&#xd1;" horiz-adv-x="772" d="M483 699L748 704V632L654 601L675 631V0H510L208 553H228V70L207 100L302 72V0H36V72L131 100L110 70V630L124 604L36 627V699L280 704L577 162H556V631L578 602L483 627V699ZM268 776L210 802Q229 863 255 889T318
916Q345 916 371 906T421 884T465 873Q483 873 497 884T526 919L585 893Q565 832 537 805T470 778Q445 778 419 789T369 810T325 821Q309 821 296 810T268 776Z" />
<glyph unicode="&#xd2;" horiz-adv-x="732" d="M352 -12Q257 -12 188 28T80 148T42 343Q42 436 66 506T134 622T238 692T373 716Q446 716 504 693T604 626T669 517T692 365Q692 248 650 164T531 34T352 -12ZM363 98Q413 98 452 122T514 204T538 359Q538 449 517
503T457 582T367 606Q317 606 278 582T218 502T196 348Q196 258 216 204T273 124T363 98ZM476 753L230 851L285 957L514 829L476 753Z" />
<glyph unicode="&#xd3;" horiz-adv-x="732" d="M352 -12Q257 -12 188 28T80 148T42 343Q42 436 66 506T134 622T238 692T373 716Q446 716 504 693T604 626T669 517T692 365Q692 248 650 164T531 34T352 -12ZM363 98Q413 98 452 122T514 204T538 359Q538 449 517
503T457 582T367 606Q317 606 278 582T218 502T196 348Q196 258 216 204T273 124T363 98ZM274 753L234 829L464 957L518 851L274 753Z" />
<glyph unicode="&#xd4;" horiz-adv-x="732" d="M352 -12Q257 -12 188 28T80 148T42 343Q42 436 66 506T134 622T238 692T373 716Q446 716 504 693T604 626T669 517T692 365Q692 248 650 164T531 34T352 -12ZM363 98Q413 98 452 122T514 204T538 359Q538 449 517
503T457 582T367 606Q317 606 278 582T218 502T196 348Q196 258 216 204T273 124T363 98ZM225 749L179 804L324 934L404 941L559 804L512 749L317 868L414 867L225 749Z" />
<glyph unicode="&#xd5;" horiz-adv-x="732" d="M352 -12Q257 -12 188 28T80 148T42 343Q42 436 66 506T134 622T238 692T373 716Q446 716 504 693T604 626T669 517T692 365Q692 248 650 164T531 34T352 -12ZM363 98Q413 98 452 122T514 204T538 359Q538 449 517
503T457 582T367 606Q317 606 278 582T218 502T196 348Q196 258 216 204T273 124T363 98ZM240 776L182 802Q201 863 227 889T290 916Q317 916 343 906T393 884T437 873Q455 873 469 884T498 919L557 893Q537 832 509 805T442 778Q417 778 391 789T341 810T297 821Q281
821 268 810T240 776Z" />
<glyph unicode="&#xd6;" horiz-adv-x="732" d="M352 -12Q257 -12 188 28T80 148T42 343Q42 436 66 506T134 622T238 692T373 716Q446 716 504 693T604 626T669 517T692 365Q692 248 650 164T531 34T352 -12ZM363 98Q413 98 452 122T514 204T538 359Q538 449 517
503T457 582T367 606Q317 606 278 582T218 502T196 348Q196 258 216 204T273 124T363 98ZM479 762Q446 762 428 781T410 836Q409 871 429 891T479 911Q512 911 531 891T550 836Q550 801 530 782T479 762ZM259 762Q227 762 209 781T190 836Q189 871 209 891T259
911Q292 911 311 891T330 836Q330 801 309 782T259 762Z" />
<glyph unicode="&#xd7;" horiz-adv-x="499" d="M111 137L37 211L192 366L193 331L36 488L111 564L268 407L234 408L388 563L462 489L307 335L306 369L463 212L388 137L231 294L265 292L111 137Z" />
<glyph unicode="&#xd8;" horiz-adv-x="735" d="M585 781L659 737L581 613L560 587L245 87L237 68L145 -79L71 -34L163 111L177 128L500 638L506 655L585 781ZM354 -12Q259 -12 190 28T82 148T44 343Q44 436 68 506T136 622T240 692T375 716Q448 716 506 693T606
626T671 517T694 365Q694 248 652 164T533 34T354 -12ZM365 98Q415 98 454 122T516 204T540 359Q540 449 519 503T459 582T369 606Q319 606 280 582T220 502T198 348Q198 258 218 204T275 124T365 98Z" />
<glyph unicode="&#xd9;" horiz-adv-x="742" d="M434 699L724 704V632L635 602L651 638V275Q651 224 642 181T611 102T557 41T477 2T367 -12Q284 -12 232 8T151 61T110 131T95 203T92 262V637L108 603L18 627V699L308 704V632L221 602L235 637V262Q235 236 237
212T247 167T268 131T307 107T369 98Q407 98 432 107T472 132T495 171T505 219T508 275V638L521 605L434 627V699ZM480 753L234 851L289 957L518 829L480 753Z" />
<glyph unicode="&#xda;" horiz-adv-x="742" d="M434 699L724 704V632L635 602L651 638V275Q651 224 642 181T611 102T557 41T477 2T367 -12Q284 -12 232 8T151 61T110 131T95 203T92 262V637L108 603L18 627V699L308 704V632L221 602L235 637V262Q235 236 237
212T247 167T268 131T307 107T369 98Q407 98 432 107T472 132T495 171T505 219T508 275V638L521 605L434 627V699ZM277 753L237 829L467 957L521 851L277 753Z" />
<glyph unicode="&#xdb;" horiz-adv-x="742" d="M434 699L724 704V632L635 602L651 638V275Q651 224 642 181T611 102T557 41T477 2T367 -12Q284 -12 232 8T151 61T110 131T95 203T92 262V637L108 603L18 627V699L308 704V632L221 602L235 637V262Q235 236 237
212T247 167T268 131T307 107T369 98Q407 98 432 107T472 132T495 171T505 219T508 275V638L521 605L434 627V699ZM229 749L183 804L328 934L408 941L563 804L516 749L321 868L418 867L229 749Z" />
<glyph unicode="&#xdc;" horiz-adv-x="742" d="M434 699L724 704V632L635 602L651 638V275Q651 224 642 181T611 102T557 41T477 2T367 -12Q284 -12 232 8T151 61T110 131T95 203T92 262V637L108 603L18 627V699L308 704V632L221 602L235 637V262Q235 236 237
212T247 167T268 131T307 107T369 98Q407 98 432 107T472 132T495 171T505 219T508 275V638L521 605L434 627V699ZM482 762Q449 762 431 781T413 836Q412 871 432 891T482 911Q515 911 534 891T553 836Q553 801 533 782T482 762ZM262 762Q230 762 212 781T193 836Q192
871 212 891T262 911Q295 911 314 891T333 836Q333 801 312 782T262 762Z" />
<glyph unicode="&#xdd;" horiz-adv-x="648" d="M173 0V72L269 100L250 70V277L262 228L55 625L81 603L2 627V699L281 704V632L192 608L203 633L347 328H320L466 627L477 602L385 627V699L645 704V632L565 608L593 629L382 228L393 277V70L373 100L469 72V0H173ZM232
753L192 829L422 957L476 851L232 753Z" />
<glyph unicode="&#xde;" horiz-adv-x="599" d="M36 0V72L128 98L110 70V630L128 602L36 627V699L326 704V632L237 600L253 628V532L231 558H361Q465 558 520 513T575 370Q575 261 507 208T322 154H231L253 179V72L234 99L345 72V0H36ZM253 231L231 253H294Q333
253 363 262T412 296T431 361Q431 399 416 420T374 449T313 458H231L253 481V231Z" />
<glyph unicode="&#xdf;" horiz-adv-x="697" d="M453 415Q453 392 470 377T513 348T570 320T627 286T671 237T688 163Q688 103 659 64T582 7T472 -12Q434 -12 395 -5T314 14L321 160H406L418 69L402 95Q419 87 438 83T475 78Q497 78 515 84T543 106T554 144Q554
170 538 188T495 221T438 251T381 285T338 331T321 396Q321 432 334 455T368 494T407 526T440 558T454 603Q454 629 441 647T404 676T351 687Q302 687 270 662T238 581V0H31V72L116 96L98 74V447L116 436H28V511L114 533L98 513V568Q98 629 118 670T174 737T256
774T354 786Q422 786 475 767T559 711T590 618Q590 580 576 555T542 513T501 482T467 453T453 415Z" />
<glyph unicode="&#xe0;" horiz-adv-x="561" d="M482 71L463 99L549 72V1L374 -8L355 88L365 85Q325 36 278 12T181 -12Q117 -12 75 29T33 147Q33 204 57 237T129 286T243 301H352L342 290V356Q342 403 320 423T254 443Q233 443 209 439T157 427L171 442L158 361H71L63
507Q131 527 187 536T291 546Q384 546 433 506T482 382V71ZM174 161Q174 124 191 107T236 89Q261 89 291 104T348 147L342 123V237L352 227H266Q214 227 194 211T174 161ZM213 839L421 678L368 606L140 741L213 839Z" />
<glyph unicode="&#xe1;" horiz-adv-x="561" d="M482 71L463 99L549 72V1L374 -8L355 88L365 85Q325 36 278 12T181 -12Q117 -12 75 29T33 147Q33 204 57 237T129 286T243 301H352L342 290V356Q342 403 320 423T254 443Q233 443 209 439T157 427L171 442L158 361H71L63
507Q131 527 187 536T291 546Q384 546 433 506T482 382V71ZM174 161Q174 124 191 107T236 89Q261 89 291 104T348 147L342 123V237L352 227H266Q214 227 194 211T174 161ZM209 606L160 674L368 836L439 740L209 606Z" />
<glyph unicode="&#xe2;" horiz-adv-x="561" d="M482 71L463 99L549 72V1L374 -8L355 88L365 85Q325 36 278 12T181 -12Q117 -12 75 29T33 147Q33 204 57 237T129 286T243 301H352L342 290V356Q342 403 320 423T254 443Q233 443 209 439T157 427L171 442L158 361H71L63
507Q131 527 187 536T291 546Q384 546 433 506T482 382V71ZM174 161Q174 124 191 107T236 89Q261 89 291 104T348 147L342 123V237L352 227H266Q214 227 194 211T174 161ZM136 620L90 671L233 814L313 821L467 671L419 620L226 751L323 750L136 620Z" />
<glyph unicode="&#xe3;" horiz-adv-x="561" d="M482 71L463 99L549 72V1L374 -8L355 88L365 85Q325 36 278 12T181 -12Q117 -12 75 29T33 147Q33 204 57 237T129 286T243 301H352L342 290V356Q342 403 320 423T254 443Q233 443 209 439T157 427L171 442L158 361H71L63
507Q131 527 187 536T291 546Q384 546 433 506T482 382V71ZM174 161Q174 124 191 107T236 89Q261 89 291 104T348 147L342 123V237L352 227H266Q214 227 194 211T174 161ZM351 641Q323 641 300 653T256 677T211 689Q192 689 177 678T146 642L87 668Q107 729 136
760T203 791Q232 791 255 779T300 755T344 743Q364 743 379 754T409 790L469 766Q449 704 420 673T351 641Z" />
<glyph unicode="&#xe4;" horiz-adv-x="561" d="M482 71L463 99L549 72V1L374 -8L355 88L365 85Q325 36 278 12T181 -12Q117 -12 75 29T33 147Q33 204 57 237T129 286T243 301H352L342 290V356Q342 403 320 423T254 443Q233 443 209 439T157 427L171 442L158 361H71L63
507Q131 527 187 536T291 546Q384 546 433 506T482 382V71ZM174 161Q174 124 191 107T236 89Q261 89 291 104T348 147L342 123V237L352 227H266Q214 227 194 211T174 161ZM387 624Q354 624 336 643T318 698Q317 733 337 753T387 773Q420 773 439 753T458 698Q458
663 438 644T387 624ZM167 624Q135 624 117 643T98 698Q97 733 117 753T167 773Q200 773 219 753T238 698Q238 663 217 644T167 624Z" />
<glyph unicode="&#xe5;" horiz-adv-x="561" d="M482 71L463 99L549 72V1L374 -8L355 88L365 85Q325 36 278 12T181 -12Q117 -12 75 29T33 147Q33 204 57 237T129 286T243 301H352L342 290V356Q342 403 320 423T254 443Q233 443 209 439T157 427L171 442L158 361H71L63
507Q131 527 187 536T291 546Q384 546 433 506T482 382V71ZM174 161Q174 124 191 107T236 89Q261 89 291 104T348 147L342 123V237L352 227H266Q214 227 194 211T174 161ZM276 605Q234 605 205 621T159 664T143 726Q143 761 159 788T205 832T280 849Q322 849 351
833T396 790T412 728Q412 695 396 667T350 622T276 605ZM277 670Q303 670 315 686T328 728Q328 753 316 768T278 784Q253 784 240 768T227 726Q227 701 239 686T277 670Z" />
<glyph unicode="&#xe6;" horiz-adv-x="856" d="M70 365L62 507Q127 527 182 536T280 546Q342 546 380 526T430 465L438 444L426 455Q456 499 503 522T605 546Q708 546 765 483T823 306Q823 283 821 263T816 229H476L485 252L486 238Q489 170 524 131T616 92Q685
92 770 143L817 67Q761 29 702 9T583 -12Q514 -12 462 19T384 108L419 107Q376 46 317 17T202 -13Q156 -13 118 5T57 59T33 146Q33 228 83 268T238 309H354L344 293V356Q344 402 323 423T255 444Q235 444 211 440T156 427L168 442L155 365H70ZM352 132Q348 157
346 185T344 246L354 229H268Q216 229 195 216T174 164Q174 127 195 107T247 87Q274 87 303 101T359 144L352 132ZM484 291L473 309H688L678 297Q679 376 658 411T591 446Q540 446 513 407T484 291Z" />
<glyph unicode="&#xe7;" horiz-adv-x="516" d="M273 -12Q204 -12 149 20T61 114T29 262Q29 341 52 395T114 482T201 531T300 546Q348 546 397 534T477 507L473 360H383L368 442L379 434Q364 440 343 443T303 446Q260 446 232 425T189 364T175 270Q175 212 191
172T236 112T305 91Q336 91 373 104T450 143L497 72Q441 29 385 9T273 -12ZM281 -254Q254 -254 226 -248T172 -229L198 -162Q217 -169 239 -174T280 -179Q301 -179 314 -171T328 -148Q328 -135 314 -126T277 -113T225 -107L231 0H314V-49Q372 -55 400 -80T428 -143Q428
-180 408 -204T354 -241T281 -254Z" />
<glyph unicode="&#xe8;" horiz-adv-x="550" d="M275 -12Q202 -12 147 18T62 109T31 257Q31 347 63 411T155 511T294 546Q372 546 421 515T493 431T516 310Q516 293 515 276T510 240H144V323H390L372 310Q373 350 365 380T337 428T283 445Q244 445 220 423T186
362T175 277Q175 224 188 182T230 116T308 92Q342 92 381 104T464 142L511 67Q453 27 393 8T275 -12ZM219 839L427 678L374 606L146 741L219 839Z" />
<glyph unicode="&#xe9;" horiz-adv-x="550" d="M275 -12Q202 -12 147 18T62 109T31 257Q31 347 63 411T155 511T294 546Q372 546 421 515T493 431T516 310Q516 293 515 276T510 240H144V323H390L372 310Q373 350 365 380T337 428T283 445Q244 445 220 423T186
362T175 277Q175 224 188 182T230 116T308 92Q342 92 381 104T464 142L511 67Q453 27 393 8T275 -12ZM215 606L166 674L374 836L445 740L215 606Z" />
<glyph unicode="&#xea;" horiz-adv-x="550" d="M275 -12Q202 -12 147 18T62 109T31 257Q31 347 63 411T155 511T294 546Q372 546 421 515T493 431T516 310Q516 293 515 276T510 240H144V323H390L372 310Q373 350 365 380T337 428T283 445Q244 445 220 423T186
362T175 277Q175 224 188 182T230 116T308 92Q342 92 381 104T464 142L511 67Q453 27 393 8T275 -12ZM142 620L96 671L239 814L319 821L473 671L425 620L232 751L329 750L142 620Z" />
<glyph unicode="&#xeb;" horiz-adv-x="550" d="M275 -12Q202 -12 147 18T62 109T31 257Q31 347 63 411T155 511T294 546Q372 546 421 515T493 431T516 310Q516 293 515 276T510 240H144V323H390L372 310Q373 350 365 380T337 428T283 445Q244 445 220 423T186
362T175 277Q175 224 188 182T230 116T308 92Q342 92 381 104T464 142L511 67Q453 27 393 8T275 -12ZM393 624Q360 624 342 643T324 698Q323 733 343 753T393 773Q426 773 445 753T464 698Q464 663 444 644T393 624ZM173 624Q141 624 123 643T104 698Q103 733 123
753T173 773Q206 773 225 753T244 698Q244 663 223 644T173 624Z" />
<glyph unicode="&#xec;" horiz-adv-x="318" d="M236 82L226 94L303 72V0H29V72L106 94L96 82V447L105 438L29 459V531L236 538V82ZM346 839L554 678L501 606L273 741L346 839Z" />
<glyph unicode="&#xed;" horiz-adv-x="318" d="M236 82L226 94L303 72V0H29V72L106 94L96 82V447L105 438L29 459V531L236 538V82ZM350 606L301 674L509 836L580 740L350 606Z" />
<glyph unicode="&#xee;" horiz-adv-x="318" d="M44 620L-5 671L117 814L197 821L329 671L279 620L110 751L207 750L44 620ZM236 82L226 94L303 72V0H29V72L106 94L96 82V447L105 438L29 459V531L236 538V82Z" />
<glyph unicode="&#xef;" horiz-adv-x="318" d="M253 624Q223 624 205 643T187 698Q186 733 206 753T253 773Q283 773 301 753T320 698Q320 663 300 644T253 624ZM51 624Q21 624 4 643T-15 698Q-15 733 4 753T51 773Q82 773 100 753T119 698Q119 663 99 644T51
624ZM236 82L226 94L303 72V0H29V72L106 94L96 82V447L105 438L29 459V531L236 538V82Z" />
<glyph unicode="&#xf0;" horiz-adv-x="582" d="M271 -12Q190 -12 136 20T55 108T27 239Q27 321 58 379T140 468T255 498Q309 498 353 475T423 405L410 411Q398 501 359 561T258 653T114 686L125 786Q234 786 313 747T443 640T518 489T543 317Q543 245 527 185T478
81T394 13T271 -12ZM281 88Q316 88 342 106T382 160T397 254Q397 334 368 369T288 404Q254 404 228 388T188 337T173 243Q173 161 202 125T281 88ZM213 550L169 607L432 789L476 731L213 550Z" />
<glyph unicode="&#xf1;" horiz-adv-x="644" d="M29 0V72L113 96L96 76V457L113 434L29 459V531L205 539L223 443L205 450Q253 499 307 522T410 546Q478 546 523 504T567 375V76L554 96L634 72V0H367V72L443 94L427 73V345Q427 394 406 417T349 440Q322 440 290
425T227 380L236 401V73L223 94L296 72V0H29ZM404 641Q376 641 353 653T309 677T264 689Q245 689 230 678T199 642L140 668Q160 729 189 760T256 791Q285 791 308 779T353 755T397 743Q417 743 432 754T462 790L522 766Q502 704 473 673T404 641Z" />
<glyph unicode="&#xf2;" horiz-adv-x="577" d="M296 546Q414 546 480 476T546 277Q546 187 514 123T422 23T278 -12Q160 -12 96 58T31 257Q31 347 62 411T153 511T296 546ZM289 446Q232 446 204 402T176 264Q176 171 203 130T285 88Q325 88 350 108T388 169T401
270Q401 361 373 403T289 446ZM223 839L431 678L378 606L150 741L223 839Z" />
<glyph unicode="&#xf3;" horiz-adv-x="577" d="M296 546Q414 546 480 476T546 277Q546 187 514 123T422 23T278 -12Q160 -12 96 58T31 257Q31 347 62 411T153 511T296 546ZM289 446Q232 446 204 402T176 264Q176 171 203 130T285 88Q325 88 350 108T388 169T401
270Q401 361 373 403T289 446ZM219 606L170 674L378 836L449 740L219 606Z" />
<glyph unicode="&#xf4;" horiz-adv-x="577" d="M296 546Q414 546 480 476T546 277Q546 187 514 123T422 23T278 -12Q160 -12 96 58T31 257Q31 347 62 411T153 511T296 546ZM289 446Q232 446 204 402T176 264Q176 171 203 130T285 88Q325 88 350 108T388 169T401
270Q401 361 373 403T289 446ZM147 620L101 671L244 814L324 821L478 671L430 620L237 751L334 750L147 620Z" />
<glyph unicode="&#xf5;" horiz-adv-x="577" d="M296 546Q414 546 480 476T546 277Q546 187 514 123T422 23T278 -12Q160 -12 96 58T31 257Q31 347 62 411T153 511T296 546ZM289 446Q232 446 204 402T176 264Q176 171 203 130T285 88Q325 88 350 108T388 169T401
270Q401 361 373 403T289 446ZM361 641Q333 641 310 653T266 677T221 689Q202 689 187 678T156 642L97 668Q117 729 146 760T213 791Q242 791 265 779T310 755T354 743Q374 743 389 754T419 790L479 766Q459 704 430 673T361 641Z" />
<glyph unicode="&#xf6;" horiz-adv-x="577" d="M296 546Q414 546 480 476T546 277Q546 187 514 123T422 23T278 -12Q160 -12 96 58T31 257Q31 347 62 411T153 511T296 546ZM289 446Q232 446 204 402T176 264Q176 171 203 130T285 88Q325 88 350 108T388 169T401
270Q401 361 373 403T289 446ZM397 624Q364 624 346 643T328 698Q327 733 347 753T397 773Q430 773 449 753T468 698Q468 663 448 644T397 624ZM177 624Q145 624 127 643T108 698Q107 733 127 753T177 773Q210 773 229 753T248 698Q248 663 227 644T177 624Z" />
<glyph unicode="&#xf7;" horiz-adv-x="533" d="M497 400V300H36V400H497ZM187 162Q187 197 210 218T266 240Q303 240 324 219T346 162Q346 127 322 106T266 84Q230 84 209 105T187 162ZM187 539Q187 574 210 595T266 617Q303 617 324 596T346 539Q346 504 322
483T266 461Q230 461 209 482T187 539Z" />
<glyph unicode="&#xf8;" horiz-adv-x="581" d="M473 632L543 592L459 458L437 439L204 66L197 39L113 -96L42 -55L128 82L150 102L387 481L392 504L473 632ZM299 546Q418 546 484 476T550 277Q550 187 518 123T425 23T281 -12Q163 -12 99 58T34 257Q34 347 65
411T156 511T299 546ZM292 446Q235 446 208 402T180 264Q180 171 206 130T288 88Q328 88 353 108T391 169T404 270Q404 361 376 403T292 446Z" />
<glyph unicode="&#xf9;" horiz-adv-x="631" d="M233 -12Q166 -12 121 31T76 163V455L89 435L10 459V531L216 538V186Q216 139 237 117T293 94Q320 94 352 108T417 154L407 129V458L420 435L341 459V531L547 538V74L530 98L614 72V1L438 -7L419 91L439 84Q389 36
336 12T233 -12ZM241 839L449 678L396 606L168 741L241 839Z" />
<glyph unicode="&#xfa;" horiz-adv-x="631" d="M233 -12Q166 -12 121 31T76 163V455L89 435L10 459V531L216 538V186Q216 139 237 117T293 94Q320 94 352 108T417 154L407 129V458L420 435L341 459V531L547 538V74L530 98L614 72V1L438 -7L419 91L439 84Q389 36
336 12T233 -12ZM236 606L187 674L395 836L466 740L236 606Z" />
<glyph unicode="&#xfb;" horiz-adv-x="631" d="M233 -12Q166 -12 121 31T76 163V455L89 435L10 459V531L216 538V186Q216 139 237 117T293 94Q320 94 352 108T417 154L407 129V458L420 435L341 459V531L547 538V74L530 98L614 72V1L438 -7L419 91L439 84Q389 36
336 12T233 -12ZM164 620L118 671L261 814L341 821L495 671L447 620L254 751L351 750L164 620Z" />
<glyph unicode="&#xfc;" horiz-adv-x="631" d="M233 -12Q166 -12 121 31T76 163V455L89 435L10 459V531L216 538V186Q216 139 237 117T293 94Q320 94 352 108T417 154L407 129V458L420 435L341 459V531L547 538V74L530 98L614 72V1L438 -7L419 91L439 84Q389 36
336 12T233 -12ZM415 624Q382 624 364 643T346 698Q345 733 365 753T415 773Q448 773 467 753T486 698Q486 663 466 644T415 624ZM195 624Q163 624 145 643T126 698Q125 733 145 753T195 773Q228 773 247 753T266 698Q266 663 245 644T195 624Z" />
<glyph unicode="&#xfd;" horiz-adv-x="556" d="M8 -235L21 -136Q37 -138 50 -139T76 -140Q120 -140 147 -123T195 -69T236 26L231 -21L39 456L52 444L-6 458V530L243 538V467L173 448L180 460L307 86L273 93L386 458L393 444L324 458V530L560 538V467L497 447L516
459L351 2Q330 -56 306 -101T252 -177T181 -225T86 -242Q51 -242 8 -235ZM209 606L160 674L368 836L439 740L209 606Z" />
<glyph unicode="&#xfe;" horiz-adv-x="592" d="M4 -230V-158L88 -131L71 -155V694L90 670L4 698V770L211 778V466L180 460Q227 502 271 524T364 546Q421 546 465 516T535 426T561 280Q561 183 528 118T436 21T297 -12Q273 -12 247 -9T193 1L211 11V-155L197 -134L289
-158V-230H4ZM279 87Q350 87 382 135T415 266Q415 321 402 360T366 421T309 443Q283 443 254 429T194 386L211 411V83L194 101Q241 87 279 87Z" />
<glyph unicode="&#xff;" horiz-adv-x="556" d="M8 -235L21 -136Q37 -138 50 -139T76 -140Q120 -140 147 -123T195 -69T236 26L231 -21L39 456L52 444L-6 458V530L243 538V467L173 448L180 460L307 86L273 93L386 458L393 444L324 458V530L560 538V467L497 447L516
459L351 2Q330 -56 306 -101T252 -177T181 -225T86 -242Q51 -242 8 -235ZM388 624Q355 624 337 643T319 698Q318 733 338 753T388 773Q421 773 440 753T459 698Q459 663 439 644T388 624ZM168 624Q136 624 118 643T99 698Q98 733 118 753T168 773Q201 773 220 753T239
698Q239 663 218 644T168 624Z" />
<glyph unicode="&#x2013;" horiz-adv-x="606" d="M545 346V240H61V346H545Z" />
<glyph unicode="&#x2014;" horiz-adv-x="856" d="M795 342V236H61V342H795Z" />
<glyph unicode="&#x2018;" horiz-adv-x="225" d="M171 556Q171 519 149 501T100 483Q72 483 49 503T25 564Q25 603 52 659T145 788L192 758Q163 707 153 681T142 641Q142 628 149 617T164 591T171 556Z" />
<glyph unicode="&#x2019;" horiz-adv-x="225" d="M46 718Q46 754 68 772T117 790Q145 790 168 770T191 709Q191 671 165 614T72 485L25 516Q55 567 65 593T75 632Q75 645 68 656T53 682T46 718Z" />
<glyph unicode="&#x201a;" horiz-adv-x="225" d="M54 59Q54 95 76 113T125 131Q153 131 176 111T199 50Q199 12 173 -45T80 -174L33 -143Q63 -92 73 -66T83 -27Q83 -14 76 -3T61 23T54 59Z" />
<glyph unicode="&#x201c;" horiz-adv-x="414" d="M171 568Q171 532 149 514T100 495Q72 495 49 515T25 577Q25 615 52 672T145 801L192 770Q163 719 153 693T142 654Q142 641 149 629T164 603T171 568ZM360 568Q360 532 338 514T289 495Q261 495 238 515T215 577Q215
615 241 672T334 801L381 770Q352 719 342 693T331 654Q331 641 338 629T353 603T360 568Z" />
<glyph unicode="&#x201d;" horiz-adv-x="414" d="M243 718Q243 754 265 772T314 790Q342 790 365 770T388 709Q388 671 362 614T269 485L222 516Q252 567 262 593T272 632Q272 645 265 656T250 682T243 718ZM54 718Q54 754 76 772T125 790Q153 790 176 770T199
709Q199 671 173 614T80 485L33 516Q63 567 73 593T83 632Q83 645 76 656T61 682T54 718Z" />
<glyph unicode="&#x201e;" horiz-adv-x="414" d="M243 59Q243 95 265 113T314 131Q342 131 365 111T388 50Q388 12 362 -45T269 -174L222 -143Q252 -92 262 -66T272 -27Q272 -14 265 -3T250 23T243 59ZM54 59Q54 95 76 113T125 131Q153 131 176 111T199 50Q199
12 173 -45T80 -174L33 -143Q63 -92 73 -66T83 -27Q83 -14 76 -3T61 23T54 59Z" />
<glyph unicode="&#x2022;" horiz-adv-x="424" d="M51 307Q51 355 73 390T133 446T212 466Q262 466 297 446T353 390T373 307Q373 259 351 224T293 168T212 148Q138 148 95 191T51 307Z" />
<glyph unicode="&#x2039;" horiz-adv-x="317" d="M209 46L46 235V304L210 493L276 443L143 243V297L275 99L209 46Z" />
<glyph unicode="&#x203a;" horiz-adv-x="317" d="M108 493L271 304V235L106 46L40 96L174 296V242L42 440L108 493Z" />
</font>
</defs>
</svg>
