<?xml version="1.0" standalone="no"?>
<!DOCTYPE svg PUBLIC "-//W3C//DTD SVG 1.1//EN" "http://www.w3.org/Graphics/SVG/1.1/DTD/svg11.dtd">
<svg xmlns="http://www.w3.org/2000/svg">
<defs >
<font id="Bitter" horiz-adv-x="568" ><font-face
    font-family="Bitter Thin SemiBold"
    units-per-em="1000"
    panose-1="0 0 0 0 0 0 0 0 0 0"
    ascent="935"
    descent="-265"
    alphabetic="0" />
<glyph unicode=" " horiz-adv-x="182" />
<glyph unicode="!" horiz-adv-x="315" d="M109 237L163 702H288L196 243L109 237ZM118 -8Q87 -8 71 9T54 55Q54 89 76 110T132 132Q161 132 179 115T197 68Q197 33 174 13T118 -8Z" />
<glyph unicode="&quot;" horiz-adv-x="405" d="M119 510L142 772H249L190 510H119ZM293 510L316 772H423L364 510H293Z" />
<glyph unicode="#" horiz-adv-x="641" d="M103 527H634L622 452H91L103 527ZM24 258H554L543 183H12L24 258ZM257 702H353L147 0H51L257 702ZM497 702H593L386 0H290L497 702Z" />
<glyph unicode="$" horiz-adv-x="604" d="M240 0Q190 0 138 11T36 43L67 223H138L139 100L128 121Q158 107 190 100T255 93Q297 93 332 106T389 144T411 207Q411 238 395 256T352 286T294 307T230 328T172 357T129 406T113 485Q113 556 149 604T245 677T380 702Q429
702 480 691T580 659L546 491H476L475 602L489 589Q463 600 434 605T376 611Q337 611 304 600T252 565T232 509Q232 479 248 462T291 435T349 415T413 395T472 364T515 313T531 232Q531 155 491 104T384 26T240 0ZM198 -133L223 24H305L281 -133H198ZM326 676L350
829H432L408 677L326 676Z" />
<glyph unicode="%" horiz-adv-x="830" d="M93 -12L662 713H761L193 -12H93ZM224 349Q157 349 122 387T86 497Q86 558 110 607T179 684T286 713Q353 713 388 676T424 568Q424 508 400 458T331 379T224 349ZM232 416Q268 416 291 438T327 495T339 569Q339 608 326
627T279 646Q243 646 219 624T183 568T171 496Q171 456 185 436T232 416ZM572 -11Q504 -11 469 27T433 137Q433 198 457 247T527 325T633 354Q700 354 735 317T771 208Q771 149 747 99T678 19T572 -11ZM580 57Q615 57 639 78T674 135T686 210Q686 249 673 267T627
286Q590 286 566 264T530 208T518 136Q518 96 532 77T580 57Z" />
<glyph unicode="&amp;" horiz-adv-x="679" d="M270 -11Q172 -11 116 35T59 166Q59 226 86 272T162 346T275 379L277 365Q203 375 167 415T130 514Q130 575 165 619T261 688T402 713Q451 713 500 704T595 675L563 521H488L486 618L506 601Q448 621 395 621Q328
621 290 592T252 508Q252 461 283 438T371 414H660L649 348L564 326L581 348L560 216Q548 141 507 91T404 15T270 -11ZM298 86Q353 86 392 117T442 215L462 342L481 325H341Q295 325 260 308T206 259T187 187Q187 137 217 112T298 86Z" />
<glyph unicode="&apos;" horiz-adv-x="231" d="M119 510L142 772H249L190 510H119Z" />
<glyph unicode="(" horiz-adv-x="305" d="M370 832Q301 750 250 653T170 452T142 242Q142 157 161 72T222 -90L143 -131Q87 -44 60 55T32 256Q32 374 65 486T159 699T300 885L370 832Z" />
<glyph unicode=")" horiz-adv-x="305" d="M-31 -85Q39 -2 90 95T170 296T198 506Q198 591 179 676T118 838L197 879Q254 792 281 693T308 492Q308 375 275 263T181 49T40 -137L-31 -85Z" />
<glyph unicode="*" horiz-adv-x="431" d="M300 437L248 549L261 586L295 581L361 481L300 437ZM167 436L112 480L209 583L245 586L248 549L167 436ZM211 583L91 608L125 680L233 636L243 601L211 583ZM259 612L236 636L244 759L315 761L290 636L259 612ZM297 581L271
603L288 636L407 682L419 610L297 581Z" />
<glyph unicode="+" horiz-adv-x="543" d="M268 394L245 373L279 591H368L335 373L318 394H519L505 306H302L325 327L292 108H202L236 327L252 306H51L64 394H268Z" />
<glyph unicode="," horiz-adv-x="241" d="M20 53Q20 79 31 97T60 123T95 132Q120 132 138 116T157 67Q157 32 138 -6T84 -85T4 -168L-37 -134Q-7 -97 8 -75T30 -38T36 -14Q36 -3 32 5T24 25T20 53Z" />
<glyph unicode="-" horiz-adv-x="408" d="M362 340L348 247H55L69 340H362Z" />
<glyph unicode="." horiz-adv-x="244" d="M82 -8Q52 -8 35 9T18 55Q18 89 40 110T96 132Q125 132 143 115T161 68Q161 33 138 13T82 -8Z" />
<glyph unicode="/" horiz-adv-x="316" d="M407 806L23 -83H-61L322 806H407Z" />
<glyph unicode="0" horiz-adv-x="627" d="M265 -11Q199 -11 153 14T84 97T60 249Q60 303 69 366T100 490T159 602T254 682T392 713Q491 713 542 656T594 460Q594 404 585 340T554 214T494 101T400 20T265 -11ZM280 84Q325 84 358 112T413 187T448 286T467 389T473
476Q473 530 462 561T429 605T377 618Q330 618 297 591T241 520T205 425T187 325T181 239Q181 153 207 119T280 84Z" />
<glyph unicode="1" horiz-adv-x="418" d="M269 58L251 90L372 64L362 0H13L23 64L178 94L149 58L236 599L269 597L92 502L64 578L272 706H372L269 58Z" />
<glyph unicode="2" horiz-adv-x="548" d="M1 0L17 108Q69 148 124 190T229 275T318 361T381 446T405 530Q405 577 376 598T300 619Q274 619 243 613T180 596L198 618L165 503H92L107 677Q165 694 220 703T325 713Q385 713 432 697T506 646T533 553Q533 500 511
450T451 352T364 257T261 167T153 82L156 99H481L464 0H1Z" />
<glyph unicode="3" horiz-adv-x="558" d="M208 -11Q150 -11 98 4T0 47L42 133Q119 88 204 88Q253 88 291 105T352 153T375 227Q375 262 360 282T315 311T249 321H167L181 410H261Q335 410 373 447T411 538Q411 586 383 604T311 622Q280 622 246 616T182 599L199
617L170 509H99L114 674Q173 693 231 703T338 713Q395 713 439 699T509 651T535 560Q535 477 482 426T342 365L333 375Q418 369 457 332T496 227Q496 157 459 103T357 19T208 -11Z" />
<glyph unicode="4" horiz-adv-x="573" d="M321 187L347 161H10L9 248L392 715L523 702L449 234L423 257H556L541 161H407L442 187L412 0H292L321 187ZM366 257L329 234L394 643L432 636L89 213L75 257H366Z" />
<glyph unicode="5" horiz-adv-x="535" d="M211 -11Q161 -11 109 2T4 43L46 128Q83 109 121 99T193 89Q242 89 280 108T340 163T362 240Q362 278 347 298T305 326T246 336T179 337H89L161 702H531L514 606H229L266 628L221 401L194 428H248Q272 428 303 427T368
417T429 390T474 338T491 250Q491 176 456 117T357 23T211 -11Z" />
<glyph unicode="6" horiz-adv-x="584" d="M169 286L171 371Q220 401 268 415T361 429Q412 429 454 411T520 352T545 249Q545 173 509 114T412 22T275 -11Q228 -11 187 3T115 48T67 128T50 248Q50 319 68 386T122 513T208 617T321 688T461 714Q512 714 563 701L546
607Q524 612 504 614T465 616Q408 616 362 596T281 541T223 458T187 356T175 243Q175 183 188 149T224 100T277 85Q319 85 351 106T401 164T419 243Q419 298 391 320T320 342Q283 342 243 328T169 286Z" />
<glyph unicode="7" horiz-adv-x="515" d="M552 614L203 0H68L427 622L442 603H145L175 622L134 502H61L92 702H565L552 614Z" />
<glyph unicode="8" horiz-adv-x="589" d="M245 -11Q189 -11 141 7T64 63T34 157Q34 208 59 251T129 326T238 372L308 335Q265 323 230 301T173 247T152 176Q152 128 182 104T260 79Q301 79 335 95T391 141T412 205Q412 242 390 264T333 302T259 331T186 366T129
418T107 502Q107 553 129 592T188 658T272 699T368 713Q421 713 466 696T540 645T568 555Q568 503 543 465T474 402T379 364L292 401Q333 408 369 426T429 474T453 542Q453 571 440 589T404 616T356 624Q321 624 291 610T241 572T222 514Q222 478 244 456T302 420T376
391T450 357T507 304T529 219Q529 167 506 125T442 52T351 5T245 -11Z" />
<glyph unicode="9" horiz-adv-x="585" d="M443 419L440 335Q392 305 344 290T250 275Q199 275 157 294T91 352T67 453Q67 509 88 557T146 640T233 694T340 713Q384 713 424 699T496 655T544 576T562 456Q562 382 542 313T486 186T399 83T286 15T152 -10Q127 -10
101 -7T48 3L66 99Q87 94 106 92T143 90Q202 90 249 110T331 167T389 251T424 353T436 464Q436 523 424 556T389 603T335 617Q289 617 257 594T209 535T192 460Q192 405 221 384T292 362Q329 362 369 376T443 419Z" />
<glyph unicode=":" horiz-adv-x="244" d="M137 335Q107 335 90 352T73 398Q73 432 95 453T151 475Q180 475 198 458T216 411Q216 376 193 356T137 335ZM82 -8Q52 -8 35 9T18 55Q18 89 40 110T96 132Q125 132 143 115T161 68Q161 33 138 13T82 -8Z" />
<glyph unicode=";" horiz-adv-x="244" d="M21 53Q21 79 32 97T61 123T96 132Q121 132 139 116T158 67Q158 32 139 -6T85 -85T5 -168L-36 -134Q-6 -97 9 -75T31 -38T37 -14Q37 -3 33 5T25 25T21 53ZM137 335Q107 335 90 352T73 398Q73 432 95 453T151 475Q180 475
198 458T216 411Q216 376 193 356T137 335Z" />
<glyph unicode="&lt;" horiz-adv-x="519" d="M434 138L53 308L66 399L486 576L516 487L147 337L149 361L472 224L434 138Z" />
<glyph unicode="=" horiz-adv-x="659" d="M585 489L571 401H132L146 489H585ZM809 548L795 460H356L370 548H809Z" />
<glyph unicode="&gt;" horiz-adv-x="519" d="M114 576L495 406L481 315L61 138L32 227L400 377L398 353L75 490L114 576Z" />
<glyph unicode="?" horiz-adv-x="422" d="M108 243Q109 251 109 260T108 283Q112 329 134 361T186 417T247 462T297 506T317 563Q317 596 296 609T242 623Q213 623 178 615T113 595L92 677Q137 695 184 705T275 715Q321 715 358 703T418 662T440 586Q440 544 424
514T382 459T325 413T268 370T223 324T201 267Q201 261 200 255T198 243H108ZM130 -8Q100 -8 83 9T66 55Q66 89 88 110T145 132Q174 132 191 115T209 68Q209 33 186 13T130 -8Z" />
<glyph unicode="@" horiz-adv-x="870" d="M340 -111Q255 -111 192 -77T94 26T59 195Q59 290 91 373T182 521T322 621T503 657Q597 657 668 622T780 520T821 352Q821 293 807 241T765 149T700 86T614 63Q557 63 529 95T501 185L534 254Q520 194 491 153T427 91T357
71Q315 71 283 105T251 218Q251 290 280 349T360 444T474 480Q504 480 536 470T600 437L559 444L578 471L623 468L579 201Q576 174 583 154T617 134Q642 134 662 152T697 201T719 270T727 348Q727 396 715 438T675 511T605 559T499 577Q415 577 351 545T242 459T176
337T153 195Q153 84 204 26T353 -32Q389 -32 427 -24T504 -2L524 -75Q477 -93 430 -102T340 -111ZM394 144Q414 144 432 158T466 195T493 248T510 312L526 415L547 385Q527 399 509 405T472 412Q435 412 406 386T359 318T342 227Q342 186 356 165T394 144Z" />
<glyph unicode="A" horiz-adv-x="683" d="M594 60L568 89L644 63L634 0H376L387 63L473 87L466 68L445 208L454 191H189L208 207L141 69L139 85L219 63L209 0H-36L-26 63L59 88L25 63L353 701L477 704L594 60ZM232 260L226 279H449L439 257L384 634L413 633L232 260Z" />
<glyph unicode="B" horiz-adv-x="635" d="M374 348L379 365Q477 365 525 330T574 219Q574 152 539 103T440 27T289 0H3L13 63L104 87L86 69L175 631L189 611L103 634L113 697L302 702H403Q429 702 456 699T510 686T556 661T588 617T600 553Q600 492 572 448T492
379T374 348ZM371 614H272L296 634L256 379L241 401H314Q344 401 373 407T425 428T463 467T478 527Q478 561 465 579T429 606T371 614ZM287 89Q365 89 406 125T448 222Q448 257 435 276T398 305T345 314H226L250 341L206 66L183 89H287Z" />
<glyph unicode="C" horiz-adv-x="617" d="M307 -11Q239 -11 183 20T92 117T58 282Q58 365 83 442T156 581T270 677T420 713Q469 713 521 700T627 661L594 491H522L519 608L540 589Q508 603 476 610T417 617Q361 617 318 588T245 510T200 403T185 287Q185 217 205
174T259 111T336 90Q377 90 422 108T511 163L551 87Q493 38 430 14T307 -11Z" />
<glyph unicode="D" horiz-adv-x="705" d="M404 702Q492 702 552 673T643 584T674 430Q674 344 649 267T573 129T451 35T285 0H3L13 63L104 87L86 69L176 631L189 611L103 634L113 697L320 702H404ZM306 90Q356 90 395 112T463 172T510 256T538 349T547 438Q547
495 530 533T477 592T385 612H273L296 634L206 66L192 90H306Z" />
<glyph unicode="E" horiz-adv-x="599" d="M455 181H527L498 0H3L13 63L104 87L86 69L175 631L189 611L103 634L113 697L305 702H598L571 529H500L496 630L516 612H273L296 631L256 381L242 402H477L463 314H226L249 338L206 66L192 90H447L419 70L455 181Z" />
<glyph unicode="F" horiz-adv-x="550" d="M3 0L13 63L104 87L86 69L175 631L189 611L103 634L113 697L305 702H592L565 527H494L491 626L510 612H273L296 631L255 372L240 397H469L456 306H224L247 328L206 69L196 87L298 63L289 0H3Z" />
<glyph unicode="G" horiz-adv-x="706" d="M319 -11Q240 -11 182 19T91 113T58 278Q58 367 84 446T160 585T279 679T435 713Q490 713 545 700T659 660L626 489H555L551 607L570 589Q536 604 504 610T444 617Q385 617 337 591T255 518T203 410T185 277Q185 208 203
167T255 106T337 87Q370 87 406 95T483 117L467 88L495 284L512 263L422 280L432 345L691 350L681 284L592 262L607 284L573 49Q503 18 439 4T319 -11Z" />
<glyph unicode="H" horiz-adv-x="766" d="M3 0L13 63L104 87L86 69L176 631L189 611L103 634L113 697L383 702L373 639L280 611L296 631L257 385L243 403H569L546 385L585 631L598 611L512 634L522 697L792 702L782 639L689 611L705 631L616 69L607 87L690 63L680
0H412L421 63L512 87L495 69L537 332L552 313H227L249 331L207 69L199 87L281 63L271 0H3Z" />
<glyph unicode="I" horiz-adv-x="356" d="M373 639L280 611L296 630L207 69L199 87L281 63L271 0H3L13 63L104 87L86 69L175 629L189 611L103 634L113 697L383 702L373 639Z" />
<glyph unicode="J" horiz-adv-x="338" d="M102 697L375 702L365 639L273 611L289 631L199 65Q191 17 176 -24T134 -95T68 -142T-25 -159Q-57 -159 -91 -153L-71 -64Q-63 -65 -55 -66T-37 -67Q-2 -67 19 -56T51 -29T67 6T74 39L168 631L182 611L92 634L102 697Z" />
<glyph unicode="K" horiz-adv-x="695" d="M589 62L560 87L646 63L636 0H482L322 338L350 314H228L250 340L207 69L197 88L279 63L269 0H3L13 63L105 87L86 69L176 631L189 611L103 634L113 697L380 702L370 640L278 612L298 640L257 383L243 404H372L335 384L524
635L535 616L455 634L464 697L716 702L707 639L615 613L646 634L426 348L425 382L589 62Z" />
<glyph unicode="L" horiz-adv-x="541" d="M433 202H505L473 0H3L13 63L104 87L86 69L176 630L189 611L103 634L113 697L389 702L379 639L280 611L296 631L206 63L193 90H414L392 70L433 202Z" />
<glyph unicode="M" horiz-adv-x="853" d="M870 639L776 611L793 634L704 69L696 87L778 63L769 0H510L519 63L617 89L592 63L673 569L692 567L443 183L367 178L242 569L264 570L184 69L176 87L259 63L249 0H3L13 63L108 88L86 69L176 631L190 611L103 634L113
697L326 702L445 302H426L670 697L880 702L870 639Z" />
<glyph unicode="N" horiz-adv-x="752" d="M542 697L787 702L777 639L688 611L704 631L603 0H474L251 570L265 571L185 69L177 87L258 63L248 0H3L13 63L104 87L86 69L176 631L189 611L103 634L113 697L325 702L542 143L527 142L605 631L618 611L532 634L542 697Z" />
<glyph unicode="O" horiz-adv-x="720" d="M316 -11Q234 -11 177 21T89 116T58 271Q58 333 72 396T115 516T189 617T294 687T431 713Q514 713 572 681T660 587T690 432Q690 372 676 309T633 189T560 87T455 15T316 -11ZM327 85Q376 85 414 107T480 167T527 251T555
345T564 435Q564 499 546 539T495 598T420 617Q372 617 334 595T268 536T222 453T194 360T185 269Q185 205 203 165T253 105T327 85Z" />
<glyph unicode="P" horiz-adv-x="592" d="M296 254H211L240 277L207 69L199 87L300 63L290 0H3L13 63L104 87L86 69L176 631L189 611L103 634L113 697L310 702H399Q505 702 552 656T599 525Q599 446 562 385T457 289T296 254ZM365 612H278L297 634L247 323L231
345H300Q357 345 395 367T454 428T474 513Q474 561 449 586T365 612Z" />
<glyph unicode="Q" horiz-adv-x="722" d="M578 -188Q537 -188 496 -166T403 -102T277 2L301 -11Q225 -7 171 25T87 120T58 271Q58 333 72 396T115 515T189 616T294 687T431 713Q513 713 571 681T659 587T690 432Q690 363 672 292T616 159T521 54T387 -3L385 15Q433
-19 467 -42T527 -76T580 -88Q604 -88 630 -79T690 -50L731 -128Q684 -158 647 -173T578 -188ZM327 84Q376 84 414 106T481 167T528 251T556 344T565 434Q565 499 547 539T496 598T420 617Q371 617 333 595T266 535T220 452T192 359T183 269Q183 204 201 163T252
103T327 84Z" />
<glyph unicode="R" horiz-adv-x="645" d="M3 0L13 63L104 87L86 69L176 631L189 611L103 634L113 697L313 702H404Q608 702 608 539Q608 474 579 425T497 345T375 309L373 329Q426 328 452 299T493 225L546 68L516 91L594 63L584 0H442L385 199Q372 244 360 263T329
288T279 293L223 292L247 312L207 69L199 87L292 63L282 0H3ZM253 352L239 380H311Q365 380 403 400T461 453T482 527Q482 559 471 576T442 601T408 610T378 612H278L297 635L253 352Z" />
<glyph unicode="S" horiz-adv-x="585" d="M231 -11Q181 -11 129 -1T27 31L58 212H129L131 89L119 110Q149 96 181 89T246 82Q288 82 323 94T380 132T402 194Q402 231 381 252T325 288T253 317T181 352T125 407T104 496Q104 568 140 615T238 688T371 713Q420 713
471 702T571 669L537 502H467L466 613L481 599Q454 610 425 616T367 622Q329 622 296 611T243 577T223 521Q223 487 244 467T300 433T372 405T445 369T500 313T522 220Q522 143 482 92T376 15T231 -11Z" />
<glyph unicode="T" horiz-adv-x="589" d="M108 0L117 63L221 87L203 69L293 632L313 612H148L178 636L136 510H64L95 702H633L602 510H531L527 632L550 612H383L413 632L324 69L316 87L410 63L400 0H108Z" />
<glyph unicode="U" horiz-adv-x="724" d="M498 697L768 702L758 639L665 611L681 631L624 268Q609 172 572 111T473 19T319 -11Q204 -11 148 38T92 186Q92 204 93 223T99 263L158 631L169 612L85 634L95 697L361 702L351 639L262 611L278 631L218 255Q215 237
214 220T212 189Q212 135 238 110T326 85Q385 85 420 106T475 171T504 275L561 631L574 611L489 634L498 697Z" />
<glyph unicode="V" horiz-adv-x="692" d="M235 -1L129 633L155 611L65 634L75 697L353 702L345 639L245 613L264 644L334 109H317L573 637L579 612L490 634L500 697L754 702L745 639L651 614L684 636L363 -1H235Z" />
<glyph unicode="W" horiz-adv-x="989" d="M802 697L1051 702L1041 639L948 614L982 647L706 -1H592L524 551L548 550L305 -1H192L129 637L138 616L66 634L75 697L336 702L326 639L233 613L252 637L287 112L263 113L513 698L623 702L687 115L662 114L871 637L881
614L792 634L802 697Z" />
<glyph unicode="X" horiz-adv-x="688" d="M590 61L557 87L635 63L626 0H357L367 63L453 87L451 66L325 307H356L149 61L147 89L231 63L221 0H-20L-10 63L76 88L36 60L304 370L302 346L143 636L166 617L91 634L101 697L367 702L358 639L274 614L281 633L395 414L371
418L550 633L555 612L474 634L483 697L722 702L712 639L627 611L664 636L414 347L417 378L590 61Z" />
<glyph unicode="Y" horiz-adv-x="632" d="M140 0L149 63L243 87L226 69L259 275L266 231L122 632L140 614L64 634L74 697L336 702L326 639L231 616L241 638L346 316H321L525 633L533 611L445 634L455 697L695 702L686 639L607 618L632 635L362 231L378 275L346
69L338 87L423 63L413 0H140Z" />
<glyph unicode="Z" horiz-adv-x="600" d="M0 0L9 83L470 621L481 610H175L206 625L168 518H96L125 702H611L601 615L142 72L139 92H461L431 74L468 185H541L510 0H0Z" />
<glyph unicode="[" horiz-adv-x="332" d="M13 -108L167 857L399 852L387 777L254 771L128 -21L260 -28L248 -103L13 -108Z" />
<glyph unicode="\" horiz-adv-x="318" d="M79 806H163L269 -83H186L79 806Z" />
<glyph unicode="]" horiz-adv-x="332" d="M353 857L199 -108L-33 -103L-21 -28L112 -21L238 771L106 777L118 852L353 857Z" />
<glyph unicode="^" horiz-adv-x="502" d="M35 532L272 876H357L486 532H380L280 829H336L142 532H35Z" />
<glyph unicode="_" horiz-adv-x="473" d="M422 -64L409 -143H-65L-53 -64H422Z" />
<glyph unicode="`" horiz-adv-x="385" d="M190 829L384 669L341 609L129 741L190 829Z" />
<glyph unicode="a" horiz-adv-x="589" d="M175 -11Q136 -11 103 10T51 74T31 188Q31 262 53 326T117 439T213 516T332 544Q373 544 416 531T504 486L451 496L476 532H540L460 27L419 103L541 66L531 1L351 -5L382 178L416 239Q398 156 358 101T269 17T175 -11ZM222
85Q245 85 270 99T319 143T360 216T388 317L411 456L430 417Q404 436 379 444T329 453Q290 453 258 433T201 377T164 296T151 202Q151 141 171 113T222 85Z" />
<glyph unicode="b" horiz-adv-x="575" d="M36 14L151 743L193 670L71 706L81 770L274 776L204 366L161 294Q181 378 219 433T306 516T400 544Q439 544 471 524T523 459T543 338Q543 231 500 153T380 32T198 -11Q122 -11 36 14ZM161 65L137 99Q161 89 184 85T228
81Q288 81 331 112T398 198T422 326Q422 392 403 420T352 448Q329 448 304 434T255 390T213 317T185 216L161 65Z" />
<glyph unicode="c" horiz-adv-x="484" d="M230 -11Q174 -11 129 13T58 86T32 213Q32 284 55 344T118 449T212 518T327 543Q364 543 403 533T482 502L460 363H382L380 449L391 435Q351 456 315 456Q278 456 248 437T196 383T164 307T152 220Q152 145 181 112T256
79Q285 79 317 90T385 121L418 48Q371 19 323 4T230 -11Z" />
<glyph unicode="d" horiz-adv-x="590" d="M175 -11Q136 -11 103 10T51 74T31 188Q31 262 53 326T117 439T213 516T332 544Q373 544 416 531T504 486L419 509L456 742L498 670L375 707L385 770L579 776L460 27L419 103L541 66L531 1L351 -5L382 178L417 239Q398
156 358 101T269 17T175 -11ZM222 85Q245 85 270 99T318 143T360 216T388 317L410 452L430 417Q404 436 379 444T329 453Q290 453 258 433T201 377T164 296T151 202Q151 141 171 113T222 85Z" />
<glyph unicode="e" horiz-adv-x="513" d="M233 -11Q177 -11 132 11T60 82T33 207Q33 271 53 331T111 439T203 515T327 543Q408 543 453 506T499 409Q499 363 472 328T397 268T292 231T172 219Q162 219 153 219T136 220L143 299Q154 298 165 297T189 296Q224 296
258 302T321 321T366 353T383 397Q383 424 364 441T311 458Q273 458 243 436T192 376T160 296T149 209Q149 139 178 107T259 75Q293 75 331 87T410 121L440 52Q389 21 336 5T233 -11Z" />
<glyph unicode="f" horiz-adv-x="349" d="M-52 -241Q-72 -241 -89 -239T-118 -235L-100 -151Q-93 -151 -84 -152T-65 -154Q-38 -154 -19 -146T13 -124T34 -89T46 -44L126 461L135 446H45L55 511L151 530L134 509L145 583Q162 687 222 735T366 783Q391 783 418
779T472 765L443 683Q427 689 410 692T377 695Q335 695 304 671T264 590L251 510L239 528H386L372 446H230L243 461L168 -16Q159 -74 139 -116T91 -187T26 -228T-52 -241Z" />
<glyph unicode="g" horiz-adv-x="574" d="M185 -241Q138 -241 91 -232T0 -208L24 -123Q66 -138 107 -145T181 -153Q227 -153 257 -140T307 -104T336 -55T351 0L378 178L417 239Q398 156 358 101T269 17T175 -11Q136 -11 103 10T51 74T31 188Q31 261 53 325T117
439T213 515T332 543Q373 543 416 530T504 486L453 498L476 532H540L457 2Q446 -66 421 -113T359 -188T278 -228T185 -241ZM222 85Q245 85 270 99T319 143T360 216T388 317L411 456L430 417Q404 436 379 444T329 453Q290 453 258 433T201 377T164 296T151 202Q151
141 171 113T222 85Z" />
<glyph unicode="h" horiz-adv-x="597" d="M350 -4L406 335Q412 370 408 395T390 435T353 449Q330 449 305 435T256 393T214 322T187 220L152 0H34L146 705L161 683L73 704L83 769L274 776L201 357L156 294Q179 383 220 437T310 517T404 543Q449 543 479 521T523
459T527 361L480 66L430 103L554 66L543 1L350 -4Z" />
<glyph unicode="i" horiz-adv-x="300" d="M49 -4L129 503L172 429L50 466L60 529L252 536L171 27L131 102L251 64L241 1L49 -4ZM209 623Q179 623 162 641T145 689Q145 725 167 748T225 771Q254 771 271 754T289 705Q289 670 267 647T209 623Z" />
<glyph unicode="j" horiz-adv-x="286" d="M-121 -235L-102 -151Q-93 -152 -85 -153T-68 -154Q-15 -154 9 -127T43 -43L122 460L132 444L51 466L61 529L252 536L165 -16Q152 -100 121 -149T44 -220T-58 -241Q-76 -241 -90 -239T-121 -235ZM204 623Q174 623 157
641T140 689Q140 725 162 748T220 771Q249 771 266 754T284 705Q284 670 262 647T204 623Z" />
<glyph unicode="k" horiz-adv-x="560" d="M34 0L151 743L193 670L72 706L82 770L274 776L201 315L184 333H310L278 319L392 466L399 453L331 465L341 528L569 536L559 473L474 455L509 474L362 287L368 320L459 66L443 83L519 63L509 0H361L274 260L290 251H170L192
258L151 0H34Z" />
<glyph unicode="l" horiz-adv-x="285" d="M33 -4L152 743L193 670L72 704L82 769L275 776L156 28L113 103L237 66L226 1L33 -4Z" />
<glyph unicode="m" horiz-adv-x="905" d="M658 -4L712 335Q718 371 715 396T699 435T665 449Q644 449 620 435T574 393T533 321T506 220L472 0H354L408 335Q414 371 411 396T395 435T361 449Q340 449 316 435T270 393T229 321T202 220L167 0H49L123 465L171 429L50
466L60 529L246 536L209 357L173 294Q196 383 236 437T324 517T414 543Q454 543 482 523T523 464T528 371L522 335L478 294Q501 383 541 437T629 517T718 543Q759 543 788 521T830 459T833 361L786 64L736 103L861 66L851 1L658 -4Z" />
<glyph unicode="n" horiz-adv-x="613" d="M366 -4L421 335Q427 370 423 395T406 435T368 449Q345 449 320 435T271 393T229 322T202 220L167 0H49L129 503L171 429L50 466L60 529L246 536L209 357L171 294Q194 382 235 437T325 517T418 543Q464 543 495 521T539
459T542 361L495 64L444 103L569 66L559 1L366 -4Z" />
<glyph unicode="o" horiz-adv-x="559" d="M327 543Q386 543 431 521T501 452T526 325Q526 263 508 203T454 95T363 18T233 -11Q174 -11 129 11T59 81T34 206Q34 269 52 328T106 436T197 514T327 543ZM311 456Q269 456 239 431T191 368T163 287T154 206Q154 145
177 111T249 76Q290 76 320 101T369 164T397 246T406 327Q406 388 383 422T311 456Z" />
<glyph unicode="p" horiz-adv-x="591" d="M-60 -230L-50 -167L81 -130L19 -196L124 465L140 443L50 466L59 529L246 536L210 353L178 294Q197 377 236 432T323 515T416 543Q455 543 487 523T539 459T559 341Q559 245 526 172T432 54T287 -3T103 8L170 18L136 -199L94
-128L223 -167L213 -230H-60ZM178 65L154 99Q219 75 271 82T361 122T419 207T439 329Q439 392 419 420T368 448Q345 448 320 434T271 390T229 318T202 216L178 65Z" />
<glyph unicode="q" horiz-adv-x="574" d="M219 -230L229 -167L366 -130L306 -201L339 0L375 178L417 239Q398 156 358 101T269 17T175 -11Q136 -11 103 10T51 74T31 188Q31 261 53 325T117 439T213 515T332 543Q373 543 416 530T504 486L453 497L476 532H540L424
-204L383 -128L503 -167L493 -230H219ZM222 85Q245 85 270 99T318 143T360 216T388 317L411 456L430 417Q404 436 379 444T329 453Q290 453 258 433T201 377T164 296T151 202Q151 141 171 113T222 85Z" />
<glyph unicode="r" horiz-adv-x="426" d="M49 0L129 503L171 429L50 466L60 529L246 536L209 357L172 293Q191 375 230 430T319 514T416 543Q442 543 460 536L431 368H359V462L373 450Q347 453 320 438T270 392T229 319T202 220L167 0H49Z" />
<glyph unicode="s" horiz-adv-x="482" d="M174 -11Q134 -11 90 -5T5 13L30 168H104L102 67L86 91Q107 83 130 78T181 73Q216 73 243 81T287 106T304 147Q305 172 288 187T243 214T186 237T128 266T84 309T68 378Q69 430 98 467T178 523T293 543Q332 543 375 536T462
514L438 379H365L361 462L381 444Q360 453 338 457T295 461Q264 461 240 453T202 429T187 393Q187 370 204 355T248 329T306 305T364 275T409 230T425 162Q424 109 392 70T303 10T174 -11Z" />
<glyph unicode="t" horiz-adv-x="381" d="M334 24Q295 7 259 -2T191 -11Q137 -11 104 18T70 109Q70 119 70 128T73 148L123 467L135 450H41L51 516L153 537L131 515L153 650L273 670L249 515L239 532H387L374 450H224L241 467L191 154Q190 150 190 144T189 130Q189
103 201 92T234 80Q249 80 268 85T309 101L334 24Z" />
<glyph unicode="u" horiz-adv-x="612" d="M193 -11Q149 -12 118 10T75 73T70 170L117 467L127 444L45 466L55 529L246 536L192 197Q187 162 190 137T207 97T244 83Q268 83 293 96T341 138T383 210T411 312L445 532H563L490 66L475 88L564 63L554 1L373 -4L405
177L441 239Q420 151 379 96T289 15T193 -11Z" />
<glyph unicode="v" horiz-adv-x="531" d="M172 -2L73 463L83 452L28 465L37 528L185 536L258 63L229 69L413 464L417 452L356 465L365 528L574 536L566 473L503 453L526 466L291 -2H172Z" />
<glyph unicode="w" horiz-adv-x="805" d="M132 -2L79 463L91 452L30 465L40 528L187 536L218 69H202L390 529L513 536L549 68H536L699 464L706 448L639 465L649 528L845 536L837 473L782 456L799 470L590 -2H462L416 443L449 440L259 -2H132Z" />
<glyph unicode="x" horiz-adv-x="546" d="M-29 0L-19 63L66 80L36 63L209 287L245 290L428 528L560 536L551 473L469 456L502 473L329 263L295 261L104 0H-29ZM349 0L220 246L100 472L121 450L56 465L65 528L193 539L311 311L443 64L424 82L502 63L492 0H349Z" />
<glyph unicode="y" horiz-adv-x="530" d="M-55 -235L-40 -148Q-27 -149 -16 -150T5 -151Q50 -151 81 -132T140 -74T196 25L190 -17L74 463L84 452L27 465L37 528L184 536L269 77L238 83L414 464L419 452L357 465L366 528L575 536L566 473L505 455L524 466L295
1Q282 -27 265 -59T224 -124T170 -182T99 -225T7 -241Q-23 -241 -55 -235Z" />
<glyph unicode="z" horiz-adv-x="486" d="M430 166L405 0H-3L7 72L354 474L368 448H125L162 476L135 377H62L86 532H479L468 460L117 50V84L354 85L317 49L358 166H430Z" />
<glyph unicode="{" horiz-adv-x="340" d="M188 -108Q136 -108 104 -89T61 -31T60 70L86 232Q94 280 81 307T15 334L27 416Q63 416 84 431T116 471T132 526L157 687Q166 743 187 781T245 838T339 857H396L385 782Q340 782 315 773T278 739T259 672L233 506Q225
452 202 422T144 380T68 368L64 382Q104 382 135 369T183 324T190 236L164 70Q157 28 161 6T187 -24T255 -33L243 -108H188Z" />
<glyph unicode="|" horiz-adv-x="311" d="M197 809H287L142 -105H52L197 809Z" />
<glyph unicode="}" horiz-adv-x="340" d="M186 857Q239 857 270 839T313 781T314 680L289 518Q281 470 294 443T360 416L347 334Q312 334 291 319T258 279T242 224L217 62Q208 7 188 -31T130 -88T35 -108H-22L-10 -33Q34 -33 59 -23T96 12T116 78L141 244Q150
298 173 328T231 370T306 382L311 368Q270 368 238 381T191 426T184 513L211 679Q218 722 214 744T187 774T119 782L131 857H186Z" />
<glyph unicode="~" horiz-adv-x="629" d="M423 277Q393 277 368 287T319 311T274 335T228 346Q205 346 181 333T130 289L83 328Q124 388 160 411T234 435Q264 435 289 425T338 401T383 377T430 366Q453 366 476 379T527 423L572 382Q532 323 496 300T423 277Z" />
<glyph unicode="&#xa0;" horiz-adv-x="182" />
<glyph unicode="&#xa1;" horiz-adv-x="315" d="M197 235L143 -230H18L110 229L197 235ZM188 481Q219 481 235 464T252 417Q252 384 230 362T174 340Q145 340 127 357T109 405Q109 440 132 460T188 481Z" />
<glyph unicode="&#xa2;" horiz-adv-x="540" d="M203 -21L226 127L260 103Q174 102 123 155T71 305Q71 367 89 421T140 516T222 583T332 612L300 587L323 737H401L378 591L351 613Q399 613 441 601T509 574L488 446H420L422 519Q406 527 387 529T353 532Q313 532
281 513T227 462T194 388T183 304Q183 248 210 218T286 187Q319 187 357 201T437 242L469 179Q416 141 367 124T271 103L304 129L281 -21H203Z" />
<glyph unicode="&#xa3;" horiz-adv-x="643" d="M21 0L31 63L135 94L92 68Q129 97 144 141T162 240T167 354L181 330H73L83 396L184 406L172 390Q170 499 194 571T273 678T417 713Q460 713 510 705T617 682L584 519H514L512 627L524 609Q470 622 430 622Q371 622
341 595T301 515T291 386L273 406H455L443 330H265L288 353Q288 290 282 239T257 147T200 76L187 92L460 90L438 69L478 192H549L518 0H21Z" />
<glyph unicode="&#xa4;" horiz-adv-x="644" d="M546 121L481 58L395 154L440 153Q411 130 376 117T301 104Q255 104 223 119T171 160L219 161L100 58L54 116L171 215L164 168Q150 187 143 212T135 266Q135 313 153 355T203 430L192 385L107 480L174 544L261 445L219
443Q248 465 282 477T357 489Q401 489 432 476T481 442L442 446L554 542L599 485L487 389L489 434Q521 394 521 331Q521 285 503 242T454 167L457 220L546 121ZM307 178Q346 178 372 200T412 258T426 329Q426 371 408 393T351 415Q310 415 283 392T243 335T230
266Q230 224 249 201T307 178Z" />
<glyph unicode="&#xa5;" horiz-adv-x="686" d="M129 286L138 346H271L260 325L154 632L172 615L97 634L106 697L369 702L359 639L264 616L274 638L373 316H348L547 633L554 611L467 634L476 697L717 702L707 639L627 618L654 635L449 322L443 346H575L565 286H129ZM167
0L176 63L270 87L253 69L272 188L287 169H111L120 229H556L546 169H364L391 190L373 68L365 87L450 63L440 0H167Z" />
<glyph unicode="&#xa6;" horiz-adv-x="311" d="M137 437L196 809H287L227 437H137ZM52 -105L111 267H201L142 -105H52Z" />
<glyph unicode="&#xa7;" horiz-adv-x="544" d="M176 -181Q138 -181 99 -174T21 -156L46 -18H118L115 -107L104 -91Q140 -103 176 -103Q228 -103 262 -76T297 -4Q297 23 281 43T240 80T186 114T132 152T91 201T75 268Q75 318 100 353T169 411T264 441L283 402Q257
395 233 379T194 339T178 287Q178 258 194 237T237 197T292 160T347 119T390 68T406 -1Q406 -57 376 -97T294 -159T176 -181ZM273 97L265 136Q288 144 312 162T352 207T369 261Q369 288 353 309T310 347T256 383T202 424T160 476T143 545Q143 600 170 637T245 693T355
713Q390 713 431 706T513 684L492 563H420L417 642L433 623Q416 629 398 632T363 635Q314 635 282 612T250 546Q250 520 266 500T308 462T362 426T417 387T459 338T475 271Q475 221 447 185T372 127T273 97Z" />
<glyph unicode="&#xa8;" horiz-adv-x="446" d="M184 630Q158 630 144 647T129 692Q129 724 147 744T195 765Q221 765 236 749T251 703Q251 671 232 651T184 630ZM388 630Q362 630 347 647T332 692Q332 724 350 744T399 765Q425 765 440 749T455 703Q455 671 436
651T388 630Z" />
<glyph unicode="&#xa9;" horiz-adv-x="867" d="M443 153Q367 153 318 204T268 348Q268 413 293 458T361 526T458 550Q521 550 587 519L584 418H526L516 479L523 473Q511 478 495 480T465 483Q414 483 390 448T365 354Q365 287 392 254T463 221Q487 221 515 230T571
260L602 212Q563 181 522 167T443 153ZM436 -11Q358 -11 292 15T178 88T104 201T77 344Q77 424 105 491T183 609T302 686T451 713Q530 713 596 687T713 614T790 502T818 359Q818 280 789 212T708 94T586 17T436 -11ZM442 57Q506 57 560 79T653 140T713 234T735
354Q735 439 698 505T596 608T445 646Q359 646 295 608T196 503T160 350Q160 265 195 199T293 95T442 57Z" />
<glyph unicode="&#xaa;" horiz-adv-x="488" d="M40 159L54 243H453L439 159H40ZM183 313Q131 313 98 347T64 456Q64 527 94 585T177 678T300 713Q330 713 362 703T427 671L389 679L406 704L473 705L413 341L389 398L475 374L466 321L315 318L337 449L362 493Q348
433 319 393T253 333T183 313ZM218 385Q241 385 266 403T311 459T342 550L359 649L373 619Q353 633 335 639T297 645Q260 645 232 620T186 554T169 466Q169 424 183 405T218 385Z" />
<glyph unicode="&#xab;" horiz-adv-x="495" d="M165 52L40 238L48 301L232 488L282 444L123 246L129 294L226 98L165 52ZM367 52L242 238L250 301L434 488L484 444L325 246L331 294L428 98L367 52Z" />
<glyph unicode="&#xac;" horiz-adv-x="634" d="M446 306L434 322L400 113H496L540 394H76L62 306H446Z" />
<glyph unicode="&#xad;" horiz-adv-x="404" d="M616 340L602 247H309L323 340H616Z" />
<glyph unicode="&#xae;" horiz-adv-x="718" d="M246 299V333L293 347L282 333V585L296 570L246 581V615L355 618H400Q457 618 487 596T518 532Q518 498 493 475T413 444L418 455Q447 453 462 442T489 407L526 333L505 346L547 333V299H470L428 393Q420 412 411
420T390 431T364 433H336L348 445V333L338 347L391 333V299H246ZM348 466L336 477H374Q411 477 430 490T449 527Q449 548 434 559T387 571H336L348 584V466ZM380 161Q295 161 230 197T127 299T89 449Q89 536 128 603T236 710T392 749Q478 749 545 713T651 611T690
461Q690 397 667 343T601 247T502 184T380 161ZM382 214Q452 214 508 245T596 333T628 460Q628 530 598 583T513 665T391 695Q321 695 267 664T182 578T151 450Q151 380 180 327T262 244T382 214Z" />
<glyph unicode="&#xaf;" horiz-adv-x="399" d="M416 750L402 664H124L137 750H416Z" />
<glyph unicode="&#xb0;" horiz-adv-x="417" d="M222 426Q161 426 124 461T87 561Q87 612 110 652T174 716T264 739Q325 739 362 704T399 605Q399 556 377 516T315 451T222 426ZM228 494Q259 494 279 510T310 552T321 603Q321 638 304 654T258 671Q228 671 208
656T177 616T166 564Q166 529 182 512T228 494Z" />
<glyph unicode="&#xb1;" horiz-adv-x="565" d="M289 461L264 441L295 641H386L355 441L339 461H532L518 373H323L347 394L315 194H225L257 394L274 373H80L93 461H289ZM479 125L465 37H27L41 125H479Z" />
<glyph unicode="&#xb2;" horiz-adv-x="355" d="M42 345L53 420Q116 468 167 510T247 590T277 662Q277 686 262 696T224 706Q210 706 194 702T160 692L175 710L155 639H95L107 758Q143 768 180 774T248 781Q307 781 344 757T381 681Q381 642 362 607T310 539T238
474T157 412V424H347L334 345H42Z" />
<glyph unicode="&#xb3;" horiz-adv-x="363" d="M173 336Q137 336 102 344T37 370L72 435Q96 423 121 417T171 410Q212 410 236 430T261 482Q261 508 244 519T195 530H138L148 595H199Q219 595 238 601T271 623T284 663Q284 690 268 700T226 711Q210 711 193 708T157
700L174 714L157 650H97L109 755Q146 768 183 774T253 780Q310 780 348 758T386 682Q386 633 353 602T267 566L262 571Q314 566 337 542T360 478Q360 433 335 402T267 353T173 336Z" />
<glyph unicode="&#xb4;" horiz-adv-x="374" d="M136 610L92 671L296 826L355 739L136 610Z" />
<glyph unicode="&#xb5;" horiz-adv-x="682" d="M163 -234L46 -230L156 462L167 444L85 466L95 529L286 536L232 197Q226 162 230 137T247 97T284 83Q307 83 332 96T381 138T423 210T450 312L485 532H603L529 65L514 88L604 63L594 0L413 -5L444 177L481 239Q460
151 422 96T339 15T253 -11Q209 -12 181 15T145 98L166 61Q168 27 171 -15T175 -112T163 -234Z" />
<glyph unicode="&#xb6;" horiz-adv-x="611" d="M69 -170L79 -107L175 -82L154 -107L222 332L243 312Q168 312 123 355T77 473Q77 539 105 591T184 672T300 702H636L626 639L531 610L550 637L422 -170H325L453 641L466 612L346 611L371 641L242 -170H69Z" />
<glyph unicode="&#xb7;" horiz-adv-x="244" d="M124 257Q94 257 77 274T60 320Q60 354 82 375T138 397Q167 397 185 380T203 333Q203 298 180 278T124 257Z" />
<glyph unicode="&#xb8;" horiz-adv-x="353" d="M82 -248Q58 -248 33 -242T-17 -224L13 -165Q49 -181 86 -181Q109 -181 125 -172T142 -144Q142 -123 117 -114T52 -104L74 0H143L135 -52Q184 -57 206 -78T228 -133Q228 -168 208 -194T155 -234T82 -248Z" />
<glyph unicode="&#xb9;" horiz-adv-x="282" d="M227 397L216 418L291 396L284 345H43L50 396L153 415L136 397L181 689H207L93 628L74 688L212 773H286L227 397Z" />
<glyph unicode="&#xba;" horiz-adv-x="441" d="M226 313Q154 313 109 350T63 474Q63 519 77 561T119 638T191 693T293 713Q366 713 411 677T456 553Q456 494 431 439T356 348T226 313ZM27 159L41 243H394L380 159H27ZM238 381Q268 381 289 397T323 441T344 498T351
554Q351 600 333 623T280 646Q250 646 229 630T194 587T174 532T168 475Q168 429 185 405T238 381Z" />
<glyph unicode="&#xbb;" horiz-adv-x="496" d="M332 488L457 301L448 238L265 52L215 95L374 293L368 245L271 442L332 488ZM129 488L254 301L246 238L63 52L12 95L172 293L166 245L68 442L129 488Z" />
<glyph unicode="&#xbc;" horiz-adv-x="849" d="M241 328L230 349L305 327L298 276H57L64 327L167 346L150 328L195 620H221L107 559L88 619L226 704H300L241 328ZM126 -9L645 711H741L221 -9H126ZM638 113L645 92H451L449 163L663 434L782 426L739 147L719 162H799L788
92H706L733 112L715 0H620L638 113ZM661 162L643 141L680 378L695 377L507 135L499 162H661Z" />
<glyph unicode="&#xbd;" horiz-adv-x="860" d="M242 328L231 349L306 327L299 276H58L65 327L168 346L151 328L196 620H222L108 559L89 619L227 704H301L242 328ZM127 -9L646 711H742L222 -9H127ZM481 0L492 75Q555 123 606 165T686 245T716 317Q716 341 701 351T663
361Q649 361 633 357T599 347L614 365L594 294H534L546 413Q582 423 619 429T687 436Q746 436 783 412T820 336Q820 297 801 262T749 194T677 129T596 67V79H786L773 0H481Z" />
<glyph unicode="&#xbe;" horiz-adv-x="897" d="M172 267Q136 267 101 275T36 301L71 366Q95 354 120 348T170 341Q211 341 235 361T260 413Q260 439 243 450T194 461H137L147 526H198Q218 526 237 532T270 554T283 594Q283 621 267 631T225 642Q209 642 192 639T156
631L173 645L156 581H96L108 686Q145 699 182 705T252 711Q309 711 347 689T385 613Q385 564 352 533T266 497L261 502Q313 497 336 473T359 409Q359 364 334 333T266 284T172 267ZM176 -9L695 711H791L271 -9H176ZM686 113L693 92H499L497 163L711 434L830 426L787
147L767 162H847L836 92H754L781 112L763 0H668L686 113ZM709 162L691 141L728 378L743 377L555 135L547 162H709Z" />
<glyph unicode="&#xbf;" horiz-adv-x="410" d="M322 265Q321 258 321 248T322 225Q318 180 296 148T243 91T183 47T133 2T113 -55Q113 -88 134 -101T188 -115Q217 -115 251 -107T316 -86L338 -169Q293 -187 246 -197T154 -207Q108 -207 71 -195T12 -154T-11 -77Q-11
-36 5 -5T48 50T104 95T161 138T207 184T228 242Q229 247 230 253T232 266L322 265ZM299 517Q330 517 346 500T363 453Q363 420 341 398T285 376Q256 376 238 393T220 441Q220 476 243 496T299 517Z" />
<glyph unicode="&#xc0;" horiz-adv-x="683" d="M594 60L568 89L644 63L634 0H376L387 63L473 87L466 68L445 208L454 191H189L208 207L141 69L139 85L219 63L209 0H-36L-26 63L59 88L25 63L353 701L477 704L594 60ZM232 260L226 279H449L439 257L384 634L413 633L232
260ZM524 752L287 850L335 941L557 812L524 752Z" />
<glyph unicode="&#xc1;" horiz-adv-x="683" d="M594 60L568 89L644 63L634 0H376L387 63L473 87L466 68L445 208L454 191H189L208 207L141 69L139 85L219 63L209 0H-36L-26 63L59 88L25 63L353 701L477 704L594 60ZM232 260L226 279H449L439 257L384 634L413 633L232
260ZM330 752L301 810L535 943L574 850L330 752Z" />
<glyph unicode="&#xc2;" horiz-adv-x="683" d="M594 60L568 89L644 63L634 0H376L387 63L473 87L466 68L445 208L454 191H189L208 207L141 69L139 85L219 63L209 0H-36L-26 63L59 88L25 63L353 701L477 704L594 60ZM232 260L226 279H449L439 257L384 634L413 633L232
260ZM290 748L257 796L413 923L481 929L608 796L562 748L400 864L480 862L290 748Z" />
<glyph unicode="&#xc3;" horiz-adv-x="683" d="M594 60L568 89L644 63L634 0H376L387 63L473 87L466 68L445 208L454 191H189L208 207L141 69L139 85L219 63L209 0H-36L-26 63L59 88L25 63L353 701L477 704L594 60ZM232 260L226 279H449L439 257L384 634L413 633L232
260ZM306 775L260 804Q287 858 314 881T373 905Q400 905 423 894T466 873T506 862Q538 862 571 908L618 879Q591 825 561 802T499 778Q474 778 453 788T411 809T369 820Q353 820 339 810T306 775Z" />
<glyph unicode="&#xc4;" horiz-adv-x="683" d="M594 60L568 89L644 63L634 0H376L387 63L473 87L466 68L445 208L454 191H189L208 207L141 69L139 85L219 63L209 0H-36L-26 63L59 88L25 63L353 701L477 704L594 60ZM232 260L226 279H449L439 257L384 634L413 633L232
260ZM331 763Q305 763 291 780T276 825Q276 857 294 877T342 898Q368 898 383 882T398 836Q398 804 379 784T331 763ZM535 763Q509 763 494 780T479 825Q479 857 497 877T546 898Q572 898 587 882T602 836Q602 804 583 784T535 763Z" />
<glyph unicode="&#xc5;" horiz-adv-x="683" d="M594 60L568 89L644 63L634 0H376L387 63L473 87L466 68L445 208L454 191H189L208 207L141 69L139 85L219 63L209 0H-36L-26 63L59 88L25 63L353 701L477 704L594 60ZM232 260L226 279H449L439 257L384 634L413 633L232
260ZM425 731Q373 731 346 759T319 829Q319 865 336 895T384 942T457 960Q508 960 535 933T562 861Q562 827 545 797T498 749T425 731ZM430 789Q460 789 475 811T491 859Q491 879 481 891T450 903Q421 903 405 881T389 832Q389 812 399 801T430 789Z" />
<glyph unicode="&#xc6;" horiz-adv-x="916" d="M-36 0L-26 63L63 88L26 62L381 630L391 610L300 634L311 697L518 702H915L888 529H817L814 631L832 612H594L617 632L578 382L563 402H794L781 314H547L571 337L527 65L513 90H757L736 68L773 181H845L816 0H329L339
63L428 90L407 68L432 226L450 206H212L241 226L139 61L136 88L221 63L211 0H-36ZM269 276L258 293H463L441 276L497 626L514 612H458L485 625L269 276Z" />
<glyph unicode="&#xc7;" horiz-adv-x="617" d="M270 -248Q247 -248 222 -242T171 -224L202 -165Q238 -181 274 -181Q298 -181 314 -172T331 -144Q331 -123 305 -114T241 -104L276 67H346L324 -52Q373 -57 394 -78T416 -133Q416 -168 396 -194T344 -234T270 -248ZM58
282Q58 365 83 442T156 581T270 677T420 713Q469 713 521 700T627 661L594 491H522L519 608L540 589Q508 603 476 610T417 617Q361 617 318 588T245 510T200 403T185 287Q185 217 205 174T259 111T336 90Q377 90 422 108T511 163L551 87Q493 38 430 14T307 -11Q239
-11 183 20T92 117T58 282Z" />
<glyph unicode="&#xc8;" horiz-adv-x="599" d="M455 181H527L498 0H3L13 63L104 87L86 69L175 631L189 611L103 634L113 697L305 702H598L571 529H500L496 630L516 612H273L296 631L256 381L242 402H477L463 314H226L249 338L206 66L192 90H447L419 70L455 181ZM483
752L246 850L294 941L516 812L483 752Z" />
<glyph unicode="&#xc9;" horiz-adv-x="599" d="M455 181H527L498 0H3L13 63L104 87L86 69L175 631L189 611L103 634L113 697L305 702H598L571 529H500L496 630L516 612H273L296 631L256 381L242 402H477L463 314H226L249 338L206 66L192 90H447L419 70L455 181ZM288
752L259 810L493 943L532 850L288 752Z" />
<glyph unicode="&#xca;" horiz-adv-x="599" d="M455 181H527L498 0H3L13 63L104 87L86 69L175 631L189 611L103 634L113 697L305 702H598L571 529H500L496 630L516 612H273L296 631L256 381L242 402H477L463 314H226L249 338L206 66L192 90H447L419 70L455 181ZM248
748L215 796L371 923L439 929L566 796L520 748L358 864L438 862L248 748Z" />
<glyph unicode="&#xcb;" horiz-adv-x="599" d="M455 181H527L498 0H3L13 63L104 87L86 69L175 631L189 611L103 634L113 697L305 702H598L571 529H500L496 630L516 612H273L296 631L256 381L242 402H477L463 314H226L249 338L206 66L192 90H447L419 70L455 181ZM289
763Q263 763 249 780T234 825Q234 857 252 877T300 898Q326 898 341 882T356 836Q356 804 337 784T289 763ZM493 763Q467 763 452 780T437 825Q437 857 455 877T504 898Q530 898 545 882T560 836Q560 804 541 784T493 763Z" />
<glyph unicode="&#xcc;" horiz-adv-x="356" d="M373 639L280 611L296 630L207 69L199 87L281 63L271 0H3L13 63L104 87L86 69L175 629L189 611L103 634L113 697L383 702L373 639ZM610 752L373 850L421 941L643 812L610 752Z" />
<glyph unicode="&#xcd;" horiz-adv-x="356" d="M373 639L280 611L296 630L207 69L199 87L281 63L271 0H3L13 63L104 87L86 69L175 629L189 611L103 634L113 697L383 702L373 639ZM415 752L386 810L620 943L659 850L415 752Z" />
<glyph unicode="&#xce;" horiz-adv-x="356" d="M373 639L280 611L296 630L207 69L199 87L281 63L271 0H3L13 63L104 87L86 69L175 629L189 611L103 634L113 697L383 702L373 639ZM375 748L342 796L498 923L566 929L693 796L647 748L485 864L565 862L375 748Z" />
<glyph unicode="&#xcf;" horiz-adv-x="356" d="M373 639L280 611L296 630L207 69L199 87L281 63L271 0H3L13 63L104 87L86 69L175 629L189 611L103 634L113 697L383 702L373 639ZM160 763Q134 763 120 780T105 825Q105 857 123 877T171 898Q197 898 212 882T227
836Q227 804 208 784T160 763ZM364 763Q338 763 323 780T308 825Q308 857 326 877T375 898Q401 898 416 882T431 836Q431 804 412 784T364 763Z" />
<glyph unicode="&#xd0;" horiz-adv-x="705" d="M53 316L67 399H386L371 316H53ZM404 702Q492 702 552 673T643 584T674 430Q674 344 649 267T573 129T451 35T285 0H3L13 63L104 87L86 69L176 631L189 611L103 634L113 697L320 702H404ZM306 90Q356 90 395 112T463
172T510 256T538 349T547 438Q547 495 530 533T477 592T385 612H273L296 634L206 66L192 90H306Z" />
<glyph unicode="&#xd1;" horiz-adv-x="752" d="M542 697L787 702L777 639L688 611L704 631L603 0H474L251 570L265 571L185 69L177 87L258 63L248 0H3L13 63L104 87L86 69L176 631L189 611L103 634L113 697L325 702L542 143L527 142L605 631L618 611L532 634L542
697ZM341 775L295 804Q322 858 349 881T408 905Q435 905 458 894T501 873T541 862Q573 862 606 908L653 879Q626 825 596 802T534 778Q509 778 488 788T446 809T404 820Q388 820 374 810T341 775Z" />
<glyph unicode="&#xd2;" horiz-adv-x="720" d="M316 -11Q234 -11 177 21T89 116T58 271Q58 333 72 396T115 516T189 617T294 687T431 713Q514 713 572 681T660 587T690 432Q690 372 676 309T633 189T560 87T455 15T316 -11ZM327 85Q376 85 414 107T480 167T527
251T555 345T564 435Q564 499 546 539T495 598T420 617Q372 617 334 595T268 536T222 453T194 360T185 269Q185 205 203 165T253 105T327 85ZM553 752L316 850L364 941L586 812L553 752Z" />
<glyph unicode="&#xd3;" horiz-adv-x="720" d="M316 -11Q234 -11 177 21T89 116T58 271Q58 333 72 396T115 516T189 617T294 687T431 713Q514 713 572 681T660 587T690 432Q690 372 676 309T633 189T560 87T455 15T316 -11ZM327 85Q376 85 414 107T480 167T527
251T555 345T564 435Q564 499 546 539T495 598T420 617Q372 617 334 595T268 536T222 453T194 360T185 269Q185 205 203 165T253 105T327 85ZM358 752L329 810L563 943L602 850L358 752Z" />
<glyph unicode="&#xd4;" horiz-adv-x="720" d="M316 -11Q234 -11 177 21T89 116T58 271Q58 333 72 396T115 516T189 617T294 687T431 713Q514 713 572 681T660 587T690 432Q690 372 676 309T633 189T560 87T455 15T316 -11ZM327 85Q376 85 414 107T480 167T527
251T555 345T564 435Q564 499 546 539T495 598T420 617Q372 617 334 595T268 536T222 453T194 360T185 269Q185 205 203 165T253 105T327 85ZM319 748L286 796L442 923L510 929L637 796L591 748L429 864L509 862L319 748Z" />
<glyph unicode="&#xd5;" horiz-adv-x="720" d="M316 -11Q234 -11 177 21T89 116T58 271Q58 333 72 396T115 516T189 617T294 687T431 713Q514 713 572 681T660 587T690 432Q690 372 676 309T633 189T560 87T455 15T316 -11ZM327 85Q376 85 414 107T480 167T527
251T555 345T564 435Q564 499 546 539T495 598T420 617Q372 617 334 595T268 536T222 453T194 360T185 269Q185 205 203 165T253 105T327 85ZM335 775L289 804Q316 858 343 881T402 905Q429 905 452 894T495 873T535 862Q567 862 600 908L647 879Q620 825 590 802T528
778Q503 778 482 788T440 809T398 820Q382 820 368 810T335 775Z" />
<glyph unicode="&#xd6;" horiz-adv-x="720" d="M316 -11Q234 -11 177 21T89 116T58 271Q58 333 72 396T115 516T189 617T294 687T431 713Q514 713 572 681T660 587T690 432Q690 372 676 309T633 189T560 87T455 15T316 -11ZM327 85Q376 85 414 107T480 167T527
251T555 345T564 435Q564 499 546 539T495 598T420 617Q372 617 334 595T268 536T222 453T194 360T185 269Q185 205 203 165T253 105T327 85ZM360 763Q334 763 320 780T305 825Q305 857 323 877T371 898Q397 898 412 882T427 836Q427 804 408 784T360 763ZM564
763Q538 763 523 780T508 825Q508 857 526 877T575 898Q601 898 616 882T631 836Q631 804 612 784T564 763Z" />
<glyph unicode="&#xd7;" horiz-adv-x="516" d="M104 143L50 208L224 364L223 333L94 492L166 558L295 399L266 400L439 557L493 492L319 336L321 367L449 208L377 142L249 301L278 300L104 143Z" />
<glyph unicode="&#xd8;" horiz-adv-x="730" d="M660 778L719 739L619 608L607 597L217 86L215 79L96 -77L37 -38L170 136L180 145L556 637L560 647L660 778ZM321 -11Q239 -11 181 21T93 116T62 268Q62 331 76 394T120 515T194 617T299 687T436 713Q519 713 577
681T665 587T695 435Q695 373 681 310T638 189T565 86T460 15T321 -11ZM332 85Q380 85 418 107T484 167T531 251T559 346T568 437Q568 500 550 539T500 598T426 617Q377 617 339 595T272 535T226 452T198 358T189 266Q189 204 207 164T258 105T332 85Z" />
<glyph unicode="&#xd9;" horiz-adv-x="724" d="M498 697L768 702L758 639L665 611L681 631L624 268Q609 172 572 111T473 19T319 -11Q204 -11 148 38T92 186Q92 204 93 223T99 263L158 631L169 612L85 634L95 697L361 702L351 639L262 611L278 631L218 255Q215
237 214 220T212 189Q212 135 238 110T326 85Q385 85 420 106T475 171T504 275L561 631L574 611L489 634L498 697ZM537 752L300 850L348 941L570 812L537 752Z" />
<glyph unicode="&#xda;" horiz-adv-x="724" d="M498 697L768 702L758 639L665 611L681 631L624 268Q609 172 572 111T473 19T319 -11Q204 -11 148 38T92 186Q92 204 93 223T99 263L158 631L169 612L85 634L95 697L361 702L351 639L262 611L278 631L218 255Q215
237 214 220T212 189Q212 135 238 110T326 85Q385 85 420 106T475 171T504 275L561 631L574 611L489 634L498 697ZM342 752L313 810L547 943L586 850L342 752Z" />
<glyph unicode="&#xdb;" horiz-adv-x="724" d="M498 697L768 702L758 639L665 611L681 631L624 268Q609 172 572 111T473 19T319 -11Q204 -11 148 38T92 186Q92 204 93 223T99 263L158 631L169 612L85 634L95 697L361 702L351 639L262 611L278 631L218 255Q215
237 214 220T212 189Q212 135 238 110T326 85Q385 85 420 106T475 171T504 275L561 631L574 611L489 634L498 697ZM302 748L269 796L425 923L493 929L620 796L574 748L412 864L492 862L302 748Z" />
<glyph unicode="&#xdc;" horiz-adv-x="724" d="M498 697L768 702L758 639L665 611L681 631L624 268Q609 172 572 111T473 19T319 -11Q204 -11 148 38T92 186Q92 204 93 223T99 263L158 631L169 612L85 634L95 697L361 702L351 639L262 611L278 631L218 255Q215
237 214 220T212 189Q212 135 238 110T326 85Q385 85 420 106T475 171T504 275L561 631L574 611L489 634L498 697ZM343 763Q317 763 303 780T288 825Q288 857 306 877T354 898Q380 898 395 882T410 836Q410 804 391 784T343 763ZM547 763Q521 763 506 780T491 825Q491
857 509 877T558 898Q584 898 599 882T614 836Q614 804 595 784T547 763Z" />
<glyph unicode="&#xdd;" horiz-adv-x="632" d="M140 0L149 63L243 87L226 69L259 275L266 231L122 632L140 614L64 634L74 697L336 702L326 639L231 616L241 638L346 316H321L525 633L533 611L445 634L455 697L695 702L686 639L607 618L632 635L362 231L378 275L346
69L338 87L423 63L413 0H140ZM307 752L278 810L512 943L551 850L307 752Z" />
<glyph unicode="&#xde;" horiz-adv-x="581" d="M3 0L13 63L104 87L86 69L176 631L189 611L103 634L113 697L383 702L373 639L280 611L296 632L283 547L274 558H375Q445 558 487 539T548 484T568 398Q568 324 532 269T429 184T273 153H208L222 168L207 69L199 87L289
63L279 0H3ZM232 230L222 241H276Q332 241 369 259T427 309T447 382Q447 424 423 447T341 470H258L272 482L232 230Z" />
<glyph unicode="&#xdf;" horiz-adv-x="655" d="M-48 -242Q-68 -242 -84 -240T-114 -235L-95 -151Q-86 -152 -78 -153T-60 -154Q-15 -154 12 -131T50 -44L129 456L143 442H44L55 511L155 530L139 513L149 574Q161 647 201 693T299 761T417 783Q473 783 517 767T587
717T614 636Q614 602 602 578T571 535T531 503T490 474T459 444T447 407Q447 385 460 371T493 344T535 318T578 286T611 241T624 175Q624 115 594 74T512 11T399 -11Q366 -11 330 -5T258 15L284 158H356L354 62L339 83Q356 75 372 72T403 68Q431 68 454 78T492
108T507 154Q507 179 494 195T461 225T418 252T375 283T342 325T329 386Q329 421 341 445T372 488T413 520T454 550T485 583T497 628Q497 665 472 683T406 702Q356 702 316 672T265 573L172 -16Q162 -82 141 -126T90 -195T25 -231T-48 -242Z" />
<glyph unicode="&#xe0;" horiz-adv-x="589" d="M175 -11Q136 -11 103 10T51 74T31 188Q31 262 53 326T117 439T213 516T332 544Q373 544 416 531T504 486L451 496L476 532H540L460 27L419 103L541 66L531 1L351 -5L382 178L416 239Q398 156 358 101T269 17T175
-11ZM222 85Q245 85 270 99T319 143T360 216T388 317L411 456L430 417Q404 436 379 444T329 453Q290 453 258 433T201 377T164 296T151 202Q151 141 171 113T222 85ZM284 829L478 669L435 609L223 741L284 829Z" />
<glyph unicode="&#xe1;" horiz-adv-x="589" d="M175 -11Q136 -11 103 10T51 74T31 188Q31 262 53 326T117 439T213 516T332 544Q373 544 416 531T504 486L451 496L476 532H540L460 27L419 103L541 66L531 1L351 -5L382 178L416 239Q398 156 358 101T269 17T175
-11ZM222 85Q245 85 270 99T319 143T360 216T388 317L411 456L430 417Q404 436 379 444T329 453Q290 453 258 433T201 377T164 296T151 202Q151 141 171 113T222 85ZM288 610L244 671L448 826L507 739L288 610Z" />
<glyph unicode="&#xe2;" horiz-adv-x="589" d="M175 -11Q136 -11 103 10T51 74T31 188Q31 262 53 326T117 439T213 516T332 544Q373 544 416 531T504 486L451 496L476 532H540L460 27L419 103L541 66L531 1L351 -5L382 178L416 239Q398 156 358 101T269 17T175
-11ZM222 85Q245 85 270 99T319 143T360 216T388 317L411 456L430 417Q404 436 379 444T329 453Q290 453 258 433T201 377T164 296T151 202Q151 141 171 113T222 85ZM213 877L180 923L333 1061L401 1068L522 923L476 877L321 1004L401 1003L213 877Z" />
<glyph unicode="&#xe3;" horiz-adv-x="589" d="M175 -11Q136 -11 103 10T51 74T31 188Q31 262 53 326T117 439T213 516T332 544Q373 544 416 531T504 486L451 496L476 532H540L460 27L419 103L541 66L531 1L351 -5L382 178L416 239Q398 156 358 101T269 17T175
-11ZM222 85Q245 85 270 99T319 143T360 216T388 317L411 456L430 417Q404 436 379 444T329 453Q290 453 258 433T201 377T164 296T151 202Q151 141 171 113T222 85ZM414 643Q388 643 368 655T329 680T288 692Q269 692 252 681T218 644L172 671Q199 727 230 754T296
782Q323 782 343 770T382 745T422 733Q441 733 457 745T492 781L537 756Q510 699 480 671T414 643Z" />
<glyph unicode="&#xe4;" horiz-adv-x="589" d="M175 -11Q136 -11 103 10T51 74T31 188Q31 262 53 326T117 439T213 516T332 544Q373 544 416 531T504 486L451 496L476 532H540L460 27L419 103L541 66L531 1L351 -5L382 178L416 239Q398 156 358 101T269 17T175
-11ZM222 85Q245 85 270 99T319 143T360 216T388 317L411 456L430 417Q404 436 379 444T329 453Q290 453 258 433T201 377T164 296T151 202Q151 141 171 113T222 85ZM246 630Q220 630 206 647T191 692Q191 724 209 744T257 765Q283 765 298 749T313 703Q313 671
294 651T246 630ZM450 630Q424 630 409 647T394 692Q394 724 412 744T461 765Q487 765 502 749T517 703Q517 671 498 651T450 630Z" />
<glyph unicode="&#xe5;" horiz-adv-x="589" d="M175 -11Q136 -11 103 10T51 74T31 188Q31 262 53 326T117 439T213 516T332 544Q373 544 416 531T504 486L451 496L476 532H540L460 27L419 103L541 66L531 1L351 -5L382 178L416 239Q398 156 358 101T269 17T175
-11ZM222 85Q245 85 270 99T319 143T360 216T388 317L411 456L430 417Q404 436 379 444T329 453Q290 453 258 433T201 377T164 296T151 202Q151 141 171 113T222 85ZM343 609Q291 609 264 637T237 707Q237 743 254 773T302 820T375 838Q426 838 453 811T480 739Q480
705 463 675T416 627T343 609ZM348 667Q378 667 393 689T409 737Q409 757 399 769T368 781Q339 781 323 759T307 710Q307 690 317 679T348 667Z" />
<glyph unicode="&#xe6;" horiz-adv-x="803" d="M358 145Q352 111 331 83T281 33T219 1T155 -11Q96 -11 58 23T20 126Q20 174 42 205T102 254T189 279T292 286H348L332 273Q338 308 343 340T348 390Q348 424 329 439T272 455Q241 455 205 448T131 431L189 493L157
369H87L97 506Q150 521 206 532T309 543Q363 543 397 521T431 450Q431 443 430 437T427 417L399 425Q436 477 492 510T622 543Q702 543 746 506T791 404Q791 361 770 329T712 275T628 241T529 223T425 218L445 245Q445 237 445 229T444 211Q444 141 474 109T553
77Q585 77 623 89T703 124L736 51Q684 21 630 5T527 -11Q433 -11 379 45T325 199Q325 211 325 225T328 252L355 218H306Q276 218 247 216T192 207T152 183T137 140Q137 110 154 93T202 76Q220 76 241 85T281 112T312 151T325 199L358 145ZM446 252L428 289Q459
289 493 291T559 299T617 317T659 348T675 394Q675 423 657 440T604 458Q571 458 544 440T497 392T464 325T446 252Z" />
<glyph unicode="&#xe7;" horiz-adv-x="484" d="M230 -11Q174 -11 129 13T58 86T32 213Q32 284 55 344T118 449T212 518T327 543Q364 543 403 533T482 502L460 363H382L380 449L391 435Q351 456 315 456Q278 456 248 437T196 383T164 307T152 220Q152 145 181 112T256
79Q285 79 317 90T385 121L418 48Q371 19 323 4T230 -11ZM198 -248Q174 -248 149 -242T99 -224L129 -165Q165 -181 202 -181Q225 -181 241 -172T258 -144Q258 -123 233 -114T168 -104L190 0H259L251 -52Q300 -57 322 -78T344 -133Q344 -168 324 -194T271 -234T198
-248Z" />
<glyph unicode="&#xe8;" horiz-adv-x="510" d="M233 -11Q177 -11 132 11T60 82T33 207Q33 271 53 331T111 439T203 515T327 543Q408 543 453 506T499 409Q499 363 472 328T397 268T292 231T172 219Q162 219 153 219T136 220L143 299Q154 298 165 297T189 296Q224
296 258 302T321 321T366 353T383 397Q383 424 364 441T311 458Q273 458 243 436T192 376T160 296T149 209Q149 139 178 107T259 75Q293 75 331 87T410 121L440 52Q389 21 336 5T233 -11ZM273 829L467 669L424 609L212 741L273 829Z" />
<glyph unicode="&#xe9;" horiz-adv-x="510" d="M233 -11Q177 -11 132 11T60 82T33 207Q33 271 53 331T111 439T203 515T327 543Q408 543 453 506T499 409Q499 363 472 328T397 268T292 231T172 219Q162 219 153 219T136 220L143 299Q154 298 165 297T189 296Q224
296 258 302T321 321T366 353T383 397Q383 424 364 441T311 458Q273 458 243 436T192 376T160 296T149 209Q149 139 178 107T259 75Q293 75 331 87T410 121L440 52Q389 21 336 5T233 -11ZM278 610L234 671L438 826L497 739L278 610Z" />
<glyph unicode="&#xea;" horiz-adv-x="510" d="M233 -11Q177 -11 132 11T60 82T33 207Q33 271 53 331T111 439T203 515T327 543Q408 543 453 506T499 409Q499 363 472 328T397 268T292 231T172 219Q162 219 153 219T136 220L143 299Q154 298 165 297T189 296Q224
296 258 302T321 321T366 353T383 397Q383 424 364 441T311 458Q273 458 243 436T192 376T160 296T149 209Q149 139 178 107T259 75Q293 75 331 87T410 121L440 52Q389 21 336 5T233 -11ZM203 877L170 923L323 1061L391 1068L512 923L466 877L311 1004L391 1003L203
877Z" />
<glyph unicode="&#xeb;" horiz-adv-x="510" d="M233 -11Q177 -11 132 11T60 82T33 207Q33 271 53 331T111 439T203 515T327 543Q408 543 453 506T499 409Q499 363 472 328T397 268T292 231T172 219Q162 219 153 219T136 220L143 299Q154 298 165 297T189 296Q224
296 258 302T321 321T366 353T383 397Q383 424 364 441T311 458Q273 458 243 436T192 376T160 296T149 209Q149 139 178 107T259 75Q293 75 331 87T410 121L440 52Q389 21 336 5T233 -11ZM236 630Q210 630 196 647T181 692Q181 724 199 744T247 765Q273 765 288
749T303 703Q303 671 284 651T236 630ZM440 630Q414 630 399 647T384 692Q384 724 402 744T451 765Q477 765 492 749T507 703Q507 671 488 651T440 630Z" />
<glyph unicode="&#xec;" horiz-adv-x="300" d="M49 -4L129 503L172 429L50 466L60 529L252 536L171 27L131 102L251 64L241 1L49 -4ZM404 829L598 669L555 609L343 741L404 829Z" />
<glyph unicode="&#xed;" horiz-adv-x="300" d="M49 -4L129 503L172 429L50 466L60 529L252 536L171 27L131 102L251 64L241 1L49 -4ZM152 610L108 671L312 826L371 739L152 610Z" />
<glyph unicode="&#xee;" horiz-adv-x="300" d="M89 621L52 666L185 805L253 812L347 660L298 621L179 751L254 747L89 621ZM49 -4L129 503L172 429L50 466L60 529L252 536L171 27L131 102L251 64L241 1L49 -4Z" />
<glyph unicode="&#xef;" horiz-adv-x="302" d="M49 -4L129 503L172 429L50 466L60 529L252 536L171 27L131 102L251 64L241 1L49 -4ZM112 630Q86 630 72 647T57 692Q57 724 75 744T123 765Q149 765 164 749T179 703Q179 671 160 651T112 630ZM298 630Q272 630
257 647T242 692Q242 724 260 744T309 765Q335 765 350 749T365 703Q365 671 346 651T298 630Z" />
<glyph unicode="&#xf0;" d="M223 -11Q128 -11 78 43T27 193Q27 254 46 309T100 408T184 477T294 503Q336 503 367 490T419 454T451 398H429Q431 496 405 561T326 660T190 696L207 783Q294 783 356 754T457 674T514 553T533 404Q533 316 513 241T453 109T356 21T223
-11ZM239 76Q281 76 311 98T362 154T391 228T401 305Q401 361 379 390T309 420Q267 420 237 399T187 343T158 269T148 191Q148 134 170 105T239 76ZM259 559L229 610L503 786L534 734L259 559Z" />
<glyph unicode="&#xf1;" horiz-adv-x="613" d="M366 -4L421 335Q427 370 423 395T406 435T368 449Q345 449 320 435T271 393T229 322T202 220L167 0H49L129 503L171 429L50 466L60 529L246 536L209 357L171 294Q194 382 235 437T325 517T418 543Q464 543 495 521T539
459T542 361L495 64L444 103L569 66L559 1L366 -4ZM432 643Q406 643 386 655T347 680T306 692Q287 692 270 681T236 644L190 671Q217 727 248 754T314 782Q341 782 361 770T400 745T440 733Q459 733 475 745T510 781L555 756Q528 699 498 671T432 643Z" />
<glyph unicode="&#xf2;" horiz-adv-x="559" d="M327 543Q386 543 431 521T501 452T526 325Q526 263 508 203T454 95T363 18T233 -11Q174 -11 129 11T59 81T34 206Q34 269 52 328T106 436T197 514T327 543ZM311 456Q269 456 239 431T191 368T163 287T154 206Q154
145 177 111T249 76Q290 76 320 101T369 164T397 246T406 327Q406 388 383 422T311 456ZM282 829L476 669L433 609L221 741L282 829Z" />
<glyph unicode="&#xf3;" horiz-adv-x="559" d="M327 543Q386 543 431 521T501 452T526 325Q526 263 508 203T454 95T363 18T233 -11Q174 -11 129 11T59 81T34 206Q34 269 52 328T106 436T197 514T327 543ZM311 456Q269 456 239 431T191 368T163 287T154 206Q154
145 177 111T249 76Q290 76 320 101T369 164T397 246T406 327Q406 388 383 422T311 456ZM287 610L243 671L447 826L506 739L287 610Z" />
<glyph unicode="&#xf4;" horiz-adv-x="559" d="M327 543Q386 543 431 521T501 452T526 325Q526 263 508 203T454 95T363 18T233 -11Q174 -11 129 11T59 81T34 206Q34 269 52 328T106 436T197 514T327 543ZM311 456Q269 456 239 431T191 368T163 287T154 206Q154
145 177 111T249 76Q290 76 320 101T369 164T397 246T406 327Q406 388 383 422T311 456ZM212 877L179 923L332 1061L400 1068L521 923L475 877L320 1004L400 1003L212 877Z" />
<glyph unicode="&#xf5;" horiz-adv-x="559" d="M327 543Q386 543 431 521T501 452T526 325Q526 263 508 203T454 95T363 18T233 -11Q174 -11 129 11T59 81T34 206Q34 269 52 328T106 436T197 514T327 543ZM311 456Q269 456 239 431T191 368T163 287T154 206Q154
145 177 111T249 76Q290 76 320 101T369 164T397 246T406 327Q406 388 383 422T311 456ZM413 643Q387 643 367 655T328 680T287 692Q268 692 251 681T217 644L171 671Q198 727 229 754T295 782Q322 782 342 770T381 745T421 733Q440 733 456 745T491 781L536 756Q509
699 479 671T413 643Z" />
<glyph unicode="&#xf6;" horiz-adv-x="559" d="M327 543Q386 543 431 521T501 452T526 325Q526 263 508 203T454 95T363 18T233 -11Q174 -11 129 11T59 81T34 206Q34 269 52 328T106 436T197 514T327 543ZM311 456Q269 456 239 431T191 368T163 287T154 206Q154
145 177 111T249 76Q290 76 320 101T369 164T397 246T406 327Q406 388 383 422T311 456ZM245 630Q219 630 205 647T190 692Q190 724 208 744T256 765Q282 765 297 749T312 703Q312 671 293 651T245 630ZM449 630Q423 630 408 647T393 692Q393 724 411 744T460 765Q486
765 501 749T516 703Q516 671 497 651T449 630Z" />
<glyph unicode="&#xf7;" horiz-adv-x="658" d="M569 394L555 306H116L130 394H569ZM306 97Q276 97 259 114T242 160Q242 194 264 215T320 237Q349 237 367 220T385 173Q385 138 362 118T306 97ZM364 465Q334 465 317 482T300 528Q300 562 322 583T378 605Q407
605 425 588T443 541Q443 506 420 486T364 465Z" />
<glyph unicode="&#xf8;" horiz-adv-x="583" d="M524 623L570 593L430 408L423 403L179 78L174 67L55 -89L9 -59L146 122L156 131L397 452L402 462L524 623ZM339 543Q397 543 442 521T512 452T537 326Q537 264 519 204T465 95T374 18T244 -11Q186 -11 141 11T71
81T45 206Q45 269 63 328T117 436T209 514T339 543ZM324 456Q281 456 251 431T202 368T175 286T166 205Q166 142 188 109T258 76Q301 76 331 101T380 165T408 247T417 327Q417 391 394 423T324 456Z" />
<glyph unicode="&#xf9;" horiz-adv-x="612" d="M193 -11Q149 -12 118 10T75 73T70 170L117 467L127 444L45 466L55 529L246 536L192 197Q187 162 190 137T207 97T244 83Q268 83 293 96T341 138T383 210T411 312L445 532H563L490 66L475 88L564 63L554 1L373 -4L405
177L441 239Q420 151 379 96T289 15T193 -11ZM296 829L490 669L447 609L235 741L296 829Z" />
<glyph unicode="&#xfa;" horiz-adv-x="612" d="M193 -11Q149 -12 118 10T75 73T70 170L117 467L127 444L45 466L55 529L246 536L192 197Q187 162 190 137T207 97T244 83Q268 83 293 96T341 138T383 210T411 312L445 532H563L490 66L475 88L564 63L554 1L373 -4L405
177L441 239Q420 151 379 96T289 15T193 -11ZM300 610L256 671L460 826L519 739L300 610Z" />
<glyph unicode="&#xfb;" horiz-adv-x="612" d="M193 -11Q149 -12 118 10T75 73T70 170L117 467L127 444L45 466L55 529L246 536L192 197Q187 162 190 137T207 97T244 83Q268 83 293 96T341 138T383 210T411 312L445 532H563L490 66L475 88L564 63L554 1L373 -4L405
177L441 239Q420 151 379 96T289 15T193 -11ZM226 877L193 923L346 1061L414 1068L535 923L489 877L334 1004L414 1003L226 877Z" />
<glyph unicode="&#xfc;" horiz-adv-x="612" d="M193 -11Q149 -12 118 10T75 73T70 170L117 467L127 444L45 466L55 529L246 536L192 197Q187 162 190 137T207 97T244 83Q268 83 293 96T341 138T383 210T411 312L445 532H563L490 66L475 88L564 63L554 1L373 -4L405
177L441 239Q420 151 379 96T289 15T193 -11ZM259 630Q233 630 219 647T204 692Q204 724 222 744T270 765Q296 765 311 749T326 703Q326 671 307 651T259 630ZM463 630Q437 630 422 647T407 692Q407 724 425 744T474 765Q500 765 515 749T530 703Q530 671 511 651T463
630Z" />
<glyph unicode="&#xfd;" horiz-adv-x="530" d="M-55 -235L-40 -148Q-27 -149 -16 -150T5 -151Q50 -151 81 -132T140 -74T196 25L190 -17L74 463L84 452L27 465L37 528L184 536L269 77L238 83L414 464L419 452L357 465L366 528L575 536L566 473L505 455L524 466L295
1Q282 -27 265 -59T224 -124T170 -182T99 -225T7 -241Q-23 -241 -55 -235ZM243 610L199 671L403 826L462 739L243 610Z" />
<glyph unicode="&#xfe;" horiz-adv-x="575" d="M-76 -230L-66 -167L65 -130L3 -196L146 705L161 684L72 706L82 770L276 776L205 355L162 294Q182 378 220 433T307 516T400 544Q439 544 471 524T523 459T543 341Q543 245 510 172T416 54T271 -3T87 8L154 18L120
-199L78 -128L207 -167L197 -230H-76ZM162 65L138 99Q203 75 255 82T345 122T403 207T423 329Q423 392 403 420T352 448Q329 448 304 434T255 390T213 318T186 216L162 65Z" />
<glyph unicode="&#xff;" horiz-adv-x="530" d="M-55 -235L-40 -148Q-27 -149 -16 -150T5 -151Q50 -151 81 -132T140 -74T196 25L190 -17L74 463L84 452L27 465L37 528L184 536L269 77L238 83L414 464L419 452L357 465L366 528L575 536L566 473L505 455L524 466L295
1Q282 -27 265 -59T224 -124T170 -182T99 -225T7 -241Q-23 -241 -55 -235ZM201 630Q175 630 161 647T146 692Q146 724 164 744T212 765Q238 765 253 749T268 703Q268 671 249 651T201 630ZM405 630Q379 630 364 647T349 692Q349 724 367 744T416 765Q442 765 457
749T472 703Q472 671 453 651T405 630Z" />
<glyph unicode="&#x2013;" horiz-adv-x="578" d="M533 340L518 247H59L73 340H533Z" />
<glyph unicode="&#x2014;" horiz-adv-x="814" d="M768 336L753 243H54L68 336H768Z" />
<glyph unicode="&#x2018;" horiz-adv-x="205" d="M201 572Q201 540 181 521T135 502Q112 502 94 518T76 566Q76 590 90 624T134 700T213 789L251 756Q216 705 202 677T187 634Q187 620 194 607T201 572Z" />
<glyph unicode="&#x2019;" horiz-adv-x="205" d="M120 717Q120 750 140 769T186 788Q208 788 226 772T245 723Q245 699 231 665T186 590T108 500L69 534Q105 584 119 612T134 655Q134 669 127 682T120 717Z" />
<glyph unicode="&#x201a;" horiz-adv-x="205" d="M18 48Q18 81 38 100T84 119Q106 119 124 103T143 54Q143 30 129 -4T84 -79T6 -169L-33 -135Q3 -85 17 -57T32 -14Q32 0 25 13T18 48Z" />
<glyph unicode="&#x201c;" horiz-adv-x="383" d="M203 585Q203 553 183 534T137 515Q114 515 96 531T78 579Q78 603 92 637T136 713T215 802L253 769Q218 718 204 690T189 647Q189 633 196 620T203 585ZM381 585Q381 553 361 534T315 515Q293 515 275 531T256
579Q256 603 270 637T315 713T393 802L432 769Q396 718 382 690T367 647Q367 633 374 620T381 585Z" />
<glyph unicode="&#x201d;" horiz-adv-x="383" d="M302 717Q302 750 322 769T368 788Q390 788 408 772T427 723Q427 699 413 665T368 590T290 500L251 534Q287 584 301 612T316 655Q316 669 309 682T302 717ZM124 717Q124 750 144 769T190 788Q212 788 230 772T249
723Q249 699 235 665T190 590T112 500L73 534Q109 584 123 612T138 655Q138 669 131 682T124 717Z" />
<glyph unicode="&#x201e;" horiz-adv-x="383" d="M196 48Q196 81 216 100T262 119Q284 119 302 103T321 54Q321 30 307 -4T262 -79T184 -169L145 -135Q181 -85 195 -57T210 -14Q210 0 203 13T196 48ZM18 48Q18 81 38 100T84 119Q106 119 124 103T143 54Q143 30
129 -4T84 -79T6 -169L-33 -135Q3 -85 17 -57T32 -14Q32 0 25 13T18 48Z" />
<glyph unicode="&#x2022;" horiz-adv-x="401" d="M65 306Q65 351 84 384T137 436T210 454Q251 454 282 436T330 386T348 310Q348 265 329 233T278 182T204 163Q163 163 132 181T83 231T65 306Z" />
<glyph unicode="&#x2039;" horiz-adv-x="293" d="M165 52L40 238L48 301L232 488L282 444L123 246L129 294L226 98L165 52Z" />
<glyph unicode="&#x203a;" horiz-adv-x="294" d="M129 488L254 301L246 238L63 52L12 95L172 293L166 245L68 442L129 488Z" />
</font>
</defs>
</svg>
