<?xml version="1.0" standalone="no"?>
<!DOCTYPE svg PUBLIC "-//W3C//DTD SVG 1.1//EN" "http://www.w3.org/Graphics/SVG/1.1/DTD/svg11.dtd">
<svg xmlns="http://www.w3.org/2000/svg">
<defs >
<font id="Bitter" horiz-adv-x="587" ><font-face
    font-family="Bitter Thin Light"
    units-per-em="1000"
    panose-1="0 0 0 0 0 0 0 0 0 0"
    ascent="935"
    descent="-265"
    alphabetic="0" />
<glyph unicode=" " horiz-adv-x="211" />
<glyph unicode="!" horiz-adv-x="339" d="M150 210L143 695H196L189 213L150 210ZM132 31Q132 48 143 58T169 69Q186 69 196 59T207 31Q207 13 196 3T169 -7Q152 -7 142 3T132 31Z" />
<glyph unicode="&quot;" horiz-adv-x="357" d="M94 542L84 765H136L126 542H94ZM232 542L222 765H274L264 542H232Z" />
<glyph unicode="#" horiz-adv-x="667" d="M101 506H605V472H101V506ZM63 238H567V204H63V238ZM241 695H283L185 0H143L241 695ZM481 695H523L425 0H383L481 695Z" />
<glyph unicode="$" horiz-adv-x="632" d="M304 -141V17L317 5Q311 4 304 4T290 3Q245 3 195 13T96 45L101 196H133L146 76Q182 60 220 52T295 44Q347 44 391 60T461 108T487 186Q487 227 467 253T413 297T339 326T258 353T183 386T129 437T108 517Q108 573 136
610T213 668T321 690L304 677V825H341V678L325 691H339Q368 691 399 686T462 673T522 651L514 505H483L472 624Q442 636 407 643T335 651Q289 651 248 638T182 597T157 524Q157 484 178 459T232 416T307 387T388 360T462 326T516 273T537 191Q537 133 508 93T431
31T325 4L341 19V-141H304Z" />
<glyph unicode="%" horiz-adv-x="834" d="M163 -8L629 702H673L207 -8H163ZM226 351Q146 351 109 398T71 523Q71 604 110 653T235 702Q316 702 351 658T387 537Q387 452 348 402T226 351ZM228 383Q292 383 319 424T347 531Q347 599 321 634T234 670Q168 670 140
631T111 525Q111 459 139 421T228 383ZM601 -7Q521 -7 483 40T445 164Q445 244 485 293T609 343Q690 343 725 298T761 178Q761 94 722 44T601 -7ZM602 25Q666 25 693 66T721 172Q722 239 696 275T608 311Q542 311 514 272T485 165Q485 101 513 63T602 25Z" />
<glyph unicode="&amp;" horiz-adv-x="700" d="M331 -7Q264 -7 213 15T132 82T102 193Q102 237 121 276T180 342T281 375L282 370Q199 380 160 424T120 525Q120 587 148 626T227 683T343 702Q395 702 442 693T534 668L528 532H496L484 649L495 640Q459 651 423
656T344 662Q264 662 217 630T170 523Q170 463 220 428T359 392H644V363L554 346L563 358V212Q563 139 534 90T452 17T331 -7ZM336 33Q417 33 466 76T515 207V362L526 353H353Q282 353 238 331T173 274T152 199Q152 120 203 77T336 33Z" />
<glyph unicode="&apos;" horiz-adv-x="220" d="M94 542L84 765H136L126 542H94Z" />
<glyph unicode="(" horiz-adv-x="304" d="M278 836Q197 730 156 610T114 372Q114 257 155 137T278 -91L247 -112Q157 -3 112 123T67 372Q67 495 112 622T247 857L278 836Z" />
<glyph unicode=")" horiz-adv-x="304" d="M26 -91Q108 16 149 136T190 373Q190 488 149 608T26 836L57 857Q148 748 192 622T237 373Q237 251 193 124T57 -112L26 -91Z" />
<glyph unicode="*" horiz-adv-x="493" d="M328 467L248 584L252 603L271 601L359 491L328 467ZM169 466L137 489L225 602L244 603L248 584L169 466ZM225 602L92 635L103 673L234 629L241 611L225 602ZM248 616L234 629L227 761L265 762L263 629L248 616ZM271 601L256
612L263 629L388 673L400 636L271 601Z" />
<glyph unicode="+" horiz-adv-x="584" d="M284 368L272 356V585H312V356L299 368H523V330H299L312 342V112H272V342L284 330H60V368H284Z" />
<glyph unicode="," horiz-adv-x="224" d="M62 -112Q90 -73 98 -49T107 -15Q107 -5 102 2T92 16T87 36Q87 55 98 64T124 74Q134 74 142 70T156 56T162 32Q162 9 144 -34T83 -128L62 -112Z" />
<glyph unicode="-" horiz-adv-x="464" d="M368 313V274H96V313H368Z" />
<glyph unicode="." horiz-adv-x="200" d="M62 36Q62 53 73 63T100 74Q117 74 127 64T138 36Q138 18 127 8T100 -2Q83 -2 73 8T62 36Z" />
<glyph unicode="/" horiz-adv-x="302" d="M296 799L42 -76H6L259 799H296Z" />
<glyph unicode="0" horiz-adv-x="645" d="M317 -7Q237 -7 184 31T105 147T78 341Q78 463 106 542T191 662T333 702Q413 702 464 666T541 555T566 364Q566 240 538 158T454 34T317 -7ZM320 33Q384 33 427 68T491 174T514 356Q516 470 494 537T431 633T330 662Q263
662 218 628T151 523T129 345Q129 237 151 169T215 67T320 33Z" />
<glyph unicode="1" horiz-adv-x="393" d="M253 33L241 47L377 30V0H56V30L217 47L205 33V653L218 649L39 545L22 577L215 698H253V33Z" />
<glyph unicode="2" horiz-adv-x="534" d="M47 0V44Q168 159 249 245T371 400T412 529Q412 597 365 629T246 662Q215 662 176 655T96 635L104 646L91 520H60L52 664Q106 682 157 692T253 702Q314 702 361 684T436 629T464 535Q464 468 425 398T306 240T105 35L103
42H484V0H47Z" />
<glyph unicode="3" horiz-adv-x="567" d="M250 -7Q198 -7 146 7T47 50L64 88Q108 62 155 49T251 35Q305 35 347 52T413 105T438 195Q438 237 420 272T359 327T246 348H164V387H249Q337 387 379 424T422 527Q422 601 377 632T261 664Q224 664 185 657T108 637L117
647L105 522H74L67 664Q119 682 172 692T272 702Q331 702 376 685T447 631T473 533Q473 462 434 421T310 367L309 370Q399 364 443 318T488 195Q488 145 471 107T421 44T344 6T250 -7Z" />
<glyph unicode="4" horiz-adv-x="571" d="M374 198L388 186H22L15 223L365 705L423 695V216L409 227H553V186H409L423 198V0H374V198ZM388 227L375 216V671L389 669L58 211L49 227H388Z" />
<glyph unicode="5" horiz-adv-x="528" d="M240 -7Q147 -7 53 40L69 78Q111 57 153 46T235 35Q292 35 334 57T399 119T423 213Q423 269 395 303T308 353T158 369H95L109 695H445V654H143L158 665L146 396L132 408H190Q287 408 350 386T444 320T475 211Q475 145
445 96T363 20T240 -7Z" />
<glyph unicode="6" horiz-adv-x="584" d="M112 295L111 335Q162 373 218 392T328 411Q385 411 431 389T504 323T532 212Q532 145 504 96T424 20T305 -7Q233 -7 181 26T100 127T71 301Q71 424 109 513T218 652T387 702Q435 702 489 689L484 651Q458 656 434 658T390
661Q301 661 241 616T151 491T121 302Q121 165 169 100T307 34Q387 34 434 81T481 210Q481 266 459 302T399 355T316 372Q267 372 213 353T112 295Z" />
<glyph unicode="7" horiz-adv-x="483" d="M463 658L185 0H131L413 663L422 653H65L78 663L58 543H27V695H463V658Z" />
<glyph unicode="8" horiz-adv-x="601" d="M292 -7Q250 -7 211 5T140 41T91 99T73 179Q73 226 91 260T139 317T200 354T257 375L291 358Q270 351 242 339T186 306T141 257T123 184Q123 136 146 102T210 50T296 32Q345 32 385 51T449 105T474 188Q474 232 454 260T399
306T323 338T240 365T165 398T110 448T89 527Q89 586 120 625T201 683T308 702Q364 702 412 684T489 628T518 535Q518 491 500 461T454 410T394 378T334 359L301 378Q330 386 359 397T414 426T455 469T470 531Q470 576 447 605T387 649T306 664Q262 664 224 649T161
604T137 529Q137 487 158 461T213 417T289 387T372 360T447 326T502 273T524 191Q524 144 505 107T452 45T378 7T292 -7Z" />
<glyph unicode="9" horiz-adv-x="583" d="M471 406L472 367Q422 328 366 308T254 287Q198 287 153 308T80 373T51 481Q51 550 79 599T159 675T278 702Q350 702 403 669T484 568T513 395Q513 275 476 185T367 44T196 -7Q148 -7 94 7L100 45Q126 39 149 37T192 34Q283
34 342 79T432 205T462 394Q462 531 414 596T276 661Q197 661 150 615T103 486Q103 430 125 395T183 343T264 326Q317 326 370 347T471 406Z" />
<glyph unicode=":" horiz-adv-x="200" d="M62 36Q62 53 73 63T100 74Q117 74 127 64T138 36Q138 18 127 8T100 -2Q83 -2 73 8T62 36ZM62 413Q62 430 73 440T100 451Q117 451 127 441T138 413Q138 395 127 385T100 375Q83 375 73 385T62 413Z" />
<glyph unicode=";" horiz-adv-x="224" d="M62 -112Q90 -73 98 -49T107 -15Q107 -5 102 2T92 16T87 36Q87 55 98 64T124 74Q134 74 142 70T156 56T162 32Q162 9 144 -34T83 -128L62 -112ZM85 413Q85 430 96 440T123 451Q140 451 150 441T161 413Q161 395 150 385T123
375Q106 375 96 385T85 413Z" />
<glyph unicode="&lt;" horiz-adv-x="570" d="M478 140L64 330V370L478 571L492 535L98 345V357L492 177L478 140Z" />
<glyph unicode="=" horiz-adv-x="561" d="M501 457V419H61V457H501ZM501 533V495H61V533H501Z" />
<glyph unicode="&gt;" horiz-adv-x="564" d="M87 551L499 381V341L87 160L73 195L466 366V353L73 512L87 551Z" />
<glyph unicode="?" horiz-adv-x="401" d="M123 219Q122 235 120 253T118 283Q118 319 136 347T181 399T235 449T280 503T299 569Q299 618 266 640T183 663Q156 663 126 657T63 640L52 674Q124 703 193 703Q237 703 272 690T328 649T349 576Q349 532 330 499T283
439T227 387T180 335T161 273Q161 265 161 250T163 222L123 219ZM119 30Q119 48 130 58T157 69Q173 69 183 59T194 31Q194 13 183 3T156 -7Q139 -7 129 3T119 30Z" />
<glyph unicode="@" horiz-adv-x="877" d="M412 -107Q314 -107 241 -61T128 68T88 261Q88 349 114 419T188 539T303 615T451 641Q531 641 595 616T705 544T774 433T799 290Q799 187 756 127T638 67Q593 67 566 90T536 162L544 160Q516 120 476 94T390 67Q360 67
336 80T299 118T285 180Q285 234 319 263T432 293H546L535 284V361Q535 405 507 423T438 442Q410 442 378 435T317 413L308 441Q343 458 379 467T448 476Q504 476 540 447T576 355V170Q576 133 592 116T643 98Q700 98 728 150T757 283Q757 380 720 452T614 565T448
606Q352 606 280 565T169 447T130 263Q130 162 165 87T264 -29T416 -71Q453 -71 493 -64T573 -40L585 -71Q543 -88 499 -97T412 -107ZM402 100Q440 100 478 125T542 192L535 170V275L546 265H439Q377 265 353 244T328 183Q328 143 348 122T402 100Z" />
<glyph unicode="A" horiz-adv-x="706" d="M618 32L603 45L701 28V0H455V28L569 45L563 35L503 210L514 202H187L199 211L134 35L129 44L242 28V0H5V28L101 45L87 33L335 694L384 696L618 32ZM205 231L198 240H503L497 231L351 662L362 661L205 231Z" />
<glyph unicode="B" horiz-adv-x="645" d="M366 353L370 359Q437 358 481 336T546 275T568 186Q568 133 544 91T465 25T323 0H55V28L159 45L149 33V661L160 648L55 662V690L197 695H332Q404 695 450 674T519 616T541 526Q541 459 501 414T366 353ZM321 657H187L198
667V364L187 374H295Q363 374 406 392T470 443T491 520Q491 563 473 593T417 640T321 657ZM320 38Q390 38 433 57T497 109T517 187Q517 231 499 264T443 317T348 336H187L198 348V28L187 38H320Z" />
<glyph unicode="C" horiz-adv-x="653" d="M355 -7Q276 -7 212 33T109 153T71 344Q71 457 109 537T217 659T376 702Q424 702 477 691T588 653L582 509H551L537 636L547 623Q503 642 458 651T375 661Q300 661 244 624T156 517T124 351Q124 250 156 180T244 73T368
36Q418 36 471 57T575 123L597 92Q540 42 478 18T355 -7Z" />
<glyph unicode="D" horiz-adv-x="721" d="M346 695Q408 695 463 675T560 614T627 509T652 357Q652 240 609 161T494 41T332 0H55V28L159 45L149 33V661L159 648L55 662V690L223 695H346ZM333 39Q385 39 433 56T518 111T577 209T599 352Q599 433 579 491T522 585T441
639T344 656H187L198 667V28L187 39H333Z" />
<glyph unicode="E" horiz-adv-x="628" d="M521 152H552V0H55V28L159 45L149 33V661L159 648L55 662V690L198 695H539V549H508L492 666L504 656H187L198 667V365L187 375H469V337H187L198 349V28L187 39H517L504 28L521 152Z" />
<glyph unicode="F" horiz-adv-x="565" d="M55 0V28L158 45L149 34V661L159 648L55 662V690L198 695H529L530 548H498L482 665L494 656H187L198 667V355L187 365H456V326H187L198 337V34L188 45L314 28V0H55Z" />
<glyph unicode="G" horiz-adv-x="749" d="M385 -7Q289 -7 219 32T109 149T70 339Q70 455 110 536T223 659T396 702Q448 702 505 690T623 653L617 509H585L572 635L580 624Q535 640 485 650T391 661Q309 661 249 623T156 512T123 340Q123 192 195 113T391 34Q435
34 482 44T581 75L573 61V291L584 280L479 291V320L709 325V296L611 279L620 291V45Q557 19 498 6T385 -7Z" />
<glyph unicode="H" horiz-adv-x="800" d="M55 0V28L159 45L149 33V662L160 648L55 662V690L292 695V667L187 648L198 662V362L187 373H614L603 362V662L614 649L509 662V690L746 695V667L642 649L652 662V33L642 45L746 28V0H509V28L613 45L603 33V344L614 334H187L198
344V33L188 45L292 28V0H55Z" />
<glyph unicode="I" horiz-adv-x="346" d="M292 667L189 649L198 660V34L189 45L292 28V0H55V28L158 45L149 34V660L159 649L55 662V690L292 695V667Z" />
<glyph unicode="J" horiz-adv-x="324" d="M36 690L282 695V667L179 649L188 662V27Q188 -14 179 -44T151 -94T104 -124T38 -134Q26 -134 15 -133T-9 -131L-5 -92Q4 -93 12 -93T30 -94Q88 -94 113 -67T139 20V662L148 650L36 662V690Z" />
<glyph unicode="K" horiz-adv-x="705" d="M607 34L589 44L688 28V0H457V28L554 44L550 35L331 347L350 336H187L198 348V33L188 46L291 28V0H55V28L158 45L149 33V662L158 649L55 662V690L291 695V667L188 649L198 662V364L187 375H347L330 365L511 661L517 651L415
662V690L644 695V667L544 649L560 660L369 352V369L607 34Z" />
<glyph unicode="L" horiz-adv-x="550" d="M488 161H519V0H55V28L158 45L149 33V661L158 648L55 662V690L305 695V667L189 648L198 661V28L187 39H482L471 28L488 161Z" />
<glyph unicode="M" horiz-adv-x="901" d="M846 667L742 648L752 663V33L742 45L846 28V0H613V28L717 45L706 33V636L714 635L463 182L427 178L183 638L191 639V33L181 45L285 28V0H55V28L159 45L149 33V663L159 649L55 662V690L209 695L454 226H445L696 690L846 695V667Z" />
<glyph unicode="N" horiz-adv-x="803" d="M530 690L760 695V667L656 649L666 662V0H613L184 642L192 643V33L182 45L286 28V0H55V28L159 45L149 33V662L158 649L55 662V690L208 695L631 62L623 61V662L634 650L530 662V690Z" />
<glyph unicode="O" horiz-adv-x="751" d="M367 -7Q285 -7 218 31T111 147T70 341Q70 432 95 499T163 612T262 680T381 702Q441 702 495 681T591 618T657 511T682 358Q682 241 640 160T526 36T367 -7ZM370 34Q438 34 497 68T592 174T629 354Q629 459 595 527T504
628T378 661Q311 661 253 627T159 523T123 343Q123 237 157 169T247 68T370 34Z" />
<glyph unicode="P" horiz-adv-x="588" d="M285 277H186L198 287V33L188 45L316 28V0H55V28L160 45L149 33V662L160 649L55 662V690L199 695H324Q398 695 446 671T520 602T545 497Q545 430 515 380T427 304T285 277ZM317 656H187L198 667V305L186 315H286Q385 315
439 363T494 495Q494 570 449 613T317 656Z" />
<glyph unicode="Q" horiz-adv-x="763" d="M673 -163Q641 -163 602 -146T504 -92T352 -2L368 -7Q285 -6 218 33T110 149T70 342Q70 432 95 499T163 612T264 679T386 702Q448 702 503 681T601 618T667 511T692 358Q692 250 656 173T556 51T413 -4V2Q488 -38 535
-66T615 -107T674 -121Q697 -121 722 -112T782 -82L801 -114Q760 -138 731 -150T673 -163ZM123 343Q123 238 157 170T248 68T375 34Q447 34 507 69T604 175T640 355Q640 459 605 526T513 627T384 661Q313 661 254 627T159 522T123 343Z" />
<glyph unicode="R" horiz-adv-x="653" d="M55 0V28L159 45L149 33V661L160 648L55 662V690L200 695H327Q436 695 492 650T548 518Q548 437 497 386T343 326L342 332Q381 327 405 313T446 274T480 213L567 35L550 46L631 28V0H529L436 200Q416 244 397 269T348
306T265 318L187 317L198 327V33L188 45L313 28V0H55ZM198 341L187 355H289Q389 355 443 395T497 515Q497 584 453 620T321 656H187L198 667V341Z" />
<glyph unicode="S" horiz-adv-x="599" d="M139 528Q139 486 159 460T214 417T289 388T370 362T445 328T499 274T520 188Q520 121 486 78T396 14T273 -8Q226 -8 176 2T78 34L84 185H115L129 54L122 67Q160 50 199 42T277 33Q330 33 373 49T444 99T471 182Q471 226
450 253T395 297T321 326T240 352T165 384T111 436T90 520Q90 581 120 621T202 682T319 702Q364 702 411 693T505 662L498 516H466L455 642L465 631Q433 646 395 654T318 662Q272 662 231 649T164 606T139 528Z" />
<glyph unicode="T" horiz-adv-x="571" d="M153 0V28L272 45L261 31V667L273 656H65L79 668L61 540H30V695H541V540H509L492 667L505 656H298L310 667V31L299 45L418 28V0H153Z" />
<glyph unicode="U" horiz-adv-x="752" d="M482 690L719 695V667L616 649L625 663V259Q625 228 621 192T604 121T563 57T490 10T374 -7Q300 -7 254 11T181 60T144 125T131 192T128 249V663L137 649L34 662V690L271 695V667L168 649L177 663V249Q177 224 179 195T190
137T220 85T279 47T374 33Q434 33 472 47T531 87T562 142T574 202T576 259V663L585 650L482 662V690Z" />
<glyph unicode="V" horiz-adv-x="684" d="M311 -2L90 660L105 649L6 662V690L253 695V667L137 649L143 663L344 44H336L549 661L554 650L439 662V690L679 695V667L580 649L594 661L362 -2H311Z" />
<glyph unicode="W" horiz-adv-x="1026" d="M783 690L1020 695V667L921 650L935 664L746 -2H698L509 632L518 631L318 -2H269L93 662L103 650L6 662V690L250 695V667L135 649L143 662L302 46L292 47L493 691L539 695L730 49H720L891 661L897 650L783 662V690Z" />
<glyph unicode="X" horiz-adv-x="690" d="M590 32L571 44L667 28V0H425V28L535 44L533 33L335 337H349L149 32L145 45L257 28V0H24V28L121 44L103 32L325 366L324 348L118 661L134 650L38 662V690L275 695V667L171 650L175 660L356 382L342 383L526 660L530 649L425
662V690L653 695V667L556 648L572 661L365 353L366 371L590 32Z" />
<glyph unicode="Y" horiz-adv-x="638" d="M199 0V28L304 45L294 33V270L300 246L88 660L102 649L4 662V690L249 695V667L133 650L139 661L327 287H316L506 660L511 650L395 662V690L634 695V667L537 650L551 661L337 246L342 270V33L332 45L437 28V0H199Z" />
<glyph unicode="Z" horiz-adv-x="613" d="M49 0V35L496 664L502 655H107L121 664L104 537H72V695H550V660L105 30L102 40H522L506 30L525 158H556L553 0H49Z" />
<glyph unicode="[" horiz-adv-x="343" d="M126 -98V843L326 838V806L169 803V-57L326 -61V-93L126 -98Z" />
<glyph unicode="\" horiz-adv-x="303" d="M6 799H44L298 -76H260L6 799Z" />
<glyph unicode="]" horiz-adv-x="343" d="M217 843V-98L17 -93V-61L174 -57V803L17 806V838L217 843Z" />
<glyph unicode="^" horiz-adv-x="546" d="M72 525L256 853H291L474 525H428L262 830H284L117 525H72Z" />
<glyph unicode="_" horiz-adv-x="496" d="M497 -75V-111H-1V-75H497Z" />
<glyph unicode="`" horiz-adv-x="289" d="M78 788L241 654L221 627L47 747L78 788Z" />
<glyph unicode="a" horiz-adv-x="540" d="M433 31L423 44L518 30V2L396 -3L389 93L394 90Q349 43 296 18T194 -7Q136 -7 99 29T61 138Q61 197 85 228T152 270T247 281H393L385 273V383Q385 442 352 468T263 494Q233 494 199 487T127 467L137 479L129 384H94L86
495Q138 513 185 522T273 532Q347 532 390 499T433 391V31ZM110 143Q110 86 137 59T208 31Q248 31 296 55T390 121L385 105V255L393 247H254Q176 247 143 223T110 143Z" />
<glyph unicode="b" horiz-adv-x="573" d="M251 -7Q217 -7 179 -2T99 13V734L111 717L14 734V762L147 768V440L140 448Q183 490 229 511T320 532Q375 532 419 501T490 412T517 268Q517 201 500 150T449 64T366 11T251 -7ZM260 30Q358 30 412 89T467 264Q467 337
446 388T388 466T305 494Q266 494 224 473T140 410L147 431V32L139 49Q207 30 260 30Z" />
<glyph unicode="c" horiz-adv-x="511" d="M271 -7Q210 -7 161 24T83 114T54 255Q54 325 73 376T126 463T203 515T295 532Q330 532 374 522T454 491L451 377H415L403 477L409 468Q379 483 348 488T293 494Q236 494 194 466T128 385T104 259Q104 187 127 136T191
59T282 32Q320 32 362 48T448 96L467 67Q416 29 367 11T271 -7Z" />
<glyph unicode="d" d="M254 -7Q199 -7 154 23T83 113T57 256Q57 391 125 461T311 532Q341 532 372 528T438 513L426 507V727L434 717L337 735V762L474 768V33L465 44L559 30V2L438 -3L429 82L436 79Q390 36 345 15T254 -7ZM268 31Q307 31 349 51T433 114L426 95V485L434
472Q366 494 309 494Q212 494 160 433T107 260Q107 188 128 137T186 58T268 31Z" />
<glyph unicode="e" horiz-adv-x="546" d="M276 -7Q212 -7 163 23T85 112T57 255Q57 339 85 401T166 498T290 532Q356 532 400 503T466 423T488 306Q488 298 488 290T486 268H90V305H447L438 299Q439 351 425 395T378 467T287 494Q230 494 190 465T128 383T106
261Q106 189 128 138T191 59T286 32Q327 32 373 47T468 96L487 67Q433 29 379 11T276 -7Z" />
<glyph unicode="f" horiz-adv-x="334" d="M43 0V28L136 44L127 35V493L136 484H42V513L136 521L127 510V604Q127 690 170 731T286 772Q309 772 335 768T389 754L380 719Q355 727 333 731T291 735Q237 735 206 704T175 609V510L165 521H323L321 484H167L175 493V35L167
44L278 28V0H43Z" />
<glyph unicode="g" horiz-adv-x="551" d="M267 -237Q154 -237 97 -203T40 -105Q40 -63 68 -28T150 37L152 28Q123 29 109 37T95 64Q95 71 97 78T103 99T117 138T143 206L146 197Q106 219 85 257T64 347Q64 433 118 482T268 532Q328 532 373 511L357 514L508 523L509
491L410 472L415 480Q439 458 451 427T464 356Q464 270 409 220T261 170Q203 170 157 192L168 199L137 56L126 64H319Q413 64 462 28T512 -77Q512 -155 450 -196T267 -237ZM270 -199Q367 -199 415 -169T464 -80Q464 -28 426 -2T311 25H161L178 29Q84 -31 84 -97Q84
-147 130 -173T270 -199ZM261 207Q334 207 374 245T415 354Q415 423 377 459T266 496Q194 496 154 458T114 349Q114 281 152 244T261 207Z" />
<glyph unicode="h" horiz-adv-x="615" d="M29 0V28L123 45L114 34V729L123 718L29 734V762L162 768V429L151 432Q201 484 255 508T359 532Q403 532 437 515T491 461T509 370V34L501 45L594 28V0H378V28L471 44L461 33V359Q463 428 431 460T344 493Q303 493 253
470T156 398L162 411V33L153 44L245 28V0H29Z" />
<glyph unicode="i" horiz-adv-x="287" d="M175 35L167 44L259 28V0H42V28L134 44L127 35V487L134 479L42 494V522L175 528V35ZM143 652Q126 652 116 663T105 693Q105 714 116 725T144 736Q162 736 172 725T183 693Q183 673 172 663T143 652Z" />
<glyph unicode="j" horiz-adv-x="260" d="M9 -237Q1 -237 -9 -237T-31 -234L-27 -197Q-17 -198 -9 -198T7 -199Q65 -199 89 -169T113 -69V488L121 478L28 494V522L161 528V-52Q161 -95 154 -129T131 -187T84 -224T9 -237ZM129 652Q112 652 102 663T91 693Q91 714
102 725T130 736Q148 736 158 725T169 693Q169 673 158 663T129 652Z" />
<glyph unicode="k" horiz-adv-x="553" d="M29 0V28L123 45L114 33V728L121 718L29 734V762L162 768V300L151 311H294L280 302L395 492L400 483L312 495V522L519 528V501L426 484L442 494L319 291L317 308L475 36L463 45L549 27V0H443L283 281L296 274H151L162
282V33L153 45L245 28V0H29Z" />
<glyph unicode="l" horiz-adv-x="275" d="M162 35L154 44L246 28V0H29V28L121 44L114 35V727L121 718L29 734V762L162 768V35Z" />
<glyph unicode="m" horiz-adv-x="954" d="M506 428H499Q548 480 603 506T708 532Q768 532 808 493T849 370V34L840 45L933 28V0H718V28L810 44L801 33V359Q801 428 771 460T693 493Q652 493 602 469T505 395L510 408Q512 399 512 390T513 371V34L504 45L595 28V0H382V28L474
44L465 33V359Q465 428 435 460T357 493Q316 493 266 470T169 398L175 411V33L166 44L257 28V0H42V28L136 45L127 34V489L136 478L42 494V522L164 528L172 429L164 432Q214 484 268 508T372 532Q419 532 455 507T506 428Z" />
<glyph unicode="n" horiz-adv-x="628" d="M42 0V28L136 45L127 34V489L136 478L42 494V522L164 528L172 429L164 432Q214 484 269 508T373 532Q439 532 481 493T523 370V34L514 45L607 28V0H392V28L484 44L475 33V359Q475 428 443 460T358 493Q316 493 267 470T169
398L175 411V33L166 44L258 28V0H42Z" />
<glyph unicode="o" horiz-adv-x="575" d="M294 532Q398 532 458 464T519 272Q519 188 490 126T407 28T277 -7Q174 -7 115 59T56 251Q56 337 84 400T166 497T294 532ZM291 494Q203 494 155 430T106 254Q106 144 152 87T280 30Q341 30 383 59T447 142T469 268Q469
376 422 435T291 494Z" />
<glyph unicode="p" horiz-adv-x="589" d="M30 -230V-202L124 -185L115 -196V488L124 478L30 494V522L152 528L159 442L152 446Q199 489 245 510T336 532Q391 532 435 501T506 412T533 269Q533 179 502 117T415 24T283 -8Q254 -8 222 -3T153 12L163 20V-196L153
-185L261 -202V-230H30ZM280 30Q377 30 429 91T482 264Q482 337 461 388T404 466T321 494Q282 494 240 473T156 410L163 428V39L155 52Q223 30 280 30Z" />
<glyph unicode="q" horiz-adv-x="572" d="M327 -230V-201L435 -184L426 -196V79H436Q390 35 345 14T254 -8Q199 -8 154 22T83 112T57 256Q57 348 88 409T178 501T314 532Q351 532 391 526T474 507V-196L465 -184L559 -201V-230H327ZM268 30Q307 30 349 51T433
114L426 95V487L434 472Q366 494 309 494Q212 494 160 433T107 260Q107 187 128 136T186 58T268 30Z" />
<glyph unicode="r" horiz-adv-x="427" d="M42 0V28L135 44L127 33V489L136 478L42 494V522L164 528L172 429L164 432Q208 479 251 505T346 532Q378 532 412 522L406 397H374L363 500L370 487Q362 489 353 490T336 491Q291 491 250 465T169 395L175 412V33L165
44L278 28V0H42Z" />
<glyph unicode="s" horiz-adv-x="477" d="M116 400Q116 363 138 343T194 310T267 288T340 262T396 220T418 146Q418 95 390 61T315 10T209 -8Q172 -8 137 -2T63 14L70 137H101L111 33L103 43Q128 37 157 33T212 28Q256 28 292 40T349 77T371 139Q371 177 350 198T293
232T220 255T148 281T92 322T70 394Q70 441 95 472T162 517T252 532Q283 532 321 526T400 504L396 404H364L350 490L359 478Q304 496 252 496Q194 496 155 473T116 400Z" />
<glyph unicode="t" horiz-adv-x="344" d="M211 -7Q167 -7 140 20T113 105V498L123 489H16V517L123 526L113 515V644L161 651V515L152 525H311L309 489H152L161 498V112Q161 70 179 51T227 32Q246 32 268 38T315 57L327 27Q263 -7 211 -7Z" />
<glyph unicode="u" horiz-adv-x="613" d="M254 -7Q188 -7 146 33T104 156V489L113 478L20 494V522L152 528V165Q152 97 184 65T269 32Q312 32 361 55T458 127L452 113V490L461 478L368 494V522L500 528V35L491 43L585 30V2L463 -3L455 96L463 93Q413 41 358 17T254 -7Z" />
<glyph unicode="v" horiz-adv-x="517" d="M323 522L522 528V500L447 483L459 494L281 -2H224L57 493L68 483L-5 494V522L202 528V500L101 485L107 494L259 29H253L414 493L419 485L323 494V522Z" />
<glyph unicode="w" horiz-adv-x="782" d="M592 522L787 528V500L713 484L725 495L582 -2H528L387 492H397L250 -2H196L58 494L68 483L-5 494V522L199 528V500L99 485L106 494L230 28H222L365 524L421 529L561 27H552L682 493L689 484L592 494V522Z" />
<glyph unicode="x" horiz-adv-x="546" d="M9 0V27L98 43L83 33L247 275L259 281L420 522L518 528V500L431 482L448 494L290 263L280 258L109 0H9ZM327 0V28L406 40L402 31L252 254L87 495L101 484L21 494V522L217 528V500L133 486L139 497L283 282L453 33L440
41L529 28V0H327Z" />
<glyph unicode="y" horiz-adv-x="515" d="M18 -233L23 -196Q33 -198 41 -198T58 -199Q110 -199 141 -174T195 -100T238 21L237 0L53 492L63 485L-6 494V522L198 528V500L97 486L102 493L263 42L252 44L411 492L417 485L319 494V522L519 528V500L446 485L457 493L275
-3Q258 -51 241 -92T202 -167T146 -218T64 -237Q46 -237 18 -233Z" />
<glyph unicode="z" horiz-adv-x="469" d="M420 129L421 1L43 0V31L367 501L375 489H82L98 503L85 408H54L53 525H414V493L91 22L87 36L388 37L372 21L389 129H420Z" />
<glyph unicode="{" horiz-adv-x="330" d="M257 -98Q189 -98 162 -67T134 37V248Q134 295 115 324T42 354V391Q96 391 115 421T134 498V709Q134 782 162 812T257 843H294V811Q245 811 221 803T187 771T178 703V492Q178 439 162 413T119 377T64 368V378Q93 378 119
369T161 334T178 254V43Q178 -1 187 -24T220 -57T294 -66V-98H257Z" />
<glyph unicode="|" horiz-adv-x="340" d="M150 799H190V-95H150V799Z" />
<glyph unicode="}" horiz-adv-x="330" d="M73 -98Q141 -98 168 -67T196 37V248Q196 295 215 324T287 354V391Q234 391 215 421T196 498V709Q196 782 168 812T73 843H36V811Q84 811 109 803T143 771T152 703V492Q152 439 168 413T211 377T265 368V378Q237 378 211
369T169 334T152 254V43Q152 -1 143 -24T109 -57T36 -66V-98H73Z" />
<glyph unicode="~" horiz-adv-x="620" d="M423 295Q392 295 363 307T305 334T250 362T195 374Q171 374 147 362T96 312L71 328Q97 369 127 390T196 411Q228 411 257 399T315 372T370 345T425 333Q450 333 474 346T524 394L548 378Q521 336 491 316T423 295Z" />
<glyph unicode="&#xa0;" horiz-adv-x="211" />
<glyph unicode="&#xa1;" horiz-adv-x="339" d="M189 264L196 -221H143L150 261L189 264ZM207 443Q207 426 196 416T169 405Q152 405 142 415T132 443Q132 461 143 471T169 482Q186 482 196 472T207 443Z" />
<glyph unicode="&#xa2;" horiz-adv-x="592" d="M503 181Q455 145 409 128T318 107L330 121V-20H295V120L309 107Q244 107 194 137T116 222T87 351Q87 427 116 482T195 570T308 605L295 591V733H330V593L312 605Q345 606 377 602T436 588T487 565L484 454H450L439
546Q410 559 379 564T325 570Q268 570 225 542T159 466T135 355Q135 292 157 245T220 172T315 145Q355 145 397 161T484 209L503 181Z" />
<glyph unicode="&#xa3;" horiz-adv-x="694" d="M87 0V28L186 50L167 39Q196 61 207 99T218 186Q218 226 213 270T201 360L214 350H87V379L209 384L200 375Q195 416 191 455T186 523Q186 590 212 629T284 685T392 702Q432 702 478 696T573 679L566 536H535L522
659L531 647Q492 655 457 659T394 663Q318 663 277 633T236 525Q236 498 240 457T251 375L238 384H445V350H242L253 361Q258 319 263 278T268 197Q268 145 255 103T206 35L199 41L543 39L531 26L548 156H579V0H87Z" />
<glyph unicode="&#xa4;" horiz-adv-x="679" d="M556 128L530 100L439 184L460 183Q439 161 408 148T337 134Q297 134 267 147T217 183L239 185L147 99L124 125L214 210L211 188Q193 210 184 238T175 297Q175 329 185 358T214 412V392L122 479L148 507L241 420H222Q244
442 275 455T347 468Q385 468 413 457T461 425L442 424L530 507L553 481L465 399L466 420Q486 398 495 369T505 308Q505 275 495 245T466 191L463 213L556 128ZM339 169Q380 169 406 187T447 236T462 301Q463 359 434 396T345 433Q303 433 275 414T232 365T218
298Q218 245 248 207T339 169Z" />
<glyph unicode="&#xa5;" horiz-adv-x="733" d="M166 268V298H333L328 284L136 660L150 649L53 662V690L297 695V667L181 650L186 661L374 288H364L554 660L559 650L443 662V690L681 695V667L585 650L599 661L405 284L401 298H566V268H166ZM248 0V28L352 45L342
33V173L350 163H166V193H566V163H379L390 174V33L380 45L484 28V0H248Z" />
<glyph unicode="&#xa6;" horiz-adv-x="340" d="M150 438V799H190V438H150ZM150 -95V266H190V-95H150Z" />
<glyph unicode="&#xa7;" horiz-adv-x="580" d="M256 -177Q224 -177 189 -172T117 -155L124 -35H156L166 -138L158 -127Q184 -134 209 -138T258 -142Q319 -142 360 -114T401 -31Q401 9 380 37T325 87T255 129T184 172T129 225T108 298Q108 335 124 363T167 413T223
445L237 428Q218 419 198 401T165 358T152 305Q152 268 173 242T228 195T299 154T371 109T426 52T447 -29Q447 -78 422 -111T354 -160T256 -177ZM361 88L351 106Q369 119 387 138T418 181T430 234Q430 272 409 299T354 347T283 389T212 434T157 489T135 565Q135
630 184 666T311 702Q343 702 380 695T454 674L451 576H418L405 662L414 650Q388 658 362 662T311 667Q252 667 217 641T181 567Q181 530 202 503T257 455T328 414T398 371T453 316T475 240Q475 203 459 174T417 123T361 88Z" />
<glyph unicode="&#xa8;" horiz-adv-x="444" d="M315 654Q299 654 290 664T280 693Q280 712 290 723T315 734Q331 734 341 723T351 693Q351 675 341 665T315 654ZM128 654Q112 654 103 664T93 693Q93 712 103 723T128 734Q144 734 154 723T164 693Q164 675 154
665T128 654Z" />
<glyph unicode="&#xa9;" horiz-adv-x="910" d="M454 161Q387 161 341 208T295 344Q295 405 317 448T379 514T467 537Q523 537 581 508L579 421H551L542 493L550 487Q529 497 508 501T469 505Q408 505 373 463T337 347Q337 271 372 232T460 193Q488 193 518 204T579
238L596 213Q560 187 524 174T454 161ZM444 -7Q367 -7 303 18T192 90T120 200T94 340Q94 418 121 484T197 600T314 675T460 702Q537 702 602 676T716 604T791 494T818 355Q818 278 790 212T710 97T591 20T444 -7ZM447 25Q518 25 579 49T685 118T755 222T780 352Q780
445 739 516T624 629T457 670Q361 670 288 628T174 512T132 343Q132 251 171 179T282 66T447 25Z" />
<glyph unicode="&#xaa;" horiz-adv-x="437" d="M339 344L327 357L398 345V322L307 319L302 388L306 386Q273 353 234 335T158 316Q113 316 84 344T55 423Q55 464 73 486T123 517T194 526H304L298 521V594Q298 634 274 652T207 670Q184 670 158 666T105 651L113
663L104 592H78L71 675Q110 688 147 695T214 702Q273 702 306 678T339 600V344ZM96 425Q96 390 115 370T166 349Q197 349 233 365T303 410L298 396V508L304 500H200Q188 500 171 499T136 490T107 468T96 425ZM55 189V226H398V189H55Z" />
<glyph unicode="&#xab;" horiz-adv-x="478" d="M209 73L62 254V286L209 468L234 448L96 259V283L234 93L209 73ZM381 73L234 254V286L381 468L406 448L268 259V283L406 93L381 73Z" />
<glyph unicode="&#xac;" horiz-adv-x="625" d="M492 112V342L502 330H60V368H534V112H492Z" />
<glyph unicode="&#xad;" horiz-adv-x="431" d="M607 313V274H335V313H607Z" />
<glyph unicode="&#xae;" horiz-adv-x="776" d="M249 290V308L304 319L295 310V610L305 600L249 607V624L329 627H392Q450 627 480 606T511 543Q511 509 484 484T401 453L402 461Q433 457 449 442T479 398L525 307L513 318L554 308V290H497L448 392Q435 419 422
430T394 444T359 447H320L328 456V310L320 319L387 308V290H249ZM328 464L320 473H369Q422 473 449 491T476 542Q476 569 454 584T388 600H320L328 612V464ZM380 170Q297 170 234 205T135 304T99 450Q99 533 137 598T240 702T390 740Q474 740 539 705T642 606T679
460Q679 399 656 347T593 254T498 192T380 170ZM381 198Q457 198 517 232T613 325T648 459Q648 534 615 591T523 680T389 712Q314 712 256 678T164 585T131 451Q131 376 162 319T250 230T381 198Z" />
<glyph unicode="&#xaf;" horiz-adv-x="431" d="M339 715V676H92V715H339Z" />
<glyph unicode="&#xb0;" horiz-adv-x="447" d="M196 449Q132 449 94 487T55 590Q55 633 72 664T122 713T198 731Q261 731 299 693T338 591Q338 527 299 488T196 449ZM197 480Q245 480 273 509T301 591Q302 641 273 670T197 699Q149 699 121 671T91 592Q92 540
120 511T197 480Z" />
<glyph unicode="&#xb1;" horiz-adv-x="607" d="M296 412L284 399V617H323V399L311 412H524V374H311L323 386V168H284V386L296 374H84V412H296ZM524 83V45H84V83H524Z" />
<glyph unicode="&#xb2;" horiz-adv-x="348" d="M36 346V380Q107 446 155 496T228 586T253 662Q253 703 227 720T160 737Q116 737 71 721L77 730L70 655H44L39 748Q71 758 103 764T165 771Q221 771 258 747T296 668Q296 636 281 605T238 539T171 464T83 376L82
381H306V346H36Z" />
<glyph unicode="&#xb3;" horiz-adv-x="364" d="M163 341Q130 341 98 350T36 375L51 404Q77 389 104 382T159 374Q203 374 234 396T266 465Q266 502 243 526T158 551H105V581H158Q211 581 234 602T258 661Q258 703 233 721T167 739Q147 739 125 736T79 724L86 732L78
658H53L48 747Q82 759 114 764T176 770Q212 770 240 760T284 728T301 666Q301 623 278 599T208 566L206 568Q259 564 284 537T309 464Q309 422 289 395T236 354T163 341Z" />
<glyph unicode="&#xb4;" horiz-adv-x="303" d="M89 627L70 654L238 787L270 745L89 627Z" />
<glyph unicode="&#xb5;" horiz-adv-x="650" d="M127 144L142 90Q146 45 149 -6T155 -114T158 -230H110V490L118 479L25 494V522L158 525V164Q158 96 189 64T274 32Q316 32 366 55T463 128L458 114V491L466 479L373 494V522L506 526V35L496 44L590 30V2L469 -3L460
96L467 93Q418 42 365 18T265 -7Q206 -7 168 29T127 144Z" />
<glyph unicode="&#xb6;" horiz-adv-x="575" d="M132 -170V-142L236 -125L226 -137V360L245 342Q192 342 152 363T90 425T68 519Q68 572 90 611T153 673T247 695H505V667L401 649L411 662V-170H369V670L379 656L258 655L269 670V-170H132Z" />
<glyph unicode="&#xb7;" horiz-adv-x="200" d="M62 331Q62 348 73 358T100 369Q117 369 127 359T138 331Q138 313 127 303T100 293Q83 293 73 303T62 331Z" />
<glyph unicode="&#xb8;" horiz-adv-x="322" d="M155 -222Q136 -222 115 -218T74 -204L86 -175Q102 -181 120 -185T155 -189Q182 -189 201 -177T220 -143Q220 -126 209 -115T176 -98T121 -92L126 0H159V-63Q216 -68 238 -89T260 -139Q260 -167 246 -185T209 -213T155
-222Z" />
<glyph unicode="&#xb9;" horiz-adv-x="266" d="M170 373L162 383L246 370V346H41V370L139 382L131 373V731L142 729L33 662L20 688L140 768H170V373Z" />
<glyph unicode="&#xba;" horiz-adv-x="486" d="M234 314Q155 314 110 364T64 499Q64 559 86 604T149 676T248 702Q329 702 375 651T422 517Q422 459 400 413T335 341T234 314ZM75 189V226H411V189H75ZM238 347Q283 347 315 368T362 428T378 514Q378 585 344 627T245
669Q177 669 142 623T107 503Q107 431 141 389T238 347Z" />
<glyph unicode="&#xbb;" horiz-adv-x="478" d="M269 468L416 286V254L268 73L244 92L382 281V258L244 448L269 468ZM96 468L243 286V254L96 73L72 92L209 281V258L72 448L96 468Z" />
<glyph unicode="&#xbc;" horiz-adv-x="800" d="M199 303L191 313L275 300V276H70V300L168 312L160 303V661L171 659L62 592L49 618L169 698H199V303ZM146 -5L589 700H632L189 -5H146ZM641 119L649 109H438L432 140L632 427L682 421V132L672 141H757V109H672L682
119V0H641V119ZM650 141L641 132V400L649 399L461 128L456 141H650Z" />
<glyph unicode="&#xbd;" horiz-adv-x="822" d="M201 303L193 313L277 300V276H72V300L170 312L162 303V661L173 659L64 592L51 618L171 698H201V303ZM146 -5L589 700H632L189 -5H146ZM491 0V34Q562 100 610 150T683 240T708 316Q708 357 682 374T615 391Q571 391
526 375L532 384L525 309H499L494 402Q526 412 558 418T620 425Q676 425 713 401T751 322Q751 290 736 259T693 193T626 118T538 30L537 35H761V0H491Z" />
<glyph unicode="&#xbe;" horiz-adv-x="840" d="M163 271Q130 271 98 280T36 305L51 334Q77 319 104 312T159 304Q203 304 234 326T266 395Q266 432 243 456T158 481H105V511H158Q211 511 234 532T258 591Q258 633 233 651T167 669Q147 669 125 666T79 654L86 662L78
588H53L48 677Q82 689 114 694T176 700Q212 700 240 690T284 658T301 596Q301 553 278 529T208 496L206 498Q259 494 284 467T309 394Q309 352 289 325T236 284T163 271ZM187 -5L630 700H673L230 -5H187ZM683 119L691 109H480L474 140L674 427L724 421V132L714
141H799V109H714L724 119V0H683V119ZM692 141L683 132V400L691 399L503 128L498 141H692Z" />
<glyph unicode="&#xbf;" horiz-adv-x="410" d="M271 306Q273 290 275 272T277 242Q277 206 259 178T213 126T159 76T114 22T95 -45Q95 -93 128 -116T211 -139Q238 -139 269 -133T331 -115L343 -150Q271 -178 201 -178Q158 -178 123 -165T67 -124T46 -51Q46 -7
65 26T112 86T167 138T214 190T234 252Q234 260 233 275T231 303L271 306ZM276 494Q276 477 265 467T237 456Q221 456 211 466T200 494Q200 512 211 522T238 532Q255 532 265 522T276 494Z" />
<glyph unicode="&#xc0;" horiz-adv-x="706" d="M618 32L603 45L701 28V0H455V28L569 45L563 35L503 210L514 202H187L199 211L134 35L129 44L242 28V0H5V28L101 45L87 33L335 694L384 696L618 32ZM205 231L198 240H503L497 231L351 662L362 661L205 231ZM449 748L253
842L281 889L465 778L449 748Z" />
<glyph unicode="&#xc1;" horiz-adv-x="706" d="M618 32L603 45L701 28V0H455V28L569 45L563 35L503 210L514 202H187L199 211L134 35L129 44L242 28V0H5V28L101 45L87 33L335 694L384 696L618 32ZM205 231L198 240H503L497 231L351 662L362 661L205 231ZM279 748L262
778L446 889L471 843L279 748Z" />
<glyph unicode="&#xc2;" horiz-adv-x="706" d="M618 32L603 45L701 28V0H455V28L569 45L563 35L503 210L514 202H187L199 211L134 35L129 44L242 28V0H5V28L101 45L87 33L335 694L384 696L618 32ZM205 231L198 240H503L497 231L351 662L362 661L205 231ZM226 744L207
766L341 879L371 881L511 766L492 744L342 844H371L226 744Z" />
<glyph unicode="&#xc3;" horiz-adv-x="706" d="M618 32L603 45L701 28V0H455V28L569 45L563 35L503 210L514 202H187L199 211L134 35L129 44L242 28V0H5V28L101 45L87 33L335 694L384 696L618 32ZM205 231L198 240H503L497 231L351 662L362 661L205 231ZM233 774L208
785Q224 824 245 840T293 857Q317 857 340 847T385 826T425 815Q442 815 457 824T486 859L511 848Q494 809 473 793T425 776Q400 776 379 787T336 808T292 819Q274 819 261 808T233 774Z" />
<glyph unicode="&#xc4;" horiz-adv-x="706" d="M618 32L603 45L701 28V0H455V28L569 45L563 35L503 210L514 202H187L199 211L134 35L129 44L242 28V0H5V28L101 45L87 33L335 694L384 696L618 32ZM205 231L198 240H503L497 231L351 662L362 661L205 231ZM453 770Q437
770 428 780T418 809Q418 828 428 839T453 850Q469 850 479 839T489 809Q489 791 479 781T453 770ZM266 770Q250 770 241 780T231 809Q231 828 241 839T266 850Q282 850 292 839T302 809Q302 791 292 781T266 770Z" />
<glyph unicode="&#xc5;" horiz-adv-x="706" d="M618 32L603 45L701 28V0H455V28L569 45L563 35L503 210L514 202H187L199 211L134 35L129 44L242 28V0H5V28L101 45L87 33L335 694L384 696L618 32ZM205 231L198 240H503L497 231L351 662L362 661L205 231ZM359 734Q336
734 316 743T283 771T270 816Q270 842 282 861T315 890T361 900Q386 900 406 891T438 863T451 818Q451 793 439 774T406 745T359 734ZM360 763Q386 763 400 778T415 818Q415 841 401 856T360 871Q334 871 320 856T306 816Q306 793 320 778T360 763Z" />
<glyph unicode="&#xc6;" horiz-adv-x="947" d="M0 0V28L97 45L81 33L412 660L419 649L320 662V690L491 695H858V549H827L810 668L823 656H511L522 667V376L511 386H788V348H511L522 360V28L511 39H836L823 27L840 152H871V0H381V28L483 46L473 34V231L484 220H218L233
230L129 33L124 45L237 28V0H0ZM242 249L235 258H484L473 248V665L484 656H447L461 664L242 249Z" />
<glyph unicode="&#xc7;" horiz-adv-x="653" d="M355 -7Q276 -7 212 33T109 153T71 344Q71 457 109 537T217 659T376 702Q424 702 477 691T588 653L582 509H551L537 636L547 623Q503 642 458 651T375 661Q300 661 244 624T156 517T124 351Q124 250 156 180T244
73T368 36Q418 36 471 57T575 123L597 92Q540 42 478 18T355 -7ZM370 -222Q351 -222 330 -218T289 -204L301 -175Q317 -181 335 -185T370 -189Q397 -189 416 -177T435 -143Q435 -126 424 -115T391 -98T336 -92L341 0H374V-63Q431 -68 453 -89T475 -139Q475 -167
461 -185T424 -213T370 -222Z" />
<glyph unicode="&#xc8;" horiz-adv-x="628" d="M521 152H552V0H55V28L159 45L149 33V661L159 648L55 662V690L198 695H539V549H508L492 666L504 656H187L198 667V365L187 375H469V337H187L198 349V28L187 39H517L504 28L521 152ZM414 748L218 842L246 889L430
778L414 748Z" />
<glyph unicode="&#xc9;" horiz-adv-x="628" d="M521 152H552V0H55V28L159 45L149 33V661L159 648L55 662V690L198 695H539V549H508L492 666L504 656H187L198 667V365L187 375H469V337H187L198 349V28L187 39H517L504 28L521 152ZM244 748L227 778L411 889L436
843L244 748Z" />
<glyph unicode="&#xca;" horiz-adv-x="628" d="M521 152H552V0H55V28L159 45L149 33V661L159 648L55 662V690L198 695H539V549H508L492 666L504 656H187L198 667V365L187 375H469V337H187L198 349V28L187 39H517L504 28L521 152ZM192 744L173 766L307 879L337
881L477 766L458 744L308 844H337L192 744Z" />
<glyph unicode="&#xcb;" horiz-adv-x="628" d="M521 152H552V0H55V28L159 45L149 33V661L159 648L55 662V690L198 695H539V549H508L492 666L504 656H187L198 667V365L187 375H469V337H187L198 349V28L187 39H517L504 28L521 152ZM418 770Q402 770 393 780T383
809Q383 828 393 839T418 850Q434 850 444 839T454 809Q454 791 444 781T418 770ZM231 770Q215 770 206 780T196 809Q196 828 206 839T231 850Q247 850 257 839T267 809Q267 791 257 781T231 770Z" />
<glyph unicode="&#xcc;" horiz-adv-x="346" d="M292 667L189 649L198 660V34L189 45L292 28V0H55V28L158 45L149 34V660L159 649L55 662V690L292 695V667ZM518 748L322 842L350 889L534 778L518 748Z" />
<glyph unicode="&#xcd;" horiz-adv-x="346" d="M292 667L189 649L198 660V34L189 45L292 28V0H55V28L158 45L149 34V660L159 649L55 662V690L292 695V667ZM92 748L75 778L259 889L284 843L92 748Z" />
<glyph unicode="&#xce;" horiz-adv-x="346" d="M292 667L189 649L198 660V34L189 45L292 28V0H55V28L158 45L149 34V660L159 649L55 662V690L292 695V667ZM296 744L277 766L411 879L441 881L581 766L562 744L412 844H441L296 744Z" />
<glyph unicode="&#xcf;" horiz-adv-x="346" d="M292 667L189 649L198 660V34L189 45L292 28V0H55V28L158 45L149 34V660L159 649L55 662V690L292 695V667ZM522 770Q506 770 497 780T487 809Q487 828 497 839T522 850Q538 850 548 839T558 809Q558 791 548 781T522
770ZM335 770Q319 770 310 780T300 809Q300 828 310 839T335 850Q351 850 361 839T371 809Q371 791 361 781T335 770Z" />
<glyph unicode="&#xd0;" horiz-adv-x="721" d="M55 337V374H381V337H55ZM346 695Q408 695 463 675T560 614T627 509T652 357Q652 240 609 161T494 41T332 0H55V28L159 45L149 33V661L159 648L55 662V690L223 695H346ZM333 39Q385 39 433 56T518 111T577 209T599
352Q599 433 579 491T522 585T441 639T344 656H187L198 667V28L187 39H333Z" />
<glyph unicode="&#xd1;" horiz-adv-x="803" d="M530 690L760 695V667L656 649L666 662V0H613L184 642L192 643V33L182 45L286 28V0H55V28L159 45L149 33V662L158 649L55 662V690L208 695L631 62L623 61V662L634 650L530 662V690ZM288 774L263 785Q279 824 300
840T348 857Q372 857 395 847T440 826T480 815Q497 815 512 824T541 859L566 848Q549 809 528 793T480 776Q455 776 434 787T391 808T347 819Q329 819 316 808T288 774Z" />
<glyph unicode="&#xd2;" horiz-adv-x="751" d="M367 -7Q285 -7 218 31T111 147T70 341Q70 432 95 499T163 612T262 680T381 702Q441 702 495 681T591 618T657 511T682 358Q682 241 640 160T526 36T367 -7ZM370 34Q438 34 497 68T592 174T629 354Q629 459 595 527T504
628T378 661Q311 661 253 627T159 523T123 343Q123 237 157 169T247 68T370 34ZM469 748L273 842L301 889L485 778L469 748Z" />
<glyph unicode="&#xd3;" horiz-adv-x="751" d="M367 -7Q285 -7 218 31T111 147T70 341Q70 432 95 499T163 612T262 680T381 702Q441 702 495 681T591 618T657 511T682 358Q682 241 640 160T526 36T367 -7ZM370 34Q438 34 497 68T592 174T629 354Q629 459 595 527T504
628T378 661Q311 661 253 627T159 523T123 343Q123 237 157 169T247 68T370 34ZM299 748L282 778L466 889L491 843L299 748Z" />
<glyph unicode="&#xd4;" horiz-adv-x="751" d="M367 -7Q285 -7 218 31T111 147T70 341Q70 432 95 499T163 612T262 680T381 702Q441 702 495 681T591 618T657 511T682 358Q682 241 640 160T526 36T367 -7ZM370 34Q438 34 497 68T592 174T629 354Q629 459 595 527T504
628T378 661Q311 661 253 627T159 523T123 343Q123 237 157 169T247 68T370 34ZM246 744L227 766L361 879L391 881L531 766L512 744L362 844H391L246 744Z" />
<glyph unicode="&#xd5;" horiz-adv-x="751" d="M367 -7Q285 -7 218 31T111 147T70 341Q70 432 95 499T163 612T262 680T381 702Q441 702 495 681T591 618T657 511T682 358Q682 241 640 160T526 36T367 -7ZM370 34Q438 34 497 68T592 174T629 354Q629 459 595 527T504
628T378 661Q311 661 253 627T159 523T123 343Q123 237 157 169T247 68T370 34ZM253 774L228 785Q244 824 265 840T313 857Q337 857 360 847T405 826T445 815Q462 815 477 824T506 859L531 848Q514 809 493 793T445 776Q420 776 399 787T356 808T312 819Q294 819
281 808T253 774Z" />
<glyph unicode="&#xd6;" horiz-adv-x="751" d="M367 -7Q285 -7 218 31T111 147T70 341Q70 432 95 499T163 612T262 680T381 702Q441 702 495 681T591 618T657 511T682 358Q682 241 640 160T526 36T367 -7ZM370 34Q438 34 497 68T592 174T629 354Q629 459 595 527T504
628T378 661Q311 661 253 627T159 523T123 343Q123 237 157 169T247 68T370 34ZM473 770Q457 770 448 780T438 809Q438 828 448 839T473 850Q489 850 499 839T509 809Q509 791 499 781T473 770ZM286 770Q270 770 261 780T251 809Q251 828 261 839T286 850Q302 850
312 839T322 809Q322 791 312 781T286 770Z" />
<glyph unicode="&#xd7;" horiz-adv-x="510" d="M98 164L70 192L236 357V340L70 506L98 534L264 368H246L412 534L440 506L274 340V358L440 192L412 164L245 330H263L98 164Z" />
<glyph unicode="&#xd8;" horiz-adv-x="752" d="M620 766L650 748L570 623L562 612L218 68L213 58L131 -72L101 -53L184 78L191 88L535 631L540 642L620 766ZM367 -7Q286 -7 219 31T111 147T71 341Q71 432 95 499T163 612T263 680T381 702Q441 702 495 681T592
618T658 511T682 358Q682 241 640 160T526 36T367 -7ZM370 34Q439 34 498 68T593 174T630 354Q630 459 596 527T504 628T379 661Q311 661 253 627T159 523T124 343Q124 237 157 169T247 68T370 34Z" />
<glyph unicode="&#xd9;" horiz-adv-x="752" d="M482 690L719 695V667L616 649L625 663V259Q625 228 621 192T604 121T563 57T490 10T374 -7Q300 -7 254 11T181 60T144 125T131 192T128 249V663L137 649L34 662V690L271 695V667L168 649L177 663V249Q177 224 179
195T190 137T220 85T279 47T374 33Q434 33 472 47T531 87T562 142T574 202T576 259V663L585 650L482 662V690ZM466 748L270 842L298 889L482 778L466 748Z" />
<glyph unicode="&#xda;" horiz-adv-x="752" d="M482 690L719 695V667L616 649L625 663V259Q625 228 621 192T604 121T563 57T490 10T374 -7Q300 -7 254 11T181 60T144 125T131 192T128 249V663L137 649L34 662V690L271 695V667L168 649L177 663V249Q177 224 179
195T190 137T220 85T279 47T374 33Q434 33 472 47T531 87T562 142T574 202T576 259V663L585 650L482 662V690ZM296 748L279 778L463 889L488 843L296 748Z" />
<glyph unicode="&#xdb;" horiz-adv-x="752" d="M482 690L719 695V667L616 649L625 663V259Q625 228 621 192T604 121T563 57T490 10T374 -7Q300 -7 254 11T181 60T144 125T131 192T128 249V663L137 649L34 662V690L271 695V667L168 649L177 663V249Q177 224 179
195T190 137T220 85T279 47T374 33Q434 33 472 47T531 87T562 142T574 202T576 259V663L585 650L482 662V690ZM243 744L224 766L358 879L388 881L528 766L509 744L359 844H388L243 744Z" />
<glyph unicode="&#xdc;" horiz-adv-x="752" d="M482 690L719 695V667L616 649L625 663V259Q625 228 621 192T604 121T563 57T490 10T374 -7Q300 -7 254 11T181 60T144 125T131 192T128 249V663L137 649L34 662V690L271 695V667L168 649L177 663V249Q177 224 179
195T190 137T220 85T279 47T374 33Q434 33 472 47T531 87T562 142T574 202T576 259V663L585 650L482 662V690ZM470 770Q454 770 445 780T435 809Q435 828 445 839T470 850Q486 850 496 839T506 809Q506 791 496 781T470 770ZM283 770Q267 770 258 780T248 809Q248
828 258 839T283 850Q299 850 309 839T319 809Q319 791 309 781T283 770Z" />
<glyph unicode="&#xdd;" horiz-adv-x="638" d="M199 0V28L304 45L294 33V270L300 246L88 660L102 649L4 662V690L249 695V667L133 650L139 661L327 287H316L506 660L511 650L395 662V690L634 695V667L537 650L551 661L337 246L342 270V33L332 45L437 28V0H199ZM238
748L221 778L405 889L430 843L238 748Z" />
<glyph unicode="&#xde;" horiz-adv-x="574" d="M55 0V28L159 45L149 33V662L159 649L55 662V690L292 695V667L189 648L198 661V545L187 556H316Q421 556 476 507T531 366Q531 263 464 207T278 150H187L198 161V33L188 45L315 28V0H55ZM198 177L187 188H273Q338
188 384 208T455 267T480 363Q480 414 460 448T400 501T303 519H187L198 529V177Z" />
<glyph unicode="&#xdf;" horiz-adv-x="626" d="M356 416Q356 384 373 364T419 328T479 299T539 265T586 217T604 144Q604 93 579 60T513 10T420 -7Q390 -7 359 -2T296 14L303 135L335 134L345 32L338 45Q359 37 381 33T424 28Q460 28 490 40T538 76T556 137Q556
174 539 198T493 239T433 272T373 304T327 347T309 411Q309 449 326 470T369 507T420 535T462 569T480 624Q480 661 461 685T409 722T337 735Q265 735 220 700T175 588V0H43V28L137 45L127 33V492L137 484H42V513L136 521L127 511V584Q127 634 143 669T187 728T255
761T339 772Q391 772 433 756T502 707T528 627Q528 588 511 565T468 527T416 498T373 467T356 416Z" />
<glyph unicode="&#xe0;" horiz-adv-x="540" d="M433 31L423 44L518 30V2L396 -3L389 93L394 90Q349 43 296 18T194 -7Q136 -7 99 29T61 138Q61 197 85 228T152 270T247 281H393L385 273V383Q385 442 352 468T263 494Q233 494 199 487T127 467L137 479L129 384H94L86
495Q138 513 185 522T273 532Q347 532 390 499T433 391V31ZM110 143Q110 86 137 59T208 31Q248 31 296 55T390 121L385 105V255L393 247H254Q176 247 143 223T110 143ZM196 788L359 654L339 627L165 747L196 788Z" />
<glyph unicode="&#xe1;" horiz-adv-x="540" d="M433 31L423 44L518 30V2L396 -3L389 93L394 90Q349 43 296 18T194 -7Q136 -7 99 29T61 138Q61 197 85 228T152 270T247 281H393L385 273V383Q385 442 352 468T263 494Q233 494 199 487T127 467L137 479L129 384H94L86
495Q138 513 185 522T273 532Q347 532 390 499T433 391V31ZM110 143Q110 86 137 59T208 31Q248 31 296 55T390 121L385 105V255L393 247H254Q176 247 143 223T110 143ZM210 627L191 654L359 787L391 745L210 627Z" />
<glyph unicode="&#xe2;" horiz-adv-x="540" d="M433 31L423 44L518 30V2L396 -3L389 93L394 90Q349 43 296 18T194 -7Q136 -7 99 29T61 138Q61 197 85 228T152 270T247 281H393L385 273V383Q385 442 352 468T263 494Q233 494 199 487T127 467L137 479L129 384H94L86
495Q138 513 185 522T273 532Q347 532 390 499T433 391V31ZM110 143Q110 86 137 59T208 31Q248 31 296 55T390 121L385 105V255L393 247H254Q176 247 143 223T110 143ZM137 633L117 655L248 776L278 777L414 655L394 633L249 743H278L137 633Z" />
<glyph unicode="&#xe3;" horiz-adv-x="540" d="M433 31L423 44L518 30V2L396 -3L389 93L394 90Q349 43 296 18T194 -7Q136 -7 99 29T61 138Q61 197 85 228T152 270T247 281H393L385 273V383Q385 442 352 468T263 494Q233 494 199 487T127 467L137 479L129 384H94L86
495Q138 513 185 522T273 532Q347 532 390 499T433 391V31ZM110 143Q110 86 137 59T208 31Q248 31 296 55T390 121L385 105V255L393 247H254Q176 247 143 223T110 143ZM331 653Q304 653 283 666T240 691T196 704Q178 704 164 693T134 656L109 667Q126 708 148 726T196
744Q223 744 245 732T288 706T331 693Q349 693 364 704T394 742L419 731Q402 691 380 672T331 653Z" />
<glyph unicode="&#xe4;" horiz-adv-x="540" d="M433 31L423 44L518 30V2L396 -3L389 93L394 90Q349 43 296 18T194 -7Q136 -7 99 29T61 138Q61 197 85 228T152 270T247 281H393L385 273V383Q385 442 352 468T263 494Q233 494 199 487T127 467L137 479L129 384H94L86
495Q138 513 185 522T273 532Q347 532 390 499T433 391V31ZM110 143Q110 86 137 59T208 31Q248 31 296 55T390 121L385 105V255L393 247H254Q176 247 143 223T110 143ZM357 654Q341 654 332 664T322 693Q322 712 332 723T357 734Q373 734 383 723T393 693Q393 675
383 665T357 654ZM170 654Q154 654 145 664T135 693Q135 712 145 723T170 734Q186 734 196 723T206 693Q206 675 196 665T170 654Z" />
<glyph unicode="&#xe5;" horiz-adv-x="540" d="M433 31L423 44L518 30V2L396 -3L389 93L394 90Q349 43 296 18T194 -7Q136 -7 99 29T61 138Q61 197 85 228T152 270T247 281H393L385 273V383Q385 442 352 468T263 494Q233 494 199 487T127 467L137 479L129 384H94L86
495Q138 513 185 522T273 532Q347 532 390 499T433 391V31ZM110 143Q110 86 137 59T208 31Q248 31 296 55T390 121L385 105V255L393 247H254Q176 247 143 223T110 143ZM263 626Q240 626 220 635T187 663T174 708Q174 734 186 753T219 782T265 792Q290 792 310 783T342
755T355 710Q355 685 343 666T310 637T263 626ZM264 655Q290 655 304 670T319 710Q319 733 305 748T264 763Q238 763 224 748T210 708Q210 685 224 670T264 655Z" />
<glyph unicode="&#xe6;" horiz-adv-x="875" d="M94 386L86 495Q139 514 186 523T271 532Q340 532 379 502T421 410L424 388L419 393Q445 460 498 496T619 532Q713 532 764 471T816 298Q816 282 816 273T814 254H426L435 268V252Q436 150 484 91T616 32Q702 32
796 97L815 67Q762 31 709 12T605 -7Q541 -7 492 24T416 113L430 111Q388 51 330 22T216 -8Q174 -8 139 8T83 58T61 139Q61 217 106 253T247 290H395L386 279V383Q386 438 355 465T265 493Q237 493 203 487T127 467L135 479L127 386H94ZM407 123Q396 151 391 185T386
267L395 254H255Q178 254 144 230T110 146Q110 89 145 60T229 31Q275 31 325 57T411 135L407 123ZM436 280L426 290H775L766 281Q768 387 730 440T615 494Q535 494 487 437T436 280Z" />
<glyph unicode="&#xe7;" horiz-adv-x="511" d="M271 -7Q210 -7 161 24T83 114T54 255Q54 325 73 376T126 463T203 515T295 532Q330 532 374 522T454 491L451 377H415L403 477L409 468Q379 483 348 488T293 494Q236 494 194 466T128 385T104 259Q104 187 127 136T191
59T282 32Q320 32 362 48T448 96L467 67Q416 29 367 11T271 -7ZM284 -222Q265 -222 244 -218T203 -204L215 -175Q231 -181 249 -185T284 -189Q311 -189 330 -177T349 -143Q349 -126 338 -115T305 -98T250 -92L255 0H288V-63Q345 -68 367 -89T389 -139Q389 -167
375 -185T338 -213T284 -222Z" />
<glyph unicode="&#xe8;" horiz-adv-x="547" d="M276 -7Q212 -7 163 23T85 112T57 255Q57 339 85 401T166 498T290 532Q356 532 400 503T466 423T488 306Q488 298 488 290T486 268H90V305H447L438 299Q439 351 425 395T378 467T287 494Q230 494 190 465T128 383T106
261Q106 189 128 138T191 59T286 32Q327 32 373 47T468 96L487 67Q433 29 379 11T276 -7ZM217 788L380 654L360 627L186 747L217 788Z" />
<glyph unicode="&#xe9;" horiz-adv-x="547" d="M276 -7Q212 -7 163 23T85 112T57 255Q57 339 85 401T166 498T290 532Q356 532 400 503T466 423T488 306Q488 298 488 290T486 268H90V305H447L438 299Q439 351 425 395T378 467T287 494Q230 494 190 465T128 383T106
261Q106 189 128 138T191 59T286 32Q327 32 373 47T468 96L487 67Q433 29 379 11T276 -7ZM231 627L212 654L380 787L412 745L231 627Z" />
<glyph unicode="&#xea;" horiz-adv-x="547" d="M276 -7Q212 -7 163 23T85 112T57 255Q57 339 85 401T166 498T290 532Q356 532 400 503T466 423T488 306Q488 298 488 290T486 268H90V305H447L438 299Q439 351 425 395T378 467T287 494Q230 494 190 465T128 383T106
261Q106 189 128 138T191 59T286 32Q327 32 373 47T468 96L487 67Q433 29 379 11T276 -7ZM159 633L139 655L270 776L300 777L436 655L416 633L271 743H300L159 633Z" />
<glyph unicode="&#xeb;" horiz-adv-x="547" d="M276 -7Q212 -7 163 23T85 112T57 255Q57 339 85 401T166 498T290 532Q356 532 400 503T466 423T488 306Q488 298 488 290T486 268H90V305H447L438 299Q439 351 425 395T378 467T287 494Q230 494 190 465T128 383T106
261Q106 189 128 138T191 59T286 32Q327 32 373 47T468 96L487 67Q433 29 379 11T276 -7ZM378 654Q362 654 353 664T343 693Q343 712 353 723T378 734Q394 734 404 723T414 693Q414 675 404 665T378 654ZM191 654Q175 654 166 664T156 693Q156 712 166 723T191
734Q207 734 217 723T227 693Q227 675 217 665T191 654Z" />
<glyph unicode="&#xec;" horiz-adv-x="287" d="M175 35L167 44L259 28V0H42V28L134 44L127 35V487L134 479L42 494V522L175 528V35ZM311 788L474 654L454 627L280 747L311 788Z" />
<glyph unicode="&#xed;" horiz-adv-x="287" d="M175 35L167 44L259 28V0H42V28L134 44L127 35V487L134 479L42 494V522L175 528V35ZM91 627L72 654L240 787L272 745L91 627Z" />
<glyph unicode="&#xee;" horiz-adv-x="287" d="M36 633L15 655L127 776L157 777L275 655L254 633L128 743H157L36 633ZM175 35L167 44L259 28V0H42V28L134 44L127 35V487L134 479L42 494V522L175 528V35Z" />
<glyph unicode="&#xef;" horiz-adv-x="287" d="M230 654Q214 654 205 664T195 693Q195 712 205 723T230 734Q246 734 255 723T265 693Q265 675 255 665T230 654ZM51 654Q35 654 26 664T17 693Q16 712 26 723T51 734Q67 734 76 723T86 693Q86 675 76 665T51 654ZM175
35L167 44L259 28V0H42V28L134 44L127 35V487L134 479L42 494V522L175 528V35Z" />
<glyph unicode="&#xf0;" d="M276 -7Q205 -7 156 23T81 110T55 244Q55 330 84 392T166 487T287 521Q353 521 400 489T474 398L469 399Q455 499 415 574T307 692T147 734L152 772Q247 772 316 734T431 630T497 483T518 313Q518 234 502 174T454 74T377 13T276 -7ZM278
30Q338 30 380 61T445 146T468 272Q468 371 423 428T294 485Q235 485 193 456T129 375T106 249Q106 144 152 87T278 30ZM225 598L207 624L453 773L471 747L225 598Z" />
<glyph unicode="&#xf1;" horiz-adv-x="628" d="M42 0V28L136 45L127 34V489L136 478L42 494V522L164 528L172 429L164 432Q214 484 269 508T373 532Q439 532 481 493T523 370V34L514 45L607 28V0H392V28L484 44L475 33V359Q475 428 443 460T358 493Q316 493 267
470T169 398L175 411V33L166 44L258 28V0H42ZM391 653Q364 653 343 666T300 691T256 704Q238 704 224 693T194 656L169 667Q186 708 208 726T256 744Q283 744 305 732T348 706T391 693Q409 693 424 704T454 742L479 731Q462 691 440 672T391 653Z" />
<glyph unicode="&#xf2;" horiz-adv-x="575" d="M294 532Q398 532 458 464T519 272Q519 188 490 126T407 28T277 -7Q174 -7 115 59T56 251Q56 337 84 400T166 497T294 532ZM291 494Q203 494 155 430T106 254Q106 144 152 87T280 30Q341 30 383 59T447 142T469 268Q469
376 422 435T291 494ZM219 788L382 654L362 627L188 747L219 788Z" />
<glyph unicode="&#xf3;" horiz-adv-x="575" d="M294 532Q398 532 458 464T519 272Q519 188 490 126T407 28T277 -7Q174 -7 115 59T56 251Q56 337 84 400T166 497T294 532ZM291 494Q203 494 155 430T106 254Q106 144 152 87T280 30Q341 30 383 59T447 142T469 268Q469
376 422 435T291 494ZM233 627L214 654L382 787L414 745L233 627Z" />
<glyph unicode="&#xf4;" horiz-adv-x="575" d="M294 532Q398 532 458 464T519 272Q519 188 490 126T407 28T277 -7Q174 -7 115 59T56 251Q56 337 84 400T166 497T294 532ZM291 494Q203 494 155 430T106 254Q106 144 152 87T280 30Q341 30 383 59T447 142T469 268Q469
376 422 435T291 494ZM161 633L141 655L272 776L302 777L438 655L418 633L273 743H302L161 633Z" />
<glyph unicode="&#xf5;" horiz-adv-x="575" d="M294 532Q398 532 458 464T519 272Q519 188 490 126T407 28T277 -7Q174 -7 115 59T56 251Q56 337 84 400T166 497T294 532ZM291 494Q203 494 155 430T106 254Q106 144 152 87T280 30Q341 30 383 59T447 142T469 268Q469
376 422 435T291 494ZM354 653Q327 653 306 666T263 691T219 704Q201 704 187 693T157 656L132 667Q149 708 171 726T219 744Q246 744 268 732T311 706T354 693Q372 693 387 704T417 742L442 731Q425 691 403 672T354 653Z" />
<glyph unicode="&#xf6;" horiz-adv-x="575" d="M294 532Q398 532 458 464T519 272Q519 188 490 126T407 28T277 -7Q174 -7 115 59T56 251Q56 337 84 400T166 497T294 532ZM291 494Q203 494 155 430T106 254Q106 144 152 87T280 30Q341 30 383 59T447 142T469 268Q469
376 422 435T291 494ZM380 654Q364 654 355 664T345 693Q345 712 355 723T380 734Q396 734 406 723T416 693Q416 675 406 665T380 654ZM193 654Q177 654 168 664T158 693Q158 712 168 723T193 734Q209 734 219 723T229 693Q229 675 219 665T193 654Z" />
<glyph unicode="&#xf7;" horiz-adv-x="561" d="M501 368V330H61V368H501ZM243 188Q243 205 254 215T281 226Q298 226 308 216T319 188Q319 170 308 160T281 150Q264 150 254 160T243 188ZM243 515Q243 532 254 542T281 553Q298 553 308 543T319 515Q319 497 308
487T281 477Q264 477 254 487T243 515Z" />
<glyph unicode="&#xf8;" horiz-adv-x="576" d="M481 600L510 583L440 468L432 460L178 45L174 34L106 -77L77 -59L145 52L152 61L409 480L413 489L481 600ZM294 532Q399 532 459 464T520 272Q520 188 491 126T408 28T278 -7Q175 -7 116 59T57 251Q57 337 85 400T167
497T294 532ZM291 494Q204 494 156 430T107 254Q107 144 153 87T281 30Q342 30 384 59T448 142T470 268Q470 376 423 435T291 494Z" />
<glyph unicode="&#xf9;" horiz-adv-x="613" d="M254 -7Q188 -7 146 33T104 156V489L113 478L20 494V522L152 528V165Q152 97 184 65T269 32Q312 32 361 55T458 127L452 113V490L461 478L368 494V522L500 528V35L491 43L585 30V2L463 -3L455 96L463 93Q413 41 358
17T254 -7ZM227 788L390 654L370 627L196 747L227 788Z" />
<glyph unicode="&#xfa;" horiz-adv-x="613" d="M254 -7Q188 -7 146 33T104 156V489L113 478L20 494V522L152 528V165Q152 97 184 65T269 32Q312 32 361 55T458 127L452 113V490L461 478L368 494V522L500 528V35L491 43L585 30V2L463 -3L455 96L463 93Q413 41 358
17T254 -7ZM242 627L223 654L391 787L423 745L242 627Z" />
<glyph unicode="&#xfb;" horiz-adv-x="613" d="M254 -7Q188 -7 146 33T104 156V489L113 478L20 494V522L152 528V165Q152 97 184 65T269 32Q312 32 361 55T458 127L452 113V490L461 478L368 494V522L500 528V35L491 43L585 30V2L463 -3L455 96L463 93Q413 41 358
17T254 -7ZM169 633L149 655L280 776L310 777L446 655L426 633L281 743H310L169 633Z" />
<glyph unicode="&#xfc;" horiz-adv-x="613" d="M254 -7Q188 -7 146 33T104 156V489L113 478L20 494V522L152 528V165Q152 97 184 65T269 32Q312 32 361 55T458 127L452 113V490L461 478L368 494V522L500 528V35L491 43L585 30V2L463 -3L455 96L463 93Q413 41 358
17T254 -7ZM389 654Q373 654 364 664T354 693Q354 712 364 723T389 734Q405 734 415 723T425 693Q425 675 415 665T389 654ZM202 654Q186 654 177 664T167 693Q167 712 177 723T202 734Q218 734 228 723T238 693Q238 675 228 665T202 654Z" />
<glyph unicode="&#xfd;" horiz-adv-x="515" d="M18 -233L23 -196Q33 -198 41 -198T58 -199Q110 -199 141 -174T195 -100T238 21L237 0L53 492L63 485L-6 494V522L198 528V500L97 486L102 493L263 42L252 44L411 492L417 485L319 494V522L519 528V500L446 485L457
493L275 -3Q258 -51 241 -92T202 -167T146 -218T64 -237Q46 -237 18 -233ZM201 627L182 654L350 787L382 745L201 627Z" />
<glyph unicode="&#xfe;" horiz-adv-x="575" d="M16 -230V-202L110 -185L101 -196V729L111 717L16 734V762L149 768V445L139 446Q185 489 231 510T322 532Q377 532 421 501T492 412T519 269Q519 179 488 117T401 24T269 -8Q240 -8 208 -3T139 12L149 20V-196L140
-185L248 -202V-230H16ZM266 30Q363 30 416 91T469 264Q469 337 448 388T390 466T307 494Q268 494 226 473T142 410L149 426V41L141 52Q209 30 266 30Z" />
<glyph unicode="&#xff;" horiz-adv-x="515" d="M18 -233L23 -196Q33 -198 41 -198T58 -199Q110 -199 141 -174T195 -100T238 21L237 0L53 492L63 485L-6 494V522L198 528V500L97 486L102 493L263 42L252 44L411 492L417 485L319 494V522L519 528V500L446 485L457
493L275 -3Q258 -51 241 -92T202 -167T146 -218T64 -237Q46 -237 18 -233ZM348 654Q332 654 323 664T313 693Q313 712 323 723T348 734Q364 734 374 723T384 693Q384 675 374 665T348 654ZM161 654Q145 654 136 664T126 693Q126 712 136 723T161 734Q177 734 187
723T197 693Q197 675 187 665T161 654Z" />
<glyph unicode="&#x2013;" horiz-adv-x="624" d="M541 313V274H83V313H541Z" />
<glyph unicode="&#x2014;" horiz-adv-x="874" d="M791 311V271H83V311H791Z" />
<glyph unicode="&#x2018;" horiz-adv-x="190" d="M124 615Q124 597 113 588T89 578Q75 578 64 588T52 620Q52 641 68 683T120 777L141 763Q119 723 112 701T105 666Q105 656 110 649T119 635T124 615Z" />
<glyph unicode="&#x2019;" horiz-adv-x="190" d="M68 739Q68 757 79 766T103 776Q117 776 129 766T141 734Q141 713 126 671T72 577L52 591Q74 631 80 654T87 688Q87 698 83 705T73 719T68 739Z" />
<glyph unicode="&#x201a;" horiz-adv-x="190" d="M66 29Q66 47 77 56T101 66Q115 66 127 56T139 24Q139 3 124 -39T70 -133L50 -119Q72 -79 78 -56T85 -22Q85 -12 81 -5T71 9T66 29Z" />
<glyph unicode="&#x201c;" horiz-adv-x="324" d="M124 631Q124 612 113 603T89 594Q75 594 64 604T52 636Q52 657 68 698T120 792L141 779Q119 739 112 717T105 682Q105 672 110 665T119 651T124 631ZM257 631Q257 612 247 603T222 594Q208 594 197 604T185 636Q185
657 201 698T254 792L274 779Q252 739 245 717T238 682Q238 672 243 665T252 651T257 631Z" />
<glyph unicode="&#x201d;" horiz-adv-x="324" d="M199 739Q199 757 210 766T234 776Q248 776 260 766T272 734Q272 713 257 671T203 577L183 591Q205 631 211 654T218 688Q218 698 214 705T204 719T199 739ZM66 739Q66 757 77 766T101 776Q115 776 127 766T139
734Q139 713 124 671T70 577L50 591Q72 631 78 654T85 688Q85 698 81 705T71 719T66 739Z" />
<glyph unicode="&#x201e;" horiz-adv-x="324" d="M199 29Q199 47 210 56T234 66Q248 66 260 56T272 24Q272 3 257 -39T203 -133L183 -119Q205 -79 211 -56T218 -22Q218 -12 214 -5T204 9T199 29ZM66 29Q66 47 77 56T101 66Q115 66 127 56T139 24Q139 3 124 -39T70
-133L50 -119Q72 -79 78 -56T85 -22Q85 -12 81 -5T71 9T66 29Z" />
<glyph unicode="&#x2022;" horiz-adv-x="354" d="M87 317Q87 345 100 365T134 396T178 408Q205 408 225 397T256 365T267 317Q267 290 255 269T222 237T178 226Q136 226 112 251T87 317Z" />
<glyph unicode="&#x2039;" horiz-adv-x="305" d="M209 73L62 254V286L209 468L234 448L96 259V283L234 93L209 73Z" />
<glyph unicode="&#x203a;" horiz-adv-x="305" d="M96 468L243 286V254L96 73L72 92L209 281V258L72 448L96 468Z" />
</font>
</defs>
</svg>
