<?xml version="1.0" standalone="no"?>
<!DOCTYPE svg PUBLIC "-//W3C//DTD SVG 1.1//EN" "http://www.w3.org/Graphics/SVG/1.1/DTD/svg11.dtd">
<svg xmlns="http://www.w3.org/2000/svg">
<defs >
<font id="Barlow" horiz-adv-x="516" ><font-face
    font-family="Barlow ExtraBold"
    units-per-em="1000"
    panose-1="0 0 9 0 0 0 0 0 0 0"
    ascent="1000"
    descent="-200"
    alphabetic="0" />
<glyph unicode=" " glyph-name="space" horiz-adv-x="194" />
<glyph unicode="!" glyph-name="exclam" horiz-adv-x="342" d="M125 244T122 247T120 256L156 688Q157 693 160 696T169 700H307Q319 700 317 688L248 256Q247 251 244 248T235 244H130Q125 244 122 247ZM112 1T92 22T71 76Q71 118 98 146T167 174Q201 174 221
154T242 100Q242 58 214 30T146 1Q112 1 92 22Z" />
<glyph unicode="&quot;" glyph-name="quotedbl" horiz-adv-x="381" d="M71 465T68 468T64 477L75 687Q75 699 87 699H217Q229 699 226 687L186 477Q185 472 181 469T172 465H76Q71 465 68 468ZM278 465T278 477L288 687Q288 699 300 699H431Q443 699 440 687L399
477Q396 465 385 465H289Q278 465 278 477Z" />
<glyph unicode="#" glyph-name="numbersign" horiz-adv-x="675" d="M668 402T665 399T656 395H582Q576 395 576 390L555 312Q555 307 559 307H610Q615 307 618 304T620 295L605 178Q604 173 601 170T592 166H520Q515 166 513 161L481 42Q478 31 467 31H330Q318
31 321 44L352 161Q354 166 349 166H273Q268 166 266 161L234 42Q231 31 220 31H82Q70 31 73 44L105 161Q105 166 102 166H49Q44 166 41 169T39 178L54 295Q55 300 58 303T67 307H141Q143 307 145 308T147 312L167 390Q169 395 164 395H113Q108 395 105 398T103
407L118 525Q119 530 122 533T131 537H203Q209 537 209 542L241 662Q244 673 255 673L393 672Q405 672 402 659L370 542Q370 537 373 537H450Q456 537 456 542L489 662Q492 673 503 673L640 672Q652 672 649 659L618 542Q616 537 621 537H673Q678 537 681 534T683
525L669 407Q668 402 665 399ZM394 307T394 312L415 390Q415 395 411 395H335Q330 395 328 390L308 312Q308 307 311 307H388Q394 307 394 312Z" />
<glyph unicode="$" glyph-name="dollar" horiz-adv-x="559" d="M535 137T479 77T331 -2Q325 -4 325 -8L319 -71Q318 -76 315 -79T306 -83H188Q183 -83 180 -80T178 -71L187 -6Q188 -2 184 0Q112 17 73 63T33 179Q33 189 35 209L38 228Q39 233 42 236T51 240H179Q184
240 187 237T189 228L188 216Q184 183 211 159T291 134Q336 134 357 156T379 205Q379 223 366 235T335 255T265 282Q211 302 172 324T105 383T77 476Q77 485 79 503Q89 579 140 631T269 700Q274 702 274 706L282 780Q283 785 286 788T295 792H412Q417 792 420 789T423
780L412 705Q410 701 415 699Q484 681 525 632T566 512Q566 504 564 484L562 470Q561 465 558 462T549 458H420Q415 458 412 461T410 470L411 477Q415 512 390 539T316 566Q276 566 253 547T230 496Q230 470 257 453T357 409Q364 406 416 387T502 326T535 229Q535
137 479 77Z" />
<glyph unicode="%" glyph-name="percent" horiz-adv-x="792" d="M174 381T134 422T94 525Q94 574 119 616T187 683T275 708Q336 708 376 667T416 565Q416 516 391 474T324 406T235 381Q174 381 134 422ZM138 0T137 4T138 14L587 692Q593 700 603 700H691Q700 700
700 694Q700 691 697 686L249 8Q244 0 234 0H145Q138 0 137 4ZM277 477T299 500T321 554Q321 579 305 596T263 613Q234 613 212 590T189 536Q189 511 205 494T247 477Q277 477 299 500ZM511 -8T471 33T431 135Q431 184 456 226T523 293T612 319Q673 319 713 278T753
176Q753 127 728 85T661 17T572 -8Q511 -8 471 33ZM613 87T635 110T657 165Q657 190 641 206T601 223Q571 223 549 201T526 148Q526 122 542 105T584 87Q613 87 635 110Z" />
<glyph unicode="&amp;" glyph-name="ampersand" horiz-adv-x="700" d="M641 12T641 8Q641 4 638 2T630 0H476Q467 0 462 6L434 43Q431 46 427 44Q330 -8 229 -8Q143 -8 86 30T29 147Q29 155 31 173Q39 239 78 284T179 364Q184 368 181 371Q149 417 137 446T124
504Q124 559 154 605T237 680T358 708Q447 708 501 662T555 540Q555 469 516 418T411 327Q406 323 408 320L465 246Q467 242 471 246Q515 285 542 325Q546 330 550 331T559 330L654 270Q663 263 657 254Q609 187 554 135Q551 132 554 128Q607 56 608 55L638 15Q641
12 641 8ZM317 558T301 545T285 510Q285 501 292 487T320 441Q321 438 327 439Q358 457 375 475T392 517Q392 536 379 547T343 558Q317 558 301 545ZM306 138T339 154Q344 158 341 161L304 208Q297 216 285 232L270 251Q269 254 264 252Q236 236 220 221T198 188Q195
179 195 171Q195 152 210 141T251 130Q266 130 275 132Q306 138 339 154Z" />
<glyph unicode="&apos;" glyph-name="quotesingle" horiz-adv-x="176" d="M65 466T65 478L75 688Q75 700 87 700H226Q238 700 235 688L194 478Q192 473 188 470T179 466H76Q65 466 65 478Z" />
<glyph unicode="(" glyph-name="parenleft" horiz-adv-x="366" d="M108 -87T104 -80Q15 54 15 233Q15 285 22 335Q52 583 206 750Q212 757 221 757H355Q364 757 364 751Q364 748 361 743Q303 659 261 560T202 335Q195 283 195 229Q195 69 261 -73Q262 -75 262
-78Q262 -87 251 -87H117Q108 -87 104 -80Z" />
<glyph unicode=")" glyph-name="parenright" horiz-adv-x="366" d="M302 757T306 750Q395 619 395 435Q395 389 389 336Q358 87 205 -80Q198 -87 189 -87H54Q48 -87 46 -83T48 -73Q107 12 149 111T208 335Q215 387 215 440Q215 597 148 743Q147 745 147 748Q147
752 150 754T158 757H293Q302 757 306 750Z" />
<glyph unicode="*" glyph-name="asterisk" horiz-adv-x="387" d="M184 393T181 396T179 405L189 484Q190 487 188 488T184 487L106 443Q102 441 99 441Q93 441 90 448L64 512Q63 514 63 517Q63 526 71 529L149 568Q154 571 150 574L81 612Q71 619 78 628L120 692Q124
697 128 698T137 697L204 654Q209 650 211 657L219 735Q220 740 223 743T232 747H299Q304 747 307 744T309 735L299 657Q298 654 300 653T304 653L383 697Q387 699 390 699Q396 699 399 692L424 628Q425 626 425 622Q425 616 418 612L338 574Q334 571 337 568L407
528Q413 525 413 520Q413 517 410 512L369 448Q366 443 362 442T352 443L284 487Q282 489 280 488T278 484L269 405Q268 400 265 397T256 393H189Q184 393 181 396Z" />
<glyph unicode="+" glyph-name="plus" horiz-adv-x="466" d="M466 367T466 355L451 237Q450 232 447 229T438 225H315Q311 225 309 220L294 94Q293 89 290 86T281 82H167Q162 82 159 85T157 94L173 220Q173 225 168 225H44Q39 225 36 228T34 237L48 355Q49 360
53 363T62 367H186Q191 367 191 372L207 500Q208 505 211 508T220 512H333Q338 512 341 509T344 500L328 372Q328 367 332 367H455Q466 367 466 355Z" />
<glyph unicode="," glyph-name="comma" horiz-adv-x="257" d="M4 -105T2 -102T0 -92L59 148Q62 159 72 159H191Q203 159 199 146L109 -95Q105 -105 94 -105H9Q4 -105 2 -102Z" />
<glyph unicode="-" glyph-name="hyphen" horiz-adv-x="402" d="M38 219T35 222T33 231L48 349Q49 354 52 357T61 361H391Q396 361 399 358T401 349L386 231Q385 226 382 223T373 219H43Q38 219 35 222Z" />
<glyph unicode="." glyph-name="period" horiz-adv-x="259" d="M70 -6T50 15T29 69Q29 112 57 140T125 168Q159 168 179 148T199 94Q199 52 171 23T104 -6Q70 -6 50 15Z" />
<glyph unicode="/" glyph-name="slash" horiz-adv-x="483" d="M-3 0T3 14L348 691Q351 700 362 700H498Q511 700 505 686L161 9Q157 0 146 0H10Q-3 0 3 14Z" />
<glyph unicode="0" glyph-name="zero" horiz-adv-x="554" d="M155 -12T99 41T42 188Q42 207 45 228L75 472Q88 581 160 644T344 708Q445 708 502 655T559 509Q559 498 557 472L527 228Q513 117 440 53T256 -12Q155 -12 99 41ZM311 131T335 154T364 219L396 478Q397
484 397 494Q397 528 379 547T327 566Q290 566 266 543T237 478L205 219Q204 214 204 204Q204 170 222 151T273 131Q311 131 335 154Z" />
<glyph unicode="1" glyph-name="one" horiz-adv-x="344" d="M209 700T217 700H359Q364 700 367 697T369 688L286 12Q285 7 282 4T273 0H135Q130 0 127 3T125 12L190 541Q190 543 188 545T184 546L87 523L83 522Q73 522 75 533L86 638Q88 648 97 652L202 697Q209
700 217 700Z" />
<glyph unicode="2" glyph-name="two" horiz-adv-x="551" d="M252 146T252 144T256 142H503Q514 142 514 130L499 12Q498 7 495 4T486 0H31Q26 0 23 3T21 12L35 123Q35 132 43 138Q113 198 217 300Q215 298 282 362Q382 457 387 499Q391 528 373 547T321 566Q287
566 265 547T239 497L236 473Q235 468 231 465T222 461H83Q78 461 75 464T73 473L79 523Q90 579 127 621T219 685T338 708Q405 708 453 684T526 619T551 526Q551 478 526 431T451 330Q405 281 284 175L254 148Q252 146 252 144Z" />
<glyph unicode="3" glyph-name="three" horiz-adv-x="532" d="M510 305T510 269Q510 257 508 233Q501 180 476 132Q443 67 381 30T242 -8Q166 -8 113 30T41 135Q32 167 32 202L33 223Q34 229 37 232T46 235H186Q197 235 197 223Q195 195 203 175Q208 155 222 145T258
134Q299 134 324 172Q342 198 345 238Q347 256 347 264Q347 291 340 308Q326 345 283 345Q272 345 258 338T222 315Q218 312 214 312Q209 312 206 318L149 418Q147 422 147 425Q147 431 153 435L317 552Q319 554 319 556T316 558H103Q98 558 95 561T93 570L108
688Q109 693 112 696T121 700H544Q549 700 552 697T554 688L538 555Q537 546 529 540L400 445Q395 440 401 438Q477 417 501 336Q510 305 510 269Z" />
<glyph unicode="4" glyph-name="four" horiz-adv-x="605" d="M578 322T581 319T583 310L568 187Q567 182 564 179T555 175H513Q508 175 508 170L488 12Q488 7 484 4T475 0H338Q327 0 327 12L347 170Q347 175 343 175H40Q35 175 32 178T30 187L42 284Q42 287 46
299L261 691Q266 700 276 700H424Q430 700 432 697T431 686L234 328Q233 326 234 324T236 322H361Q366 322 366 327L380 439Q381 444 384 447T393 451H531Q536 451 539 448T541 439L527 327Q527 322 531 322H573Q578 322 581 319Z" />
<glyph unicode="5" glyph-name="five" horiz-adv-x="531" d="M516 295T516 261Q516 251 514 227Q507 174 485 131Q452 69 389 32T249 -6Q172 -6 119 30T46 130Q38 157 38 190Q38 203 51 203H193Q202 203 205 193Q206 187 210 177Q223 136 264 136Q285 136 302
146T332 177Q346 197 349 227Q350 233 350 245Q350 263 345 275Q341 293 326 303T291 314Q269 314 248 303T218 275Q213 265 204 265H60Q55 265 52 268T50 277L100 688Q101 693 104 696T113 700H538Q543 700 546 697T548 688L534 570Q533 565 530 562T521 558H250Q246
558 244 553L230 436Q230 430 235 433Q279 457 329 457Q397 457 445 421T509 323Q516 295 516 261Z" />
<glyph unicode="6" glyph-name="six" horiz-adv-x="529" d="M514 304T514 264Q514 240 512 227Q505 169 480 126Q447 65 386 30T248 -6Q172 -6 119 30T48 129Q39 158 39 191Q39 209 42 228L78 525Q85 579 119 620T207 685T329 708Q421 708 477 665T533 550Q533
543 531 527L527 493Q526 488 523 485T514 481H376Q371 481 368 484T366 493L367 503L368 512Q368 536 353 551T311 566Q282 566 261 548T236 501L227 423Q226 420 228 419T232 420Q273 450 334 450Q393 450 438 420T504 334Q514 304 514 264ZM352 200T352 237Q352
262 342 281Q326 311 287 311Q246 311 224 280Q207 258 203 224Q202 218 202 208Q202 188 209 170Q224 136 265 136Q305 136 329 170Q352 200 352 237Z" />
<glyph unicode="7" glyph-name="seven" horiz-adv-x="489" d="M76 0T82 14L355 552Q356 554 355 556T352 558H198Q196 558 195 557T193 553L187 506Q186 501 183 498T174 494H66Q61 494 58 497T56 506L80 688Q80 693 84 696T93 700H532Q537 700 540 697T542 688L527
566Q527 563 523 551L251 9Q248 0 237 0H90Q76 0 82 14Z" />
<glyph unicode="8" glyph-name="eight" horiz-adv-x="533" d="M512 278T512 237Q512 167 475 110Q442 56 383 24T247 -8Q174 -8 121 22T46 110Q33 142 33 181Q33 216 44 251T71 313Q92 345 119 364Q124 367 121 371Q101 389 88 419Q77 447 77 481Q77 524 92 562T137
632Q172 671 224 692T335 714Q396 714 441 692T512 632Q542 588 542 532Q542 468 505 415Q488 391 463 372Q458 368 461 365Q487 344 498 313Q512 278 512 237ZM239 513T238 498Q237 493 237 484Q237 468 243 454Q258 423 298 423Q318 423 335 431T364 454Q377
471 380 499Q381 504 381 513Q381 526 377 535Q371 552 355 562T317 572Q273 572 250 535Q239 513 238 498ZM343 184T349 224Q350 231 350 243Q350 263 344 276Q332 313 286 313Q242 313 219 276Q201 244 201 204Q201 182 209 166Q224 135 264 135Q304 135 326
163Q343 184 349 224Z" />
<glyph unicode="9" glyph-name="nine" horiz-adv-x="518" d="M526 541T526 506Q526 495 524 473L487 175Q481 121 447 80T358 15T236 -8Q143 -8 88 35T33 152Q33 166 34 174L38 207Q39 212 42 215T51 219H189Q194 219 197 216T199 207L198 198Q195 171 210 153T254
135Q283 135 304 153T329 199L338 276Q339 279 337 280T333 279Q291 250 232 250Q174 250 128 280T61 366Q51 395 51 433Q51 452 54 473Q61 529 85 574Q118 635 179 670T318 706Q393 706 446 670T517 571Q526 541 526 506ZM358 443T362 476Q363 482 363 492Q363
513 356 530Q342 564 301 564Q260 564 237 531Q215 503 215 459Q215 435 223 419Q240 389 278 389Q320 389 342 420Q358 443 362 476Z" />
<glyph unicode=":" glyph-name="colon" horiz-adv-x="362" d="M164 326T144 347T123 401Q123 444 151 472T219 500Q253 500 273 480T293 426Q293 384 265 355T198 326Q164 326 144 347ZM125 2T105 23T84 77Q84 120 112 148T180 176Q214 176 234 156T254 102Q254
60 226 31T159 2Q125 2 105 23Z" />
<glyph unicode=";" glyph-name="semicolon" horiz-adv-x="308" d="M134 301T110 325T85 385Q85 394 86 398Q90 437 124 465T196 494Q232 494 258 469T285 408Q285 365 252 333T173 301Q134 301 110 325ZM38 -104T35 -101T33 -91L85 147Q88 158 98 158H218Q231
158 227 145L141 -94Q137 -104 126 -104H43Q38 -104 35 -101Z" />
<glyph unicode="&lt;" glyph-name="less" horiz-adv-x="466" d="M425 26T421 24T411 24L38 201Q31 205 31 215L46 337Q48 347 57 351L473 528Q477 530 479 530Q488 530 486 519L469 386Q468 376 459 372L213 279Q207 276 212 273L435 179Q443 175 442 165L426
33Q425 26 421 24Z" />
<glyph unicode="=" glyph-name="equal" horiz-adv-x="466" d="M50 313T47 316T45 325L59 443Q60 448 64 451T73 455H466Q477 455 477 443L462 325Q461 320 458 317T449 313H55Q50 313 47 316ZM283 382T280 385T278 394L292 512Q293 517 297 520T306 524H699Q710
524 710 512L695 394Q694 389 691 386T682 382H288Q283 382 280 385Z" />
<glyph unicode="&gt;" glyph-name="greater" horiz-adv-x="466" d="M17 22T15 22Q12 22 10 25T9 33L25 165Q26 175 36 179L282 273Q288 276 283 279L59 372Q51 376 52 386L69 519Q70 526 74 528T83 528L456 351Q465 347 463 337L448 215Q448 206 438 201L21 24Q17
22 15 22Z" />
<glyph unicode="?" glyph-name="question" horiz-adv-x="527" d="M181 229T178 232T176 241L179 265Q186 318 217 350T301 415Q343 441 362 460T382 508Q382 532 364 545T314 559Q277 559 253 542T226 496L224 485Q223 474 211 474L74 480Q70 480 67 484T64 493L65
496Q72 559 109 607T205 683T336 710Q434 710 491 663T548 535Q548 527 546 509Q540 464 521 433T477 381T416 338Q380 316 361 298T339 255L337 241Q336 236 333 233T324 229H186Q181 229 178 232ZM188 -4T168 17T147 71Q147 114 174 142T242 170Q276 170 296
150T317 96Q317 54 289 25T221 -4Q188 -4 168 17Z" />
<glyph unicode="@" glyph-name="at" horiz-adv-x="793" d="M601 674T664 641T759 549T792 410Q792 363 780 310Q756 210 702 154T564 98Q497 98 462 136Q459 141 456 136Q433 117 403 108T342 98Q288 98 259 129T230 210Q230 245 240 283Q252 328 271 365Q295
416 335 442T420 469Q468 469 487 439Q489 437 491 437T494 441L497 457Q500 468 511 468H594Q606 468 603 455L558 276Q552 257 552 239Q552 221 559 210T583 199Q633 199 659 303Q673 353 673 399Q673 483 625 524T490 565Q412 565 345 531T231 434T163 285Q151
237 151 197Q151 113 201 69T341 24Q386 24 423 34T487 62Q491 65 495 65Q499 65 502 60L542 -10Q544 -14 544 -16Q544 -22 538 -26Q498 -55 438 -72T316 -89Q234 -89 171 -57T72 37T36 182Q36 237 50 293Q78 405 146 491T311 626T512 674Q601 674 664 641ZM407
191T427 225Q442 245 451 284Q457 314 457 342Q456 357 447 366T421 375Q405 375 391 366T368 341Q358 326 344 279Q336 250 336 233Q336 213 346 202T377 191Q407 191 427 225Z" />
<glyph unicode="A" glyph-name="A" horiz-adv-x="673" d="M466 0T463 3T459 10L445 99Q443 103 440 103H219Q216 103 214 99L178 10Q173 0 163 0H15Q9 0 7 3T7 14L297 690Q302 700 311 700H494Q503 700 506 690L631 14V10Q631 0 620 0H471Q466 0 463 3ZM267 231T273
231H417Q422 231 422 237L380 494Q379 498 377 498T374 494L270 237Q267 231 273 231Z" />
<glyph unicode="B" glyph-name="B" horiz-adv-x="599" d="M491 361T496 358Q567 317 567 229Q567 220 565 198Q552 98 479 49T298 0H40Q35 0 32 3T30 12L113 688Q113 693 117 696T126 700H376Q483 700 538 662T594 540Q594 529 592 505Q579 406 497 364Q491 361
496 358ZM257 558T257 553L242 427Q240 422 246 422H342Q382 422 405 439T433 489Q437 522 418 540T359 558H263Q257 558 257 553ZM358 143T382 165T407 226Q407 255 388 270T333 286H229Q224 286 224 281L207 148Q207 143 212 143H315Q358 143 382 165Z" />
<glyph unicode="C" glyph-name="C" horiz-adv-x="590" d="M169 -8T107 50T45 206Q45 230 47 243L74 459Q83 533 122 589T224 677T364 708Q472 708 534 654T597 506Q597 496 595 472Q595 468 591 465T582 461L443 452Q432 452 433 463Q434 469 434 480Q434 520
411 543T347 566Q303 566 272 538T235 463L207 236Q206 231 206 221Q206 181 230 158T294 134Q339 134 369 162T405 236Q407 247 418 247L555 240Q566 240 566 230Q557 159 518 105T417 22T276 -8Q169 -8 107 50Z" />
<glyph unicode="D" glyph-name="D" horiz-adv-x="599" d="M35 0T32 3T30 12L113 688Q113 693 117 696T126 700H373Q479 700 541 649T604 510Q604 501 602 481L570 219Q562 154 524 104T425 27T287 0H40Q35 0 32 3ZM207 142T211 142H311Q350 142 378 170T413 247L438
453Q439 460 439 472Q439 512 418 535T361 558H263Q257 558 257 553L207 147Q207 142 211 142Z" />
<glyph unicode="E" glyph-name="E" horiz-adv-x="559" d="M579 565T576 562T567 558H263Q257 558 257 553L242 430Q242 425 246 425H441Q446 425 449 422T451 413L437 296Q436 291 433 288T424 284H229Q225 284 223 279L207 147Q207 142 211 142H516Q521 142 524
139T526 130L512 12Q511 7 508 4T499 0H40Q35 0 32 3T30 12L113 688Q113 693 117 696T126 700H585Q590 700 593 697T595 688L580 570Q579 565 576 562Z" />
<glyph unicode="F" glyph-name="F" horiz-adv-x="540" d="M578 565T575 562T566 558H263Q257 558 257 553L242 430Q242 425 246 425H441Q446 425 449 422T451 413L437 296Q436 291 433 288T424 284H229Q225 284 223 279L191 12Q190 7 187 4T178 0H40Q35 0 32 3T30
12L113 688Q113 693 117 696T126 700H584Q589 700 592 697T594 688L579 570Q578 565 575 562Z" />
<glyph unicode="G" glyph-name="G" horiz-adv-x="593" d="M170 -8T108 51T46 209Q46 235 48 248L73 453Q82 529 121 586T224 676T364 708Q435 708 488 682T569 609T598 506Q598 497 596 477L595 472Q594 467 591 464T582 460H444Q439 460 436 463T434 472Q435
476 435 484Q435 519 412 542T347 566Q303 566 272 536T235 458L208 243Q207 238 207 227Q207 186 233 161T301 135Q344 135 373 158T407 224L410 252Q412 257 406 257H309Q304 257 301 260T299 269L312 379Q313 384 316 387T325 391H574Q579 391 582 388T584 379L567
243Q558 168 519 111T417 23T276 -8Q170 -8 108 51Z" />
<glyph unicode="H" glyph-name="H" horiz-adv-x="601" d="M466 693T469 696T478 700H616Q621 700 624 697T626 688L543 12Q542 7 539 4T530 0H392Q387 0 384 3T382 12L414 278Q416 283 410 283H229Q225 283 223 278L191 12Q190 7 187 4T178 0H40Q35 0 32 3T30
12L113 688Q113 693 117 696T126 700H263Q274 700 274 688L242 430Q242 425 246 425H428Q430 425 431 426T433 430L465 688Q466 693 469 696Z" />
<glyph unicode="I" glyph-name="I" horiz-adv-x="257" d="M35 0T32 3T30 12L113 688Q113 693 117 696T126 700H263Q274 700 274 688L191 12Q190 7 187 4T178 0H40Q35 0 32 3Z" />
<glyph unicode="J" glyph-name="J" horiz-adv-x="568" d="M142 -8T82 46T21 192Q21 202 23 226L30 285Q31 290 34 293T43 297H181Q186 297 189 294T191 285L184 227Q183 222 183 211Q183 175 204 155T264 134Q304 134 333 159T368 227L425 688Q426 693 429 696T438
700H575Q580 700 583 697T585 688L528 226Q520 157 482 104T382 22T246 -8Q142 -8 82 46Z" />
<glyph unicode="K" glyph-name="K" horiz-adv-x="612" d="M35 0T32 3T30 12L113 688Q113 693 117 696T126 700H263Q274 700 274 688L242 428Q241 425 243 425T247 426L476 693Q482 700 490 700H648Q656 700 656 693Q656 690 653 685L408 396Q404 392 406 389L579
14Q580 12 580 8Q580 0 569 0H415Q405 0 402 8L282 275Q281 281 275 275L216 204L213 198L191 12Q190 7 187 4T178 0H40Q35 0 32 3Z" />
<glyph unicode="L" glyph-name="L" horiz-adv-x="556" d="M35 0T32 3T30 12L113 688Q113 693 117 696T126 700H263Q274 700 274 688L207 147Q207 142 211 142H521Q526 142 529 139T531 130L517 12Q516 7 512 4T503 0H40Q35 0 32 3Z" />
<glyph unicode="M" glyph-name="M" horiz-adv-x="693" d="M553 700T563 700H700Q705 700 708 697T710 688L627 12Q626 7 623 4T614 0H476Q471 0 468 3T466 12L515 414Q516 418 514 418T510 415L409 277Q405 269 395 269H326Q317 269 313 277L246 416Q245 419 243
419T240 415L191 12Q190 7 187 4T178 0H40Q35 0 32 3T30 12L113 688Q113 693 117 696T126 700H262Q272 700 275 692L383 474Q386 468 389 474L549 692Q553 700 563 700Z" />
<glyph unicode="N" glyph-name="N" horiz-adv-x="642" d="M499 693T502 696T511 700H649Q654 700 657 697T659 688L576 12Q575 7 572 4T563 0H431Q421 0 418 8L242 390Q240 393 238 393T236 388L191 12Q190 7 187 4T178 0H40Q35 0 32 3T30 12L113 688Q113 693
117 696T126 700H259Q268 700 271 692L447 311Q448 308 450 308T453 313L498 688Q499 693 502 696Z" />
<glyph unicode="O" glyph-name="O" horiz-adv-x="602" d="M172 -11T109 49T46 211Q46 236 48 250L73 450Q82 526 122 584T226 675T368 708Q440 708 493 681T574 605T603 489Q603 463 601 450L577 250Q568 172 528 113T423 22T280 -11Q172 -11 109 49ZM344 131T376
162T415 245L441 452Q442 458 442 470Q442 514 418 540T351 566Q305 566 273 535T234 452L209 245Q208 238 208 225Q208 181 232 156T297 131Q344 131 376 162Z" />
<glyph unicode="P" glyph-name="P" horiz-adv-x="580" d="M494 700T547 649T601 511Q601 501 599 477Q591 412 556 362T466 285T341 258H223Q219 258 217 253L188 12Q187 7 184 4T175 0H37Q32 0 29 3T27 12L110 688Q111 693 114 696T123 700H403Q494 700 547 649ZM383
390T411 417T439 487Q439 519 418 538T360 558H260Q256 558 254 553L235 395Q233 390 239 390H339Q383 390 411 417Z" />
<glyph unicode="Q" glyph-name="Q" horiz-adv-x="582" d="M463 708T524 649T586 488Q586 469 583 448L557 239Q546 151 493 89T356 3Q352 2 352 -2L342 -80Q341 -85 338 -88T329 -92H191Q186 -92 183 -89T181 -80L191 -2Q191 2 187 3Q119 23 81 75T42 202Q42 226
44 239L70 448Q79 525 118 584T220 675T358 708Q463 708 524 649ZM423 457Q424 463 424 476Q424 517 402 541T340 566Q298 566 268 536T232 457L205 243Q204 237 204 225Q204 184 226 159T287 134Q331 134 361 164T396 243L423 457Z" />
<glyph unicode="R" glyph-name="R" horiz-adv-x="596" d="M382 0T379 9L298 275Q296 279 292 279H228Q223 279 223 274L191 12Q190 7 187 4T178 0H40Q35 0 32 3T30 12L113 688Q113 693 117 696T126 700H414Q502 700 553 650T604 515Q604 505 602 483Q593 416 555
367T457 296Q452 294 454 289L548 14Q549 12 549 9Q549 0 537 0H392Q382 0 379 9ZM257 558T257 553L240 411Q238 406 244 406H352Q391 406 416 430T442 493Q442 523 423 540T370 558H263Q257 558 257 553Z" />
<glyph unicode="S" glyph-name="S" horiz-adv-x="581" d="M162 -8T98 42T33 180Q33 189 35 209L38 228Q39 233 42 236T51 240H186Q191 240 194 237T196 228L194 216Q190 183 219 159T303 134Q349 134 371 155T394 203Q394 227 373 240T297 274L274 282Q218 302
177 324T107 384T77 477Q77 485 79 503Q87 565 124 611T221 683T351 708Q420 708 473 684T557 616T587 513Q587 504 585 484L583 470Q583 465 579 462T570 458H436Q431 458 428 461T425 470L426 477Q430 512 404 539T327 566Q286 566 262 548T238 496Q238 478 251
465T290 441T370 409Q431 387 464 371T527 320T557 228Q557 220 555 202Q543 105 467 49T274 -8Q162 -8 98 42Z" />
<glyph unicode="T" glyph-name="T" horiz-adv-x="572" d="M610 700T613 697T615 688L600 569Q600 564 596 561T587 557H418Q412 557 412 552L346 12Q345 7 342 4T333 0H195Q190 0 187 3T185 12L251 552Q251 557 247 557H83Q78 557 75 560T73 569L87 688Q88 693
91 696T100 700H605Q610 700 613 697Z" />
<glyph unicode="U" glyph-name="U" horiz-adv-x="604" d="M176 -8T114 49T51 202Q51 214 53 238L109 688Q110 693 113 696T122 700H260Q265 700 268 697T270 688L214 238Q213 233 213 222Q213 182 236 158T300 134Q343 134 373 162T409 238L465 688Q466 693 469
696T478 700H616Q621 700 624 697T626 688L570 238Q561 165 522 109T421 23T282 -8Q176 -8 114 49Z" />
<glyph unicode="V" glyph-name="V" horiz-adv-x="615" d="M204 0T202 10L89 686V688Q89 693 92 696T100 700H249Q260 700 261 690L317 235Q317 232 319 232T323 235L488 690Q492 700 503 700H649Q654 700 656 696T657 686L375 10Q370 0 361 0H213Q204 0 202 10Z" />
<glyph unicode="W" glyph-name="W" horiz-adv-x="875" d="M187 0T185 10L87 687V689Q87 700 99 700H246Q256 700 257 690L297 326Q297 322 299 322T303 326L423 689Q426 700 437 700H572Q582 700 583 690L623 326Q623 322 625 322T629 326L752 689Q755 700 766
700H909Q923 700 919 687L671 10Q668 0 657 0H518Q507 0 507 11L470 397Q469 401 467 401T464 397L341 11Q338 0 327 0H197Q187 0 185 10Z" />
<glyph unicode="X" glyph-name="X" horiz-adv-x="626" d="M11 0T9 4T10 14L235 347Q237 350 235 353L93 686Q92 688 92 691Q92 700 103 700H253Q263 700 266 692L350 482Q353 478 356 482L492 692Q497 700 508 700H657Q666 700 666 694Q666 691 663 686L440 353Q439
351 439 347L581 14Q582 12 582 9Q582 5 579 3T571 0H423Q414 0 409 8L323 217Q321 222 318 217L181 8Q176 0 166 0H17Q11 0 9 4Z" />
<glyph unicode="Y" glyph-name="Y" horiz-adv-x="616" d="M214 2T211 5T209 14L238 251Q240 254 238 257L92 686Q91 688 91 691Q91 700 102 700H252Q261 700 264 691L339 438Q341 432 345 438L483 691Q487 700 497 700H648Q654 700 656 697T655 686L400 257L398
251L369 14Q368 9 365 6T356 2H219Q214 2 211 5Z" />
<glyph unicode="Z" glyph-name="Z" horiz-adv-x="543" d="M14 0T11 3T9 12L25 142Q27 152 32 157L377 552Q379 554 379 556T375 558H88Q83 558 80 561T78 570L92 688Q93 693 96 696T105 700H567Q572 700 575 697T577 688L561 558Q561 551 555 543L207 148Q206
146 206 144T209 142H499Q504 142 507 139T509 130L494 12Q493 7 490 4T481 0H19Q14 0 11 3Z" />
<glyph unicode="[" glyph-name="bracketleft" horiz-adv-x="417" d="M2 -156T-1 -153T-3 -144L113 798Q113 803 117 806T126 810H374Q379 810 382 807T384 798L370 679Q369 674 365 671T356 667H262Q257 667 257 662L175 -8Q173 -13 179 -13H273Q278 -13 281 -16T283
-25L268 -144Q268 -149 264 -152T255 -156H7Q2 -156 -1 -153Z" />
<glyph unicode="\" glyph-name="backslash" horiz-adv-x="483" d="M446 10Q446 0 435 0H298Q288 0 285 9L108 686L107 691Q107 700 118 700H254Q265 700 266 691L445 14L446 10Z" />
<glyph unicode="]" glyph-name="bracketright" horiz-adv-x="417" d="M344 -149T341 -152T332 -156H85Q74 -156 74 -144L89 -25Q90 -20 93 -17T102 -13H195Q199 -13 201 -8L283 662Q283 667 279 667H186Q181 667 178 670T176 679L190 798Q191 803 194 806T203
810H451Q456 810 459 807T461 798L345 -144Q344 -149 341 -152Z" />
<glyph unicode="^" glyph-name="asciicircum" horiz-adv-x="466" d="M49 294T47 298T48 308L227 690Q232 700 241 700H356Q366 700 367 690L456 308V304Q456 294 444 294H332Q323 294 321 304L281 526Q281 530 279 530T275 526L182 304Q177 294 168 294H55Q49
294 47 298Z" />
<glyph unicode="_" glyph-name="underscore" horiz-adv-x="521" d="M2 0T-1 3T-3 12L9 112Q10 117 13 120T22 124H491Q496 124 499 121T501 112L488 12Q488 7 484 4T475 0H7Q2 0 -1 3Z" />
<glyph unicode="`" glyph-name="grave" horiz-adv-x="239" d="M271 590T271 587Q271 583 268 581T260 578H161Q152 578 149 585L90 685Q88 689 88 692Q88 695 91 697T99 700H218Q227 700 232 691L270 592Q271 590 271 587Z" />
<glyph unicode="a" glyph-name="a" horiz-adv-x="553" d="M395 510T398 513T407 517H545Q550 517 553 514T555 505L494 12Q493 7 490 4T481 0H343Q338 0 335 3T333 12L338 50Q338 53 337 54T332 52Q285 -8 209 -8Q144 -8 99 33T41 146Q37 167 37 194Q37 222 42
260Q50 334 77 388Q105 448 159 486T281 525Q355 525 384 474Q386 471 388 472T390 476L394 505Q395 510 398 513ZM358 208T363 258Q366 282 366 299Q366 322 360 340Q354 360 340 371T303 383Q280 383 262 371T233 338Q217 311 210 258Q208 244 208 220Q208 194
213 179Q219 159 234 147T273 134Q317 134 341 180Q358 208 363 258Z" />
<glyph unicode="b" glyph-name="b" horiz-adv-x="556" d="M543 351T543 313Q543 297 539 261Q531 197 510 145Q479 74 424 33T302 -8Q227 -8 196 48Q195 51 193 50T190 46L186 12Q185 7 182 4T173 0H35Q30 0 27 3T25 12L108 688Q109 693 112 696T121 700H259Q264
700 267 697T269 688L243 479Q243 473 249 477Q291 525 361 525Q431 525 475 487T534 387Q543 351 543 313ZM365 204T371 258Q373 269 373 291Q373 326 363 347Q347 383 308 383Q271 383 246 348Q223 314 217 258Q215 236 215 226Q215 195 223 173Q239 134 277
134Q318 134 343 172Q365 204 371 258Z" />
<glyph unicode="c" glyph-name="c" horiz-adv-x="527" d="M172 -8T118 33T46 146Q39 174 39 210Q39 236 42 261Q50 329 74 376Q108 446 172 485T317 525Q397 525 453 484T523 380Q527 364 527 341Q525 329 515 328L377 307H375Q366 307 365 317Q365 323 364 326Q364
333 361 340Q356 359 339 371T298 383Q247 383 225 336Q211 308 205 260Q202 239 202 221Q202 200 205 185Q218 134 268 134Q293 134 313 147T344 186L346 192L347 196Q351 208 362 206L495 184Q506 182 503 171Q499 153 493 140Q462 70 397 31T251 -8Q172 -8 118
33Z" />
<glyph unicode="d" glyph-name="d" horiz-adv-x="556" d="M417 693T420 696T429 700H567Q572 700 575 697T577 688L494 12Q493 7 490 4T481 0H343Q338 0 335 3T333 12L337 45Q338 48 336 48T332 47Q285 -8 213 -8Q147 -8 102 33T43 145Q38 177 38 205Q38 223 42
261Q50 331 78 387Q107 449 161 487T285 525Q354 525 385 478Q386 475 388 476T391 480L416 688Q417 693 420 696ZM357 204T363 258Q366 278 366 294Q366 328 356 348Q340 383 303 383Q263 383 240 347Q217 315 209 258Q207 236 207 226Q207 195 216 172Q233 134
273 134Q312 134 336 173Q357 204 363 258Z" />
<glyph unicode="e" glyph-name="e" horiz-adv-x="533" d="M524 274T517 225Q514 213 502 213H207Q201 213 201 208Q202 193 207 179Q216 158 238 145T294 132Q354 132 395 173Q399 178 404 178Q408 178 411 174L475 86Q478 83 478 79Q478 75 473 70Q435 32 383
12T271 -8Q183 -8 126 31T50 142Q41 175 41 213Q41 234 44 258Q50 313 73 367Q107 441 170 483T313 526Q377 526 424 498T496 419T523 304Q524 274 517 225ZM246 383T222 334Q219 327 215 313Q213 308 218 308H356Q361 308 361 313Q361 320 359 332Q355 357 339
370T295 383Q246 383 222 334Z" />
<glyph unicode="f" glyph-name="f" horiz-adv-x="386" d="M405 518T405 506L391 394Q390 389 387 386T378 382H286Q284 382 283 381T281 377L236 12Q235 7 232 4T223 0H85Q80 0 77 3T75 12L120 377Q120 382 116 382H61Q56 382 53 385T51 394L65 506Q66 511 69
514T78 518H132Q138 518 138 523L141 550Q148 609 172 642T243 689T366 700H406Q411 700 414 697T416 688L405 597Q404 592 401 589T392 585H354Q328 583 316 572T300 535L299 523Q299 518 303 518H394Q405 518 405 506Z" />
<glyph unicode="g" glyph-name="g" horiz-adv-x="546" d="M389 510T392 513T401 517H539Q544 517 547 514T549 505L494 58Q477 -79 394 -138T192 -197Q147 -197 101 -189Q92 -188 93 -176L113 -52Q114 -39 128 -42Q166 -51 201 -51Q256 -51 291 -25T333 57L325
50Q286 14 220 14Q156 14 106 43T42 145Q37 168 37 201Q37 225 41 263Q50 337 75 389Q105 451 158 488T277 525Q348 525 379 481Q381 479 383 479T385 483L388 505Q389 510 392 513ZM352 213T358 264Q362 298 362 304Q362 319 357 336Q352 358 337 370T297 383Q252
383 227 336Q208 308 203 262Q201 250 201 229Q201 205 207 190Q212 169 228 156T269 143Q318 143 340 189Q352 213 358 264Z" />
<glyph unicode="h" glyph-name="h" horiz-adv-x="533" d="M437 525T478 484T520 371Q520 363 518 341L478 12Q477 7 474 4T465 0H327Q322 0 319 3T317 12L353 305L354 317Q354 347 338 365T296 383Q267 383 246 362T220 305L184 12Q183 7 180 4T171 0H33Q28 0
25 3T23 12L106 688Q107 693 110 696T119 700H257Q262 700 265 697T267 688L240 468Q239 464 241 464T245 466Q289 525 368 525Q437 525 478 484Z" />
<glyph unicode="i" glyph-name="i" horiz-adv-x="247" d="M140 563T120 584T99 638Q99 681 127 709T195 737Q229 737 249 717T270 663Q270 621 242 592T174 563Q140 563 120 584ZM30 0T27 3T25 12L85 505Q86 510 89 513T98 517H236Q241 517 244 514T246 505L186
12Q185 7 182 4T173 0H35Q30 0 27 3Z" />
<glyph unicode="j" glyph-name="j" horiz-adv-x="250" d="M143 563T123 584T102 638Q102 681 130 709T198 737Q232 737 252 717T273 663Q273 621 245 592T177 563Q143 563 123 584ZM-104 -202T-107 -199T-109 -190L-95 -75Q-94 -69 -90 -66T-81 -64Q-22 -67 1
-51T31 13L89 505Q90 510 93 513T102 517H240Q245 517 248 514T250 505L190 15Q179 -74 151 -121T65 -186T-99 -202Q-104 -202 -107 -199Z" />
<glyph unicode="k" glyph-name="k" horiz-adv-x="528" d="M28 0T25 3T23 12L106 688Q107 693 110 696T119 700H257Q262 700 265 697T267 688L229 377Q228 374 230 374T234 375L357 510Q363 517 372 517H530Q539 517 539 511Q539 506 535 502L387 333Q386 331 386
326L493 14L494 10Q494 0 482 0H339Q329 0 326 9L264 222Q263 224 261 224T257 223L203 156Q201 152 201 150L184 12Q183 7 180 4T171 0H33Q28 0 25 3Z" />
<glyph unicode="l" glyph-name="l" horiz-adv-x="242" d="M28 0T25 3T23 12L106 688Q107 693 110 696T119 700H257Q262 700 265 697T267 688L184 12Q183 7 180 4T171 0H33Q28 0 25 3Z" />
<glyph unicode="m" glyph-name="m" horiz-adv-x="815" d="M730 525T766 487T803 378Q803 354 801 342L760 12Q759 7 756 4T747 0H610Q605 0 602 3T600 12L636 306Q637 311 637 321Q637 349 623 366T583 383Q555 383 535 362T510 306L474 12Q473 7 470 4T461 0H323Q318
0 315 3T313 12L349 306Q350 311 350 320Q350 349 335 366T294 383Q268 383 249 366T222 321L184 12Q183 7 180 4T171 0H33Q28 0 25 3T23 12L83 505Q84 510 87 513T96 517H234Q239 517 242 514T244 505L239 460Q238 456 240 456T244 459Q292 525 377 525Q426 525
459 503T508 439Q510 433 514 440Q564 525 662 525Q730 525 766 487Z" />
<glyph unicode="n" glyph-name="n" horiz-adv-x="533" d="M437 525T478 484T520 371Q520 363 518 341L478 12Q477 7 474 4T465 0H327Q322 0 319 3T317 12L353 305L354 317Q354 347 338 365T296 383Q267 383 246 362T220 305L184 12Q183 7 180 4T171 0H33Q28 0
25 3T23 12L83 505Q84 510 87 513T96 517H234Q239 517 242 514T244 505L240 468Q239 464 241 464T245 466Q289 525 368 525Q437 525 478 484Z" />
<glyph unicode="o" glyph-name="o" horiz-adv-x="541" d="M163 -8T108 40T42 170Q39 191 39 213Q39 236 42 260Q48 314 66 357Q99 436 165 480T317 525Q402 525 456 481T523 358Q527 335 527 304Q527 276 525 262Q519 213 503 174Q473 90 406 41T250 -8Q163 -8
108 40ZM296 134T317 152T350 203Q358 225 363 260Q365 282 365 291Q365 334 349 358T298 383Q242 383 217 318Q207 291 204 260Q201 241 201 223Q201 183 218 159T268 134Q296 134 317 152Z" />
<glyph unicode="p" glyph-name="p" horiz-adv-x="557" d="M544 341T544 313Q544 295 540 257Q530 185 504 131Q474 68 421 30T297 -8Q228 -8 197 39Q195 42 193 41T191 37L165 -171Q164 -176 161 -179T152 -183H14Q9 -183 6 -180T4 -171L87 505Q88 510 91 513T100
517H238Q243 517 246 514T248 505L244 472Q244 466 250 470Q295 525 368 525Q434 525 479 485T539 373Q544 341 544 313ZM366 205T372 260Q374 271 374 292Q374 324 365 345Q351 383 309 383Q270 383 245 345Q224 309 218 259Q216 247 216 225Q216 193 225 169Q241
134 278 134Q319 134 342 170Q366 205 372 260Z" />
<glyph unicode="q" glyph-name="q" horiz-adv-x="557" d="M395 510T398 513T407 517H545Q550 517 553 514T555 505L472 -171Q471 -176 468 -179T459 -183H321Q316 -183 313 -180T311 -171L336 37Q337 40 335 41T331 39Q289 -8 219 -8Q149 -8 105 30T46 131Q38
162 38 203Q38 230 41 257Q49 318 71 373Q102 444 157 484T279 525Q352 525 384 470Q386 468 387 468T390 472L394 505Q395 510 398 513ZM357 203T364 259Q366 283 366 292Q366 321 358 345Q342 383 303 383Q262 383 237 345Q217 315 209 260Q207 238 207 230Q207
195 218 170Q234 134 273 134Q310 134 334 169Q357 203 364 259Z" />
<glyph unicode="r" glyph-name="r" horiz-adv-x="378" d="M386 524T405 511Q412 505 409 496L370 357Q367 345 355 350Q339 354 322 354Q306 354 297 352Q267 348 244 328T216 275L184 12Q183 7 180 4T171 0H33Q28 0 25 3T23 12L83 505Q84 510 87 513T96 517H234Q239
517 242 514T244 505L240 473Q240 470 242 469T245 471Q290 524 352 524Q386 524 405 511Z" />
<glyph unicode="s" glyph-name="s" horiz-adv-x="495" d="M137 -8T81 30T25 131Q25 142 26 148L27 159Q28 164 31 167T40 171H171Q182 171 182 159Q179 140 198 128T248 115Q277 115 294 125T311 153Q311 167 295 174T243 188Q184 201 149 217Q107 236 82 263T57
336Q57 349 58 356Q68 434 132 479T292 525Q383 525 436 484T490 373Q490 360 489 353Q488 348 484 345T475 341H348Q343 341 340 344T338 353Q340 372 325 384T279 396Q250 396 232 386T213 357Q213 341 231 334T289 319Q342 308 365 300Q417 282 446 253T475
175Q475 162 474 155Q464 77 400 35T234 -8Q137 -8 81 30Z" />
<glyph unicode="t" glyph-name="t" horiz-adv-x="374" d="M379 391T375 388T366 384H278Q273 384 273 379L250 197Q249 192 249 183Q249 140 288 140H324Q329 140 332 137T334 128L320 12Q318 1 307 -1Q259 -3 238 -3Q161 -3 124 19T86 101Q86 109 88 129L118
379Q120 384 114 384H59Q54 384 51 387T49 396L62 505Q63 510 66 513T75 517H130Q136 517 136 522L151 643Q152 648 155 651T164 655H295Q300 655 303 652T305 643L290 522Q290 517 294 517H383Q388 517 391 514T393 505L379 396Q379 391 375 388Z" />
<glyph unicode="u" glyph-name="u" horiz-adv-x="532" d="M374 510T377 513T386 517H524Q529 517 532 514T534 505L474 12Q473 7 470 4T461 0H323Q318 0 315 3T313 12L317 47Q318 50 316 51T312 49Q266 -8 182 -8Q116 -8 77 30T38 140Q38 162 40 174L80 505Q81
510 85 513T94 517H231Q236 517 239 514T241 505L205 212L204 199Q204 169 219 152T261 135Q288 135 308 152T336 197L373 505Q374 510 377 513Z" />
<glyph unicode="v" glyph-name="v" horiz-adv-x="520" d="M155 0T153 10L61 504V507Q61 512 64 515T72 518H224Q235 518 236 508L266 233Q267 230 269 230T272 233L371 508Q375 518 386 518L536 516Q542 516 544 513T544 502L332 10Q327 0 318 0H164Q155 0 153 10Z" />
<glyph unicode="w" glyph-name="w" horiz-adv-x="781" d="M143 0T141 10L61 504V506Q61 511 64 514T72 518H215Q226 518 226 507L251 236Q251 232 253 232T257 236L353 508Q357 518 367 518H491Q503 518 504 508L536 235Q537 232 539 232T542 235L640 508Q644
518 655 518L797 516Q802 516 804 513T805 503L602 10Q597 0 588 0H445Q435 0 433 10L397 243Q397 246 395 246T392 243L309 10Q305 0 295 0H152Q143 0 141 10Z" />
<glyph unicode="x" glyph-name="x" horiz-adv-x="542" d="M0 0T0 7Q0 11 3 15L188 256Q190 259 188 262L63 502Q61 506 61 508Q61 512 64 514T71 517H220Q229 517 232 509L291 390Q293 387 295 387T298 390L386 509Q392 517 401 517H559Q567 517 567 510Q567 507
564 502L379 262Q378 259 379 256L504 15Q506 11 506 9Q506 5 503 3T496 0H347Q338 0 335 8L276 127Q275 130 273 130T269 127L180 8Q175 0 166 0H8Q0 0 0 7Z" />
<glyph unicode="y" glyph-name="y" horiz-adv-x="504" d="M-4 -199T-4 -187L10 -75Q11 -70 14 -67T22 -63Q84 -63 112 -52T152 -3Q153 -1 153 3L58 504V507Q58 512 61 515T69 518H216Q226 518 227 508L258 212Q258 208 260 208T264 212L367 508Q371 518 381 518H524Q530
518 532 515T532 504L305 -10Q271 -85 240 -123T156 -180T9 -199H2Q-4 -199 -4 -187Z" />
<glyph unicode="z" glyph-name="z" horiz-adv-x="451" d="M2 0T2 12L18 141Q20 151 26 156L250 361Q252 363 252 365T248 367H63Q58 367 55 370T53 379L69 505Q70 510 73 513T82 517H454Q465 517 465 505L449 376Q447 366 441 361L209 156Q207 154 208 152T211
150H415Q420 150 423 147T425 138L410 12Q409 7 406 4T397 0H13Q2 0 2 12Z" />
<glyph unicode="{" glyph-name="braceleft" horiz-adv-x="390" d="M147 -156T116 -129T85 -52Q85 -37 86 -29L111 174Q113 190 113 197Q113 259 58 263Q48 264 48 276L61 382Q63 393 74 395Q107 398 125 419T149 483L173 683Q181 745 219 777T325 810H424Q435
810 435 798L420 679Q419 674 416 671T407 667H384Q361 667 345 651T325 608L307 459Q300 408 282 378T231 332Q225 329 230 326Q277 303 277 233Q277 223 275 199L256 46Q255 42 255 35Q255 13 267 0T300 -13H323Q334 -13 334 -25L319 -144Q318 -149 315 -152T306
-156H207Q147 -156 116 -129Z" />
<glyph unicode="|" glyph-name="bar" horiz-adv-x="210" d="M2 -80T-1 -77T-3 -68L97 748Q98 753 101 756T110 760H248Q253 760 256 757T258 748L158 -68Q157 -73 153 -76T144 -80H7Q2 -80 -1 -77Z" />
<glyph unicode="}" glyph-name="braceright" horiz-adv-x="390" d="M7 -156Q2 -156 -1 -153T-3 -144L11 -25Q12 -20 16 -17T25 -13H48Q71 -13 87 3T107 46L125 199Q131 249 149 280T201 326Q207 329 202 332Q155 356 155 425Q155 435 157 459L176 608Q179 634
167 650T131 667H108Q103 667 100 670T98 679L113 798Q113 803 117 806T126 810H225Q285 810 316 783T347 706Q347 691 346 683L321 483Q319 467 319 460Q319 400 373 395Q385 394 383 382L370 276Q370 265 357 263Q325 260 307 239T283 174L258 -29Q250 -91 212
-123T106 -156H7Z" />
<glyph unicode="~" glyph-name="asciitilde" horiz-adv-x="530" d="M329 190T312 196T276 215Q253 229 235 237T197 246Q162 246 134 211Q125 202 117 208L46 263Q38 271 42 279Q64 327 111 358T209 389Q233 389 250 383T287 364Q294 360 308 351T335 337T359
332Q376 332 390 341T418 367Q425 377 434 371L516 312Q523 306 519 296Q495 249 449 220T353 190Q329 190 312 196Z" />
<glyph unicode="&#xa0;" glyph-name="uni00A0" horiz-adv-x="194" />
<glyph unicode="&#xa1;" glyph-name="exclamdown" horiz-adv-x="342" d="M266 708T286 687T307 633Q307 590 280 562T211 534Q177 534 157 554T136 609Q136 651 164 679T232 708Q266 708 286 687ZM145 457T148 460T157 464H262Q267 464 270 461T272 452L235 21Q234
9 222 9H85Q73 9 74 21L144 452Q145 457 148 460Z" />
<glyph unicode="&#xa2;" glyph-name="cent" horiz-adv-x="527" d="M258 473T236 426Q222 398 216 350Q213 329 213 311Q213 290 216 275Q229 224 279 224Q304 224 324 237T355 276L357 282Q358 283 358 286Q362 298 373 296L506 274Q517 272 514 261Q510 245 505
230Q481 176 436 141T332 90Q328 89 328 84L320 5Q319 0 316 -3T307 -7H189Q184 -7 181 -4T179 5L191 88Q192 92 188 93Q137 109 104 145T57 236Q50 264 50 300Q50 326 53 351Q61 419 85 466Q109 517 151 552T247 604Q251 605 251 609L259 689Q260 694 263 697T272
701H391Q396 701 399 698T401 689L390 613Q389 609 393 607Q449 592 486 556T534 470Q538 454 538 431Q536 419 526 418L388 397H386Q377 397 376 407Q376 413 375 416Q375 419 373 429Q368 448 351 460T309 473Q258 473 236 426Z" />
<glyph unicode="&#xa3;" glyph-name="sterling" horiz-adv-x="597" d="M293 205T282 186T253 148Q251 146 251 144T255 142H556Q561 142 564 139T566 130L551 12Q551 7 547 4T538 0H72Q67 0 64 3T62 12L76 133Q77 141 86 147Q110 164 121 184T135 234L140 275Q142
280 136 280H74Q69 280 66 283T64 292L77 401Q78 406 81 409T90 413H153Q155 413 156 414T158 418L166 482Q179 590 248 649T422 708Q505 708 554 664T618 541L619 537Q619 529 608 527L477 504H475Q467 504 464 513Q457 543 443 554T404 566Q338 564 327 485L319
418Q319 413 323 413H498Q503 413 506 410T508 401L495 292Q494 287 491 284T482 280H307Q303 280 301 275L296 234Q293 205 282 186Z" />
<glyph unicode="&#xa4;" glyph-name="currency" horiz-adv-x="576" d="M526 264T490 205Q487 201 490 198L547 131Q550 128 550 124Q550 119 545 114L450 37Q446 33 441 33Q436 33 433 37L381 98Q379 101 374 99Q325 77 275 77Q226 77 186 97Q182 99 179 96L113
37Q109 33 105 33Q100 33 97 37L21 114Q18 119 18 122Q18 126 23 131L91 193Q94 196 92 200Q78 236 78 275Q78 343 115 404Q117 409 114 411L59 477Q55 481 55 484Q55 490 61 494L156 571Q160 575 165 575Q170 575 173 571L224 510Q225 507 230 509Q279 532 331
532Q384 532 428 507Q433 506 435 508L505 571Q509 575 513 575Q518 575 521 571L597 494Q600 491 600 487Q600 482 595 477L518 407Q515 405 515 400Q526 367 526 334Q526 264 490 205ZM217 261T239 239T292 217Q327 217 355 242T387 304L388 315Q388 348 367
370T314 392Q276 392 247 363T217 293Q217 261 239 239Z" />
<glyph unicode="&#xa5;" glyph-name="yen" horiz-adv-x="664" d="M681 700T683 697T682 686L477 339Q474 333 480 333H559Q564 333 567 330T569 321L561 254Q560 249 557 246T548 242H430Q425 242 425 237L420 198Q420 193 424 193H542Q547 193 550 190T552 181L544
115Q543 110 540 107T531 103H413Q408 103 408 98L397 14Q397 9 393 6T384 2H248Q237 2 237 14L248 98Q248 103 244 103H126Q121 103 118 106T116 115L124 181Q125 186 128 189T137 193H255Q257 193 258 194T260 198L265 237Q265 242 261 242H143Q138 242 135 245T133
254L141 321Q142 326 145 329T154 333H233Q238 333 238 339L119 686Q118 688 118 691Q118 700 130 700H279Q288 700 291 691L367 438Q369 435 370 435T373 438L511 691Q515 700 525 700H675Q681 700 683 697Z" />
<glyph unicode="&#xa6;" glyph-name="brokenbar" horiz-adv-x="210" d="M61 404T58 407T56 416L97 748Q98 753 101 756T110 760H248Q253 760 256 757T258 748L217 416Q216 411 213 408T204 404H66Q61 404 58 407ZM2 -80T-1 -77T-3 -68L37 264Q38 269 41 272T50
276H188Q193 276 196 273T198 264L158 -68Q157 -73 153 -76T144 -80H7Q2 -80 -1 -77Z" />
<glyph unicode="&#xa7;" glyph-name="section" horiz-adv-x="494" d="M106 -208T58 -167T10 -54L11 -37L14 5Q15 10 18 13T27 17H165Q170 17 173 14T175 5L173 -10Q170 -36 183 -51T221 -66Q244 -66 261 -51T278 -13Q278 7 260 20T190 55L170 64Q123 84 96 102T54
149Q38 179 38 218Q38 284 80 339Q106 369 142 385Q148 388 144 391Q76 432 76 508Q76 561 107 607T194 680T315 708Q399 708 451 665T503 550Q503 536 502 528L499 501Q498 496 495 493T486 489H348Q343 489 340 492T338 501L339 510Q342 535 330 550T294 566Q271
566 254 551T236 511Q236 484 258 470T328 439Q369 425 397 410T445 373Q476 337 476 283Q476 254 466 223T437 166Q405 124 370 114Q367 113 367 112T369 108Q405 84 422 55T439 -10Q439 -70 406 -115T318 -184T196 -208Q106 -208 58 -167ZM282 198T299 218Q310
230 313 250L314 258Q314 273 307 283Q294 303 264 303Q249 303 236 297T215 281Q204 269 201 250V243Q201 227 208 217Q221 198 250 198Q282 198 299 218Z" />
<glyph unicode="&#xa8;" glyph-name="dieresis" horiz-adv-x="401" d="M319 571T299 592T278 646Q278 689 306 717T374 745Q408 745 428 725T448 671Q448 629 420 600T353 571Q319 571 299 592ZM116 571T96 592T75 646Q75 689 103 717T171 745Q205 745 225 725T245
671Q245 629 217 600T150 571Q116 571 96 592Z" />
<glyph unicode="&#xa9;" glyph-name="copyright" horiz-adv-x="774" d="M275 -8T205 31T97 140T58 302Q58 328 61 355Q73 455 128 535T269 662T454 708Q545 708 615 669T725 561T764 404Q764 381 761 355Q748 251 693 168T552 39T366 -8Q275 -8 205 31ZM448 101T507
133T605 224T653 354Q655 376 655 387Q655 448 628 496T552 572T440 599Q372 599 313 567T216 479T170 354Q168 341 168 317Q168 254 194 205T268 128T379 101Q448 101 507 133ZM340 176T311 203T281 276Q281 288 282 294L296 410Q303 464 340 495T434 527Q485
527 515 502T545 432Q545 422 544 417Q543 411 532 411L471 408Q460 408 460 415Q462 433 453 444T425 455Q407 455 395 444T381 415L365 288Q363 271 372 260T400 249Q417 249 430 260T445 288Q445 292 448 294T457 296L517 293Q528 293 528 286Q522 236 485 206T391
176Q340 176 311 203Z" />
<glyph unicode="&#xaa;" glyph-name="ordfeminine" horiz-adv-x="322" d="M255 568Q260 568 260 573L261 580Q264 603 251 617T212 632Q194 632 179 624T158 604Q152 593 144 594L82 599Q70 601 73 612Q82 653 123 680T220 708Q260 708 290 693T336 652T349 595L322
375Q321 370 317 367T308 363H246Q241 363 238 366T236 375L237 380Q237 383 235 383T231 382Q200 357 149 357Q100 357 73 379T45 441Q45 450 46 455Q53 507 93 537T197 568H255ZM204 426T225 443T249 481L251 497Q253 502 247 502H202Q133 502 133 457Q133 426
174 426Q204 426 225 443ZM27 304T30 307T39 311H310Q315 311 318 308T320 299L313 242Q312 237 309 234T300 230H29Q24 230 21 233T19 242L26 299Q27 304 30 307Z" />
<glyph unicode="&#xab;" glyph-name="guillemotleft" horiz-adv-x="483" d="M260 119T260 115Q260 107 250 107H138Q128 107 125 115L62 273Q60 277 60 279Q60 283 64 289L165 447Q170 455 181 455H293Q299 455 300 451T299 441L195 284Q193 280 194 278L259 121Q260
119 260 115ZM431 119T431 116Q431 112 428 110T421 107H309Q299 107 296 116L233 273Q232 275 232 279Q232 285 235 289L336 446Q342 455 352 455H463Q472 455 472 449Q472 446 469 441L367 284Q364 281 366 278L430 121Q431 119 431 116Z" />
<glyph unicode="&#xac;" glyph-name="logicalnot" horiz-adv-x="466" d="M49 360T53 363T62 367H455Q466 367 466 355L438 128Q437 123 434 120T425 116H311Q306 116 303 119T301 128L312 220Q314 225 308 225H44Q39 225 36 228T34 237L48 355Q49 360 53 363Z" />
<glyph unicode="&#xad;" glyph-name="uni00AD" horiz-adv-x="402" d="M38 219T35 222T33 231L48 349Q49 354 52 357T61 361H391Q396 361 399 358T401 349L386 231Q385 226 382 223T373 219H43Q38 219 35 222Z" />
<glyph unicode="&#xae;" glyph-name="registered" horiz-adv-x="429" d="M334 709T374 687T436 626T459 537Q459 528 457 510Q450 450 418 403T337 328T232 301Q153 301 105 350T56 479Q56 488 58 510Q65 566 96 611T177 683T282 709Q334 709 374 687ZM281 367T316
388T372 446T393 529Q393 578 360 610T274 643Q232 643 198 622T143 565T122 487Q122 434 155 401T240 367Q281 367 316 388ZM333 511T304 493Q300 492 300 487L313 428V425Q313 414 302 414H272Q263 414 261 424L251 479Q249 483 247 483Q246 483 245 482T244
478L238 426Q237 421 233 418T224 414H197Q192 414 189 417T187 426L207 589Q208 594 211 597T220 601H281Q305 601 319 587T333 548Q333 511 304 493ZM259 557Q253 557 253 552L250 526Q248 521 254 521H264Q271 521 276 526T282 539V543Q282 557 268 557H259Z"
/>
<glyph unicode="&#xaf;" glyph-name="overscore" horiz-adv-x="294" d="M57 572T54 575T52 584L63 671Q64 676 67 679T76 683H347Q352 683 355 680T357 671L346 584Q345 579 342 576T333 572H62Q57 572 54 575Z" />
<glyph unicode="&#xb0;" glyph-name="degree" horiz-adv-x="363" d="M155 465T114 508T72 616Q72 668 98 712T168 782T261 808Q325 808 366 766T408 660Q408 608 382 563T313 492T219 465Q155 465 114 508ZM261 571T283 593T305 647Q305 672 289 688T249 705Q220
705 198 683T175 630Q175 604 191 588T232 571Q261 571 283 593Z" />
<glyph unicode="&#xb1;" glyph-name="plusminus" horiz-adv-x="466" d="M480 482T480 470L465 352Q464 347 461 344T452 340H329Q325 340 323 335L308 209Q307 204 304 201T295 197H181Q176 197 173 200T171 209L187 335Q187 340 182 340H58Q53 340 50 343T48
352L62 470Q63 475 67 478T76 482H200Q205 482 205 487L221 615Q222 620 225 623T234 627H347Q352 627 355 624T358 615L342 487Q342 482 346 482H469Q480 482 480 470ZM11 0T8 3T6 12L20 130Q21 135 25 138T34 142H427Q438 142 438 130L423 12Q422 7 419 4T410
0H16Q11 0 8 3Z" />
<glyph unicode="&#xb2;" glyph-name="uni00B2" horiz-adv-x="339" d="M65 407T62 410T60 419L69 487Q69 496 77 502Q125 543 217 626Q279 684 279 709Q279 724 269 733T242 742Q223 742 210 731T195 703L194 694Q193 689 190 686T181 682H101Q96 682 93 685T91
694L94 720Q104 771 148 801T254 832Q314 832 348 801T383 722Q383 692 369 665T324 605Q297 577 236 523Q235 522 213 503Q210 501 210 499T214 497H350Q355 497 358 494T360 485L352 419Q351 414 348 411T339 407H70Q65 407 62 410Z" />
<glyph unicode="&#xb3;" glyph-name="uni00B3" horiz-adv-x="315" d="M350 595T350 574Q350 556 348 546Q344 512 329 482Q308 445 271 423T187 401Q141 401 109 424T65 488Q59 505 59 536Q61 548 72 548H153Q164 548 164 536Q164 524 166 518Q167 511 171 506Q179
491 198 491Q220 491 232 509Q244 525 247 549Q248 554 248 562Q248 579 242 591Q235 610 213 610Q198 610 184 601Q178 598 175 598Q170 598 167 603L135 652Q133 655 133 660Q133 666 139 669L228 729Q232 731 231 733T227 735H107Q102 735 99 738T97 747L105
814Q106 819 109 822T118 826H366Q377 826 377 814L368 744Q366 734 359 729L285 676Q280 671 287 669Q328 657 345 609Q350 595 350 574Z" />
<glyph unicode="&#xb4;" glyph-name="acute" horiz-adv-x="239" d="M75 578T74 582T75 592L138 691Q144 700 154 700H273Q282 700 282 694Q282 689 278 685L195 585Q189 578 180 578H81Q75 578 74 582Z" />
<glyph unicode="&#xb5;" glyph-name="uni00B5" horiz-adv-x="537" d="M378 510T381 513T390 517H528Q533 517 536 514T538 505L478 12Q477 7 474 4T465 0H327Q322 0 319 3T317 12L321 47Q322 50 320 51T316 49Q268 -8 186 -8V-8Q181 -8 181 -13L159 -188Q158 -193
155 -196T146 -200H8Q3 -200 0 -197T-2 -188L83 505Q84 510 87 513T96 517H234Q239 517 242 514T244 505L208 212L207 199Q207 170 222 153T265 135Q292 135 312 152T339 197L377 505Q378 510 381 513Z" />
<glyph unicode="&#xb6;" glyph-name="paragraph" horiz-adv-x="623" d="M637 700Q642 700 645 697T647 688L540 -188Q539 -193 535 -196T526 -200H433Q428 -200 425 -197T423 -188L517 579Q519 584 513 584H429Q425 584 423 579L329 -188Q328 -193 325 -196T316
-200H222Q217 -200 214 -197T212 -188L265 246Q265 251 261 251Q167 258 112 310T57 445Q57 455 59 475Q68 541 104 592T200 671T338 700H637Z" />
<glyph unicode="&#xb7;" glyph-name="middot" horiz-adv-x="237" d="M91 208T71 229T50 283Q50 326 78 354T146 382Q180 382 200 362T220 308Q220 266 192 237T125 208Q91 208 71 229Z" />
<glyph unicode="&#xb8;" glyph-name="cedilla" horiz-adv-x="174" d="M-42 -179T-39 -168L-24 -107Q-21 -94 -8 -99Q4 -103 10 -103Q20 -103 27 -98T39 -84Q41 -80 41 -72Q41 -45 3 -15Q-2 -10 -2 -7Q-2 0 9 0H85Q94 0 99 -5Q143 -47 143 -93Q143 -111 135 -130Q122
-165 95 -180T33 -195Q-3 -195 -33 -182Q-42 -179 -39 -168Z" />
<glyph unicode="&#xb9;" glyph-name="uni00B9" horiz-adv-x="191" d="M147 827T154 827H236Q247 827 247 815L198 419Q197 414 194 411T185 407H106Q101 407 98 410T96 419L134 731Q136 736 130 736L104 735Q99 735 96 738T94 747L100 800Q101 810 112 814L139
824Q147 827 154 827Z" />
<glyph unicode="&#xba;" glyph-name="ordmasculine" horiz-adv-x="344" d="M148 359T114 385T67 459Q62 475 62 503Q62 514 64 534Q70 582 85 611Q108 658 149 683T241 708Q288 708 322 684T368 612Q374 590 374 563Q374 552 372 536Q370 518 364 497T349 459Q324
411 284 385T197 359Q148 359 114 385ZM238 449T254 482Q265 501 269 534Q271 552 271 562Q271 590 259 604T228 619Q201 619 180 585Q172 571 166 534Q165 527 165 512Q165 496 168 482Q177 449 208 449Q238 449 254 482ZM40 230T37 233T35 242L42 299Q42 304
46 307T55 311H332Q337 311 340 308T342 299L335 242Q334 237 331 234T322 230H45Q40 230 37 233Z" />
<glyph unicode="&#xbb;" glyph-name="guillemotright" horiz-adv-x="483" d="M48 107T48 113Q48 117 51 121L154 278Q157 281 155 284L90 441Q89 443 89 446Q89 450 92 452T100 455H211Q221 455 225 447L288 289Q289 287 289 283Q289 278 286 273L184 115Q179
107 168 107H57Q48 107 48 113ZM219 107T219 113Q219 117 222 121L325 278Q328 281 326 284L261 441Q260 443 260 446Q260 450 263 452T271 455H382Q392 455 396 447L459 289Q460 287 460 283Q460 278 457 273L355 115Q350 107 339 107H228Q219 107 219 113Z" />
<glyph unicode="&#xbc;" glyph-name="onequarter" horiz-adv-x="809" d="M131 700T138 700H220Q231 700 231 688L182 292Q181 287 178 284T169 280H90Q85 280 82 283T80 292L118 604Q120 609 114 609L88 608Q83 608 80 611T78 620L84 673Q85 683 96 687L123 697Q131
700 138 700ZM85 0T83 4T84 14L542 692Q544 696 548 698T557 700H646Q652 700 654 696T653 686L196 8Q191 0 180 0H91Q85 0 83 4ZM781 197T784 194T787 185L778 114Q777 109 774 106T765 102H746Q741 102 741 97L731 12Q730 7 726 4T717 0H639Q634 0 631 3T629
12L639 97Q639 102 635 102H458Q453 102 450 105T448 114L455 170Q457 178 460 185L584 411Q588 420 598 420H682Q688 420 690 416T689 406L579 203Q578 201 579 199T582 197H647Q649 197 650 198T652 202L659 260Q660 265 663 268T672 272H751Q756 272 759 269T761
260L754 202Q752 197 758 197H776Q781 197 784 194Z" />
<glyph unicode="&#xbd;" glyph-name="onehalf" horiz-adv-x="780" d="M131 700T138 700H220Q231 700 231 688L182 292Q181 287 178 284T169 280H90Q85 280 82 283T80 292L118 604Q120 609 114 609L88 608Q83 608 80 611T78 620L84 673Q85 683 96 687L123 697Q131
700 138 700ZM85 0T83 4T84 14L542 692Q544 696 548 698T557 700H646Q652 700 654 696T653 686L196 8Q191 0 180 0H91Q85 0 83 4ZM454 0T451 3T449 12L458 80Q458 89 466 95Q514 136 606 219Q668 277 668 302Q668 317 658 326T631 335Q612 335 599 324T584 296L583
287Q582 282 579 279T570 275H490Q485 275 482 278T480 287L483 313Q493 364 537 394T643 425Q703 425 737 394T772 315Q772 285 758 258T713 198Q686 170 625 116Q624 115 602 96Q599 94 599 92T603 90H739Q744 90 747 87T749 78L741 12Q740 7 737 4T728 0H459Q454
0 451 3Z" />
<glyph unicode="&#xbe;" glyph-name="threequarters" horiz-adv-x="894" d="M335 471T335 450Q335 432 333 422Q329 388 314 358Q293 321 256 299T172 277Q126 277 94 300T50 364Q44 381 44 412Q46 424 57 424H138Q149 424 149 412Q149 400 151 394Q152 387 156
382Q164 367 183 367Q205 367 217 385Q229 401 232 425Q233 430 233 438Q233 455 227 467Q220 486 198 486Q183 486 169 477Q163 474 160 474Q155 474 152 479L120 528Q118 531 118 536Q118 542 124 545L213 605Q217 607 216 609T212 611H92Q87 611 84 614T82 623L90
690Q91 695 94 698T103 702H351Q362 702 362 690L353 620Q351 610 344 605L270 552Q265 547 272 545Q313 533 330 485Q335 471 335 450ZM171 0T169 4T170 14L628 692Q630 696 634 698T643 700H732Q738 700 740 696T739 686L282 8Q277 0 266 0H177Q171 0 169 4ZM867
197T870 194T873 185L864 114Q863 109 860 106T851 102H832Q827 102 827 97L817 12Q816 7 812 4T803 0H725Q720 0 717 3T715 12L725 97Q725 102 721 102H544Q539 102 536 105T534 114L541 170Q543 178 546 185L670 411Q674 420 684 420H768Q774 420 776 416T775
406L665 203Q664 201 665 199T668 197H733Q735 197 736 198T738 202L745 260Q746 265 749 268T758 272H837Q842 272 845 269T847 260L840 202Q838 197 844 197H862Q867 197 870 194Z" />
<glyph unicode="&#xbf;" glyph-name="questiondown" horiz-adv-x="527" d="M361 504T381 484T402 431Q402 387 375 359T307 330Q274 330 254 350T233 403Q233 446 260 475T329 504Q361 504 381 484ZM368 271T371 268T373 259L370 235Q365 197 347 170T307 125T248
84Q206 57 187 39T167 -9Q167 -32 185 -45T235 -59Q272 -59 296 -42T324 4L325 15Q326 26 338 26L475 20Q480 20 483 16T485 7V4Q477 -59 440 -107T344 -183T213 -210Q115 -210 59 -163T2 -37Q2 -29 4 -9Q10 36 29 67T72 119T133 162Q171 186 189 203T211 245L212
259Q213 264 216 267T225 271H363Q368 271 371 268Z" />
<glyph unicode="&#xc0;" glyph-name="Agrave" horiz-adv-x="673" d="M466 0T463 3T459 10L445 99Q443 103 440 103H219Q216 103 214 99L178 10Q173 0 163 0H15Q9 0 7 3T7 14L297 690Q302 700 311 700H494Q503 700 506 690L631 14V10Q631 0 620 0H471Q466 0 463
3ZM267 231T273 231H417Q422 231 422 237L380 494Q379 498 377 498T374 494L270 237Q267 231 273 231ZM470 773T470 770Q470 766 467 764T459 761H360Q351 761 348 768L289 868Q287 872 287 875Q287 878 290 880T298 883H417Q426 883 431 874L469 775Q470 773 470
770Z" />
<glyph unicode="&#xc1;" glyph-name="Aacute" horiz-adv-x="673" d="M466 0T463 3T459 10L445 99Q443 103 440 103H219Q216 103 214 99L178 10Q173 0 163 0H15Q9 0 7 3T7 14L297 690Q302 700 311 700H494Q503 700 506 690L631 14V10Q631 0 620 0H471Q466 0 463
3ZM267 231T273 231H417Q422 231 422 237L380 494Q379 498 377 498T374 494L270 237Q267 231 273 231ZM339 761T338 765T339 775L402 874Q408 883 418 883H537Q546 883 546 877Q546 872 542 868L459 768Q453 761 444 761H345Q339 761 338 765Z" />
<glyph unicode="&#xc2;" glyph-name="Acircumflex" horiz-adv-x="673" d="M466 0T463 3T459 10L445 99Q443 103 440 103H219Q216 103 214 99L178 10Q173 0 163 0H15Q9 0 7 3T7 14L297 690Q302 700 311 700H494Q503 700 506 690L631 14V10Q631 0 620 0H471Q466
0 463 3ZM267 231T273 231H417Q422 231 422 237L380 494Q379 498 377 498T374 494L270 237Q267 231 273 231ZM245 755T245 762Q245 766 248 770L331 875Q336 883 345 883H500Q510 883 513 875L572 770Q574 766 574 764Q574 760 571 758T562 755H458Q448 755 445
763L419 816Q418 819 416 819T413 816L374 763Q369 755 360 755H254Q245 755 245 762Z" />
<glyph unicode="&#xc3;" glyph-name="Atilde" horiz-adv-x="673" d="M466 0T463 3T459 10L445 99Q443 103 440 103H219Q216 103 214 99L178 10Q173 0 163 0H15Q9 0 7 3T7 14L297 690Q302 700 311 700H494Q503 700 506 690L631 14V10Q631 0 620 0H471Q466 0 463
3ZM267 231T273 231H417Q422 231 422 237L380 494Q379 498 377 498T374 494L270 237Q267 231 273 231ZM448 746T435 750T405 763Q387 772 378 775T358 778Q326 778 304 758Q293 748 287 757L245 811Q242 816 242 819Q242 823 245 827Q265 857 295 875T362 894Q381
894 395 889T421 879T436 871Q448 864 460 860T483 855Q510 855 531 877Q542 888 547 878L584 822Q589 815 586 809Q571 782 540 764T469 746Q448 746 435 750Z" />
<glyph unicode="&#xc4;" glyph-name="Adieresis" horiz-adv-x="673" d="M466 0T463 3T459 10L445 99Q443 103 440 103H219Q216 103 214 99L178 10Q173 0 163 0H15Q9 0 7 3T7 14L297 690Q302 700 311 700H494Q503 700 506 690L631 14V10Q631 0 620 0H471Q466 0
463 3ZM267 231T273 231H417Q422 231 422 237L380 494Q379 498 377 498T374 494L270 237Q267 231 273 231ZM475 754T455 775T434 829Q434 872 462 900T530 928Q564 928 584 908T604 854Q604 812 576 783T509 754Q475 754 455 775ZM272 754T252 775T231 829Q231
872 259 900T327 928Q361 928 381 908T401 854Q401 812 373 783T306 754Q272 754 252 775Z" />
<glyph unicode="&#xc5;" glyph-name="Aring" horiz-adv-x="673" d="M466 0T463 3T459 10L445 99Q443 103 440 103H219Q216 103 214 99L178 10Q173 0 163 0H15Q9 0 7 3T7 14L297 690Q302 700 311 700H494Q503 700 506 690L631 14V10Q631 0 620 0H471Q466 0 463
3ZM267 231T273 231H417Q422 231 422 237L380 494Q379 498 377 498T374 494L270 237Q267 231 273 231ZM357 740T326 771T295 851Q295 891 314 925T367 979T438 999Q487 999 518 968T550 887Q550 847 531 813T478 760T406 740Q357 740 326 771ZM436 825T451 840T466
877Q466 894 455 905T427 916Q408 916 394 901T379 864Q379 847 389 836T416 825Q436 825 451 840Z" />
<glyph unicode="&#xc6;" glyph-name="AE" horiz-adv-x="945" d="M964 565T961 562T952 558H651Q645 558 645 553L630 430Q630 425 634 425H826Q831 425 834 422T836 413L822 296Q821 291 818 288T809 284H617Q613 284 611 279L595 147Q595 142 599 142H901Q906
142 909 139T911 130L897 12Q896 7 893 4T884 0H428Q423 0 420 3T418 12L428 98Q430 103 424 103H243Q241 103 239 102T236 99L183 9Q179 0 169 0H16Q10 0 8 3T9 14L419 691Q425 700 434 700H970Q975 700 978 697T980 688L965 570Q964 565 961 562ZM317 235T318
233T321 231H440Q445 231 445 236L477 496Q478 500 476 500T471 498L318 237Q317 235 318 233Z" />
<glyph unicode="&#xc7;" glyph-name="Ccedilla" horiz-adv-x="590" d="M593 461T582 461L443 452Q432 452 433 463Q434 469 434 480Q434 520 411 543T347 566Q303 566 272 538T235 463L207 236Q206 231 206 221Q206 181 230 158T294 134Q339 134 369 162T405 236Q407
247 418 247L555 240Q566 240 566 230Q554 134 488 71T322 -5Q316 -6 319 -11Q348 -46 348 -83Q348 -103 341 -120Q328 -155 300 -170T239 -186Q205 -186 173 -172Q164 -169 167 -158L182 -97Q184 -91 188 -89T197 -90Q206 -93 214 -93Q236 -93 245 -75Q247 -67
247 -63Q247 -35 205 -2Q205 -1 200 1Q126 20 86 73T45 206Q45 230 47 243L74 459Q83 533 122 589T224 677T364 708Q472 708 534 654T597 506Q597 496 595 472V467Q593 461 582 461Z" />
<glyph unicode="&#xc8;" glyph-name="Egrave" horiz-adv-x="559" d="M579 565T576 562T567 558H263Q257 558 257 553L242 430Q242 425 246 425H441Q446 425 449 422T451 413L437 296Q436 291 433 288T424 284H229Q225 284 223 279L207 147Q207 142 211 142H516Q521
142 524 139T526 130L512 12Q511 7 508 4T499 0H40Q35 0 32 3T30 12L113 688Q113 693 117 696T126 700H585Q590 700 593 697T595 688L580 570Q579 565 576 562ZM422 773T422 770Q422 766 419 764T411 761H312Q303 761 300 768L241 868Q239 872 239 875Q239 878
242 880T250 883H369Q378 883 383 874L421 775Q422 773 422 770Z" />
<glyph unicode="&#xc9;" glyph-name="Eacute" horiz-adv-x="559" d="M579 565T576 562T567 558H263Q257 558 257 553L242 430Q242 425 246 425H441Q446 425 449 422T451 413L437 296Q436 291 433 288T424 284H229Q225 284 223 279L207 147Q207 142 211 142H516Q521
142 524 139T526 130L512 12Q511 7 508 4T499 0H40Q35 0 32 3T30 12L113 688Q113 693 117 696T126 700H585Q590 700 593 697T595 688L580 570Q579 565 576 562ZM291 761T290 765T291 775L354 874Q360 883 370 883H489Q498 883 498 877Q498 872 494 868L411 768Q405
761 396 761H297Q291 761 290 765Z" />
<glyph unicode="&#xca;" glyph-name="Ecircumflex" horiz-adv-x="559" d="M579 565T576 562T567 558H263Q257 558 257 553L242 430Q242 425 246 425H441Q446 425 449 422T451 413L437 296Q436 291 433 288T424 284H229Q225 284 223 279L207 147Q207 142 211 142H516Q521
142 524 139T526 130L512 12Q511 7 508 4T499 0H40Q35 0 32 3T30 12L113 688Q113 693 117 696T126 700H585Q590 700 593 697T595 688L580 570Q579 565 576 562ZM197 755T197 762Q197 766 200 770L283 875Q288 883 297 883H452Q462 883 465 875L524 770Q526 766
526 764Q526 760 523 758T514 755H410Q400 755 397 763L371 816Q370 819 368 819T365 816L326 763Q321 755 312 755H206Q197 755 197 762Z" />
<glyph unicode="&#xcb;" glyph-name="Edieresis" horiz-adv-x="559" d="M579 565T576 562T567 558H263Q257 558 257 553L242 430Q242 425 246 425H441Q446 425 449 422T451 413L437 296Q436 291 433 288T424 284H229Q225 284 223 279L207 147Q207 142 211 142H516Q521
142 524 139T526 130L512 12Q511 7 508 4T499 0H40Q35 0 32 3T30 12L113 688Q113 693 117 696T126 700H585Q590 700 593 697T595 688L580 570Q579 565 576 562ZM428 754T408 775T387 829Q387 872 415 900T483 928Q517 928 537 908T557 854Q557 812 529 783T462
754Q428 754 408 775ZM225 754T205 775T184 829Q184 872 212 900T280 928Q314 928 334 908T354 854Q354 812 326 783T259 754Q225 754 205 775Z" />
<glyph unicode="&#xcc;" glyph-name="Igrave" horiz-adv-x="257" d="M35 0T32 3T30 12L113 688Q113 693 117 696T126 700H263Q274 700 274 688L191 12Q190 7 187 4T178 0H40Q35 0 32 3ZM264 773T264 770Q264 766 261 764T253 761H154Q145 761 142 768L83 868Q81
872 81 875Q81 878 84 880T92 883H211Q220 883 225 874L263 775Q264 773 264 770Z" />
<glyph unicode="&#xcd;" glyph-name="Iacute" horiz-adv-x="257" d="M35 0T32 3T30 12L113 688Q113 693 117 696T126 700H263Q274 700 274 688L191 12Q190 7 187 4T178 0H40Q35 0 32 3ZM133 761T132 765T133 775L196 874Q202 883 212 883H331Q340 883 340 877Q340
872 336 868L253 768Q247 761 238 761H139Q133 761 132 765Z" />
<glyph unicode="&#xce;" glyph-name="Icircumflex" horiz-adv-x="257" d="M35 0T32 3T30 12L113 688Q113 693 117 696T126 700H263Q274 700 274 688L191 12Q190 7 187 4T178 0H40Q35 0 32 3ZM39 755T39 762Q39 766 42 770L125 875Q130 883 139 883H294Q304 883
307 875L366 770Q368 766 368 764Q368 760 365 758T356 755H252Q242 755 239 763L213 816Q212 819 210 819T207 816L168 763Q163 755 154 755H48Q39 755 39 762Z" />
<glyph unicode="&#xcf;" glyph-name="Idieresis" horiz-adv-x="257" d="M35 0T32 3T30 12L113 688Q113 693 117 696T126 700H263Q274 700 274 688L191 12Q190 7 187 4T178 0H40Q35 0 32 3ZM269 754T249 775T228 829Q228 872 256 900T324 928Q358 928 378 908T398
854Q398 812 370 783T303 754Q269 754 249 775ZM66 754T46 775T25 829Q25 872 53 900T121 928Q155 928 175 908T195 854Q195 812 167 783T100 754Q66 754 46 775Z" />
<glyph unicode="&#xd0;" glyph-name="Eth" horiz-adv-x="644" d="M525 700T587 649T649 510Q649 501 647 481L615 219Q607 154 569 104T470 27T333 0H85Q80 0 77 3T75 12L110 299Q112 304 106 304H77Q72 304 69 307T67 316L78 403Q78 408 82 411T91 415H120Q125
415 125 420L158 688Q159 693 162 696T171 700H419Q525 700 587 649ZM482 453Q483 460 483 473Q483 512 463 535T406 558H308Q303 558 303 553L286 420Q286 415 291 415H355Q360 415 363 412T365 403L354 316Q353 311 350 308T341 304H277Q273 304 271 299L253
147Q251 142 257 142H356Q394 142 422 170T457 247L482 453Z" />
<glyph unicode="&#xd1;" glyph-name="Ntilde" horiz-adv-x="642" d="M499 693T502 696T511 700H649Q654 700 657 697T659 688L576 12Q575 7 572 4T563 0H431Q421 0 418 8L242 390Q240 393 238 393T236 388L191 12Q190 7 187 4T178 0H40Q35 0 32 3T30 12L113 688Q113
693 117 696T126 700H259Q268 700 271 692L447 311Q448 308 450 308T453 313L498 688Q499 693 502 696ZM425 746T412 750T382 763Q364 772 355 775T335 778Q303 778 281 758Q270 748 264 757L222 811Q219 816 219 819Q219 823 222 827Q242 857 272 875T339 894Q358
894 372 889T398 879T413 871Q425 864 437 860T460 855Q487 855 508 877Q519 888 524 878L561 822Q566 815 563 809Q548 782 517 764T446 746Q425 746 412 750Z" />
<glyph unicode="&#xd2;" glyph-name="Ograve" horiz-adv-x="602" d="M172 -11T109 49T46 211Q46 236 48 250L73 450Q82 526 122 584T226 675T368 708Q440 708 493 681T574 605T603 489Q603 463 601 450L577 250Q568 172 528 113T423 22T280 -11Q172 -11 109 49ZM344
131T376 162T415 245L441 452Q442 458 442 470Q442 514 418 540T351 566Q305 566 273 535T234 452L209 245Q208 238 208 225Q208 181 232 156T297 131Q344 131 376 162ZM436 773T436 770Q436 766 433 764T425 761H326Q317 761 314 768L255 868Q253 872 253 875Q253
878 256 880T264 883H383Q392 883 397 874L435 775Q436 773 436 770Z" />
<glyph unicode="&#xd3;" glyph-name="Oacute" horiz-adv-x="602" d="M172 -11T109 49T46 211Q46 236 48 250L73 450Q82 526 122 584T226 675T368 708Q440 708 493 681T574 605T603 489Q603 463 601 450L577 250Q568 172 528 113T423 22T280 -11Q172 -11 109 49ZM344
131T376 162T415 245L441 452Q442 458 442 470Q442 514 418 540T351 566Q305 566 273 535T234 452L209 245Q208 238 208 225Q208 181 232 156T297 131Q344 131 376 162ZM305 761T304 765T305 775L368 874Q374 883 384 883H503Q512 883 512 877Q512 872 508 868L425
768Q419 761 410 761H311Q305 761 304 765Z" />
<glyph unicode="&#xd4;" glyph-name="Ocircumflex" horiz-adv-x="602" d="M172 -11T109 49T46 211Q46 236 48 250L73 450Q82 526 122 584T226 675T368 708Q440 708 493 681T574 605T603 489Q603 463 601 450L577 250Q568 172 528 113T423 22T280 -11Q172 -11 109
49ZM344 131T376 162T415 245L441 452Q442 458 442 470Q442 514 418 540T351 566Q305 566 273 535T234 452L209 245Q208 238 208 225Q208 181 232 156T297 131Q344 131 376 162ZM211 755T211 762Q211 766 214 770L297 875Q302 883 311 883H466Q476 883 479 875L538
770Q540 766 540 764Q540 760 537 758T528 755H424Q414 755 411 763L385 816Q384 819 382 819T379 816L340 763Q335 755 326 755H220Q211 755 211 762Z" />
<glyph unicode="&#xd5;" glyph-name="Otilde" horiz-adv-x="602" d="M172 -11T109 49T46 211Q46 236 48 250L73 450Q82 526 122 584T226 675T368 708Q440 708 493 681T574 605T603 489Q603 463 601 450L577 250Q568 172 528 113T423 22T280 -11Q172 -11 109 49ZM344
131T376 162T415 245L441 452Q442 458 442 470Q442 514 418 540T351 566Q305 566 273 535T234 452L209 245Q208 238 208 225Q208 181 232 156T297 131Q344 131 376 162ZM414 746T401 750T371 763Q353 772 344 775T324 778Q292 778 270 758Q259 748 253 757L211
811Q208 816 208 819Q208 823 211 827Q231 857 261 875T328 894Q347 894 361 889T387 879T402 871Q414 864 426 860T449 855Q476 855 497 877Q508 888 513 878L550 822Q555 815 552 809Q537 782 506 764T435 746Q414 746 401 750Z" />
<glyph unicode="&#xd6;" glyph-name="Odieresis" horiz-adv-x="602" d="M172 -11T109 49T46 211Q46 236 48 250L73 450Q82 526 122 584T226 675T368 708Q440 708 493 681T574 605T603 489Q603 463 601 450L577 250Q568 172 528 113T423 22T280 -11Q172 -11 109
49ZM344 131T376 162T415 245L441 452Q442 458 442 470Q442 514 418 540T351 566Q305 566 273 535T234 452L209 245Q208 238 208 225Q208 181 232 156T297 131Q344 131 376 162ZM441 754T421 775T400 829Q400 872 428 900T496 928Q530 928 550 908T570 854Q570
812 542 783T475 754Q441 754 421 775ZM238 754T218 775T197 829Q197 872 225 900T293 928Q327 928 347 908T367 854Q367 812 339 783T272 754Q238 754 218 775Z" />
<glyph unicode="&#xd7;" glyph-name="multiply" horiz-adv-x="441" d="M443 420T443 415Q443 410 439 406L342 317Q340 316 340 314T341 309L416 220Q418 217 418 213Q418 207 414 203L323 120Q319 116 314 116Q310 116 307 120L231 209Q230 211 228 211T224 209L124
118Q120 114 116 114Q113 114 109 118L37 202Q35 204 35 209Q35 214 39 218L139 309Q142 312 140 317L64 407Q60 411 60 414Q60 418 66 424L156 507Q160 511 165 511Q170 511 173 507L249 417Q251 415 253 415T257 417L354 506Q358 510 362 510Q367 510 370 506L441
422Q443 420 443 415Z" />
<glyph unicode="&#xd8;" glyph-name="Oslash" horiz-adv-x="599" d="M651 667T651 663Q651 658 648 653L588 579Q587 577 587 572Q601 533 601 490Q601 471 598 450L574 250Q565 172 525 113T420 22T277 -11Q207 -11 153 15Q149 16 146 13L101 -43Q98 -48 94 -49T85
-46L-5 30Q-9 34 -9 38Q-9 43 -5 47L55 120Q56 122 56 127Q43 165 43 212Q43 224 45 250L70 450Q79 526 119 584T222 675T365 708Q436 708 488 682Q492 681 495 684L542 743Q546 748 550 749T559 746L648 670Q651 667 651 663ZM438 452Q439 458 439 470Q439 514
415 540T348 566Q302 566 270 535T231 452L206 245Q205 238 205 224Q205 181 228 156T294 131Q341 131 373 162T412 245L438 452Z" />
<glyph unicode="&#xd9;" glyph-name="Ugrave" horiz-adv-x="604" d="M176 -8T114 49T51 202Q51 214 53 238L109 688Q110 693 113 696T122 700H260Q265 700 268 697T270 688L214 238Q213 233 213 222Q213 182 236 158T300 134Q343 134 373 162T409 238L465 688Q466
693 469 696T478 700H616Q621 700 624 697T626 688L570 238Q561 165 522 109T421 23T282 -8Q176 -8 114 49ZM438 773T438 770Q438 766 435 764T427 761H328Q319 761 316 768L257 868Q255 872 255 875Q255 878 258 880T266 883H385Q394 883 399 874L437 775Q438
773 438 770Z" />
<glyph unicode="&#xda;" glyph-name="Uacute" horiz-adv-x="604" d="M176 -8T114 49T51 202Q51 214 53 238L109 688Q110 693 113 696T122 700H260Q265 700 268 697T270 688L214 238Q213 233 213 222Q213 182 236 158T300 134Q343 134 373 162T409 238L465 688Q466
693 469 696T478 700H616Q621 700 624 697T626 688L570 238Q561 165 522 109T421 23T282 -8Q176 -8 114 49ZM307 761T306 765T307 775L370 874Q376 883 386 883H505Q514 883 514 877Q514 872 510 868L427 768Q421 761 412 761H313Q307 761 306 765Z" />
<glyph unicode="&#xdb;" glyph-name="Ucircumflex" horiz-adv-x="604" d="M176 -8T114 49T51 202Q51 214 53 238L109 688Q110 693 113 696T122 700H260Q265 700 268 697T270 688L214 238Q213 233 213 222Q213 182 236 158T300 134Q343 134 373 162T409 238L465
688Q466 693 469 696T478 700H616Q621 700 624 697T626 688L570 238Q561 165 522 109T421 23T282 -8Q176 -8 114 49ZM213 755T213 762Q213 766 216 770L299 875Q304 883 313 883H468Q478 883 481 875L540 770Q542 766 542 764Q542 760 539 758T530 755H426Q416
755 413 763L387 816Q386 819 384 819T381 816L342 763Q337 755 328 755H222Q213 755 213 762Z" />
<glyph unicode="&#xdc;" glyph-name="Udieresis" horiz-adv-x="604" d="M176 -8T114 49T51 202Q51 214 53 238L109 688Q110 693 113 696T122 700H260Q265 700 268 697T270 688L214 238Q213 233 213 222Q213 182 236 158T300 134Q343 134 373 162T409 238L465 688Q466
693 469 696T478 700H616Q621 700 624 697T626 688L570 238Q561 165 522 109T421 23T282 -8Q176 -8 114 49ZM443 754T423 775T402 829Q402 872 430 900T498 928Q532 928 552 908T572 854Q572 812 544 783T477 754Q443 754 423 775ZM240 754T220 775T199 829Q199
872 227 900T295 928Q329 928 349 908T369 854Q369 812 341 783T274 754Q240 754 220 775Z" />
<glyph unicode="&#xdd;" glyph-name="Yacute" horiz-adv-x="616" d="M214 2T211 5T209 14L238 251Q240 254 238 257L92 686Q91 688 91 691Q91 700 102 700H252Q261 700 264 691L339 438Q341 432 345 438L483 691Q487 700 497 700H648Q654 700 656 697T655 686L400
257L398 251L369 14Q368 9 365 6T356 2H219Q214 2 211 5ZM312 761T311 765T312 775L375 874Q381 883 391 883H510Q519 883 519 877Q519 872 515 868L432 768Q426 761 417 761H318Q312 761 311 765Z" />
<glyph unicode="&#xde;" glyph-name="Thorn" horiz-adv-x="568" d="M465 567T518 516T572 381Q572 370 570 348Q562 284 526 236T433 160T313 133H207Q205 133 204 132T202 128L188 12Q187 7 184 4T175 0H37Q32 0 29 3T27 12L110 688Q111 693 114 696T123 700H261Q266
700 269 697T271 688L256 572Q256 567 261 567H374Q465 567 518 516ZM355 266T383 290T411 357Q411 389 390 407T332 425H243Q238 425 238 420L220 271Q218 266 224 266H312Q355 266 383 290Z" />
<glyph unicode="&#xdf;" glyph-name="germandbls" horiz-adv-x="563" d="M30 1T27 4T25 13L82 475Q96 586 165 647T347 708Q446 708 506 662T567 536Q567 434 486 385Q480 382 485 379Q512 360 527 324T543 242Q543 232 541 210Q529 110 455 55T256 0H234Q229
0 226 3T224 12L238 129Q239 134 242 137T251 141H291Q328 141 355 168T383 241Q383 274 364 293T314 313H277Q272 313 269 316T267 325L280 430Q281 435 284 438T293 442H328Q358 442 381 463T404 513Q404 535 389 551T341 567Q305 567 277 547T245 491L186 12Q185
7 182 4T173 0L35 1Q30 1 27 4Z" />
<glyph unicode="&#xe0;" glyph-name="agrave" horiz-adv-x="518" d="M395 510T398 513T407 517H545Q550 517 553 514T555 505L494 12Q493 7 490 4T481 0H343Q338 0 335 3T333 12L338 50Q338 53 337 54T332 52Q285 -8 209 -8Q144 -8 99 33T41 146Q37 167 37 194Q37
222 42 260Q50 334 77 388Q105 448 159 486T281 525Q355 525 384 474Q386 471 388 472T390 476L394 505Q395 510 398 513ZM358 208T363 258Q366 282 366 299Q366 322 360 340Q354 360 340 371T303 383Q280 383 262 371T233 338Q217 311 210 258Q208 244 208 220Q208
194 213 179Q219 159 234 147T273 134Q317 134 341 180Q358 208 363 258ZM372 590T372 587Q372 583 369 581T361 578H262Q253 578 250 585L191 685Q189 689 189 692Q189 695 192 697T200 700H319Q328 700 333 691L371 592Q372 590 372 587Z" />
<glyph unicode="&#xe1;" glyph-name="aacute" horiz-adv-x="518" d="M395 510T398 513T407 517H545Q550 517 553 514T555 505L494 12Q493 7 490 4T481 0H343Q338 0 335 3T333 12L338 50Q338 53 337 54T332 52Q285 -8 209 -8Q144 -8 99 33T41 146Q37 167 37 194Q37
222 42 260Q50 334 77 388Q105 448 159 486T281 525Q355 525 384 474Q386 471 388 472T390 476L394 505Q395 510 398 513ZM358 208T363 258Q366 282 366 299Q366 322 360 340Q354 360 340 371T303 383Q280 383 262 371T233 338Q217 311 210 258Q208 244 208 220Q208
194 213 179Q219 159 234 147T273 134Q317 134 341 180Q358 208 363 258ZM241 578T240 582T241 592L304 691Q310 700 320 700H439Q448 700 448 694Q448 689 444 685L361 585Q355 578 346 578H247Q241 578 240 582Z" />
<glyph unicode="&#xe2;" glyph-name="acircumflex" horiz-adv-x="518" d="M395 510T398 513T407 517H545Q550 517 553 514T555 505L494 12Q493 7 490 4T481 0H343Q338 0 335 3T333 12L338 50Q338 53 337 54T332 52Q285 -8 209 -8Q144 -8 99 33T41 146Q37 167 37
194Q37 222 42 260Q50 334 77 388Q105 448 159 486T281 525Q355 525 384 474Q386 471 388 472T390 476L394 505Q395 510 398 513ZM358 208T363 258Q366 282 366 299Q366 322 360 340Q354 360 340 371T303 383Q280 383 262 371T233 338Q217 311 210 258Q208 244
208 220Q208 194 213 179Q219 159 234 147T273 134Q317 134 341 180Q358 208 363 258ZM147 572T147 579Q147 583 150 587L233 692Q238 700 247 700H402Q412 700 415 692L474 587Q476 583 476 581Q476 577 473 575T464 572H360Q350 572 347 580L321 633Q320 636
318 636T315 633L276 580Q271 572 262 572H156Q147 572 147 579Z" />
<glyph unicode="&#xe3;" glyph-name="atilde" horiz-adv-x="518" d="M395 510T398 513T407 517H545Q550 517 553 514T555 505L494 12Q493 7 490 4T481 0H343Q338 0 335 3T333 12L338 50Q338 53 337 54T332 52Q285 -8 209 -8Q144 -8 99 33T41 146Q37 167 37 194Q37
222 42 260Q50 334 77 388Q105 448 159 486T281 525Q355 525 384 474Q386 471 388 472T390 476L394 505Q395 510 398 513ZM358 208T363 258Q366 282 366 299Q366 322 360 340Q354 360 340 371T303 383Q280 383 262 371T233 338Q217 311 210 258Q208 244 208 220Q208
194 213 179Q219 159 234 147T273 134Q317 134 341 180Q358 208 363 258ZM350 563T337 567T307 580Q289 589 280 592T260 595Q228 595 206 575Q195 565 189 574L147 628Q144 633 144 636Q144 640 147 644Q167 674 197 692T264 711Q283 711 297 706T323 696T338
688Q350 681 362 677T385 672Q412 672 433 694Q444 705 449 695L486 639Q491 632 488 626Q473 599 442 581T371 563Q350 563 337 567Z" />
<glyph unicode="&#xe4;" glyph-name="adieresis" horiz-adv-x="518" d="M395 510T398 513T407 517H545Q550 517 553 514T555 505L494 12Q493 7 490 4T481 0H343Q338 0 335 3T333 12L338 50Q338 53 337 54T332 52Q285 -8 209 -8Q144 -8 99 33T41 146Q37 167 37
194Q37 222 42 260Q50 334 77 388Q105 448 159 486T281 525Q355 525 384 474Q386 471 388 472T390 476L394 505Q395 510 398 513ZM358 208T363 258Q366 282 366 299Q366 322 360 340Q354 360 340 371T303 383Q280 383 262 371T233 338Q217 311 210 258Q208 244
208 220Q208 194 213 179Q219 159 234 147T273 134Q317 134 341 180Q358 208 363 258ZM377 571T357 592T336 646Q336 689 364 717T432 745Q466 745 486 725T506 671Q506 629 478 600T411 571Q377 571 357 592ZM174 571T154 592T133 646Q133 689 161 717T229 745Q263
745 283 725T303 671Q303 629 275 600T208 571Q174 571 154 592Z" />
<glyph unicode="&#xe5;" glyph-name="aring" horiz-adv-x="518" d="M395 510T398 513T407 517H545Q550 517 553 514T555 505L494 12Q493 7 490 4T481 0H343Q338 0 335 3T333 12L338 50Q338 53 337 54T332 52Q285 -8 209 -8Q144 -8 99 33T41 146Q37 167 37 194Q37
222 42 260Q50 334 77 388Q105 448 159 486T281 525Q355 525 384 474Q386 471 388 472T390 476L394 505Q395 510 398 513ZM358 208T363 258Q366 282 366 299Q366 322 360 340Q354 360 340 371T303 383Q280 383 262 371T233 338Q217 311 210 258Q208 244 208 220Q208
194 213 179Q219 159 234 147T273 134Q317 134 341 180Q358 208 363 258ZM259 557T228 588T197 668Q197 708 216 742T269 796T340 816Q389 816 420 785T452 704Q452 664 433 630T380 577T308 557Q259 557 228 588ZM338 642T353 657T368 694Q368 711 357 722T329
733Q310 733 296 718T281 681Q281 664 291 653T318 642Q338 642 353 657Z" />
<glyph unicode="&#xe6;" glyph-name="ae" horiz-adv-x="816" d="M110 -8T63 26T15 125Q15 139 16 146Q25 218 82 261T237 304H331Q335 304 337 309L338 323Q339 327 339 333Q339 356 324 369T279 383Q256 383 238 374T213 351Q207 340 198 341L61 360Q51 362 52
372Q62 415 96 450T181 505T284 525Q338 525 381 504T441 450Q444 446 447 450Q471 480 514 502T607 525Q651 525 692 507T762 454T801 373Q806 350 806 317Q806 285 800 223Q797 210 786 210H495Q490 210 490 205L492 189Q496 160 520 147T583 133Q650 133 686
169Q691 174 696 174Q700 174 703 170L758 97Q761 94 761 90Q761 85 756 80Q716 39 664 16T555 -8Q496 -8 453 16T394 75Q393 77 392 78T390 78Q363 40 310 16T189 -8Q110 -8 63 26ZM502 307T503 306T506 304H641Q646 304 646 309Q646 313 645 320T643 332Q638
355 623 369T582 383Q558 383 539 369T509 332Q504 321 503 309Q502 307 503 306ZM264 108T290 128T321 181L324 205Q324 210 320 210H261Q223 210 201 195T178 152Q178 133 192 121T232 108Q264 108 290 128Z" />
<glyph unicode="&#xe7;" glyph-name="ccedilla" horiz-adv-x="527" d="M247 383T225 336Q211 308 205 260Q202 239 202 221Q202 200 205 185Q218 134 268 134Q293 134 313 147T344 186L346 192L347 196Q351 208 362 206L495 184Q506 182 503 171Q499 153 493 140Q469
84 421 48T311 -2Q308 -2 308 -4T309 -8Q340 -45 340 -84Q340 -103 333 -120Q319 -155 292 -170T230 -186Q196 -186 164 -172Q155 -168 158 -158L173 -97Q174 -91 179 -89T189 -90Q197 -93 205 -93Q228 -93 235 -74Q238 -68 238 -61Q238 -36 201 -5Q199 -3 195
-2Q137 10 99 48T46 146Q39 174 39 210Q39 236 42 261Q50 329 74 376Q108 446 172 485T317 525Q397 525 453 484T523 380Q527 364 527 341Q525 329 515 328L377 307H375Q366 307 365 317Q365 323 364 326Q364 329 362 339Q357 358 340 370T298 383Q247 383 225
336Z" />
<glyph unicode="&#xe8;" glyph-name="egrave" horiz-adv-x="532" d="M524 274T517 225Q514 213 502 213H207Q201 213 201 208Q202 193 207 179Q216 158 238 145T294 132Q354 132 395 173Q399 178 404 178Q408 178 411 174L475 86Q478 83 478 79Q478 75 473 70Q435
32 383 12T271 -8Q183 -8 126 31T50 142Q41 175 41 213Q41 234 44 258Q50 313 73 367Q107 441 170 483T313 526Q377 526 424 498T496 419T523 304Q524 274 517 225ZM246 383T222 334Q219 327 215 313Q213 308 218 308H356Q361 308 361 313Q361 320 359 332Q355
357 339 370T295 383Q246 383 222 334ZM378 590T378 587Q378 583 375 581T367 578H268Q259 578 256 585L197 685Q195 689 195 692Q195 695 198 697T206 700H325Q334 700 339 691L377 592Q378 590 378 587Z" />
<glyph unicode="&#xe9;" glyph-name="eacute" horiz-adv-x="532" d="M524 274T517 225Q514 213 502 213H207Q201 213 201 208Q202 193 207 179Q216 158 238 145T294 132Q354 132 395 173Q399 178 404 178Q408 178 411 174L475 86Q478 83 478 79Q478 75 473 70Q435
32 383 12T271 -8Q183 -8 126 31T50 142Q41 175 41 213Q41 234 44 258Q50 313 73 367Q107 441 170 483T313 526Q377 526 424 498T496 419T523 304Q524 274 517 225ZM246 383T222 334Q219 327 215 313Q213 308 218 308H356Q361 308 361 313Q361 320 359 332Q355
357 339 370T295 383Q246 383 222 334ZM247 578T246 582T247 592L310 691Q316 700 326 700H445Q454 700 454 694Q454 689 450 685L367 585Q361 578 352 578H253Q247 578 246 582Z" />
<glyph unicode="&#xea;" glyph-name="ecircumflex" horiz-adv-x="532" d="M524 274T517 225Q514 213 502 213H207Q201 213 201 208Q202 193 207 179Q216 158 238 145T294 132Q354 132 395 173Q399 178 404 178Q408 178 411 174L475 86Q478 83 478 79Q478 75 473
70Q435 32 383 12T271 -8Q183 -8 126 31T50 142Q41 175 41 213Q41 234 44 258Q50 313 73 367Q107 441 170 483T313 526Q377 526 424 498T496 419T523 304Q524 274 517 225ZM246 383T222 334Q219 327 215 313Q213 308 218 308H356Q361 308 361 313Q361 320 359 332Q355
357 339 370T295 383Q246 383 222 334ZM153 572T153 579Q153 583 156 587L239 692Q244 700 253 700H408Q418 700 421 692L480 587Q482 583 482 581Q482 577 479 575T470 572H366Q356 572 353 580L327 633Q326 636 324 636T321 633L282 580Q277 572 268 572H162Q153
572 153 579Z" />
<glyph unicode="&#xeb;" glyph-name="edieresis" horiz-adv-x="532" d="M524 274T517 225Q514 213 502 213H207Q201 213 201 208Q202 193 207 179Q216 158 238 145T294 132Q354 132 395 173Q399 178 404 178Q408 178 411 174L475 86Q478 83 478 79Q478 75 473
70Q435 32 383 12T271 -8Q183 -8 126 31T50 142Q41 175 41 213Q41 234 44 258Q50 313 73 367Q107 441 170 483T313 526Q377 526 424 498T496 419T523 304Q524 274 517 225ZM246 383T222 334Q219 327 215 313Q213 308 218 308H356Q361 308 361 313Q361 320 359 332Q355
357 339 370T295 383Q246 383 222 334ZM383 571T363 592T342 646Q342 689 370 717T438 745Q472 745 492 725T512 671Q512 629 484 600T417 571Q383 571 363 592ZM180 571T160 592T139 646Q139 689 167 717T235 745Q269 745 289 725T309 671Q309 629 281 600T214
571Q180 571 160 592Z" />
<glyph unicode="&#xec;" glyph-name="igrave" horiz-adv-x="239" d="M26 0T23 3T21 12L81 505Q82 510 86 513T95 517H232Q237 517 240 514T242 505L182 12Q181 7 178 4T169 0H31Q26 0 23 3ZM232 590T232 587Q232 583 229 581T221 578H122Q113 578 110 585L51 685Q49
689 49 692Q49 695 52 697T60 700H179Q188 700 193 691L231 592Q232 590 232 587Z" />
<glyph unicode="&#xed;" glyph-name="iacute" horiz-adv-x="239" d="M26 0T23 3T21 12L81 505Q82 510 86 513T95 517H232Q237 517 240 514T242 505L182 12Q181 7 178 4T169 0H31Q26 0 23 3ZM101 578T100 582T101 592L164 691Q170 700 180 700H299Q308 700 308
694Q308 689 304 685L221 585Q215 578 206 578H107Q101 578 100 582Z" />
<glyph unicode="&#xee;" glyph-name="icircumflex" horiz-adv-x="239" d="M26 0T23 3T21 12L81 505Q82 510 86 513T95 517H232Q237 517 240 514T242 505L182 12Q181 7 178 4T169 0H31Q26 0 23 3ZM7 572T7 579Q7 583 10 587L93 692Q98 700 107 700H262Q272 700
275 692L334 587Q336 583 336 581Q336 577 333 575T324 572H220Q210 572 207 580L181 633Q180 636 178 636T175 633L136 580Q131 572 122 572H16Q7 572 7 579Z" />
<glyph unicode="&#xef;" glyph-name="idieresis" horiz-adv-x="239" d="M26 0T23 3T21 12L81 505Q82 510 86 513T95 517H232Q237 517 240 514T242 505L182 12Q181 7 178 4T169 0H31Q26 0 23 3ZM238 571T218 592T197 646Q197 689 225 717T293 745Q327 745 347 725T367
671Q367 629 339 600T272 571Q238 571 218 592ZM35 571T15 592T-6 646Q-6 689 22 717T90 745Q124 745 144 725T164 671Q164 629 136 600T69 571Q35 571 15 592Z" />
<glyph unicode="&#xf0;" glyph-name="eth" horiz-adv-x="540" d="M516 342T516 310Q516 276 511 231Q504 172 481 128Q448 67 385 30T245 -8Q169 -8 115 28T43 128Q35 158 35 188Q35 208 38 230Q45 286 68 332Q85 364 110 388T168 427Q189 438 222 444T288 451Q321
451 339 444Q341 443 342 444T343 448Q330 488 316 514Q316 516 315 517T311 517L208 491L204 490Q196 490 194 500L187 562V564Q187 573 198 577L265 594Q270 596 268 601Q241 643 205 685Q203 689 203 692Q203 695 206 697T214 700H358Q367 700 371 693L408 634Q409
630 414 632L500 654L504 655Q512 655 514 645L522 583V581Q522 572 511 568L460 555Q456 554 457 548Q482 499 495 457T513 370Q516 342 516 310ZM349 195T349 248Q349 268 344 286Q330 331 287 331Q265 331 247 320T217 286Q204 258 200 226Q199 217 199 201Q199
178 203 163Q209 141 224 129T261 116Q304 116 328 163Q349 195 349 248Z" />
<glyph unicode="&#xf1;" glyph-name="ntilde" horiz-adv-x="533" d="M437 525T478 484T520 371Q520 363 518 341L478 12Q477 7 474 4T465 0H327Q322 0 319 3T317 12L353 305L354 317Q354 347 338 365T296 383Q267 383 246 362T220 305L184 12Q183 7 180 4T171
0H33Q28 0 25 3T23 12L83 505Q84 510 87 513T96 517H234Q239 517 242 514T244 505L240 468Q239 464 241 464T245 466Q289 525 368 525Q437 525 478 484ZM364 563T351 567T321 580Q303 589 294 592T274 595Q242 595 220 575Q209 565 203 574L161 628Q158 633 158
636Q158 640 161 644Q181 674 211 692T278 711Q297 711 311 706T337 696T352 688Q364 681 376 677T399 672Q426 672 447 694Q458 705 463 695L500 639Q505 632 502 626Q487 599 456 581T385 563Q364 563 351 567Z" />
<glyph unicode="&#xf2;" glyph-name="ograve" horiz-adv-x="537" d="M163 -8T108 40T42 170Q39 191 39 213Q39 236 42 260Q48 314 66 357Q99 436 165 480T317 525Q402 525 456 481T523 358Q527 335 527 304Q527 276 525 262Q519 213 503 174Q473 90 406 41T250
-8Q163 -8 108 40ZM296 134T317 152T350 203Q358 225 363 260Q365 282 365 291Q365 334 349 358T298 383Q242 383 217 318Q207 291 204 260Q201 241 201 223Q201 183 218 159T268 134Q296 134 317 152ZM382 590T382 587Q382 583 379 581T371 578H272Q263 578 260
585L201 685Q199 689 199 692Q199 695 202 697T210 700H329Q338 700 343 691L381 592Q382 590 382 587Z" />
<glyph unicode="&#xf3;" glyph-name="oacute" horiz-adv-x="537" d="M163 -8T108 40T42 170Q39 191 39 213Q39 236 42 260Q48 314 66 357Q99 436 165 480T317 525Q402 525 456 481T523 358Q527 335 527 304Q527 276 525 262Q519 213 503 174Q473 90 406 41T250
-8Q163 -8 108 40ZM296 134T317 152T350 203Q358 225 363 260Q365 282 365 291Q365 334 349 358T298 383Q242 383 217 318Q207 291 204 260Q201 241 201 223Q201 183 218 159T268 134Q296 134 317 152ZM250 578T249 582T250 592L313 691Q319 700 329 700H448Q457
700 457 694Q457 689 453 685L370 585Q364 578 355 578H256Q250 578 249 582Z" />
<glyph unicode="&#xf4;" glyph-name="ocircumflex" horiz-adv-x="537" d="M163 -8T108 40T42 170Q39 191 39 213Q39 236 42 260Q48 314 66 357Q99 436 165 480T317 525Q402 525 456 481T523 358Q527 335 527 304Q527 276 525 262Q519 213 503 174Q473 90 406 41T250
-8Q163 -8 108 40ZM296 134T317 152T350 203Q358 225 363 260Q365 282 365 291Q365 334 349 358T298 383Q242 383 217 318Q207 291 204 260Q201 241 201 223Q201 183 218 159T268 134Q296 134 317 152ZM156 572T156 579Q156 583 159 587L242 692Q247 700 256 700H411Q421
700 424 692L483 587Q485 583 485 581Q485 577 482 575T473 572H369Q359 572 356 580L330 633Q329 636 327 636T324 633L285 580Q280 572 271 572H165Q156 572 156 579Z" />
<glyph unicode="&#xf5;" glyph-name="otilde" horiz-adv-x="537" d="M163 -8T108 40T42 170Q39 191 39 213Q39 236 42 260Q48 314 66 357Q99 436 165 480T317 525Q402 525 456 481T523 358Q527 335 527 304Q527 276 525 262Q519 213 503 174Q473 90 406 41T250
-8Q163 -8 108 40ZM296 134T317 152T350 203Q358 225 363 260Q365 282 365 291Q365 334 349 358T298 383Q242 383 217 318Q207 291 204 260Q201 241 201 223Q201 183 218 159T268 134Q296 134 317 152ZM359 563T346 567T316 580Q298 589 289 592T269 595Q237 595
215 575Q204 565 198 574L156 628Q153 633 153 636Q153 640 156 644Q176 674 206 692T273 711Q292 711 306 706T332 696T347 688Q359 681 371 677T394 672Q421 672 442 694Q453 705 458 695L495 639Q500 632 497 626Q482 599 451 581T380 563Q359 563 346 567Z"
/>
<glyph unicode="&#xf6;" glyph-name="odieresis" horiz-adv-x="537" d="M163 -8T108 40T42 170Q39 191 39 213Q39 236 42 260Q48 314 66 357Q99 436 165 480T317 525Q402 525 456 481T523 358Q527 335 527 304Q527 276 525 262Q519 213 503 174Q473 90 406 41T250
-8Q163 -8 108 40ZM296 134T317 152T350 203Q358 225 363 260Q365 282 365 291Q365 334 349 358T298 383Q242 383 217 318Q207 291 204 260Q201 241 201 223Q201 183 218 159T268 134Q296 134 317 152ZM387 571T367 592T346 646Q346 689 374 717T442 745Q476 745
496 725T516 671Q516 629 488 600T421 571Q387 571 367 592ZM184 571T164 592T143 646Q143 689 171 717T239 745Q273 745 293 725T313 671Q313 629 285 600T218 571Q184 571 164 592Z" />
<glyph unicode="&#xf7;" glyph-name="divide" horiz-adv-x="466" d="M236 409T218 428T199 475Q199 508 224 533T282 558Q309 558 327 539T346 493Q346 460 321 435T264 409Q236 409 218 428ZM40 236T37 239T35 248L50 365Q51 370 54 373T63 377H457Q462 377 465
374T467 365L452 248Q452 243 448 240T439 236H45Q40 236 37 239ZM193 62T175 81T156 128Q156 161 181 186T239 211Q266 211 284 192T303 146Q303 113 278 88T221 62Q193 62 175 81Z" />
<glyph unicode="&#xf8;" glyph-name="oslash" horiz-adv-x="528" d="M501 421T501 416Q515 390 519 358Q523 335 523 304Q523 276 521 262Q515 215 500 174Q469 90 402 41T246 -8Q202 -8 167 5Q164 6 160 2L111 -59Q106 -64 102 -64Q98 -64 94 -61L7 16Q3 19 3
23Q3 29 7 33L57 94Q59 98 58 101Q44 130 38 170Q35 191 35 213Q35 236 38 260Q44 314 62 357Q95 436 161 480T313 525Q351 525 392 513Q396 512 398 515L450 579Q454 584 458 585T467 582L555 505Q558 502 558 498Q558 493 555 488L502 423Q501 421 501 416ZM354
225T359 260Q361 280 361 288Q361 333 345 358T294 383Q266 383 246 366T213 318Q203 291 200 260Q198 249 198 227Q198 211 199 203Q202 171 219 153T264 134Q292 134 312 152T346 203Q354 225 359 260Z" />
<glyph unicode="&#xf9;" glyph-name="ugrave" horiz-adv-x="533" d="M374 510T377 513T386 517H524Q529 517 532 514T534 505L474 12Q473 7 470 4T461 0H323Q318 0 315 3T313 12L317 47Q318 50 316 51T312 49Q266 -8 182 -8Q116 -8 77 30T38 140Q38 162 40 174L80
505Q81 510 85 513T94 517H231Q236 517 239 514T241 505L205 212L204 199Q204 169 219 152T261 135Q288 135 308 152T336 197L373 505Q374 510 377 513ZM378 590T378 587Q378 583 375 581T367 578H268Q259 578 256 585L197 685Q195 689 195 692Q195 695 198 697T206
700H325Q334 700 339 691L377 592Q378 590 378 587Z" />
<glyph unicode="&#xfa;" glyph-name="uacute" horiz-adv-x="533" d="M374 510T377 513T386 517H524Q529 517 532 514T534 505L474 12Q473 7 470 4T461 0H323Q318 0 315 3T313 12L317 47Q318 50 316 51T312 49Q266 -8 182 -8Q116 -8 77 30T38 140Q38 162 40 174L80
505Q81 510 85 513T94 517H231Q236 517 239 514T241 505L205 212L204 199Q204 169 219 152T261 135Q288 135 308 152T336 197L373 505Q374 510 377 513ZM247 578T246 582T247 592L310 691Q316 700 326 700H445Q454 700 454 694Q454 689 450 685L367 585Q361 578
352 578H253Q247 578 246 582Z" />
<glyph unicode="&#xfb;" glyph-name="ucircumflex" horiz-adv-x="533" d="M374 510T377 513T386 517H524Q529 517 532 514T534 505L474 12Q473 7 470 4T461 0H323Q318 0 315 3T313 12L317 47Q318 50 316 51T312 49Q266 -8 182 -8Q116 -8 77 30T38 140Q38 162 40
174L80 505Q81 510 85 513T94 517H231Q236 517 239 514T241 505L205 212L204 199Q204 169 219 152T261 135Q288 135 308 152T336 197L373 505Q374 510 377 513ZM153 572T153 579Q153 583 156 587L239 692Q244 700 253 700H408Q418 700 421 692L480 587Q482 583
482 581Q482 577 479 575T470 572H366Q356 572 353 580L327 633Q326 636 324 636T321 633L282 580Q277 572 268 572H162Q153 572 153 579Z" />
<glyph unicode="&#xfc;" glyph-name="udieresis" horiz-adv-x="533" d="M374 510T377 513T386 517H524Q529 517 532 514T534 505L474 12Q473 7 470 4T461 0H323Q318 0 315 3T313 12L317 47Q318 50 316 51T312 49Q266 -8 182 -8Q116 -8 77 30T38 140Q38 162 40
174L80 505Q81 510 85 513T94 517H231Q236 517 239 514T241 505L205 212L204 199Q204 169 219 152T261 135Q288 135 308 152T336 197L373 505Q374 510 377 513ZM383 571T363 592T342 646Q342 689 370 717T438 745Q472 745 492 725T512 671Q512 629 484 600T417
571Q383 571 363 592ZM180 571T160 592T139 646Q139 689 167 717T235 745Q269 745 289 725T309 671Q309 629 281 600T214 571Q180 571 160 592Z" />
<glyph unicode="&#xfd;" glyph-name="yacute" horiz-adv-x="505" d="M-4 -199T-4 -187L10 -75Q11 -70 14 -67T22 -63Q84 -63 112 -52T152 -3Q153 -1 153 3L58 504V507Q58 512 61 515T69 518H216Q226 518 227 508L258 212Q258 208 260 208T264 212L367 508Q371
518 381 518H524Q530 518 532 515T532 504L305 -10Q271 -85 240 -123T156 -180T9 -199H2Q-4 -199 -4 -187ZM235 589T234 593T235 603L298 702Q304 711 314 711H433Q442 711 442 705Q442 700 438 696L355 596Q349 589 340 589H241Q235 589 234 593Z" />
<glyph unicode="&#xfe;" glyph-name="thorn" horiz-adv-x="538" d="M526 359T526 320Q526 302 522 260Q515 200 494 146Q465 75 409 34T288 -8Q225 -8 192 31Q191 34 189 33T186 29L159 -188Q158 -193 155 -196T146 -200H8Q3 -200 0 -197T-2 -188L106 688Q107
693 110 696T119 700H257Q262 700 265 697T267 688L243 495Q243 488 249 492Q287 525 347 525Q415 525 459 487T518 388Q526 359 526 320ZM346 207T353 258Q355 284 355 293Q355 320 349 338Q344 359 329 371T290 383Q270 383 253 373T226 345Q224 343 224 339L204
178Q204 174 205 172Q211 155 225 145T260 134Q283 134 301 146T329 179Q346 207 353 258Z" />
<glyph unicode="&#xff;" glyph-name="ydieresis" horiz-adv-x="505" d="M-4 -199T-4 -187L10 -75Q11 -70 14 -67T22 -63Q84 -63 112 -52T152 -3Q153 -1 153 3L58 504V507Q58 512 61 515T69 518H216Q226 518 227 508L258 212Q258 208 260 208T264 212L367 508Q371
518 381 518H524Q530 518 532 515T532 504L305 -10Q271 -85 240 -123T156 -180T9 -199H2Q-4 -199 -4 -187ZM371 582T351 603T330 657Q330 700 358 728T426 756Q460 756 480 736T500 682Q500 640 472 611T405 582Q371 582 351 603ZM168 582T148 603T127 657Q127
700 155 728T223 756Q257 756 277 736T297 682Q297 640 269 611T202 582Q168 582 148 603Z" />
<glyph unicode="&#x2013;" glyph-name="endash" horiz-adv-x="471" d="M32 213T32 225L47 343Q48 348 51 351T60 355H460Q465 355 468 352T470 343L455 225Q455 220 451 217T442 213H43Q32 213 32 225Z" />
<glyph unicode="&#x2014;" glyph-name="emdash" horiz-adv-x="630" d="M38 214T35 217T33 226L47 343Q48 348 51 351T60 355H618Q623 355 626 352T628 343L614 226Q613 221 610 218T601 214H43Q38 214 35 217Z" />
<glyph unicode="&#x2018;" glyph-name="quoteleft" horiz-adv-x="219" d="M46 467T45 471T45 481L154 691Q155 695 159 697T168 700H272Q285 700 281 687L204 477Q200 467 189 467H52Q46 467 45 471Z" />
<glyph unicode="&#x2019;" glyph-name="quoteright" horiz-adv-x="219" d="M278 700T279 696T278 686L170 476Q166 467 155 467H52Q38 467 42 480L120 690Q123 700 134 700H271Q278 700 279 696Z" />
<glyph unicode="&#x201a;" glyph-name="quotesinglbase" horiz-adv-x="582" d="M4 -105T2 -102T0 -92L59 148Q62 159 72 159H191Q203 159 199 146L109 -95Q105 -105 94 -105H9Q4 -105 2 -102Z" />
<glyph unicode="&#x201c;" glyph-name="quotedblleft" horiz-adv-x="386" d="M46 467T44 471T45 481L141 690Q146 700 155 700H255Q267 700 263 687L196 478Q195 473 191 470T182 467H52Q46 467 44 471ZM225 467T231 481L326 690Q331 700 340 700H440Q452 700
448 687L384 478Q381 467 370 467H238Q225 467 231 481Z" />
<glyph unicode="&#x201d;" glyph-name="quotedblright" horiz-adv-x="386" d="M265 700T259 686L164 477Q161 467 150 467H51Q38 467 42 480L107 689Q110 700 121 700H252Q265 700 259 686ZM444 700T446 697T446 686L349 477Q344 467 335 467H236Q224 467 228
480L293 689Q296 700 307 700H438Q444 700 446 697Z" />
<glyph unicode="&#x201e;" glyph-name="quotedblbase" horiz-adv-x="408" d="M195 129T189 115L94 -94Q91 -104 80 -104H-19Q-32 -104 -28 -91L37 118Q40 129 51 129H182Q195 129 189 115ZM374 129T376 126T376 115L279 -94Q274 -104 265 -104H166Q154 -104 158
-91L223 118Q226 129 237 129H368Q374 129 376 126Z" />
<glyph unicode="&#x2022;" glyph-name="bullet" horiz-adv-x="310" d="M104 145T71 179T38 263Q38 304 59 338T114 393T188 414Q237 414 269 381T301 297Q301 257 281 222T226 166T155 145Q104 145 71 179Z" />
<glyph unicode="&#x2039;" glyph-name="guilsinglleft" horiz-adv-x="315" d="M256 119T256 115Q256 107 246 107H134Q124 107 121 115L58 273Q56 277 56 279Q56 283 60 289L162 447Q166 455 177 455H289Q295 455 297 451T295 441L191 284Q190 282 190 278L255
121Q256 119 256 115Z" />
<glyph unicode="&#x203a;" glyph-name="guilsinglright" horiz-adv-x="316" d="M48 107T48 113Q48 117 51 121L154 278Q157 281 155 284L90 441Q89 443 89 446Q89 450 92 452T100 455H211Q221 455 225 447L288 289Q289 287 289 283Q289 278 286 273L184 115Q179
107 168 107H57Q48 107 48 113Z" />
</font>
</defs>
</svg>
