<?xml version="1.0" standalone="no"?>
<!DOCTYPE svg PUBLIC "-//W3C//DTD SVG 1.1//EN" "http://www.w3.org/Graphics/SVG/1.1/DTD/svg11.dtd">
<svg xmlns="http://www.w3.org/2000/svg">
<defs >
<font id="Asap" horiz-adv-x="536" ><font-face
    font-family="Asap"
    units-per-em="1000"
    panose-1="0 0 0 0 0 0 0 0 0 0"
    ascent="934"
    descent="-212"
    alphabetic="0" />
<glyph unicode=" " horiz-adv-x="240" />
<glyph unicode="!" horiz-adv-x="294" d="M141 202Q125 202 118 208T111 224V680Q111 702 151 702H171Q210 702 210 680Q203 566 197 452T183 224Q182 214 175 208T152 202H141ZM139 -2Q99 -2 99 20V86Q99 108 139 108H156Q196 108 196 86V20Q196 -2 156 -2H139Z" />
<glyph unicode="&quot;" horiz-adv-x="320" d="M95 472Q75 472 73 484L51 680Q48 702 91 702H101Q144 702 141 680L118 484Q117 472 96 472H95ZM223 472Q203 472 201 484L179 680Q176 702 219 702H229Q272 702 269 680L246 484Q245 472 224 472H223Z" />
<glyph unicode="#" horiz-adv-x="534" d="M106 -2Q78 -2 78 15Q78 19 80 32T90 84T110 196H34Q14 196 14 226V243Q14 273 34 273H125L151 420H70Q50 420 50 450V467Q50 497 70 497H164L195 664Q197 675 204 680T239 686H243Q271 686 271 671L238 497H357L387 664Q389
675 396 680T431 686H436Q464 686 464 671L433 497H501Q521 497 521 467V450Q521 420 501 420H418L393 273H469Q489 273 489 243V226Q489 196 469 196H377L346 20Q345 10 337 4T303 -2H299Q271 -2 271 15Q271 19 273 32T283 84T303 196H185L153 20Q151 10 144 4T110
-2H106ZM200 273H318L344 420H226L200 273Z" />
<glyph unicode="$" horiz-adv-x="500" d="M244 -6Q204 -7 168 0T104 17Q72 28 54 42T35 67Q35 75 41 88T56 111T70 121Q72 121 77 118T91 110Q113 99 153 84T255 72Q308 76 343 98T378 181Q378 223 357 249T302 292T229 325Q166 351 126 380T67 444T48 522Q48
575 72 615T145 679T265 702Q294 702 335 695T404 673Q416 667 423 660T431 645Q431 638 425 625T412 602T399 592Q395 592 387 596T368 606Q351 614 325 622T259 630Q202 630 167 603T132 526Q132 493 151 472T202 435T269 404Q337 376 380 344T443 275T464 191Q464
100 409 48T244 -6ZM256 -71Q230 -71 230 -53V741Q230 759 256 759H261Q287 759 287 741V-53Q287 -71 261 -71H256Z" />
<glyph unicode="%" horiz-adv-x="765" d="M185 -7Q161 -7 161 2Q161 7 165 12L538 687Q543 697 553 701T578 706H583Q607 706 607 697Q607 695 606 693T603 687L230 12Q225 2 215 -2T190 -7H185ZM568 -5Q537 -5 506 7T453 54T431 156Q431 224 451 259T503 307T568
320Q599 320 630 307T683 259T705 156Q705 89 683 55T630 8T568 -5ZM568 50Q600 50 615 66T636 108T641 156Q641 180 637 205T618 248T568 266Q535 266 520 249T501 206T497 156Q497 133 501 108T520 67T568 50ZM197 381Q166 381 135 393T82 440T60 542Q60 610
80 645T132 693T197 706Q228 706 259 693T312 645T334 542Q334 475 313 441T259 394T197 381ZM197 436Q229 436 244 452T265 494T270 542Q270 566 266 591T247 634T197 652Q164 652 149 635T130 592T126 542Q126 519 130 494T149 453T197 436Z" />
<glyph unicode="&amp;" horiz-adv-x="624" d="M273 -6Q236 -6 197 5T125 40T71 105T50 203Q50 256 69 294T117 355T176 387V391Q134 408 104 445T73 538Q73 595 99 632T171 687T275 706Q292 706 311 704T345 695T360 674Q360 672 358 660T351 637T338 625Q332
625 317 629T277 634Q225 634 200 616T166 573T157 529Q157 504 170 476T213 428T291 408H409L421 513Q423 535 453 535H463Q493 535 493 513V408H577Q597 408 597 378V366Q597 336 577 336H493V140Q493 95 509 81T547 66Q569 66 576 68T590 71Q597 71 601 61T608
40T611 24Q611 11 599 5T569 -4T538 -6Q515 -6 486 2T436 37Q411 22 370 8T273 -6ZM281 66Q325 66 365 82T426 112L417 78Q409 101 409 132V336H287Q220 336 179 309T137 204Q137 150 160 120T217 78T281 66Z" />
<glyph unicode="&apos;" horiz-adv-x="192" d="M95 472Q75 472 73 484L51 680Q48 702 91 702H101Q144 702 141 680L118 484Q117 472 96 472H95Z" />
<glyph unicode="(" horiz-adv-x="301" d="M261 -212Q250 -212 239 -201Q184 -150 143 -75T78 92T55 286Q55 389 78 480T143 646T239 773Q249 783 260 783Q266 783 273 780T285 771T290 758Q290 753 288 748T281 736Q214 657 175 540T136 286Q136 150 174 33T280
-164Q285 -169 287 -174T289 -184Q289 -189 285 -195T275 -207T261 -212Z" />
<glyph unicode=")" horiz-adv-x="301" d="M41 -211Q34 -211 27 -207T14 -197T9 -185Q9 -181 11 -178T16 -170Q84 -91 124 28T165 286Q165 423 127 540T21 736Q17 741 15 746T12 756Q12 761 16 767T26 779T40 784Q51 784 62 773Q118 722 159 647T223 481T246 286Q246
184 223 93T158 -73T62 -201Q52 -211 41 -211Z" />
<glyph unicode="*" horiz-adv-x="373" d="M99 414Q92 414 85 420T77 434Q77 441 82 447L153 546L55 578Q41 582 41 593Q41 604 46 610T59 617Q61 617 63 617T68 616L167 584V689Q167 709 187 709Q207 709 207 689V584L306 616Q308 617 310 617T315 617Q321 617
327 611T333 594Q333 582 319 578L220 546L292 447Q297 441 297 434Q297 427 290 421T275 414Q266 414 260 423L187 524L114 423Q108 414 99 414Z" />
<glyph unicode="+" horiz-adv-x="560" d="M277 -2Q247 -2 247 18V197H70Q50 197 50 227V234Q50 264 70 264H247V443Q247 463 277 463H284Q314 463 314 443V264H490Q510 264 510 234V227Q510 197 490 197H314V18Q314 -2 284 -2H277Z" />
<glyph unicode="," horiz-adv-x="198" d="M43 -116Q35 -116 25 -113T14 -101Q14 -96 17 -90T23 -77Q40 -44 48 -7T57 76Q57 90 67 99T97 108H106Q125 108 135 101T146 80Q146 35 135 -1T107 -63T73 -102T43 -116Z" />
<glyph unicode="-" horiz-adv-x="320" d="M65 230Q45 230 45 260V270Q45 300 65 300H255Q275 300 275 270V260Q275 230 255 230H65Z" />
<glyph unicode="." horiz-adv-x="198" d="M91 -2Q51 -2 51 20V86Q51 108 91 108H108Q148 108 148 86V20Q148 -2 108 -2H91Z" />
<glyph unicode="/" horiz-adv-x="422" d="M52 -76Q39 -76 33 -73T26 -61Q26 -56 29 -48T35 -33L332 679Q338 694 346 698T370 703H374Q388 703 392 699T396 687Q396 683 393 673T384 651L87 -61Q83 -70 76 -73T56 -76H52Z" />
<glyph unicode="0" horiz-adv-x="535" d="M267 -6Q207 -6 156 31T72 147T40 350Q40 475 72 553T155 669T267 706Q328 706 380 669T464 554T496 350Q496 226 464 147T380 31T267 -6ZM267 66Q303 66 336 93T390 183T411 350Q411 455 390 517T336 606T267 634Q231
634 199 607T146 517T125 350Q125 245 145 183T198 94T267 66Z" />
<glyph unicode="1" horiz-adv-x="535" d="M80 0Q60 0 60 30V42Q60 72 80 72H254V611L77 581Q70 581 66 590T59 611T57 632Q57 647 75 651L307 702Q318 702 328 696T338 681V72H486Q506 72 506 42V30Q506 0 486 0H80Z" />
<glyph unicode="2" horiz-adv-x="535" d="M71 0Q65 0 61 7T54 24T51 44Q51 57 55 61L313 385Q345 427 359 451T377 492T381 530Q381 578 348 606T256 634Q211 634 181 621T133 596T106 583Q101 583 94 592T80 614T74 633Q74 649 93 662T141 685T200 700T254 706Q352
706 409 661T467 536Q467 507 463 483T445 433T407 372T340 285T238 160L165 71H453Q473 71 473 41V30Q473 0 453 0H71Z" />
<glyph unicode="3" horiz-adv-x="535" d="M246 -6Q202 -6 166 -1T102 13T60 32T45 51Q45 61 51 72T66 92T80 101Q90 101 110 93T162 75T238 66Q268 66 301 78T358 120T382 204Q382 281 341 308T232 336H199Q179 336 179 366V377Q179 407 199 407H228Q280 407 308
430T349 483T361 538Q361 557 352 579T317 618T242 634Q197 634 168 626T123 610T98 601Q93 601 85 611T71 633T65 653Q65 664 84 674T131 691T190 702T244 706Q333 706 389 662T446 529Q446 477 415 442T343 391V387Q373 379 402 356T450 294T469 203Q469 145
449 105T395 41T322 5T246 -6Z" />
<glyph unicode="4" horiz-adv-x="535" d="M376 -2Q346 -2 346 20V167H42Q37 167 31 176T22 197T18 218Q18 227 20 229L349 688Q354 695 363 698T383 702H399Q429 702 429 680V239H496Q516 239 516 209V197Q516 167 496 167H429V20Q429 -2 399 -2H376ZM117 239H346V487Q346
504 347 526T351 564L347 566L117 239Z" />
<glyph unicode="5" horiz-adv-x="535" d="M234 -6Q179 -6 137 4T71 28T47 54Q47 64 53 75T68 95T82 104Q92 104 110 95T159 76T233 66Q274 66 309 82T366 131T388 213Q388 280 342 315T208 350H123Q107 350 101 357T95 380L112 670Q113 686 120 693T144 700H410Q430
700 430 670V658Q430 628 410 628H193L180 422H232Q273 422 315 412T393 379T452 315T474 213Q474 148 453 106T397 39T319 4T234 -6Z" />
<glyph unicode="6" horiz-adv-x="535" d="M264 -5Q211 -5 171 12T105 61T65 140T51 247Q51 319 70 381T120 493T188 583T262 648T329 688T376 702Q387 702 394 692T405 668T409 649Q409 647 408 644T401 638Q299 596 239 526T154 372Q177 386 210 395T289 405Q329
405 363 391T424 351T465 287T480 203Q480 155 464 117T418 52T349 10T264 -5ZM269 67Q296 67 325 81T374 124T395 199Q395 248 376 277T327 320T264 333Q224 333 192 322T139 299Q138 284 137 269T135 239Q135 169 155 132T207 81T269 67Z" />
<glyph unicode="7" horiz-adv-x="535" d="M140 -2Q97 -2 97 16Q97 18 98 21T101 28L390 628H75Q55 628 55 658V670Q55 700 75 700H470Q474 700 478 692T486 671T490 649Q490 644 488 638L192 14Q188 7 178 3T152 -2H140Z" />
<glyph unicode="8" horiz-adv-x="535" d="M267 -6Q207 -6 158 16T80 84T51 202Q51 255 66 289T106 344T162 380Q127 401 103 438T79 533Q79 590 104 628T173 686T269 706Q322 706 365 687T435 629T461 533Q461 472 433 436T364 381Q397 367 424 346T467 291T484
202Q484 148 467 109T421 45T352 7T267 -6ZM267 66Q303 66 332 81T380 126T398 202Q398 240 383 263T344 302T289 327T229 350Q191 328 164 294T137 202Q137 134 175 100T267 66ZM291 408Q327 429 352 459T377 533Q377 586 345 610T269 634Q225 634 194 610T163
533Q163 493 181 470T228 434T291 408Z" />
<glyph unicode="9" horiz-adv-x="535" d="M159 -2Q149 -2 142 8T130 32T126 51Q126 53 127 56T134 62Q236 104 296 174T381 328Q358 315 325 305T246 295Q206 295 172 309T111 349T70 413T55 497Q55 545 71 583T117 648T186 690T271 705Q324 705 364 688T430 639T470
560T484 453Q484 381 465 319T415 207T347 117T273 52T206 12T159 -2ZM271 367Q311 367 343 378T396 401Q398 416 399 431T400 461Q400 531 380 568T329 619T266 633Q239 633 210 619T160 576T140 501Q140 452 159 423T208 380T271 367Z" />
<glyph unicode=":" horiz-adv-x="198" d="M91 415Q51 415 51 437V503Q51 525 91 525H108Q148 525 148 503V437Q148 415 108 415H91ZM91 -2Q51 -2 51 20V86Q51 108 91 108H108Q148 108 148 86V20Q148 -2 108 -2H91Z" />
<glyph unicode=";" horiz-adv-x="198" d="M91 415Q51 415 51 437V503Q51 525 91 525H108Q148 525 148 503V437Q148 415 108 415H91ZM43 -116Q35 -116 25 -113T14 -101Q14 -96 17 -90T23 -77Q40 -44 48 -7T57 76Q57 90 67 99T97 108H106Q125 108 135 101T146 80Q146
35 135 -1T107 -63T73 -102T43 -116Z" />
<glyph unicode="&lt;" horiz-adv-x="560" d="M495 6Q515 6 515 32V46Q515 59 510 67T492 81L136 227L492 372Q504 377 509 385T515 407V421Q515 447 495 447Q491 447 488 447T480 444L69 270Q46 260 46 235V218Q46 193 69 183L480 9Q488 6 495 6Z" />
<glyph unicode="=" horiz-adv-x="560" d="M70 268Q50 268 50 298V311Q50 341 70 341H490Q510 341 510 311V298Q510 268 490 268H70ZM70 104Q50 104 50 134V147Q50 177 70 177H490Q510 177 510 147V134Q510 104 490 104H70Z" />
<glyph unicode="&gt;" horiz-adv-x="560" d="M66 6Q46 6 46 32V46Q46 59 51 67T69 81L425 227L69 372Q57 377 52 385T46 407V421Q46 447 66 447Q70 447 73 447T81 444L492 270Q515 260 515 235V218Q515 193 492 183L81 9Q74 6 66 6Z" />
<glyph unicode="?" horiz-adv-x="445" d="M171 202Q155 202 148 208T141 225Q141 259 163 301T227 384Q265 422 293 456T322 528Q322 581 290 606T196 632Q165 632 140 624T97 607T72 598Q67 598 60 608T46 630T40 649Q40 662 56 672T99 690T155 702T212 706Q279
706 324 683T393 622T417 538Q417 504 404 475T369 420T322 370Q287 336 257 301T219 222Q218 212 211 207T186 202H171ZM168 -2Q128 -2 128 20V86Q128 108 168 108H185Q225 108 225 86V20Q225 -2 185 -2H168Z" />
<glyph unicode="@" horiz-adv-x="974" d="M422 -126Q325 -126 252 -80T137 47T96 237Q96 336 130 421T226 569T369 669T546 705Q647 705 721 665T837 551T879 380Q879 312 864 253T821 149T755 79T669 54Q638 54 616 65T582 96T570 137V182L585 175Q558 110 519
82T435 54Q414 54 389 62T342 90T305 145T290 236Q290 315 316 375T389 470T501 505Q542 505 570 489T612 458Q620 480 624 491T647 502H653Q665 502 670 497T675 481Q675 481 673 459T667 401T659 324T651 246T645 182T642 149Q642 128 650 120T667 109T682 107Q710
107 735 129T781 189T813 276T825 380Q825 465 790 528T693 626T546 661Q463 661 391 629T265 538T181 403T150 237Q150 142 184 70T280 -42T422 -82Q471 -82 500 -75T546 -60T576 -53Q590 -53 590 -76Q590 -91 572 -100T525 -115T469 -123T422 -126ZM451 115Q470
115 493 127T539 170T580 256Q583 282 586 313T592 371T599 409Q586 420 563 431T507 443Q450 443 419 414T375 338T363 241Q363 169 389 142T451 115Z" />
<glyph unicode="A" horiz-adv-x="613" d="M55 -2Q12 -2 12 15Q12 18 13 21T15 29L252 686Q257 702 292 702H321Q356 702 361 686L598 28Q601 21 601 15Q601 -2 558 -2H550Q535 -2 524 1T510 14L451 178H157L100 14Q97 5 86 2T60 -2H55ZM185 254H424L319 552Q315
566 312 581T307 610H305Q302 596 299 581T290 552L185 254Z" />
<glyph unicode="B" horiz-adv-x="593" d="M127 0Q97 0 97 30V670Q97 700 127 700H306Q418 700 474 651T530 523Q530 490 515 458T474 403T420 371V367Q420 367 434 363T469 347T511 316T546 269T560 201Q560 97 493 49T299 0H127ZM185 76H331Q398 76 433 111T469
205Q469 260 430 291T314 322H185V76ZM185 398H301Q362 398 400 432T439 515Q439 571 406 597T297 624H185V398Z" />
<glyph unicode="C" horiz-adv-x="619" d="M379 -6Q215 -6 136 80T57 350Q57 706 381 706Q415 706 447 701T505 688T548 670Q572 656 572 644Q572 636 566 622T553 597T538 586Q533 586 515 597T464 619T383 630Q263 630 206 564T148 349Q148 205 204 138T379 70Q431
70 466 82T523 107T551 120Q558 120 566 109T580 85T586 66Q586 59 578 50T554 33Q536 23 510 14T450 0T379 -6Z" />
<glyph unicode="D" horiz-adv-x="695" d="M127 0Q97 0 97 30V670Q97 700 127 700H329Q415 700 485 667T596 557T638 350Q638 253 614 186T548 78T450 19T329 0H127ZM185 76H322Q385 76 436 103T517 190T547 350Q547 450 517 510T436 597T322 624H185V76Z" />
<glyph unicode="E" horiz-adv-x="546" d="M128 0Q98 0 98 30V670Q98 700 128 700H477Q497 700 497 670V654Q497 624 477 624H186V396H447Q467 396 467 366V350Q467 320 447 320H186V76H478Q498 76 498 46V30Q498 0 478 0H128Z" />
<glyph unicode="F" horiz-adv-x="503" d="M137 -2Q97 -2 97 20V670Q97 700 127 700H442Q462 700 462 670V654Q462 624 442 624H185V376H424Q444 376 444 346V330Q444 300 424 300H185V20Q185 -2 145 -2H137Z" />
<glyph unicode="G" horiz-adv-x="672" d="M366 -6Q217 -6 137 80T57 344Q57 531 140 618T381 706Q418 706 452 700T514 685T556 665T572 644Q572 636 566 622T553 597T538 586Q533 586 515 597T464 619T383 630Q295 630 244 597T170 502T148 353Q148 296 158 245T193
154T261 93T372 70Q418 70 457 75T513 87L501 49V285H384Q364 285 364 315V331Q364 361 384 361H559Q589 361 589 331V66Q589 45 571 31T521 9T449 -2T366 -6Z" />
<glyph unicode="H" horiz-adv-x="733" d="M138 -2Q98 -2 98 20V680Q98 702 138 702H146Q186 702 186 680V397H548V680Q548 702 588 702H596Q636 702 636 680V20Q636 -2 596 -2H588Q548 -2 548 20V321H186V20Q186 -2 146 -2H138Z" />
<glyph unicode="I" horiz-adv-x="283" d="M137 -2Q97 -2 97 20V680Q97 702 137 702H145Q185 702 185 680V20Q185 -2 145 -2H137Z" />
<glyph unicode="J" horiz-adv-x="402" d="M107 -6Q93 -6 76 -5T42 -1T16 9T6 26Q6 28 8 41T15 68T28 81Q34 81 50 77T91 72Q165 72 198 101T231 195V680Q231 702 271 702H279Q319 702 319 680V205Q319 142 298 95T231 21T107 -6Z" />
<glyph unicode="K" horiz-adv-x="576" d="M137 -2Q97 -2 97 20V680Q97 702 137 702H145Q185 702 185 680V374H189L435 688Q442 696 457 699T489 702H499Q534 702 534 689Q534 680 524 669L274 357L577 28Q586 18 586 12Q586 -2 542 -2H530Q514 -2 499 -1T475 11L189
333H185V20Q185 -2 145 -2H137Z" />
<glyph unicode="L" horiz-adv-x="484" d="M127 0Q97 0 97 30V680Q97 702 137 702H145Q185 702 185 680V76H460Q480 76 480 46V30Q480 0 460 0H127Z" />
<glyph unicode="M" horiz-adv-x="843" d="M403 195Q388 195 381 208L203 518Q196 529 191 540T179 563L175 562Q177 549 177 535T177 507V20Q177 -2 137 -2H130Q90 -2 90 20V680Q90 702 130 702H166Q184 702 194 697T208 684L397 356Q405 343 412 326T423 293Q428
310 437 328T454 359L638 684Q643 692 652 697T680 702H713Q753 702 753 680V20Q753 -2 713 -2H706Q666 -2 666 20V501Q666 515 666 529T668 556L664 557Q658 545 653 534T640 512L465 208Q458 195 443 195H403Z" />
<glyph unicode="N" horiz-adv-x="719" d="M130 -2Q90 -2 90 20V680Q90 702 130 702H151Q168 702 177 698T193 683L507 209Q517 194 525 180T540 149L544 150Q543 167 543 181T542 218V680Q542 702 582 702H589Q629 702 629 680V20Q629 -2 589 -2H569Q555 -2 547
1T534 12L212 498Q202 513 195 527T179 558L175 557Q177 540 177 526T177 489V20Q177 -2 137 -2H130Z" />
<glyph unicode="O" horiz-adv-x="731" d="M365 -6Q215 -6 136 85T57 352Q57 528 136 617T365 706Q516 706 595 617T674 352Q674 177 595 86T365 -6ZM365 70Q471 70 527 142T583 352Q583 490 527 560T365 630Q259 630 204 560T148 352Q148 214 203 142T365 70Z" />
<glyph unicode="P" horiz-adv-x="570" d="M125 -2Q85 -2 85 20V670Q85 700 115 700H318Q350 700 388 693T461 666T518 606T541 504Q541 449 524 412T481 353T426 318T370 302T328 298H173V20Q173 -2 133 -2H125ZM173 374H329Q344 374 364 379T404 398T437 437T450
504Q450 554 429 579T376 614T315 624H173V374Z" />
<glyph unicode="Q" horiz-adv-x="731" d="M642 -148Q639 -148 611 -138T541 -111T451 -75T359 -39T284 -9T246 6Q152 44 105 128T57 347Q57 523 136 614T365 706Q516 706 595 615T674 347Q674 205 623 118T473 5V1L670 -61Q684 -66 684 -76Q684 -80 681 -92T672
-116T659 -138T642 -148ZM365 67Q469 67 526 139T583 347Q583 484 526 557T365 630Q262 630 205 557T148 347Q148 211 205 139T365 67Z" />
<glyph unicode="R" horiz-adv-x="610" d="M137 -2Q97 -2 97 20V670Q97 700 127 700H295Q412 700 474 659T536 523Q536 459 505 417T421 354V350Q453 340 472 308T511 225L589 28Q592 19 592 14Q592 -2 550 -2H540Q525 -2 514 2T500 14L424 210Q402 269 368 288T275
308H185V20Q185 -2 145 -2H137ZM185 384H317Q353 384 382 401T428 446T445 507Q445 568 408 596T310 624H185V384Z" />
<glyph unicode="S" horiz-adv-x="500" d="M244 -6Q180 -6 130 9T56 42Q37 56 37 67Q37 75 43 88T58 111T72 121Q75 121 80 119T93 111Q113 100 151 85T244 70Q282 70 311 84T358 126T375 188Q375 228 354 252T298 293T224 324Q192 336 161 350T105 386T65 439T50
521Q50 575 77 617T155 682T272 706Q293 706 319 702T371 690T413 671Q433 659 433 645Q433 638 427 625T414 602T401 592Q397 592 391 595T374 604Q358 612 333 621T270 630Q233 630 204 617T158 579T141 517Q141 481 160 460T210 426T277 398Q310 385 343 370T405
331T449 274T466 188Q466 143 451 107T406 46T336 8T244 -6Z" />
<glyph unicode="T" horiz-adv-x="549" d="M272 -2Q232 -2 232 20V624H40Q20 624 20 654V670Q20 700 40 700H509Q529 700 529 670V654Q529 624 509 624H320V20Q320 -2 280 -2H272Z" />
<glyph unicode="U" horiz-adv-x="712" d="M356 -6Q223 -6 153 55T83 224V680Q83 702 123 702H131Q171 702 171 680V221Q171 177 195 143T261 89T356 70Q410 70 451 89T517 143T541 221V680Q541 702 581 702H589Q629 702 629 680V224Q629 116 559 55T356 -6Z" />
<glyph unicode="V" horiz-adv-x="617" d="M293 -2Q278 -2 267 1T253 14L24 672Q23 676 22 679T21 685Q21 702 64 702H74Q89 702 100 699T114 686L285 197Q294 171 300 146T310 100H313Q318 125 325 150T339 198L507 686Q510 695 521 698T547 702H553Q596 702 596
685Q596 680 593 671L364 14Q361 5 350 2T324 -2H293Z" />
<glyph unicode="W" horiz-adv-x="910" d="M243 -2Q228 -2 217 1T203 14L32 671Q31 674 30 678T29 685Q29 702 72 702H82Q97 702 108 699T122 686L239 230Q245 209 250 185T259 138T264 101H268Q272 117 275 133T283 165T291 197L412 685Q414 695 425 698T451 702H467Q482
702 493 699T506 685L621 230Q627 209 631 185T640 139T645 101H649Q653 117 656 135T664 169T671 196L792 686Q794 695 805 698T832 702H838Q881 702 881 685Q881 684 880 679T878 671L705 14Q703 5 692 2T665 -2H624Q609 -2 598 1T584 14L489 369Q478 410 469
462T456 551H452Q449 515 443 473T428 403L324 14Q322 5 311 2T284 -2H243Z" />
<glyph unicode="X" horiz-adv-x="611" d="M66 -2Q41 -2 31 2T20 15Q20 22 28 33L252 365L52 667Q44 678 44 685Q44 693 54 697T90 702H104Q120 702 130 699T147 687L307 446L472 688Q477 696 489 699T515 702H521Q546 702 556 698T567 685Q567 681 565 677T559
667L359 370L584 33Q592 22 592 15Q592 7 582 3T546 -2H530Q514 -2 504 1T487 13L303 288L117 12Q112 4 100 1T74 -2H66Z" />
<glyph unicode="Y" horiz-adv-x="559" d="M275 -2Q235 -2 235 20V359L26 667Q18 678 18 685Q18 693 28 697T64 702H75Q91 702 101 699T118 687L282 441L450 688Q455 696 467 699T495 702H502Q541 701 541 685Q541 681 539 677T533 667L323 356V20Q323 -2 283 -2H275Z" />
<glyph unicode="Z" horiz-adv-x="616" d="M62 0Q57 0 52 9T42 30T38 53Q38 61 41 65L451 624H91Q71 624 71 658V666Q71 700 91 700H549Q553 700 558 691T567 670T571 647Q571 640 568 635L158 76H549Q569 76 569 42V34Q569 0 549 0H62Z" />
<glyph unicode="[" horiz-adv-x="291" d="M120 -138Q90 -138 90 -108V738Q90 768 120 768H241Q261 768 261 739V734Q261 705 241 705H164V-76H241Q261 -76 261 -105V-109Q261 -138 241 -138H120Z" />
<glyph unicode="\" horiz-adv-x="422" d="M366 -76Q353 -76 346 -73T335 -61L38 651Q33 663 30 673T26 687Q26 695 30 699T48 703H52Q68 703 76 699T90 679L387 -33Q390 -40 393 -48T396 -61Q396 -70 390 -73T370 -76H366Z" />
<glyph unicode="]" horiz-adv-x="291" d="M50 -138Q30 -138 30 -109V-105Q30 -76 50 -76H127V705H50Q30 705 30 734V739Q30 768 50 768H171Q201 768 201 738V-108Q201 -138 171 -138H50Z" />
<glyph unicode="^" horiz-adv-x="450" d="M80 320Q53 320 53 341Q53 348 56 355L181 664Q186 676 194 680T215 684H235Q248 684 256 680T269 664L394 355Q397 348 397 341Q397 320 370 320H366Q340 320 331 343L225 604L118 343Q108 320 84 320H80Z" />
<glyph unicode="_" horiz-adv-x="535" d="M0 -138Q-20 -138 -20 -118V-110Q-20 -90 0 -90H536Q556 -90 556 -110V-118Q556 -138 536 -138H0Z" />
<glyph unicode="`" horiz-adv-x="161" d="M139 576Q119 576 107 580T81 600L27 660Q12 677 6 686T0 702Q0 711 13 714T48 718Q69 718 81 715T99 707T110 692L150 616Q155 607 158 601T161 589Q161 583 156 580T139 576Z" />
<glyph unicode="a" horiz-adv-x="545" d="M220 -6Q147 -6 98 30T49 144Q49 207 79 243T158 297T265 320T381 326V373Q381 407 357 432T271 457Q226 457 193 447T140 426T115 415Q108 415 100 425T86 447T80 465Q80 478 106 493T175 518T268 529Q330 529 374 511T441
457T465 372V148Q465 107 468 80T474 39T477 22Q477 15 471 11T455 4T437 0T423 -1Q411 -1 405 10T395 38T388 69Q369 48 344 31T289 4T220 -6ZM224 67Q279 67 315 88T381 136V254Q342 254 300 252T221 240T162 210T139 149Q139 109 160 88T224 67Z" />
<glyph unicode="b" horiz-adv-x="569" d="M321 -6Q278 -6 239 12T162 69Q156 30 146 10Q143 3 137 1T119 -2H115Q85 -2 85 20V730Q85 752 125 752H129Q169 752 169 730V478Q198 501 232 515T312 529Q401 529 458 461T515 262Q515 184 492 124T425 29T321 -6ZM304
67Q363 67 395 119T427 269Q427 358 394 406T293 455Q261 455 229 444T169 410V136Q200 102 235 85T304 67Z" />
<glyph unicode="c" horiz-adv-x="485" d="M298 -6Q177 -6 115 56T52 264Q52 342 72 393T127 474T204 516T289 529Q328 529 362 523T417 506T439 483Q439 475 434 462T421 439T407 429Q406 429 404 430T396 433Q383 439 356 448T287 457Q221 457 182 414T142 266Q142
161 177 114T297 66Q339 66 368 75T410 92Q415 94 417 95T421 96Q428 96 436 86T449 64T455 45Q455 36 443 27T410 11T360 -1T298 -6Z" />
<glyph unicode="d" horiz-adv-x="565" d="M246 -6Q186 -6 143 28T76 123T52 261Q52 392 109 460T255 529Q302 529 335 515T398 478V730Q398 752 438 752H442Q482 752 482 730V148Q482 107 485 80T491 39T494 22Q494 15 488 11T472 4T454 0T440 -1Q428 -1 422 10T412
38T405 69Q368 31 329 13T246 -6ZM263 67Q296 67 331 84T398 136V410Q371 433 340 444T275 455Q208 455 174 407T140 269Q140 172 172 120T263 67Z" />
<glyph unicode="e" horiz-adv-x="539" d="M300 -6Q176 -6 116 59T55 258Q55 347 81 407T160 498T288 529Q357 529 402 499T471 411T494 268Q494 262 489 253T475 235T461 227H145Q151 144 188 105T299 66Q343 66 373 76T422 97T445 108Q452 108 460 98T474 76T480
58Q480 49 466 38T428 17T371 1T300 -6ZM145 299H405Q405 378 375 417T285 457Q220 457 185 418T145 299Z" />
<glyph unicode="f" horiz-adv-x="325" d="M148 -2Q108 -2 108 20V451H68Q48 451 48 481V493Q48 523 68 523H108V618Q108 663 121 690T154 731T196 751T237 756Q251 756 268 754T297 746T310 726Q310 722 308 711T301 689T289 679Q282 679 275 681T246 684Q232
684 220 679T200 659T192 610V523H279Q299 523 299 493V481Q299 451 279 451H192V20Q192 -2 152 -2H148Z" />
<glyph unicode="g" horiz-adv-x="546" d="M253 -212Q194 -212 148 -200T76 -158T50 -81Q50 -37 75 -4T137 45L138 47Q121 61 111 81T100 129Q100 161 114 184T154 225Q111 246 90 283T68 366Q68 412 90 448T157 507T265 529Q281 529 296 528T324 523H506Q526 523
526 493V481Q526 451 506 451Q494 451 470 453T429 458L428 456Q448 434 454 413T461 366Q461 320 439 283T373 224T264 202Q221 202 198 188T174 141Q174 111 197 98T255 80T330 70Q375 65 411 52T469 12T491 -61Q491 -109 465 -142T385 -194T253 -212ZM264 -143Q339
-143 375 -125T411 -66Q411 -36 388 -22T328 -3T254 6T187 19Q163 8 146 -12T128 -65Q128 -107 159 -125T264 -143ZM264 272Q312 272 346 292T381 365Q381 419 347 439T264 459Q216 459 182 439T148 365Q148 312 182 292T264 272Z" />
<glyph unicode="h" horiz-adv-x="565" d="M132 -2Q92 -2 92 20V730Q92 752 132 752H136Q176 752 176 730V460Q202 486 241 507T329 529Q353 529 380 523T432 499T472 450T488 367V20Q488 -2 448 -2H444Q404 -2 404 20V359Q404 403 379 429T302 456Q274 456 251
446T211 421T185 397T176 386V20Q176 -2 136 -2H132Z" />
<glyph unicode="i" horiz-adv-x="265" d="M131 -2Q91 -2 91 20V503Q91 525 131 525H135Q175 525 175 503V20Q175 -2 135 -2H131ZM133 595Q109 595 99 601T89 617V677Q89 687 99 693T133 699Q157 699 167 694T177 677V617Q177 607 167 601T133 595Z" />
<glyph unicode="j" horiz-adv-x="276" d="M56 -212Q43 -212 26 -210T-4 -202T-17 -182Q-17 -178 -15 -167T-8 -145T4 -135Q11 -135 18 -137T47 -140Q69 -140 85 -126T101 -66V503Q101 525 141 525H145Q185 525 185 503V-74Q185 -117 172 -144T139 -186T97 -206T56
-212ZM143 595Q119 595 109 601T99 617V677Q99 687 109 693T143 699Q167 699 177 694T187 677V617Q187 607 177 601T143 595Z" />
<glyph unicode="k" horiz-adv-x="521" d="M134 -2Q94 -2 94 20V730Q94 752 134 752H138Q178 752 178 730V283H182L373 511Q380 519 395 522T426 525H430Q465 525 465 512Q465 503 455 492L247 246V298L475 28Q484 18 484 12Q484 -2 440 -2H436Q420 -2 405 0T382
11L182 248H178V20Q178 -2 138 -2H134Z" />
<glyph unicode="l" horiz-adv-x="297" d="M211 -6Q192 -6 170 -1T128 19T95 61T82 132V730Q82 752 122 752H126Q166 752 166 730V140Q166 95 182 81T220 66Q242 66 249 68T263 71Q270 71 274 61T281 40T284 24Q284 11 272 5T242 -4T211 -6Z" />
<glyph unicode="m" horiz-adv-x="848" d="M125 -2Q85 -2 85 20V371Q85 412 82 439T76 480T73 497Q73 504 79 508T95 515T113 519T127 520Q139 520 145 509T155 483T162 454Q187 483 226 506T314 529Q339 529 366 523T418 498T457 446Q486 480 527 504T616 529Q640
529 667 523T718 499T758 450T773 367V20Q773 -2 733 -2H729Q689 -2 689 20V359Q689 403 665 429T593 456Q566 456 544 445T504 420T477 393T465 379L464 413Q469 402 470 390T471 366V20Q471 -2 431 -2H427Q387 -2 387 20V359Q387 403 363 429T291 456Q264 456
242 446T203 422T178 398T169 387V20Q169 -2 129 -2H125Z" />
<glyph unicode="n" horiz-adv-x="557" d="M126 -2Q86 -2 86 20V371Q86 412 83 439T77 480T74 497Q74 504 80 508T96 515T114 519T128 520Q140 520 146 509T156 483T163 454Q195 489 236 509T319 529Q396 529 439 486T482 367V20Q482 -2 442 -2H438Q398 -2 398
20V359Q398 405 372 430T296 456Q262 456 229 437T170 386V20Q170 -2 130 -2H126Z" />
<glyph unicode="o" horiz-adv-x="569" d="M287 -6Q174 -6 115 62T55 259Q55 389 115 459T287 529Q397 529 455 460T514 259Q514 129 457 62T287 -6ZM284 66Q358 66 392 113T427 261Q427 361 393 409T284 457Q211 457 177 410T143 261Q143 161 177 114T284 66Z" />
<glyph unicode="p" horiz-adv-x="573" d="M126 -208Q86 -208 86 -186V371Q86 412 83 439T77 480T74 497Q74 504 80 508T96 515T114 519T128 520Q140 520 146 509T156 483T163 454Q200 492 239 510T322 529Q384 529 427 494T493 399T516 261Q516 131 459 63T313
-6Q267 -6 233 8T170 45V-186Q170 -208 130 -208H126ZM294 68Q361 68 394 116T428 254Q428 351 396 403T305 456Q272 456 237 439T170 387V113Q197 91 228 80T294 68Z" />
<glyph unicode="q" horiz-adv-x="566" d="M438 -208Q398 -208 398 -186V45Q369 23 336 9T255 -6Q166 -6 109 62T52 260Q52 339 75 399T142 494T246 529Q289 529 328 511T405 454Q408 469 411 484T421 513Q424 520 431 522T448 525H452Q482 525 482 503V-186Q482
-208 442 -208H438ZM274 68Q309 68 340 79T398 113V387Q367 421 332 438T263 456Q204 456 172 404T140 254Q140 165 173 117T274 68Z" />
<glyph unicode="r" horiz-adv-x="366" d="M130 -2Q90 -2 90 20V371Q90 412 87 439T81 480T78 497Q78 504 84 508T100 515T118 519T132 520Q144 520 150 509T160 483T167 454Q193 490 222 509T283 529Q312 529 326 520T341 490Q341 481 339 468T332 446T321 436Q311
436 302 441T266 447Q240 447 219 432T186 402T174 386V20Q174 -2 134 -2H130Z" />
<glyph unicode="s" horiz-adv-x="413" d="M198 -9Q153 -9 117 2T60 28T39 54Q39 60 45 72T59 94T74 104Q78 104 92 94T131 74T192 64Q290 64 290 138Q290 178 262 196T190 229Q155 241 123 257T71 304T51 385Q51 427 72 460T131 511T217 530Q251 530 281 524T330
508T349 487Q349 479 344 466T331 443T317 433Q313 433 290 446T226 459Q189 459 163 442T137 392Q137 364 153 348T215 316Q261 301 297 281T354 229T375 147Q375 102 352 67T288 12T198 -9Z" />
<glyph unicode="t" horiz-adv-x="342" d="M236 -6Q217 -6 195 -1T153 19T120 61T107 132V451H57Q37 451 37 481V493Q37 523 57 523H107L119 628Q121 650 151 650H161Q191 650 191 628V523H275Q295 523 295 493V481Q295 451 275 451H191V140Q191 95 207 81T245
66Q267 66 274 68T288 71Q295 71 299 61T306 40T309 24Q309 11 297 5T267 -4T236 -6Z" />
<glyph unicode="u" horiz-adv-x="557" d="M238 -6Q162 -6 119 37T75 156V503Q75 525 115 525H119Q159 525 159 503V164Q159 118 185 93T261 67Q295 67 328 86T387 137V503Q387 525 427 525H431Q471 525 471 503V148Q471 107 474 80T480 39T483 22Q483 15 477 11T461
4T443 0T429 -1Q417 -1 411 10T401 38T394 69Q363 34 322 14T238 -6Z" />
<glyph unicode="v" horiz-adv-x="485" d="M225 -2Q210 -2 199 1T185 14L24 495Q23 497 22 501T21 508Q21 525 64 525H69Q84 525 95 522T109 509L211 190Q220 160 229 126T244 65H248Q254 91 263 127T286 206L383 509Q386 518 397 521T424 525H427Q464 525 464
508Q464 503 461 494L300 14Q297 5 286 2T260 -2H225Z" />
<glyph unicode="w" horiz-adv-x="747" d="M208 -2Q193 -2 182 1T168 14L36 488Q35 493 33 499T31 508Q31 516 41 520T77 525Q92 525 103 522T117 509L201 189Q206 173 212 138T224 74H228Q233 103 239 136T251 190L334 508Q336 518 347 521T373 525H380Q395 525
406 522T419 508L503 190Q514 150 518 124T527 72H529Q534 99 539 132T551 188L635 509Q637 518 649 521T676 525Q716 525 716 508Q716 505 716 502T713 494L579 14Q577 5 566 2T539 -2H509Q494 -2 483 1T470 14L390 331Q387 344 384 366T376 410H374Q370 388 367
367T360 332L278 14Q276 5 265 2T238 -2H208Z" />
<glyph unicode="x" horiz-adv-x="485" d="M63 -2Q40 -2 30 2T20 15Q20 22 28 33L190 268L40 490Q32 501 32 508Q32 516 42 520T78 525H87Q103 525 113 522T130 510L225 367Q234 354 238 346T246 332Q249 337 253 345T267 367L363 511Q368 519 380 522T408 525H412Q454
525 454 508Q454 501 446 490L295 270L457 33Q465 22 465 15Q465 7 455 3T419 -2H410Q394 -2 384 1T367 13L261 172Q252 186 248 194T240 207Q237 202 233 194T219 172L111 12Q105 4 93 1T66 -2H63Z" />
<glyph unicode="y" horiz-adv-x="481" d="M140 -208Q107 -208 107 -192Q107 -190 107 -188T112 -175L209 60V-5L21 495Q20 497 19 501T18 508Q18 525 61 525H69Q84 525 95 522T109 509L211 238Q220 213 228 187T243 137H245Q253 160 261 187T278 238L378 509Q381
518 392 521T419 525H422Q462 525 462 508Q462 503 459 494L202 -187Q198 -198 186 -203T155 -208H140Z" />
<glyph unicode="z" horiz-adv-x="489" d="M59 0Q55 0 50 8T41 29T37 51Q37 58 40 62L333 451H77Q57 451 57 481V493Q57 523 77 523H428Q433 523 437 514T445 493T448 471Q448 465 446 461L154 72H429Q449 72 449 42V30Q449 0 429 0H59Z" />
<glyph unicode="{" horiz-adv-x="274" d="M174 -138Q161 -138 143 -129T110 -95T96 -22V145Q96 195 87 227T45 274Q33 279 27 287T20 308V322Q20 336 26 343T45 356Q78 371 87 403T96 485V652Q96 700 110 725T142 759T174 768H224Q244 768 244 739V735Q244 706
224 706H202Q181 706 175 690T168 645V469Q168 420 152 388T118 338T90 314Q98 311 116 294T151 245T168 161V-14Q168 -43 174 -59T202 -76H224Q244 -76 244 -105V-109Q244 -138 224 -138H174Z" />
<glyph unicode="|" horiz-adv-x="250" d="M120 -140Q96 -140 96 -118V748Q96 770 120 770H130Q154 770 154 748V-118Q154 -140 130 -140H120Z" />
<glyph unicode="}" horiz-adv-x="274" d="M50 -138Q30 -138 30 -109V-105Q30 -76 50 -76H72Q93 -76 99 -60T106 -14V161Q106 212 122 244T158 294T184 314Q176 320 157 338T122 388T106 469V645Q106 674 100 690T72 706H50Q30 706 30 735V739Q30 768 50 768H100Q113
768 131 759T164 725T178 652V485Q178 435 187 403T229 356Q241 351 247 344T254 322V308Q254 295 248 287T229 274Q196 259 187 227T178 145V-22Q178 -70 164 -95T132 -129T100 -138H50Z" />
<glyph unicode="~" horiz-adv-x="560" d="M105 214Q98 214 89 219T80 230Q80 239 86 254Q95 274 115 293T178 312Q215 312 251 302T320 283T380 273Q409 273 421 283T440 304T453 315Q458 315 469 310T480 297Q480 294 479 291T475 282Q460 245 435 230T372 215Q341
215 306 225T238 246T178 256Q152 256 139 246T119 225T105 214Z" />
<glyph unicode="&#xa0;" horiz-adv-x="240" />
<glyph unicode="&#xa1;" horiz-adv-x="294" d="M123 -179Q84 -179 84 -157Q84 -149 85 -115T90 -30T96 80T104 196T111 299Q112 310 119 315T142 321H153Q169 321 176 316T183 299V-157Q183 -179 143 -179H123ZM138 415Q98 415 98 437V503Q98 525 138 525H155Q195
525 195 503V437Q195 415 155 415H138Z" />
<glyph unicode="&#xa2;" horiz-adv-x="470" d="M283 -71Q257 -71 257 -53V571Q257 589 283 589H288Q314 589 314 571V-53Q314 -71 288 -71H283ZM286 -6Q165 -6 103 56T40 264Q40 342 60 393T115 474T192 516T277 529Q316 529 350 523T405 506T427 483Q427 475
422 462T409 439T395 429Q394 429 392 430T384 433Q371 439 344 448T275 457Q209 457 170 414T130 266Q130 161 165 114T285 66Q327 66 356 75T398 92Q403 94 405 95T409 96Q416 96 424 86T437 64T443 45Q443 36 431 27T398 11T348 -1T286 -6Z" />
<glyph unicode="&#xa3;" horiz-adv-x="530" d="M75 0Q55 0 55 30V46Q55 62 68 70T98 86T128 111T141 159V339H86Q66 339 66 369V381Q66 411 86 411H141V498Q141 593 187 649T346 706Q360 706 377 705T411 701T437 691T447 674Q447 672 445 660T438 637T425 625Q419
625 403 629T362 634Q290 634 258 603T225 503V411H372Q392 411 392 381V369Q392 339 372 339H225V249Q225 180 215 144T192 94T168 72H448Q468 72 468 42V30Q468 0 448 0H75Z" />
<glyph unicode="&#xa4;" horiz-adv-x="550" d="M126 143Q117 143 108 152L106 154Q98 162 98 171Q98 182 109 193L133 217Q117 239 108 265T99 322Q99 381 133 427L109 450Q96 463 96 474Q96 480 102 486L109 493Q117 501 125 501Q135 501 147 489L171 465Q194
482 220 491T276 500Q305 500 331 491T380 466L404 490Q414 500 424 500Q434 500 443 491L445 489Q454 480 454 472Q454 461 443 450L419 426Q436 404 445 378T454 322Q454 292 445 266T419 217L443 193Q454 182 454 172Q454 163 444 153L443 152Q434 143 425 143Q415
143 404 154L380 178Q358 162 332 154T276 145Q247 145 221 153T172 178L147 153Q137 143 126 143ZM276 206Q308 206 334 221T377 263T393 322Q393 354 377 380T335 423T276 439Q244 439 218 423T176 381T160 322Q160 290 175 264T217 222T276 206Z" />
<glyph unicode="&#xa5;" horiz-adv-x="600" d="M89 355Q69 355 69 385V392Q69 422 89 422H268L301 402L334 422H513Q533 422 533 392V385Q533 355 513 355H89ZM89 192Q69 192 69 222V229Q69 259 89 259H513Q533 259 533 229V222Q533 192 513 192H89ZM296 -2Q256
-2 256 20V359L47 667Q39 678 39 685Q39 693 49 697T85 702H96Q112 702 122 699T139 687L303 441L471 688Q476 696 488 699T516 702H523Q562 701 562 685Q562 678 554 667L344 356V20Q344 -2 304 -2H296Z" />
<glyph unicode="&#xa6;" horiz-adv-x="250" d="M120 403Q96 403 96 425V748Q96 770 120 770H130Q154 770 154 748V425Q154 403 130 403H120ZM120 -140Q96 -140 96 -118V204Q96 226 120 226H130Q154 226 154 204V-118Q154 -140 130 -140H120Z" />
<glyph unicode="&#xa7;" horiz-adv-x="429" d="M205 -6Q180 -6 156 -3T114 7T85 20T74 36Q74 44 79 57T92 80T106 90Q110 90 133 78T196 66Q239 66 259 83T279 126Q279 152 263 165T221 187T166 206Q137 217 111 233T67 279T50 359Q50 397 65 426T103 474Q87 489
76 511T65 564Q65 615 88 646T149 692T225 706Q251 706 274 703T316 693T345 680T356 664Q356 656 351 643T338 620T324 610Q320 610 297 622T233 634Q190 634 171 617T151 574Q151 550 166 537T205 515T256 497Q286 487 314 471T361 425T379 343Q379 304 364 276T324
227Q342 212 353 191T364 138Q364 86 341 55T281 9T205 -6ZM238 266Q261 271 277 288T294 343Q294 373 280 390T242 417T191 435Q170 429 153 412T135 359Q135 329 149 312T187 284T238 266Z" />
<glyph unicode="&#xa8;" horiz-adv-x="238" d="M194 597Q171 597 161 602T150 619V675Q150 686 160 691T194 697Q217 697 227 692T238 675V619Q238 608 228 603T194 597ZM44 597Q21 597 11 602T0 619V675Q0 686 10 691T44 697Q67 697 77 692T88 675V619Q88 608
78 603T44 597Z" />
<glyph unicode="&#xa9;" horiz-adv-x="739" d="M369 -5Q294 -5 229 23T115 100T38 214T10 354Q10 429 38 493T115 606T229 682T369 710Q444 710 509 683T623 607T701 494T729 354Q729 279 701 214T624 100T509 23T369 -5ZM385 137Q288 137 241 188T193 349Q193
562 387 562Q417 562 443 556T485 542T501 525Q501 520 498 512T489 497T480 490Q477 490 466 497T436 510T388 517Q316 517 282 477T247 349Q247 263 281 223T385 182Q416 182 437 189T471 204T488 212Q492 212 497 206T505 192T509 180Q509 172 493 162T448 145T385
137ZM369 43Q434 43 490 67T589 134T656 233T681 354Q681 419 657 474T590 572T491 638T369 662Q305 662 249 639T150 573T83 475T58 354Q58 290 82 234T149 135T248 68T369 43Z" />
<glyph unicode="&#xaa;" horiz-adv-x="319" d="M127 441Q93 441 69 459T45 515Q45 557 69 576T130 600T206 605V627Q206 644 195 653T155 662Q121 662 102 653T78 644Q73 644 67 657T60 674Q60 684 88 695T155 706Q199 706 227 686T255 628V517Q255 486 258 471T261
453Q261 449 255 447T241 443T230 442Q219 442 215 453T209 475Q200 466 188 458T161 446T127 441ZM134 489Q155 489 173 498T206 519V561Q182 561 156 560T111 550T93 520Q93 505 103 497T134 489Z" />
<glyph unicode="&#xab;" horiz-adv-x="470" d="M375 61Q364 61 353 74L223 230Q210 246 210 258Q210 270 223 286L353 442Q364 454 375 454Q381 454 389 450T403 438T410 422Q410 413 402 402L291 258L402 113Q410 102 410 94Q410 88 405 81T391 67T375 61ZM203
61Q192 61 181 74L51 230Q38 246 38 258Q38 270 51 286L181 442Q192 454 203 454Q209 454 217 450T232 438T238 422Q238 413 230 402L119 258L230 113Q238 102 238 94Q238 88 233 81T219 67T203 61Z" />
<glyph unicode="&#xac;" horiz-adv-x="560" d="M475 77Q459 77 452 83T445 99V265H60Q40 265 40 295V308Q40 338 60 338H490Q520 338 520 308V99Q520 89 513 83T490 77H475Z" />
<glyph unicode="&#xad;" horiz-adv-x="320" d="M65 230Q45 230 45 260V270Q45 300 65 300H255Q275 300 275 270V260Q275 230 255 230H65Z" />
<glyph unicode="&#xae;" horiz-adv-x="739" d="M273 145Q249 145 249 158V541Q249 559 267 559H366Q435 559 471 535T508 455Q508 417 490 392T440 355V353Q459 346 470 327T493 279L539 163Q541 158 541 154Q541 145 516 145H510Q491 145 487 154L442 270Q429
305 409 316T354 328H301V158Q301 145 277 145H273ZM301 373H379Q411 373 432 394T454 445Q454 481 432 497T375 514H301V373ZM369 -5Q294 -5 229 23T115 100T38 214T10 354Q10 429 38 493T115 606T229 682T369 710Q444 710 509 683T623 607T701 494T729 354Q729
279 701 214T624 100T509 23T369 -5ZM369 43Q434 43 490 67T589 134T656 233T681 354Q681 419 657 474T590 572T491 638T369 662Q305 662 249 639T150 573T83 475T58 354Q58 290 82 234T149 135T248 68T369 43Z" />
<glyph unicode="&#xaf;" horiz-adv-x="253" d="M20 612Q0 612 0 642V652Q0 682 20 682H233Q253 682 253 652V642Q253 612 233 612H20Z" />
<glyph unicode="&#xb0;" horiz-adv-x="345" d="M172 441Q136 441 106 459T58 507T40 573Q40 610 58 640T106 688T172 706Q209 706 239 688T287 640T305 573Q305 537 287 507T239 459T172 441ZM172 486Q207 486 231 511T256 573Q256 609 232 635T172 661Q138 661
114 635T89 573Q89 537 113 512T172 486Z" />
<glyph unicode="&#xb1;" horiz-adv-x="560" d="M277 134Q247 134 247 154V327H70Q50 327 50 357V364Q50 394 70 394H247V573Q247 593 277 593H284Q314 593 314 573V394H490Q510 394 510 364V357Q510 327 490 327H314V154Q314 134 284 134H277ZM68 1Q50 1 50 28V41Q50
68 68 68H492Q510 68 510 41V28Q510 1 492 1H68Z" />
<glyph unicode="&#xb2;" horiz-adv-x="310" d="M35 350Q30 350 27 357T24 371Q24 378 25 382T30 391L177 575Q196 599 204 613T214 637T217 660Q217 688 197 704T144 720Q117 720 99 714T71 700T55 693Q51 693 44 703T37 720Q37 732 56 741T100 756T142 762Q200
762 233 736T267 663Q267 635 261 617T242 584T214 548L90 391H259Q270 391 270 374V368Q270 350 259 350H35Z" />
<glyph unicode="&#xb3;" horiz-adv-x="310" d="M143 344Q109 344 83 349T41 363T25 378Q25 384 29 390T38 402T46 407Q54 407 76 397T139 387Q157 387 176 394T209 418T223 468Q223 513 199 529T135 545H116Q104 545 104 563V569Q104 587 116 587H133Q163 587
180 600T204 632T211 664Q211 675 206 688T185 710T141 720Q101 720 83 711T57 701Q52 701 45 713T37 731Q37 740 55 747T99 758T142 762Q195 762 228 737T261 659Q261 628 242 608T200 578V575Q227 568 250 541T274 467Q274 422 254 395T203 356T143 344Z" />
<glyph unicode="&#xb4;" horiz-adv-x="161" d="M22 576Q11 576 6 579T0 589Q0 594 3 600T11 616L51 692Q56 701 62 706T80 715T113 718Q136 718 148 715T161 702Q161 695 155 686T134 660L80 600Q66 584 54 580T22 576Z" />
<glyph unicode="&#xb5;" horiz-adv-x="566" d="M125 -208Q85 -208 85 -186V503Q85 525 125 525H129Q169 525 169 503V164Q169 118 195 93T271 67Q305 67 338 86T397 137V503Q397 525 437 525H441Q481 525 481 503V148Q481 107 484 80T490 39T493 22Q493 15 487
11T471 4T453 0T439 -1Q427 -1 421 10T411 38T404 69Q373 34 332 14T248 -6Q216 -6 188 3T140 28L149 47Q157 5 161 -29T167 -100T169 -186Q169 -208 129 -208H125Z" />
<glyph unicode="&#xb6;" horiz-adv-x="515" d="M267 -173Q243 -173 243 -151V247Q187 254 141 285T68 366T41 473Q41 536 71 587T154 669T268 700H481Q501 700 501 676V662Q501 638 481 638H445V-151Q445 -173 421 -173H407Q383 -173 383 -151V638H305V-151Q305
-173 281 -173H267Z" />
<glyph unicode="&#xb7;" horiz-adv-x="267" d="M133 309Q111 309 97 323T82 360Q82 382 96 397T133 412Q155 412 170 397T185 360Q185 338 170 324T133 309Z" />
<glyph unicode="&#xb8;" horiz-adv-x="230" d="M115 -210Q93 -210 66 -205T20 -190T0 -167Q0 -158 4 -150T19 -141Q31 -141 53 -151T112 -161Q121 -161 133 -159T156 -149T166 -126Q166 -109 155 -103T130 -95T104 -89T93 -76Q93 -72 94 -65T100 -42T112 0H155L138
-59L129 -54Q179 -54 204 -72T230 -125Q230 -162 212 -180T167 -204T115 -210Z" />
<glyph unicode="&#xb9;" horiz-adv-x="310" d="M167 348Q160 348 153 351T146 362V710L72 694Q65 694 63 705T60 724Q60 732 70 735L176 763Q183 763 188 760T194 751V362Q194 355 187 352T172 348H167Z" />
<glyph unicode="&#xba;" horiz-adv-x="337" d="M170 441Q114 441 85 474T55 572Q55 637 85 671T170 706Q224 706 253 672T282 572Q282 508 254 475T170 441ZM168 485Q231 485 231 573Q231 662 168 662Q106 662 106 573Q106 485 168 485Z" />
<glyph unicode="&#xbb;" horiz-adv-x="470" d="M267 61Q259 61 251 67T238 80T232 94Q232 102 240 113L351 258L240 402Q232 413 232 422Q232 431 238 438T252 449T267 454Q279 454 289 442L419 286Q432 270 432 258Q432 246 419 230L289 74Q278 61 267 61ZM95
61Q87 61 79 67T66 80T60 94Q60 102 68 113L179 258L68 402Q60 413 60 422Q60 431 66 438T80 449T95 454Q107 454 117 442L247 286Q260 270 260 258Q260 246 247 230L117 74Q106 61 95 61Z" />
<glyph unicode="&#xbc;" horiz-adv-x="750" d="M147 288Q140 288 133 291T126 302V650L52 634Q45 634 43 645T40 664Q40 672 50 675L156 703Q163 703 168 700T174 691V302Q174 295 167 292T152 288H147ZM629 -2Q612 -2 612 11V96H439Q435 96 431 100T425 112T422
124Q422 129 425 133L614 401Q617 405 622 407T633 409H643Q660 409 660 396V137H699Q710 137 710 120V113Q710 96 699 96H660V11Q660 -2 643 -2H629ZM478 137H612V291Q612 302 613 309T615 329L613 330L478 137ZM139 -2Q125 -2 125 5Q125 7 126 10T130 16L536
686Q546 703 564 703H577Q593 703 593 696Q593 694 592 692T589 686L182 15Q177 6 170 2T152 -2H139Z" />
<glyph unicode="&#xbd;" horiz-adv-x="750" d="M147 288Q140 288 133 291T126 302V650L52 634Q45 634 43 645T40 664Q40 672 50 675L156 703Q163 703 168 700T174 691V302Q174 295 167 292T152 288H147ZM452 0Q447 0 444 7T441 21Q441 28 442 32T447 41L594 225Q613
249 621 263T631 287T634 310Q634 338 614 354T561 370Q534 370 516 364T488 350T472 343Q468 343 461 353T454 370Q454 382 473 391T517 406T559 412Q617 412 650 386T684 313Q684 285 678 267T659 234T631 198L507 41H676Q687 41 687 24V18Q687 0 676 0H452ZM114
-2Q100 -2 100 5Q100 7 101 10T105 16L511 686Q521 703 539 703H552Q568 703 568 696Q568 694 567 692T564 686L157 15Q152 6 145 2T127 -2H114Z" />
<glyph unicode="&#xbe;" horiz-adv-x="750" d="M133 284Q99 284 73 289T31 303T15 318Q15 324 19 330T28 342T36 347Q44 347 66 337T129 327Q147 327 166 334T199 358T213 408Q213 453 189 469T125 485H106Q94 485 94 503V509Q94 527 106 527H123Q153 527 170
540T194 572T201 604Q201 615 196 628T175 650T131 660Q91 660 73 651T47 641Q42 641 35 653T27 671Q27 680 46 687T89 698T132 702Q185 702 218 677T251 599Q251 568 232 548T190 518V515Q217 508 240 481T264 407Q264 362 244 335T193 296T133 284ZM629 -2Q612
-2 612 11V96H439Q435 96 431 100T425 112T422 124Q422 129 425 133L614 401Q617 405 622 407T633 409H643Q660 409 660 396V137H699Q710 137 710 120V113Q710 96 699 96H660V11Q660 -2 643 -2H629ZM478 137H612V291Q612 302 613 309T615 329L613 330L478 137ZM167
-2Q153 -2 153 5Q153 7 154 10T158 16L564 686Q574 703 592 703H605Q621 703 621 696Q621 694 620 692T617 686L210 15Q205 6 198 2T180 -2H167Z" />
<glyph unicode="&#xbf;" horiz-adv-x="425" d="M275 321Q291 321 298 315T305 298Q305 264 283 222T219 139Q181 101 153 67T124 -5Q124 -57 156 -83T250 -109Q282 -109 307 -101T349 -84T374 -75Q379 -75 386 -85T400 -107T406 -126Q406 -139 390 -149T347 -167T291
-179T234 -183Q168 -183 122 -160T53 -98T29 -15Q29 20 42 49T78 103T124 153Q159 188 189 223T227 301Q229 311 235 316T260 321H275ZM278 525Q318 525 318 503V437Q318 415 278 415H261Q221 415 221 437V503Q221 525 261 525H278Z" />
<glyph unicode="&#xc0;" horiz-adv-x="613" d="M55 -2Q12 -2 12 15Q12 18 13 21T15 29L252 686Q258 702 292 702H321Q357 702 361 686L598 28Q601 21 601 15Q601 -2 558 -2H550Q535 -2 524 1T510 14L451 178H157L100 14Q97 5 86 2T60 -2H55ZM185 254H424L319 552Q315
566 312 581T307 610H305Q302 596 299 581T290 552L185 254ZM367 752Q342 752 328 756T293 773L239 806Q213 823 206 830T199 846Q199 855 214 859T252 864Q284 864 299 860T328 841L382 784Q388 778 390 774T393 765Q393 752 367 752Z" />
<glyph unicode="&#xc1;" horiz-adv-x="613" d="M55 -2Q12 -2 12 15Q12 18 13 21T15 29L252 686Q258 702 292 702H321Q357 702 361 686L598 28Q601 21 601 15Q601 -2 558 -2H550Q535 -2 524 1T510 14L451 178H157L100 14Q97 5 86 2T60 -2H55ZM185 254H424L319 552Q315
566 312 581T307 610H305Q302 596 299 581T290 552L185 254ZM247 752Q221 752 221 765Q221 769 223 773T232 784L286 841Q299 855 315 859T362 864Q385 864 400 860T415 846Q415 838 408 831T375 806L321 773Q300 760 286 756T247 752Z" />
<glyph unicode="&#xc2;" horiz-adv-x="613" d="M55 -2Q12 -2 12 15Q12 18 13 21T15 29L252 686Q258 702 292 702H321Q357 702 361 686L598 28Q601 21 601 15Q601 -2 558 -2H550Q535 -2 524 1T510 14L451 178H157L100 14Q97 5 86 2T60 -2H55ZM185 254H424L319 552Q315
566 312 581T307 610H305Q302 596 299 581T290 552L185 254ZM199 742Q186 742 182 745T177 753Q177 757 179 761T191 777L243 832Q254 844 264 849T297 854H317Q340 854 349 850T371 832L421 779Q433 766 435 762T437 753Q437 749 433 746T415 742Q405 742 394
745T374 755L307 799L243 757Q232 750 220 746T199 742Z" />
<glyph unicode="&#xc3;" horiz-adv-x="613" d="M55 -2Q12 -2 12 15Q12 18 13 21T15 29L252 686Q258 702 292 702H321Q357 702 361 686L598 28Q601 21 601 15Q601 -2 558 -2H550Q535 -2 524 1T510 14L451 178H157L100 14Q97 5 86 2T60 -2H55ZM185 254H424L319 552Q315
566 312 581T307 610H305Q302 596 299 581T290 552L185 254ZM156 756Q148 756 137 762T125 777Q125 780 126 783T128 790Q142 824 168 842T226 861Q255 861 283 851T338 829T385 818Q407 818 419 829T441 850T458 861Q466 861 477 854T488 838Q488 833 484 825Q467
791 443 774T387 756Q357 756 328 767T273 788T225 799Q204 799 192 789T173 767T156 756Z" />
<glyph unicode="&#xc4;" horiz-adv-x="613" d="M55 -2Q12 -2 12 15Q12 18 13 21T15 29L252 686Q258 702 292 702H321Q357 702 361 686L598 28Q601 21 601 15Q601 -2 558 -2H550Q535 -2 524 1T510 14L451 178H157L100 14Q97 5 86 2T60 -2H55ZM185 254H424L319 552Q315
566 312 581T307 610H305Q302 596 299 581T290 552L185 254ZM387 758Q364 758 354 763T343 780V836Q343 847 353 852T387 858Q410 858 420 853T431 836V780Q431 769 421 764T387 758ZM227 758Q204 758 194 763T183 780V836Q183 847 193 852T227 858Q250 858 260
853T271 836V780Q271 769 261 764T227 758Z" />
<glyph unicode="&#xc5;" horiz-adv-x="613" d="M55 -2Q12 -2 12 15Q12 18 13 21T15 29L252 686Q258 702 292 702H321Q357 702 361 686L598 28Q601 21 601 15Q601 -2 558 -2H550Q535 -2 524 1T510 14L451 178H157L100 14Q97 5 86 2T60 -2H55ZM185 254H424L319 552Q315
566 312 581T307 610H305Q302 596 299 581T290 552L185 254ZM306 747Q270 747 246 771T222 831Q222 867 246 891T306 916Q342 916 366 892T391 831Q391 795 367 771T306 747ZM306 792Q323 792 334 803T346 831Q346 848 335 859T306 871Q290 871 279 860T267 831Q267
815 278 804T306 792Z" />
<glyph unicode="&#xc6;" horiz-adv-x="915" d="M30 -2Q8 -2 0 2T-9 15Q-9 23 -5 31L316 673Q329 700 359 700H804Q824 700 824 670V654Q824 624 804 624H442L492 396H774Q794 396 794 366V350Q794 320 774 320H508L561 76H805Q825 76 825 46V30Q825 0 805 0H518Q502
0 494 7T482 29L450 178H155L75 14Q71 6 60 2T35 -2H30ZM194 253H433L369 552L365 610H363L342 552L194 253Z" />
<glyph unicode="&#xc7;" horiz-adv-x="619" d="M379 -6Q215 -6 136 80T57 350Q57 706 381 706Q415 706 447 701T505 688T548 670Q572 656 572 644Q572 636 566 622T553 597T538 586Q533 586 515 597T464 619T383 630Q263 630 206 564T148 349Q148 205 204 138T379
70Q431 70 466 82T523 107T551 120Q558 120 566 109T580 85T586 66Q586 59 578 50T554 33Q536 23 510 14T450 0T379 -6ZM337 -210Q315 -210 288 -205T242 -190T222 -167Q222 -158 226 -150T241 -141Q253 -141 275 -151T334 -161Q343 -161 355 -159T378 -149T388
-126Q388 -109 377 -103T352 -95T326 -89T315 -76Q315 -72 316 -65T322 -42T334 0H377L360 -59L351 -54Q401 -54 426 -72T452 -125Q452 -162 434 -180T389 -204T337 -210Z" />
<glyph unicode="&#xc8;" horiz-adv-x="546" d="M128 0Q98 0 98 30V670Q98 700 128 700H477Q497 700 497 670V654Q497 624 477 624H186V396H447Q467 396 467 366V350Q467 320 447 320H186V76H478Q498 76 498 46V30Q498 0 478 0H128ZM357 752Q332 752 318 756T283
773L229 806Q203 823 196 830T189 846Q189 855 204 859T242 864Q274 864 289 860T318 841L372 784Q378 778 380 774T383 765Q383 752 357 752Z" />
<glyph unicode="&#xc9;" horiz-adv-x="546" d="M128 0Q98 0 98 30V670Q98 700 128 700H477Q497 700 497 670V654Q497 624 477 624H186V396H447Q467 396 467 366V350Q467 320 447 320H186V76H478Q498 76 498 46V30Q498 0 478 0H128ZM237 752Q211 752 211 765Q211
769 213 773T222 784L276 841Q289 855 305 859T352 864Q375 864 390 860T405 846Q405 838 398 831T365 806L311 773Q290 760 276 756T237 752Z" />
<glyph unicode="&#xca;" horiz-adv-x="546" d="M128 0Q98 0 98 30V670Q98 700 128 700H477Q497 700 497 670V654Q497 624 477 624H186V396H447Q467 396 467 366V350Q467 320 447 320H186V76H478Q498 76 498 46V30Q498 0 478 0H128ZM189 742Q176 742 172 745T167
753Q167 757 169 761T181 777L233 832Q244 844 254 849T287 854H307Q330 854 339 850T361 832L411 779Q423 766 425 762T427 753Q427 749 423 746T405 742Q395 742 384 745T364 755L297 799L233 757Q222 750 210 746T189 742Z" />
<glyph unicode="&#xcb;" horiz-adv-x="546" d="M128 0Q98 0 98 30V670Q98 700 128 700H477Q497 700 497 670V654Q497 624 477 624H186V396H447Q467 396 467 366V350Q467 320 447 320H186V76H478Q498 76 498 46V30Q498 0 478 0H128ZM377 758Q354 758 344 763T333
780V836Q333 847 343 852T377 858Q400 858 410 853T421 836V780Q421 769 411 764T377 758ZM217 758Q194 758 184 763T173 780V836Q173 847 183 852T217 858Q240 858 250 853T261 836V780Q261 769 251 764T217 758Z" />
<glyph unicode="&#xcc;" horiz-adv-x="283" d="M137 -2Q97 -2 97 20V680Q97 702 137 702H145Q185 702 185 680V20Q185 -2 145 -2H137ZM201 752Q176 752 162 756T127 773L73 806Q47 823 40 830T33 846Q33 855 48 859T86 864Q118 864 133 860T162 841L216 784Q222
778 224 774T227 765Q227 752 201 752Z" />
<glyph unicode="&#xcd;" horiz-adv-x="283" d="M137 -2Q97 -2 97 20V680Q97 702 137 702H145Q185 702 185 680V20Q185 -2 145 -2H137ZM81 752Q55 752 55 765Q55 769 57 773T66 784L120 841Q133 855 149 859T196 864Q219 864 234 860T249 846Q249 838 242 831T209
806L155 773Q134 760 120 756T81 752Z" />
<glyph unicode="&#xce;" horiz-adv-x="283" d="M137 -2Q97 -2 97 20V680Q97 702 137 702H145Q185 702 185 680V20Q185 -2 145 -2H137ZM33 742Q20 742 16 745T11 753Q11 757 13 761T25 777L77 832Q88 844 98 849T131 854H151Q174 854 183 850T205 832L255 779Q267
766 269 762T271 753Q271 749 267 746T249 742Q239 742 228 745T208 755L141 799L77 757Q66 750 54 746T33 742Z" />
<glyph unicode="&#xcf;" horiz-adv-x="283" d="M137 -2Q97 -2 97 20V680Q97 702 137 702H145Q185 702 185 680V20Q185 -2 145 -2H137ZM221 758Q198 758 188 763T177 780V836Q177 847 187 852T221 858Q244 858 254 853T265 836V780Q265 769 255 764T221 758ZM61
758Q38 758 28 763T17 780V836Q17 847 27 852T61 858Q84 858 94 853T105 836V780Q105 769 95 764T61 758Z" />
<glyph unicode="&#xd0;" horiz-adv-x="695" d="M20 320Q0 320 0 350V366Q0 396 20 396H323Q343 396 343 366V350Q343 320 323 320H20ZM127 0Q97 0 97 30V670Q97 700 127 700H329Q415 700 485 667T596 557T638 350Q638 253 614 186T548 78T450 19T329 0H127ZM185
76H322Q385 76 436 103T517 190T547 350Q547 450 517 510T436 597T322 624H185V76Z" />
<glyph unicode="&#xd1;" horiz-adv-x="719" d="M130 -2Q90 -2 90 20V680Q90 702 130 702H151Q168 702 177 698T193 683L507 209Q517 194 525 180T540 149L544 150Q543 167 543 181T542 218V680Q542 702 582 702H589Q629 702 629 680V20Q629 -2 589 -2H569Q555
-2 547 1T534 12L212 498Q202 513 195 527T179 558L175 557Q177 540 177 526T177 489V20Q177 -2 137 -2H130ZM209 756Q201 756 190 762T178 777Q178 780 179 783T181 790Q195 824 221 842T279 861Q308 861 336 851T391 829T438 818Q460 818 472 829T494 850T511
861Q519 861 530 854T541 838Q541 833 537 825Q520 791 496 774T440 756Q410 756 381 767T326 788T278 799Q257 799 245 789T226 767T209 756Z" />
<glyph unicode="&#xd2;" horiz-adv-x="731" d="M365 -6Q215 -6 136 85T57 352Q57 528 136 617T365 706Q516 706 595 617T674 352Q674 177 595 86T365 -6ZM365 70Q471 70 527 142T583 352Q583 490 527 560T365 630Q259 630 204 560T148 352Q148 214 203 142T365
70ZM426 752Q401 752 387 756T352 773L298 806Q272 823 265 830T258 846Q258 855 273 859T311 864Q343 864 358 860T387 841L441 784Q447 778 449 774T452 765Q452 752 426 752Z" />
<glyph unicode="&#xd3;" horiz-adv-x="731" d="M365 -6Q215 -6 136 85T57 352Q57 528 136 617T365 706Q516 706 595 617T674 352Q674 177 595 86T365 -6ZM365 70Q471 70 527 142T583 352Q583 490 527 560T365 630Q259 630 204 560T148 352Q148 214 203 142T365
70ZM306 752Q280 752 280 765Q280 769 282 773T291 784L345 841Q358 855 374 859T421 864Q444 864 459 860T474 846Q474 838 467 831T434 806L380 773Q359 760 345 756T306 752Z" />
<glyph unicode="&#xd4;" horiz-adv-x="731" d="M365 -6Q215 -6 136 85T57 352Q57 528 136 617T365 706Q516 706 595 617T674 352Q674 177 595 86T365 -6ZM365 70Q471 70 527 142T583 352Q583 490 527 560T365 630Q259 630 204 560T148 352Q148 214 203 142T365
70ZM258 742Q245 742 241 745T236 753Q236 757 238 761T250 777L302 832Q313 844 323 849T356 854H376Q399 854 408 850T430 832L480 779Q492 766 494 762T496 753Q496 749 492 746T474 742Q464 742 453 745T433 755L366 799L302 757Q291 750 279 746T258 742Z"
/>
<glyph unicode="&#xd5;" horiz-adv-x="731" d="M365 -6Q215 -6 136 85T57 352Q57 528 136 617T365 706Q516 706 595 617T674 352Q674 177 595 86T365 -6ZM365 70Q471 70 527 142T583 352Q583 490 527 560T365 630Q259 630 204 560T148 352Q148 214 203 142T365
70ZM215 756Q207 756 196 762T184 777Q184 780 185 783T187 790Q201 824 227 842T285 861Q314 861 342 851T397 829T444 818Q466 818 478 829T500 850T517 861Q525 861 536 854T547 838Q547 833 543 825Q526 791 502 774T446 756Q416 756 387 767T332 788T284 799Q263
799 251 789T232 767T215 756Z" />
<glyph unicode="&#xd6;" horiz-adv-x="731" d="M365 -6Q215 -6 136 85T57 352Q57 528 136 617T365 706Q516 706 595 617T674 352Q674 177 595 86T365 -6ZM365 70Q471 70 527 142T583 352Q583 490 527 560T365 630Q259 630 204 560T148 352Q148 214 203 142T365
70ZM446 758Q423 758 413 763T402 780V836Q402 847 412 852T446 858Q469 858 479 853T490 836V780Q490 769 480 764T446 758ZM286 758Q263 758 253 763T242 780V836Q242 847 252 852T286 858Q309 858 319 853T330 836V780Q330 769 320 764T286 758Z" />
<glyph unicode="&#xd7;" horiz-adv-x="560" d="M96 0Q91 0 81 8T62 26T54 41Q54 47 63 56L234 228L63 399Q55 407 55 413Q55 417 62 427T80 445T96 454Q103 454 110 447L281 275L452 447Q459 454 466 454Q472 454 481 446T498 429T506 413Q506 406 499 399L328
228L499 56Q506 49 506 42Q506 36 498 26T480 8T466 0Q460 0 452 8L281 181L110 8Q102 0 96 0Z" />
<glyph unicode="&#xd8;" horiz-adv-x="731" d="M70 10Q63 1 56 1Q52 1 47 4T38 13T34 22Q34 29 40 36L633 694Q640 702 647 702Q652 702 657 699T665 691T669 682Q669 676 663 668L70 10ZM365 -6Q215 -6 136 85T57 352Q57 528 136 617T365 706Q516 706 595 617T674
352Q674 177 595 86T365 -6ZM365 70Q471 70 527 142T583 352Q583 490 527 560T365 630Q259 630 204 560T148 352Q148 214 203 142T365 70Z" />
<glyph unicode="&#xd9;" horiz-adv-x="712" d="M356 -6Q223 -6 153 55T83 224V680Q83 702 123 702H131Q171 702 171 680V221Q171 177 195 143T261 89T356 70Q410 70 451 89T517 143T541 221V680Q541 702 581 702H589Q629 702 629 680V224Q629 116 559 55T356 -6ZM416
752Q391 752 377 756T342 773L288 806Q262 823 255 830T248 846Q248 855 263 859T301 864Q333 864 348 860T377 841L431 784Q437 778 439 774T442 765Q442 752 416 752Z" />
<glyph unicode="&#xda;" horiz-adv-x="712" d="M356 -6Q223 -6 153 55T83 224V680Q83 702 123 702H131Q171 702 171 680V221Q171 177 195 143T261 89T356 70Q410 70 451 89T517 143T541 221V680Q541 702 581 702H589Q629 702 629 680V224Q629 116 559 55T356 -6ZM296
752Q270 752 270 765Q270 769 272 773T281 784L335 841Q348 855 364 859T411 864Q434 864 449 860T464 846Q464 838 457 831T424 806L370 773Q349 760 335 756T296 752Z" />
<glyph unicode="&#xdb;" horiz-adv-x="712" d="M356 -6Q223 -6 153 55T83 224V680Q83 702 123 702H131Q171 702 171 680V221Q171 177 195 143T261 89T356 70Q410 70 451 89T517 143T541 221V680Q541 702 581 702H589Q629 702 629 680V224Q629 116 559 55T356 -6ZM248
742Q235 742 231 745T226 753Q226 757 228 761T240 777L292 832Q303 844 313 849T346 854H366Q389 854 398 850T420 832L470 779Q482 766 484 762T486 753Q486 749 482 746T464 742Q454 742 443 745T423 755L356 799L292 757Q281 750 269 746T248 742Z" />
<glyph unicode="&#xdc;" horiz-adv-x="712" d="M356 -6Q223 -6 153 55T83 224V680Q83 702 123 702H131Q171 702 171 680V221Q171 177 195 143T261 89T356 70Q410 70 451 89T517 143T541 221V680Q541 702 581 702H589Q629 702 629 680V224Q629 116 559 55T356 -6ZM436
758Q413 758 403 763T392 780V836Q392 847 402 852T436 858Q459 858 469 853T480 836V780Q480 769 470 764T436 758ZM276 758Q253 758 243 763T232 780V836Q232 847 242 852T276 858Q299 858 309 853T320 836V780Q320 769 310 764T276 758Z" />
<glyph unicode="&#xdd;" horiz-adv-x="559" d="M275 -2Q235 -2 235 20V359L26 667Q18 678 18 685Q18 693 28 697T64 702H75Q91 702 101 699T118 687L282 441L450 688Q455 696 467 699T495 702H502Q541 701 541 685Q541 678 533 667L323 356V20Q323 -2 283 -2H275ZM220
752Q194 752 194 765Q194 769 196 773T205 784L259 841Q272 855 288 859T335 864Q358 864 373 860T388 846Q388 838 381 831T348 806L294 773Q273 760 259 756T220 752Z" />
<glyph unicode="&#xde;" horiz-adv-x="570" d="M125 -2Q85 -2 85 20V680Q85 702 125 702H133Q173 702 173 680V578H318Q350 578 388 571T461 544T518 484T541 382Q541 327 524 290T481 231T426 196T370 180T328 176H173V20Q173 -2 133 -2H125ZM173 252H329Q344
252 364 257T404 276T437 315T450 382Q450 432 429 457T376 492T315 502H173V252Z" />
<glyph unicode="&#xdf;" horiz-adv-x="554" d="M130 -2Q90 -2 90 20V521Q90 576 114 617T183 682T287 706Q342 706 386 690T458 637T485 536Q485 493 457 450T383 387V384Q447 369 480 320T514 206Q514 139 485 93T408 24T299 0H267Q247 0 247 30V42Q247 72 267
72H300Q353 72 389 107T426 206Q426 269 390 304T300 340H267Q247 340 247 370V382Q247 412 267 412H277Q308 412 335 427T379 469T396 528Q396 571 380 594T338 625T285 634Q234 634 204 604T174 521V20Q174 -2 134 -2H130Z" />
<glyph unicode="&#xe0;" horiz-adv-x="545" d="M220 -6Q147 -6 98 30T49 144Q49 207 79 243T158 297T265 320T381 326V373Q381 407 357 432T271 457Q226 457 193 447T140 426T115 415Q108 415 100 425T86 447T80 465Q80 478 106 493T175 518T268 529Q330 529 374
511T441 457T465 372V148Q465 107 468 80T474 39T477 22Q477 15 471 11T455 4T437 0T423 -1Q411 -1 405 10T395 38T388 69Q369 48 344 31T289 4T220 -6ZM224 67Q279 67 315 88T381 136V254Q342 254 300 252T221 240T162 210T139 149Q139 109 160 88T224 67ZM294
576Q274 576 262 580T236 600L182 660Q167 677 161 686T155 702Q155 711 168 714T203 718Q224 718 236 715T254 707T265 692L305 616Q310 607 313 601T316 589Q316 583 311 580T294 576Z" />
<glyph unicode="&#xe1;" horiz-adv-x="545" d="M220 -6Q147 -6 98 30T49 144Q49 207 79 243T158 297T265 320T381 326V373Q381 407 357 432T271 457Q226 457 193 447T140 426T115 415Q108 415 100 425T86 447T80 465Q80 478 106 493T175 518T268 529Q330 529 374
511T441 457T465 372V148Q465 107 468 80T474 39T477 22Q477 15 471 11T455 4T437 0T423 -1Q411 -1 405 10T395 38T388 69Q369 48 344 31T289 4T220 -6ZM224 67Q279 67 315 88T381 136V254Q342 254 300 252T221 240T162 210T139 149Q139 109 160 88T224 67ZM228
576Q217 576 212 579T206 589Q206 594 209 600T217 616L257 692Q262 701 268 706T286 715T319 718Q342 718 354 715T367 702Q367 695 361 686T340 660L286 600Q272 584 260 580T228 576Z" />
<glyph unicode="&#xe2;" horiz-adv-x="545" d="M220 -6Q147 -6 98 30T49 144Q49 207 79 243T158 297T265 320T381 326V373Q381 407 357 432T271 457Q226 457 193 447T140 426T115 415Q108 415 100 425T86 447T80 465Q80 478 106 493T175 518T268 529Q330 529 374
511T441 457T465 372V148Q465 107 468 80T474 39T477 22Q477 15 471 11T455 4T437 0T423 -1Q411 -1 405 10T395 38T388 69Q369 48 344 31T289 4T220 -6ZM224 67Q279 67 315 88T381 136V254Q342 254 300 252T221 240T162 210T139 149Q139 109 160 88T224 67ZM174
576Q152 576 152 589Q152 594 155 600T163 616L203 692Q210 705 222 711T265 718H281Q313 718 324 712T343 692L383 616Q388 607 391 601T394 589Q394 576 372 576Q356 576 347 580T324 600L274 661L224 600Q211 585 201 581T174 576Z" />
<glyph unicode="&#xe3;" horiz-adv-x="545" d="M220 -6Q147 -6 98 30T49 144Q49 207 79 243T158 297T265 320T381 326V373Q381 407 357 432T271 457Q226 457 193 447T140 426T115 415Q108 415 100 425T86 447T80 465Q80 478 106 493T175 518T268 529Q330 529 374
511T441 457T465 372V148Q465 107 468 80T474 39T477 22Q477 15 471 11T455 4T437 0T423 -1Q411 -1 405 10T395 38T388 69Q369 48 344 31T289 4T220 -6ZM224 67Q279 67 315 88T381 136V254Q342 254 300 252T221 240T162 210T139 149Q139 109 160 88T224 67ZM122
592Q118 592 111 594T97 600T91 610Q91 616 94 623Q110 662 133 677T187 692Q211 692 235 683T283 664T331 654Q351 654 361 664T377 684T392 694Q396 694 403 691T417 684T424 675Q424 672 423 669T420 661Q402 624 380 609T328 593Q303 593 277 602T226 621T181
631Q163 631 153 622T137 602T122 592Z" />
<glyph unicode="&#xe4;" horiz-adv-x="545" d="M220 -6Q147 -6 98 30T49 144Q49 207 79 243T158 297T265 320T381 326V373Q381 407 357 432T271 457Q226 457 193 447T140 426T115 415Q108 415 100 425T86 447T80 465Q80 478 106 493T175 518T268 529Q330 529 374
511T441 457T465 372V148Q465 107 468 80T474 39T477 22Q477 15 471 11T455 4T437 0T423 -1Q411 -1 405 10T395 38T388 69Q369 48 344 31T289 4T220 -6ZM224 67Q279 67 315 88T381 136V254Q342 254 300 252T221 240T162 210T139 149Q139 109 160 88T224 67ZM348
597Q325 597 315 602T304 619V675Q304 686 314 691T348 697Q371 697 381 692T392 675V619Q392 608 382 603T348 597ZM198 597Q175 597 165 602T154 619V675Q154 686 164 691T198 697Q221 697 231 692T242 675V619Q242 608 232 603T198 597Z" />
<glyph unicode="&#xe5;" horiz-adv-x="545" d="M220 -6Q147 -6 98 30T49 144Q49 207 79 243T158 297T265 320T381 326V373Q381 407 357 432T271 457Q226 457 193 447T140 426T115 415Q108 415 100 425T86 447T80 465Q80 478 106 493T175 518T268 529Q330 529 374
511T441 457T465 372V148Q465 107 468 80T474 39T477 22Q477 15 471 11T455 4T437 0T423 -1Q411 -1 405 10T395 38T388 69Q369 48 344 31T289 4T220 -6ZM224 67Q279 67 315 88T381 136V254Q342 254 300 252T221 240T162 210T139 149Q139 109 160 88T224 67ZM272
570Q236 570 212 594T188 654Q188 690 212 714T272 739Q308 739 332 715T357 654Q357 618 333 594T272 570ZM272 618Q288 618 298 628T309 654Q309 670 299 680T272 691Q257 691 247 681T236 654Q236 639 246 629T272 618Z" />
<glyph unicode="&#xe6;" horiz-adv-x="819" d="M220 -6Q147 -6 98 30T49 144Q49 198 74 230T142 280T236 304T342 312Q348 374 370 416Q359 434 336 445T271 457Q226 457 193 447T140 426T115 415Q108 415 100 425T86 447T80 465Q80 478 106 493T175 518T268 529Q318
529 356 517T420 481Q476 529 568 529Q637 529 682 501T751 417T774 282Q774 276 769 267T755 249T741 241H429Q433 181 450 142T499 85T579 66Q623 66 653 76T702 97T725 108Q732 108 740 98T754 76T760 58Q760 49 746 38T708 17T651 1T580 -6Q520 -6 475 10T401
57Q381 40 354 26T293 3T220 -6ZM224 67Q270 67 302 82T362 119Q340 170 339 240Q291 239 245 233T169 207T139 149Q139 109 160 88T224 67ZM429 313H685Q685 384 655 420T565 457Q523 457 494 441T449 393T429 313Z" />
<glyph unicode="&#xe7;" horiz-adv-x="485" d="M298 -6Q177 -6 115 56T52 264Q52 342 72 393T127 474T204 516T289 529Q328 529 362 523T417 506T439 483Q439 475 434 462T421 439T407 429Q406 429 404 430T396 433Q383 439 356 448T287 457Q221 457 182 414T142
266Q142 161 177 114T297 66Q339 66 368 75T410 92Q415 94 417 95T421 96Q428 96 436 86T449 64T455 45Q455 36 443 27T410 11T360 -1T298 -6ZM268 -210Q246 -210 219 -205T173 -190T153 -167Q153 -158 157 -150T172 -141Q184 -141 206 -151T265 -161Q274 -161
286 -159T309 -149T319 -126Q319 -109 308 -103T283 -95T257 -89T246 -76Q246 -72 247 -65T253 -42T265 0H308L291 -59L282 -54Q332 -54 357 -72T383 -125Q383 -162 365 -180T320 -204T268 -210Z" />
<glyph unicode="&#xe8;" horiz-adv-x="539" d="M300 -6Q176 -6 116 59T55 258Q55 347 81 407T160 498T288 529Q357 529 402 499T471 411T494 268Q494 262 489 253T475 235T461 227H145Q151 144 188 105T299 66Q343 66 373 76T422 97T445 108Q452 108 460 98T474
76T480 58Q480 49 466 38T428 17T371 1T300 -6ZM145 299H405Q405 378 375 417T285 457Q220 457 185 418T145 299ZM296 576Q276 576 264 580T238 600L184 660Q169 677 163 686T157 702Q157 711 170 714T205 718Q226 718 238 715T256 707T267 692L307 616Q312 607
315 601T318 589Q318 583 313 580T296 576Z" />
<glyph unicode="&#xe9;" horiz-adv-x="539" d="M300 -6Q176 -6 116 59T55 258Q55 347 81 407T160 498T288 529Q357 529 402 499T471 411T494 268Q494 262 489 253T475 235T461 227H145Q151 144 188 105T299 66Q343 66 373 76T422 97T445 108Q452 108 460 98T474
76T480 58Q480 49 466 38T428 17T371 1T300 -6ZM145 299H405Q405 378 375 417T285 457Q220 457 185 418T145 299ZM230 576Q219 576 214 579T208 589Q208 594 211 600T219 616L259 692Q264 701 270 706T288 715T321 718Q344 718 356 715T369 702Q369 695 363 686T342
660L288 600Q274 584 262 580T230 576Z" />
<glyph unicode="&#xea;" horiz-adv-x="539" d="M300 -6Q176 -6 116 59T55 258Q55 347 81 407T160 498T288 529Q357 529 402 499T471 411T494 268Q494 262 489 253T475 235T461 227H145Q151 144 188 105T299 66Q343 66 373 76T422 97T445 108Q452 108 460 98T474
76T480 58Q480 49 466 38T428 17T371 1T300 -6ZM145 299H405Q405 378 375 417T285 457Q220 457 185 418T145 299ZM176 576Q154 576 154 589Q154 594 157 600T165 616L205 692Q212 705 224 711T267 718H283Q315 718 326 712T345 692L385 616Q390 607 393 601T396
589Q396 576 374 576Q358 576 349 580T326 600L276 661L226 600Q213 585 203 581T176 576Z" />
<glyph unicode="&#xeb;" horiz-adv-x="539" d="M300 -6Q176 -6 116 59T55 258Q55 347 81 407T160 498T288 529Q357 529 402 499T471 411T494 268Q494 262 489 253T475 235T461 227H145Q151 144 188 105T299 66Q343 66 373 76T422 97T445 108Q452 108 460 98T474
76T480 58Q480 49 466 38T428 17T371 1T300 -6ZM145 299H405Q405 378 375 417T285 457Q220 457 185 418T145 299ZM350 597Q327 597 317 602T306 619V675Q306 686 316 691T350 697Q373 697 383 692T394 675V619Q394 608 384 603T350 597ZM200 597Q177 597 167 602T156
619V675Q156 686 166 691T200 697Q223 697 233 692T244 675V619Q244 608 234 603T200 597Z" />
<glyph unicode="&#xec;" horiz-adv-x="265" d="M131 -2Q91 -2 91 20V503Q91 525 131 525H135Q175 525 175 503V20Q175 -2 135 -2H131ZM154 576Q134 576 122 580T96 600L42 660Q27 677 21 686T15 702Q15 711 28 714T63 718Q84 718 96 715T114 707T125 692L165 616Q170
607 173 601T176 589Q176 583 171 580T154 576Z" />
<glyph unicode="&#xed;" horiz-adv-x="265" d="M131 -2Q91 -2 91 20V503Q91 525 131 525H135Q175 525 175 503V20Q175 -2 135 -2H131ZM88 576Q77 576 72 579T66 589Q66 594 69 600T77 616L117 692Q122 701 128 706T146 715T179 718Q202 718 214 715T227 702Q227
695 221 686T200 660L146 600Q132 584 120 580T88 576Z" />
<glyph unicode="&#xee;" horiz-adv-x="265" d="M131 -2Q91 -2 91 20V503Q91 525 131 525H135Q175 525 175 503V20Q175 -2 135 -2H131ZM34 576Q12 576 12 589Q12 594 15 600T23 616L63 692Q70 705 82 711T125 718H141Q173 718 184 712T203 692L243 616Q248 607
251 601T254 589Q254 576 232 576Q216 576 207 580T184 600L134 661L84 600Q71 585 61 581T34 576Z" />
<glyph unicode="&#xef;" horiz-adv-x="265" d="M131 -2Q91 -2 91 20V503Q91 525 131 525H135Q175 525 175 503V20Q175 -2 135 -2H131ZM208 597Q185 597 175 602T164 619V675Q164 686 174 691T208 697Q231 697 241 692T252 675V619Q252 608 242 603T208 597ZM58
597Q35 597 25 602T14 619V675Q14 686 24 691T58 697Q81 697 91 692T102 675V619Q102 608 92 603T58 597Z" />
<glyph unicode="&#xf0;" horiz-adv-x="569" d="M287 -6Q174 -6 115 62T55 259Q55 389 115 459T287 529Q315 529 340 524T387 509L377 494Q364 526 350 554T321 607Q280 602 263 599T241 596T235 595Q225 595 217 606T209 627Q209 638 224 640L296 650Q285 667
278 679T270 698Q270 710 286 712Q291 713 298 713T313 714Q329 714 339 702Q347 693 354 684T372 660Q410 666 426 668T446 670T450 671Q464 671 469 657T475 639Q475 628 460 626L400 618Q434 566 459 508T499 387T514 259Q514 129 457 62T287 -6ZM284 66Q358
66 392 113T427 261Q427 361 393 409T284 457Q211 457 176 410T141 261Q141 161 176 114T284 66Z" />
<glyph unicode="&#xf1;" horiz-adv-x="557" d="M126 -2Q86 -2 86 20V371Q86 412 83 439T77 480T74 497Q74 504 80 508T96 515T114 519T128 520Q140 520 146 509T156 483T163 454Q195 489 236 509T319 529Q396 529 439 486T482 367V20Q482 -2 442 -2H438Q398 -2
398 20V359Q398 405 372 430T296 456Q262 456 229 437T170 386V20Q170 -2 130 -2H126ZM128 592Q124 592 117 594T103 600T97 610Q97 616 100 623Q116 662 139 677T193 692Q217 692 241 683T289 664T337 654Q357 654 367 664T383 684T398 694Q402 694 409 691T423
684T430 675Q430 672 429 669T426 661Q408 624 386 609T334 593Q309 593 283 602T232 621T187 631Q169 631 159 622T143 602T128 592Z" />
<glyph unicode="&#xf2;" horiz-adv-x="569" d="M287 -6Q174 -6 115 62T55 259Q55 389 115 459T287 529Q397 529 455 460T514 259Q514 129 457 62T287 -6ZM284 66Q358 66 392 113T427 261Q427 361 393 409T284 457Q211 457 177 410T143 261Q143 161 177 114T284
66ZM306 576Q286 576 274 580T248 600L194 660Q179 677 173 686T167 702Q167 711 180 714T215 718Q236 718 248 715T266 707T277 692L317 616Q322 607 325 601T328 589Q328 583 323 580T306 576Z" />
<glyph unicode="&#xf3;" horiz-adv-x="569" d="M287 -6Q174 -6 115 62T55 259Q55 389 115 459T287 529Q397 529 455 460T514 259Q514 129 457 62T287 -6ZM284 66Q358 66 392 113T427 261Q427 361 393 409T284 457Q211 457 177 410T143 261Q143 161 177 114T284
66ZM240 576Q229 576 224 579T218 589Q218 594 221 600T229 616L269 692Q274 701 280 706T298 715T331 718Q354 718 366 715T379 702Q379 695 373 686T352 660L298 600Q284 584 272 580T240 576Z" />
<glyph unicode="&#xf4;" horiz-adv-x="569" d="M287 -6Q174 -6 115 62T55 259Q55 389 115 459T287 529Q397 529 455 460T514 259Q514 129 457 62T287 -6ZM284 66Q358 66 392 113T427 261Q427 361 393 409T284 457Q211 457 177 410T143 261Q143 161 177 114T284
66ZM186 576Q164 576 164 589Q164 594 167 600T175 616L215 692Q222 705 234 711T277 718H293Q325 718 336 712T355 692L395 616Q400 607 403 601T406 589Q406 576 384 576Q368 576 359 580T336 600L286 661L236 600Q223 585 213 581T186 576Z" />
<glyph unicode="&#xf5;" horiz-adv-x="569" d="M287 -6Q174 -6 115 62T55 259Q55 389 115 459T287 529Q397 529 455 460T514 259Q514 129 457 62T287 -6ZM284 66Q358 66 392 113T427 261Q427 361 393 409T284 457Q211 457 177 410T143 261Q143 161 177 114T284
66ZM134 592Q130 592 123 594T109 600T103 610Q103 616 106 623Q122 662 145 677T199 692Q223 692 247 683T295 664T343 654Q363 654 373 664T389 684T404 694Q408 694 415 691T429 684T436 675Q436 672 435 669T432 661Q414 624 392 609T340 593Q315 593 289 602T238
621T193 631Q175 631 165 622T149 602T134 592Z" />
<glyph unicode="&#xf6;" horiz-adv-x="569" d="M287 -6Q174 -6 115 62T55 259Q55 389 115 459T287 529Q397 529 455 460T514 259Q514 129 457 62T287 -6ZM284 66Q358 66 392 113T427 261Q427 361 393 409T284 457Q211 457 177 410T143 261Q143 161 177 114T284
66ZM360 597Q337 597 327 602T316 619V675Q316 686 326 691T360 697Q383 697 393 692T404 675V619Q404 608 394 603T360 597ZM210 597Q187 597 177 602T166 619V675Q166 686 176 691T210 697Q233 697 243 692T254 675V619Q254 608 244 603T210 597Z" />
<glyph unicode="&#xf7;" horiz-adv-x="560" d="M70 194Q50 194 50 224V237Q50 267 70 267H490Q510 267 510 237V224Q510 194 490 194H70ZM278 -2Q238 -2 238 20V71Q238 93 278 93H282Q322 93 322 71V20Q322 -2 282 -2H278ZM278 368Q238 368 238 390V441Q238 463
278 463H282Q322 463 322 441V390Q322 368 282 368H278Z" />
<glyph unicode="&#xf8;" horiz-adv-x="569" d="M87 2Q83 2 78 5T68 14T64 23Q64 28 71 37L479 513Q486 521 493 521Q497 521 502 518T511 509T515 500Q515 494 509 486L101 10Q94 2 87 2ZM287 -6Q174 -6 115 62T55 259Q55 389 115 459T287 529Q397 529 455 460T514
259Q514 129 457 62T287 -6ZM284 66Q358 66 392 113T427 261Q427 361 393 409T284 457Q211 457 177 410T143 261Q143 161 177 114T284 66Z" />
<glyph unicode="&#xf9;" horiz-adv-x="557" d="M238 -6Q162 -6 119 37T75 156V503Q75 525 115 525H119Q159 525 159 503V164Q159 118 185 93T261 67Q295 67 328 86T387 137V503Q387 525 427 525H431Q471 525 471 503V148Q471 107 474 80T480 39T483 22Q483 15
477 11T461 4T443 0T429 -1Q417 -1 411 10T401 38T394 69Q363 34 322 14T238 -6ZM292 576Q272 576 260 580T234 600L180 660Q165 677 159 686T153 702Q153 711 166 714T201 718Q222 718 234 715T252 707T263 692L303 616Q308 607 311 601T314 589Q314 583 309 580T292
576Z" />
<glyph unicode="&#xfa;" horiz-adv-x="557" d="M238 -6Q162 -6 119 37T75 156V503Q75 525 115 525H119Q159 525 159 503V164Q159 118 185 93T261 67Q295 67 328 86T387 137V503Q387 525 427 525H431Q471 525 471 503V148Q471 107 474 80T480 39T483 22Q483 15
477 11T461 4T443 0T429 -1Q417 -1 411 10T401 38T394 69Q363 34 322 14T238 -6ZM226 576Q215 576 210 579T204 589Q204 594 207 600T215 616L255 692Q260 701 266 706T284 715T317 718Q340 718 352 715T365 702Q365 695 359 686T338 660L284 600Q270 584 258 580T226
576Z" />
<glyph unicode="&#xfb;" horiz-adv-x="557" d="M238 -6Q162 -6 119 37T75 156V503Q75 525 115 525H119Q159 525 159 503V164Q159 118 185 93T261 67Q295 67 328 86T387 137V503Q387 525 427 525H431Q471 525 471 503V148Q471 107 474 80T480 39T483 22Q483 15
477 11T461 4T443 0T429 -1Q417 -1 411 10T401 38T394 69Q363 34 322 14T238 -6ZM172 576Q150 576 150 589Q150 594 153 600T161 616L201 692Q208 705 220 711T263 718H279Q311 718 322 712T341 692L381 616Q386 607 389 601T392 589Q392 576 370 576Q354 576 345
580T322 600L272 661L222 600Q209 585 199 581T172 576Z" />
<glyph unicode="&#xfc;" horiz-adv-x="557" d="M238 -6Q162 -6 119 37T75 156V503Q75 525 115 525H119Q159 525 159 503V164Q159 118 185 93T261 67Q295 67 328 86T387 137V503Q387 525 427 525H431Q471 525 471 503V148Q471 107 474 80T480 39T483 22Q483 15
477 11T461 4T443 0T429 -1Q417 -1 411 10T401 38T394 69Q363 34 322 14T238 -6ZM346 597Q323 597 313 602T302 619V675Q302 686 312 691T346 697Q369 697 379 692T390 675V619Q390 608 380 603T346 597ZM196 597Q173 597 163 602T152 619V675Q152 686 162 691T196
697Q219 697 229 692T240 675V619Q240 608 230 603T196 597Z" />
<glyph unicode="&#xfd;" horiz-adv-x="481" d="M140 -208Q107 -208 107 -192Q107 -190 107 -188T112 -175L209 60V-5L21 495Q20 497 19 501T18 508Q18 525 61 525H69Q84 525 95 522T109 509L211 238Q220 213 228 187T243 137H245Q253 160 261 187T278 238L378
509Q381 518 392 521T419 525H422Q462 525 462 508Q462 503 459 494L202 -187Q198 -198 186 -203T155 -208H140ZM196 576Q185 576 180 579T174 589Q174 594 177 600T185 616L225 692Q230 701 236 706T254 715T287 718Q310 718 322 715T335 702Q335 695 329 686T308
660L254 600Q240 584 228 580T196 576Z" />
<glyph unicode="&#xfe;" horiz-adv-x="573" d="M126 -208Q86 -208 86 -186V730Q86 752 126 752H130Q170 752 170 730V461Q205 496 243 512T322 529Q382 529 425 495T492 400T516 260Q516 131 459 63T313 -6Q267 -6 233 8T170 45V-186Q170 -208 130 -208H126ZM294
68Q361 68 394 116T428 254Q428 351 396 403T305 456Q272 456 237 439T170 387V113Q197 91 228 80T294 68Z" />
<glyph unicode="&#xff;" horiz-adv-x="481" d="M140 -208Q107 -208 107 -192Q107 -190 107 -188T112 -175L209 60V-5L21 495Q20 497 19 501T18 508Q18 525 61 525H69Q84 525 95 522T109 509L211 238Q220 213 228 187T243 137H245Q253 160 261 187T278 238L378
509Q381 518 392 521T419 525H422Q462 525 462 508Q462 503 459 494L202 -187Q198 -198 186 -203T155 -208H140ZM316 597Q293 597 283 602T272 619V675Q272 686 282 691T316 697Q339 697 349 692T360 675V619Q360 608 350 603T316 597ZM166 597Q143 597 133 602T122
619V675Q122 686 132 691T166 697Q189 697 199 692T210 675V619Q210 608 200 603T166 597Z" />
<glyph unicode="&#x2013;" horiz-adv-x="500" d="M75 230Q55 230 55 260V270Q55 300 75 300H425Q445 300 445 270V260Q445 230 425 230H75Z" />
<glyph unicode="&#x2014;" horiz-adv-x="1000" d="M85 230Q65 230 65 260V270Q65 300 85 300H915Q935 300 935 270V260Q935 230 915 230H85Z" />
<glyph unicode="&#x2018;" horiz-adv-x="212" d="M97 515Q78 515 68 522T57 543Q57 588 68 624T96 686T130 725T160 739Q168 739 178 736T189 724Q189 720 186 713T180 700Q164 667 155 631T146 547Q146 533 136 524T106 515H97Z" />
<glyph unicode="&#x2019;" horiz-adv-x="212" d="M61 530Q53 530 43 533T32 545Q32 550 35 556T41 569Q58 602 66 639T75 722Q75 736 85 745T115 754H124Q143 754 153 747T164 726Q164 681 153 645T125 583T91 544T61 530Z" />
<glyph unicode="&#x201a;" horiz-adv-x="198" d="M43 -115Q35 -115 25 -112T14 -100Q14 -95 17 -89T23 -76Q40 -43 48 -6T57 77Q57 91 67 100T97 109H106Q125 109 135 102T146 81Q146 36 135 0T107 -62T73 -101T43 -115Z" />
<glyph unicode="&#x201c;" horiz-adv-x="350" d="M228 515Q209 515 199 522T188 543Q188 588 199 624T227 686T261 725T291 739Q299 739 309 736T320 724Q320 720 317 713T311 700Q295 667 286 631T277 547Q277 533 267 524T237 515H228ZM89 515Q70 515 60 522T49
543Q49 588 60 624T88 686T122 725T152 739Q160 739 170 736T181 724Q181 720 178 713T172 700Q156 667 147 631T138 547Q138 533 128 524T98 515H89Z" />
<glyph unicode="&#x201d;" horiz-adv-x="350" d="M208 530Q200 530 190 533T179 545Q179 550 182 556T188 569Q205 602 213 639T222 722Q222 736 232 745T262 754H271Q290 754 300 747T311 726Q311 681 300 645T272 583T238 544T208 530ZM69 530Q61 530 51 533T40
545Q40 550 43 556T49 569Q66 602 74 639T83 722Q83 736 93 745T123 754H132Q151 754 161 747T172 726Q172 681 161 645T133 583T99 544T69 530Z" />
<glyph unicode="&#x201e;" horiz-adv-x="350" d="M205 -116Q197 -116 187 -113T176 -101Q176 -96 179 -90T185 -77Q202 -44 210 -7T219 76Q219 90 229 99T259 108H268Q287 108 297 101T308 80Q308 35 297 -1T269 -63T235 -102T205 -116ZM66 -116Q58 -116 48 -113T37
-101Q37 -96 40 -90T46 -77Q63 -44 71 -7T80 76Q80 90 90 99T120 108H129Q148 108 158 101T169 80Q169 35 158 -1T130 -63T96 -102T66 -116Z" />
<glyph unicode="&#x2022;" horiz-adv-x="336" d="M168 201Q133 201 105 217T60 262T43 326Q43 361 59 389T104 435T168 452Q203 452 231 435T277 390T294 326Q294 291 277 263T232 218T168 201Z" />
<glyph unicode="&#x2039;" horiz-adv-x="300" d="M203 61Q192 61 181 74L51 230Q38 246 38 258Q38 270 51 286L181 442Q192 454 203 454Q209 454 217 450T232 438T238 422Q238 413 230 402L119 258L230 113Q238 102 238 94Q238 88 233 81T219 67T203 61Z" />
<glyph unicode="&#x203a;" horiz-adv-x="300" d="M97 61Q89 61 81 67T68 80T62 94Q62 102 70 113L181 258L70 402Q62 413 62 422Q62 431 68 438T82 449T97 454Q109 454 119 442L249 286Q262 270 262 258Q262 246 249 230L119 74Q108 61 97 61Z" />
</font>
</defs>
</svg>
