<?xml version="1.0" standalone="no"?>
<!DOCTYPE svg PUBLIC "-//W3C//DTD SVG 1.1//EN" "http://www.w3.org/Graphics/SVG/1.1/DTD/svg11.dtd">
<svg xmlns="http://www.w3.org/2000/svg">
<defs >
<font id="Asap" horiz-adv-x="536" ><font-face
    font-family="Asap"
    units-per-em="1000"
    panose-1="0 0 0 0 0 0 0 0 0 0"
    ascent="934"
    descent="-212"
    alphabetic="0" />
<glyph unicode=" " horiz-adv-x="240" />
<glyph unicode="!" horiz-adv-x="294" d="M122 222Q90 222 82 230T74 254L118 670Q121 702 181 702H224Q254 702 269 694T281 668L187 254Q183 238 174 230T133 222H122ZM88 -2Q56 -2 44 6T31 30L41 122Q43 138 58 146T104 154H136Q168 154 180 146T193 122L183
30Q180 -2 120 -2H88Z" />
<glyph unicode="&quot;" horiz-adv-x="319" d="M100 464Q66 464 66 494V667Q66 702 129 702H136Q201 702 192 665L152 494Q145 464 115 464H100ZM246 464Q212 464 212 494V667Q212 702 275 702H282Q347 702 338 665L298 494Q291 464 261 464H246Z" />
<glyph unicode="#" horiz-adv-x="534" d="M69 -2Q20 -2 27 25L73 183H30Q14 183 9 194T6 233L7 243Q10 270 18 281T42 293H104L137 403H88Q72 403 67 414T64 453L65 463Q68 490 76 501T100 513H168L209 655Q214 671 229 678T269 686H282Q331 686 323 660L281 513H375L416
655Q421 671 436 678T476 686H489Q538 686 530 660L488 513H522Q538 513 543 502T546 463L545 453Q542 426 534 415T510 403H457L424 293H467Q483 293 488 282T491 243L490 233Q487 206 479 195T455 183H393L348 29Q344 13 329 6T289 -2H276Q228 -2 235 25L280
183H186L141 29Q137 13 122 6T82 -2H69ZM217 293H311L344 403H250L217 293Z" />
<glyph unicode="$" horiz-adv-x="500" d="M219 -75Q208 -75 205 -70T201 -55Q201 -51 203 -35T206 -7Q181 -6 152 -2T97 11T54 34Q34 51 34 70Q34 121 38 144T48 174T60 181Q65 181 71 178T86 168Q106 155 139 139T219 123L237 289Q207 302 175 317T117 353T74
406T57 483Q57 558 89 605T173 676T281 706L285 745Q286 756 291 760T307 765H324Q342 765 342 745Q342 743 341 730T338 707Q367 706 391 702T434 690T466 674Q490 656 490 640Q490 627 479 606T453 568T426 551Q422 551 417 553T403 559Q390 564 372 569T324
576L308 420Q346 403 385 381T450 324T476 233Q476 170 458 126T408 55T339 13T263 -6L258 -55Q257 -75 236 -75H219ZM277 133Q298 141 312 157T327 203Q327 221 317 235T291 260L277 133ZM253 447L266 571Q226 562 216 543T206 510Q206 489 219 474T253 447Z"
/>
<glyph unicode="%" horiz-adv-x="765" d="M197 372Q165 372 134 382T83 422T62 508Q62 571 78 610T120 670T175 700T232 708Q264 708 295 698T346 658T366 573Q366 510 350 471T309 410T254 380T197 372ZM544 -8Q512 -8 481 2T430 42T410 127Q410 190 426 229T467
290T522 320T579 328Q611 328 642 317T693 277T714 191Q714 129 698 90T656 29T601 0T544 -8ZM552 74Q575 74 587 92T605 136T610 182Q610 206 602 224T570 242Q552 242 541 232T524 204T515 169T512 134Q512 111 520 93T552 74ZM205 454Q229 454 241 473T258 519T263
565Q263 588 255 605T223 622Q206 622 195 612T177 586T168 552T165 517Q165 493 173 474T205 454ZM166 0Q136 0 136 10Q136 14 144 26L560 687Q568 700 596 700H603Q621 700 628 698T635 690Q635 684 625 669L214 17Q207 7 199 4T173 0H166Z" />
<glyph unicode="&amp;" horiz-adv-x="624" d="M211 -8Q165 -8 127 4T62 40T21 98T6 177Q6 224 21 264T67 336T142 383V387Q106 403 85 435T64 512Q64 572 92 616T171 684T288 708Q310 708 334 706T376 696T394 669Q394 645 386 626T368 595T350 584Q346 584 333
587T302 591Q281 591 264 585T236 566T218 537T211 499Q211 477 222 461T254 435T306 426H401L415 490Q420 512 433 521T481 531H499Q529 531 542 521T554 490L548 426H589Q605 426 611 414T614 376L612 359Q606 309 577 309H536L520 147Q518 128 526 119T550 109Q567
109 575 112T587 115Q595 115 595 103Q595 99 594 85T588 44Q583 16 555 4T500 -8Q466 -8 440 1T397 32Q354 12 312 2T211 -8ZM246 109Q272 109 304 115T371 135Q371 141 373 162T377 212T383 266T388 309H285Q242 309 213 296T170 256T156 193Q156 166 167 148T198
119T246 109Z" />
<glyph unicode="&apos;" horiz-adv-x="183" d="M105 464Q71 464 71 494V667Q71 702 134 702H141Q206 702 197 665L157 494Q150 464 120 464H105Z" />
<glyph unicode="(" horiz-adv-x="301" d="M280 783Q294 783 313 770T332 739Q332 729 325 717Q267 627 231 540T179 367T162 190Q162 108 178 30T233 -142Q236 -149 236 -156Q236 -168 226 -180T201 -200T174 -208Q159 -208 149 -192Q98 -106 72 -6T46 200Q46
300 69 399T139 591T251 767Q264 783 280 783Z" />
<glyph unicode=")" horiz-adv-x="301" d="M122 783Q137 783 147 767Q198 681 224 582T251 378Q251 295 232 199T168 4T46 -192Q33 -208 17 -208Q3 -208 -15 -194T-34 -164Q-34 -154 -27 -143Q30 -51 65 34T117 206T134 388Q134 443 128 493T106 598T63 717Q62
721 61 724T59 731Q59 744 69 755T95 775T122 783Z" />
<glyph unicode="*" horiz-adv-x="373" d="M117 411Q107 411 97 420T86 439Q86 449 97 460L161 539L89 563Q70 569 70 585Q70 596 77 609T101 623Q104 623 107 623T115 621L189 596L198 678Q201 708 231 708Q248 708 253 701T258 678L249 596L327 621Q331 622 334
622T340 623Q349 623 357 615T365 592Q365 570 341 563L262 539L311 460Q317 451 317 443Q317 434 305 423T281 411Q268 411 259 426L209 509L141 426Q129 411 117 411Z" />
<glyph unicode="+" horiz-adv-x="560" d="M247 0Q219 0 209 7T200 32L216 182H59Q45 182 40 193T37 228L39 249Q41 270 49 279T71 289H227L243 443Q245 459 257 466T296 473H310Q338 473 348 466T357 441L341 289H496Q510 289 515 279T518 247L516 226Q514 202
506 192T484 182H330L314 30Q311 0 261 0H247Z" />
<glyph unicode="," horiz-adv-x="198" d="M21 -125Q8 -125 -6 -121T-21 -105Q-21 -99 -19 -93T-13 -79Q-2 -55 17 -12T45 110Q47 130 62 142T109 154H128Q158 154 171 143T184 114Q184 89 172 57T141 -7T99 -65T56 -108T21 -125Z" />
<glyph unicode="-" horiz-adv-x="320" d="M50 212Q36 212 31 223T28 258L30 279Q32 300 40 309T62 319H271Q285 319 290 309T293 277L291 256Q289 232 281 222T259 212H50Z" />
<glyph unicode="." horiz-adv-x="198" d="M104 154Q136 154 148 146T160 122L151 30Q148 -2 87 -2H55Q21 -2 10 6T-1 30L8 122Q11 154 72 154H104Z" />
<glyph unicode="/" horiz-adv-x="422" d="M13 -79Q-13 -79 -23 -75T-34 -63Q-34 -61 -31 -55T-24 -41L341 677Q349 691 364 696T403 702H416Q444 702 455 698T467 686Q467 682 458 664L92 -54Q84 -70 69 -74T31 -79H13Z" />
<glyph unicode="0" horiz-adv-x="535" d="M240 -8Q175 -8 130 25T60 120T36 271Q36 373 57 454T115 591T204 678T315 708Q380 708 425 675T495 579T519 426Q519 325 498 245T439 108T351 22T240 -8ZM252 109Q275 109 296 130T333 193T360 297T370 441Q370 491
363 524T340 574T303 591Q280 591 259 570T221 506T195 401T185 256Q185 208 192 175T215 126T252 109Z" />
<glyph unicode="1" horiz-adv-x="535" d="M59 0Q43 0 37 12T33 50L35 67Q41 117 71 117H203L250 566L120 547Q99 544 94 564T88 605Q88 628 92 641T118 658L371 704Q384 704 398 696T410 675L351 117H457Q474 117 480 105T483 67L481 50Q475 0 445 0H59Z" />
<glyph unicode="2" horiz-adv-x="535" d="M44 0Q37 0 31 15T20 50T16 85Q16 97 19 103L305 413Q325 434 339 463T353 518Q353 554 330 572T268 590Q233 590 210 580T171 558T147 547Q125 547 111 569T97 611Q97 636 117 654T168 684T234 702T298 708Q362 708 408
685T479 623T504 537Q504 500 493 468T454 396T378 302L206 117H445Q476 117 470 67L468 50Q462 0 433 0H44Z" />
<glyph unicode="3" horiz-adv-x="535" d="M224 -8Q205 -8 176 -6T118 3T70 25T50 65Q50 91 58 105T76 126T94 133Q102 133 113 127T148 115T213 109Q237 109 257 116T292 139T315 175T323 224Q323 265 298 287T216 309H185Q155 309 161 359L163 376Q166 402 174
414T198 426H219Q246 426 267 433T302 452T324 483T332 522Q332 543 324 558T300 581T259 590Q221 590 198 583T160 567T137 559Q127 559 118 571T102 601T95 632Q95 652 112 666T158 689T224 703T297 708Q385 708 435 667T485 554Q485 495 455 451T375 387V383Q409
370 430 348T462 296T473 231Q473 175 454 131T401 56T322 9T224 -8Z" />
<glyph unicode="4" horiz-adv-x="535" d="M331 -2Q299 -2 287 6T274 30L286 142H24Q16 142 10 157T1 193T-3 228Q-3 233 -2 239T0 246L342 683Q352 696 367 699T405 702H432Q464 702 477 694T489 670L446 259H487Q503 259 508 247T511 209L509 192Q506 166 498
154T474 142H434L422 30Q421 14 406 6T359 -2H331ZM148 259H298L308 356Q312 393 318 429T333 503L329 504L148 259Z" />
<glyph unicode="5" horiz-adv-x="535" d="M198 -8Q180 -8 153 -6T100 2T55 21T37 55Q37 91 40 111T50 140T61 149Q68 149 84 139T131 119T210 109Q265 109 296 142T328 233Q328 276 302 299T214 323H105Q87 323 78 330T72 362L122 660Q126 681 136 690T169 700H466Q482
700 487 688T490 650L488 633Q485 607 477 595T453 583H249L224 440H250Q302 440 344 431T417 401T463 344T480 255Q480 180 455 130T388 49T297 5T198 -8Z" />
<glyph unicode="6" horiz-adv-x="535" d="M238 -8Q186 -8 138 13T58 81T27 209Q27 306 54 380T124 509T216 601T311 661T389 694T431 704Q447 704 455 690T468 657T472 627Q472 613 469 608T457 600Q379 574 315 524T219 403Q250 419 275 423T322 428Q348 428
378 419T436 389T481 333T499 246Q499 177 475 129T413 50T328 6T238 -8ZM251 109Q277 109 299 124T334 167T348 229Q348 255 339 273T311 301T267 311Q247 311 226 305T185 287Q182 268 180 248T177 209Q177 172 187 150T213 119T251 109Z" />
<glyph unicode="7" horiz-adv-x="535" d="M107 -2Q88 -2 70 0T51 17Q51 25 58 36L363 583H98Q82 583 77 595T74 633L76 650Q79 676 87 688T111 700H500Q510 700 517 687T527 655T531 620Q531 603 526 593L209 18Q202 6 187 2T149 -2H107Z" />
<glyph unicode="8" horiz-adv-x="535" d="M248 -8Q168 -8 118 17T44 83T21 174Q21 215 34 255T74 327T142 375Q115 395 99 425T82 501Q82 553 108 600T186 678T318 708Q381 708 424 687T490 629T513 547Q513 501 498 470T460 419T409 385Q436 372 456 351T489
298T501 221Q501 185 489 145T447 71T369 14T248 -8ZM258 109Q281 109 302 121T336 155T350 207Q350 240 338 261T301 296T240 326Q211 307 192 277T172 198Q172 158 194 134T258 109ZM303 432Q334 450 350 474T367 527Q367 557 348 574T301 591Q274 591 252 573T229
518Q229 495 239 479T265 452T303 432Z" />
<glyph unicode="9" horiz-adv-x="535" d="M118 -4Q103 -4 94 10T81 43T77 73Q77 87 80 92T92 100Q170 126 234 176T330 297Q299 281 274 277T227 272Q201 272 171 281T113 311T68 367T50 454Q50 523 74 571T136 650T221 694T311 708Q363 708 411 687T491 619T522
491Q522 395 495 321T425 191T333 99T238 39T160 6T118 -4ZM282 389Q302 389 323 396T364 413Q367 433 369 453T372 491Q372 528 363 550T336 581T298 591Q272 591 250 576T215 533T201 471Q201 446 210 428T238 399T282 389Z" />
<glyph unicode=":" horiz-adv-x="198" d="M141 525Q173 525 185 517T198 493L188 401Q185 369 125 369H93Q61 369 49 377T36 401L46 493Q49 525 109 525H141ZM102 154Q134 154 146 146T159 122L149 30Q146 -2 86 -2H54Q22 -2 10 6T-2 30L7 122Q10 154 70 154H102Z" />
<glyph unicode=";" horiz-adv-x="198" d="M147 525Q179 525 191 517T204 493L194 401Q191 369 131 369H99Q67 369 55 377T42 401L52 493Q54 525 115 525H147ZM1 -125Q-12 -125 -26 -121T-41 -105Q-41 -99 -39 -93T-33 -79Q-22 -55 -3 -12T25 110Q27 130 42 142T89
154H108Q138 154 151 143T164 114Q164 89 152 57T121 -7T79 -65T36 -108T1 -125Z" />
<glyph unicode="&lt;" horiz-adv-x="560" d="M471 13Q462 13 444 21L68 190Q50 198 43 207T37 237L38 250Q40 272 47 281T67 295L509 476Q517 478 520 478Q538 478 535 437L533 415Q531 387 524 372T497 350L192 244L464 137Q484 129 492 116T497 77L494 55Q492
36 487 25T471 13Z" />
<glyph unicode="=" horiz-adv-x="560" d="M68 267Q54 267 49 278T46 313L48 334Q50 355 58 364T80 374H505Q519 374 524 364T527 332L525 311Q523 287 515 277T493 267H68ZM49 87Q35 87 30 98T27 133L29 154Q31 175 39 184T61 194H486Q500 194 505 184T508 152L506
131Q504 107 496 97T474 87H49Z" />
<glyph unicode="&gt;" horiz-adv-x="560" d="M38 14Q26 14 22 27T18 63Q18 91 24 112T52 141L354 247L87 346Q68 354 62 372T55 416Q55 447 62 462T82 478Q87 478 95 475T111 469L493 296Q505 291 511 283T517 259L516 239Q515 218 507 209T482 192L62 20Q55 17
49 16T38 14Z" />
<glyph unicode="?" horiz-adv-x="445" d="M161 222Q133 222 124 228T115 251Q115 301 145 340T211 413Q245 444 271 472T298 528Q298 576 230 576Q201 576 178 569T138 553T115 545Q102 545 89 560T68 594T60 625Q60 648 79 663T129 689T194 703T257 708Q320 708
364 689T432 636T456 552Q456 501 438 465T390 402T331 352Q300 327 275 304T240 249Q233 233 221 228T184 222H161ZM132 -2Q98 -2 87 6T76 30L85 122Q88 154 149 154H181Q213 154 225 146T237 122L228 30Q225 -2 164 -2H132Z" />
<glyph unicode="@" horiz-adv-x="974" d="M410 -123Q313 -123 240 -77T125 50T84 240Q84 339 118 424T214 572T357 672T534 708Q635 708 709 668T825 554T867 383Q867 315 849 256T800 153T726 83T634 58Q582 58 556 78T520 122Q504 94 475 76T407 58Q377 58 352
69T309 104T282 161T272 239Q272 320 295 380T361 474T457 508Q493 508 519 492T559 463Q564 484 573 493T611 503H623Q649 503 659 496T670 477Q670 476 668 455T662 402T655 332T647 262T641 205T639 177Q639 165 643 157T654 145T674 141Q700 141 723 160T765
212T793 290T803 383Q803 465 770 525T676 620T534 654Q453 654 383 623T260 534T178 402T148 240Q148 148 181 79T273 -30T410 -69Q459 -69 489 -61T536 -46T559 -38Q565 -38 565 -50Q565 -51 565 -59T562 -76Q559 -91 540 -100T496 -115T446 -121T410 -123ZM454
159Q468 159 479 165T501 183T519 207Q521 237 523 267T530 327T540 387Q530 397 517 403T486 410Q458 410 438 392T408 337T397 247Q397 204 411 182T454 159Z" />
<glyph unicode="A" horiz-adv-x="613" d="M33 -2Q-25 -2 -25 18Q-25 26 -19 38L267 681Q272 693 288 697T326 702H378Q400 702 415 698T433 681L585 38Q586 36 587 30T588 21Q588 11 574 5T534 -2H490Q468 -2 454 2T436 19L407 141H176L121 19Q116 8 104 3T73
-2H33ZM232 273H377L342 451Q338 467 337 483T334 515H330Q326 499 321 483T308 451L232 273Z" />
<glyph unicode="B" horiz-adv-x="593" d="M85 0Q65 0 57 7T49 32L114 660Q118 700 158 700H356Q473 700 524 658T575 546Q575 502 559 468T514 410T450 371V367Q477 361 499 348T536 314T560 270T569 220Q569 115 501 58T297 0H85ZM212 131H310Q363 131 387 154T411
221Q411 256 386 273T311 290H229L212 131ZM243 421H312Q361 421 387 442T413 507Q413 570 330 570H259L243 421Z" />
<glyph unicode="C" horiz-adv-x="619" d="M336 -8Q187 -8 114 61T41 276Q41 487 137 597T417 708Q448 708 482 704T547 691T596 670Q607 663 612 656T618 640Q618 629 610 613T589 581T565 555T543 544Q537 544 522 552T477 568T400 576Q304 576 252 505T200 299Q200
212 237 168T350 123Q398 123 432 133T489 153T518 163Q534 163 545 146T562 109T568 78Q568 65 557 52T529 30Q506 18 472 10T402 -3T336 -8Z" />
<glyph unicode="D" horiz-adv-x="695" d="M91 0Q71 0 63 9T56 43L120 660Q124 700 164 700H388Q482 700 545 667T642 569T675 411Q675 312 650 235T577 106T464 27T315 0H91ZM219 131H328Q371 131 405 148T465 199T503 283T516 397Q516 453 501 491T454 549T375
569H266L219 131Z" />
<glyph unicode="E" horiz-adv-x="546" d="M76 0Q56 0 48 7T41 37L105 660Q109 700 149 700H514Q530 700 536 687T540 640L539 629Q536 595 526 582T500 569H251L235 424H458Q474 424 480 411T484 364L483 353Q480 319 470 306T444 293H222L204 131H456Q472 131
478 118T482 71L481 60Q478 26 468 13T442 0H76Z" />
<glyph unicode="F" horiz-adv-x="503" d="M99 -2Q91 -2 77 0T52 9T42 32L108 660Q112 700 152 700H487Q503 700 509 687T513 640L512 629Q509 595 499 582T473 569H254L236 403H449Q465 403 471 390T475 343L474 332Q471 298 461 285T435 272H223L197 30Q194 -2
134 -2H99Z" />
<glyph unicode="G" horiz-adv-x="672" d="M336 -8Q186 -8 114 61T41 276Q41 421 84 516T212 660T416 708Q448 708 483 703T550 689T600 668T619 640Q619 630 611 614T591 582T566 555T544 544Q538 544 522 552T477 568T399 576Q303 576 252 507T200 298Q200 241
216 202T266 143T350 123Q371 123 389 124T428 130L442 258H355Q339 258 333 271T329 318L330 329Q333 363 343 376T369 389H571Q591 389 600 382T607 353L577 71Q574 45 547 30T480 6T402 -5T336 -8Z" />
<glyph unicode="H" horiz-adv-x="733" d="M110 -2Q102 -2 88 0T63 9T54 34L120 670Q123 702 183 702H218Q227 702 241 701T266 693T275 671L249 423H519L545 670Q548 702 608 702H643Q652 702 666 701T691 693T700 671L633 30Q630 -2 570 -2H535Q527 -2 513 0T488
9T478 34L505 291H235L208 30Q205 -2 145 -2H110Z" />
<glyph unicode="I" horiz-adv-x="283" d="M97 -2Q89 -2 75 -1T51 7T40 29L107 670Q110 702 170 702H205Q214 702 227 701T251 693T262 671L195 30Q192 -2 132 -2H97Z" />
<glyph unicode="J" horiz-adv-x="402" d="M79 -8Q59 -8 37 -5T-1 7T-17 35Q-17 78 -14 98T-5 125T3 132Q14 132 23 128T66 123Q111 123 133 147T161 227L208 670Q211 702 271 702H306Q315 702 329 701T354 693T363 671L313 202Q303 107 247 50T79 -8Z" />
<glyph unicode="K" horiz-adv-x="576" d="M92 -2Q60 -2 48 6T35 30L102 670Q105 702 165 702H200Q232 702 244 694T257 670L229 402L233 401L436 683Q444 694 460 698T498 702H545Q600 702 600 688Q600 679 590 666L366 370L549 34Q552 28 553 24T555 16Q555 8
543 3T498 -2H440Q416 -2 401 2T381 17L224 321L220 320L190 30Q187 -2 127 -2H92Z" />
<glyph unicode="L" horiz-adv-x="484" d="M72 0Q52 0 43 7T36 34L103 670Q106 702 166 702H201Q210 702 224 701T249 693T258 671L201 131H424Q440 131 446 118T450 71L449 60Q446 26 436 13T410 0H72Z" />
<glyph unicode="M" horiz-adv-x="843" d="M102 -2Q70 -2 57 7T46 35L112 670Q115 702 175 702H227Q249 702 265 696T288 675L416 395Q421 385 425 373T431 352Q433 360 439 372T452 394L642 675Q652 690 668 696T707 702H760Q792 702 805 694T817 670L750 30Q747
-2 687 -2H658Q626 -2 613 7T602 35L639 397Q641 409 642 420T644 444L640 445Q634 437 629 428T617 411L468 186Q456 167 426 167H397Q368 167 357 190L258 408Q254 419 250 430T240 452L236 451Q235 440 235 428T233 404L194 30Q191 -2 131 -2H102Z" />
<glyph unicode="N" horiz-adv-x="719" d="M102 -2Q70 -2 58 6T45 30L112 670Q115 702 175 702H218Q240 702 256 697T282 675L473 323Q483 305 489 293T498 275T501 265L508 267Q507 287 508 315T513 378L544 670Q547 702 607 702H636Q668 702 680 694T693 670L626
30Q623 -2 563 -2H525Q503 -2 487 3T461 25L262 388Q249 414 244 424T236 441L229 438Q231 422 231 402T227 355L194 30Q191 -2 131 -2H102Z" />
<glyph unicode="O" horiz-adv-x="731" d="M352 -8Q210 -8 131 71T51 311Q51 384 67 454T122 582T230 674T403 708Q492 708 558 673T662 564T699 378Q699 261 660 174T544 40T352 -8ZM361 123Q447 123 494 190T541 370Q541 475 501 525T389 576Q302 576 256 509T210
329Q210 222 250 173T361 123Z" />
<glyph unicode="P" horiz-adv-x="570" d="M91 -2Q59 -2 46 6T35 33L100 660Q104 700 144 700H341Q453 700 515 650T578 501Q578 391 516 327T335 262H212L188 30Q187 14 172 6T125 -2H91ZM226 394H332Q375 394 397 420T419 486Q419 527 394 548T321 569H245L226 394Z" />
<glyph unicode="Q" horiz-adv-x="731" d="M635 -162Q632 -162 607 -152T540 -125T447 -86T341 -40T235 7Q136 52 94 126T51 311Q51 384 69 454T129 582T238 674T403 708Q543 708 621 628T699 378Q699 239 647 148T497 27L496 23L647 -27Q664 -32 664 -54Q664 -104
659 -127T648 -156T635 -162ZM361 123Q447 123 494 190T541 370Q541 475 501 525T389 576Q302 576 256 509T210 329Q210 258 228 212T280 145T361 123Z" />
<glyph unicode="R" horiz-adv-x="610" d="M106 -2Q74 -2 61 6T50 33L115 660Q119 700 159 700H355Q462 700 522 651T583 511Q583 466 566 428T518 364T450 333V329Q472 322 489 297T519 230L577 37Q580 25 580 18Q579 9 564 4T518 -2H477Q455 -2 440 2T421 19L362
214Q355 238 346 251T320 269T278 274H229L203 30Q200 -2 140 -2H106ZM243 407L345 406Q387 405 408 428T430 486Q430 527 408 548T348 569H260L243 407Z" />
<glyph unicode="S" horiz-adv-x="500" d="M218 -8Q194 -8 162 -4T98 9T47 33Q37 41 32 52T26 90Q26 127 30 144T40 167T52 173Q58 173 70 166T101 149Q121 139 147 131T206 123Q228 123 251 129T290 152T307 200Q307 223 293 239T255 269T204 296Q168 314 133
335T73 391T49 478Q49 544 72 588T133 659T217 696T309 708Q365 708 405 697T465 668Q482 654 482 640Q482 627 471 606T445 568T418 551Q414 551 408 554T391 561Q378 566 358 571T309 576Q266 576 245 565T217 539T210 513Q210 489 224 473T261 445T313 420Q358
400 393 373T448 310T468 228Q468 158 445 112T385 40T304 3T218 -8Z" />
<glyph unicode="T" horiz-adv-x="549" d="M230 -2Q222 -2 208 0T183 10T174 35L230 569H72Q56 569 50 582T46 629L47 640Q50 674 60 687T86 700H556Q572 700 578 687T582 640L581 629Q578 595 568 582T542 569H385L328 30Q325 -2 265 -2H230Z" />
<glyph unicode="U" horiz-adv-x="712" d="M328 -8Q194 -8 124 51T64 221L109 670Q112 702 173 702H207Q239 702 252 694T263 670L219 239Q214 185 244 154T342 123Q410 123 448 153T492 244L536 670Q539 702 600 702H633Q665 702 678 694T689 670L644 234Q632
119 549 56T328 -8Z" />
<glyph unicode="V" horiz-adv-x="617" d="M256 -2Q234 -2 220 2T202 19L52 668Q44 702 114 702H148Q170 702 185 696T204 673L285 280Q291 252 295 224T300 181H304Q310 203 319 230T336 276L504 673Q511 689 528 695T566 702H596Q613 702 633 699T653 678Q653
670 649 662L366 19Q361 7 346 3T308 -2H256Z" />
<glyph unicode="W" horiz-adv-x="882" d="M184 -2Q160 -2 147 3T131 21L39 667Q37 684 53 693T104 702H130Q159 702 175 695T194 671L235 349Q240 300 244 251T249 178H253Q260 209 273 257T300 349L417 681Q422 693 436 697T474 702H512Q536 702 550 698T565
681L609 349Q614 309 618 261T625 178H629Q638 213 651 262T677 349L789 671Q794 687 812 694T859 702H870Q902 702 917 694T928 670L696 19Q692 9 676 4T639 -2H566Q544 -2 530 3T513 19L470 346Q468 367 467 387T464 425T462 453H458Q452 430 443 398T426 343L313
19Q309 9 293 4T256 -2H184Z" />
<glyph unicode="X" horiz-adv-x="611" d="M44 -2Q25 -2 5 0T-15 18Q-15 28 -4 42L238 368L83 658Q80 664 79 669T77 678Q77 695 97 698T141 702H172Q194 702 209 698T230 683L330 488L469 683Q478 696 494 699T532 702H576Q594 702 614 700T635 682Q635 678 633
672T625 658L402 360L571 42Q574 37 575 32T576 23Q576 6 556 2T513 -2H484Q458 -2 445 2T426 17L305 240L149 17Q139 4 124 1T86 -2H44Z" />
<glyph unicode="Y" horiz-adv-x="559" d="M235 -2Q203 -2 191 6T178 30L210 336L45 657Q39 669 39 678Q39 695 59 698T103 702H146Q168 702 183 698T204 683L304 469L449 683Q457 694 473 698T511 702H547Q559 702 573 701T597 696T608 682Q608 678 605 672T597
657L364 333L332 30Q329 -2 269 -2H235Z" />
<glyph unicode="Z" horiz-adv-x="616" d="M53 0Q41 0 33 16T21 52T16 87Q16 93 18 98T23 107L400 569H122Q106 569 100 582T96 629L97 640Q100 674 110 687T136 700H587Q597 700 604 684T615 648T619 613Q619 601 612 593L234 131H539Q555 131 561 118T565 71L564
60Q561 26 551 13T525 0H53Z" />
<glyph unicode="[" horiz-adv-x="291" d="M58 -138Q38 -138 30 -131T22 -106L109 728Q113 768 153 768H285Q299 768 303 759T306 727L305 712Q304 690 296 682T274 673H218L143 -43H201Q214 -43 218 -52T221 -84L220 -98Q219 -120 212 -129T191 -138H58Z" />
<glyph unicode="\" horiz-adv-x="422" d="M319 -79Q296 -79 283 -75T264 -54L50 664Q47 675 46 679T45 686Q45 694 58 698T100 702H113Q136 702 150 697T169 677L382 -41Q384 -48 386 -54T388 -63Q388 -70 376 -74T337 -79H319Z" />
<glyph unicode="]" horiz-adv-x="291" d="M31 -138Q18 -138 14 -129T10 -97L11 -82Q13 -60 20 -52T42 -43H98L173 673H115Q102 673 98 682T95 714L96 728Q98 750 105 759T125 768H258Q278 768 287 761T294 736L207 -98Q203 -138 163 -138H31Z" />
<glyph unicode="^" horiz-adv-x="450" d="M82 318Q56 318 47 321T37 332Q37 335 38 340T46 356L204 656Q219 686 249 686H280Q294 686 304 679T319 656L413 357Q417 346 417 341T418 333Q418 326 406 322T370 318H363Q342 318 331 324T314 346L233 616L281 615L142
348Q134 332 124 325T93 318H82Z" />
<glyph unicode="_" horiz-adv-x="534" d="M-35 -143Q-48 -143 -53 -133T-57 -94L-56 -82Q-54 -56 -46 -46T-24 -36H496Q509 -36 515 -46T518 -85L517 -94Q514 -122 506 -132T485 -143H-35Z" />
<glyph unicode="`" horiz-adv-x="191" d="M183 572Q160 572 143 579T112 602L81 641Q59 668 53 679T46 698Q46 709 57 713T101 718Q132 718 148 715T172 704T187 679L215 615Q220 605 222 599T225 587Q225 579 217 576T183 572Z" />
<glyph unicode="a" horiz-adv-x="545" d="M186 -9Q150 -9 120 5T69 46T36 114T24 208Q24 304 52 376T130 489T246 530Q289 530 320 511T367 477Q373 495 378 505T395 519T432 524H444Q474 524 488 517T501 494L466 147Q464 126 471 118T495 109Q506 109 513 112T524
115Q532 115 532 103Q532 99 531 85T525 44Q520 16 492 4T437 -8Q391 -8 362 10T322 68Q301 35 266 13T186 -9ZM242 112Q258 112 272 120T298 141T320 170L334 305Q337 336 339 353T346 386Q333 397 317 405T280 413Q247 413 223 391T187 325T174 217Q174 183 181
160T204 124T242 112Z" />
<glyph unicode="b" horiz-adv-x="569" d="M282 -8Q239 -8 209 10T161 44Q156 27 151 17T133 3T96 -2H84Q54 -2 40 5T26 26L100 722Q103 754 163 754H191Q221 754 234 745T248 723L221 474Q243 500 274 515T342 531Q383 531 416 517T474 476T511 408T524 314Q524
218 494 146T409 33T282 -8ZM248 109Q278 109 301 121T340 159T365 220T374 305Q374 341 365 364T336 399T286 410Q270 410 257 403T231 382T209 354L195 223Q193 201 190 179T183 135Q195 125 211 117T248 109Z" />
<glyph unicode="c" horiz-adv-x="485" d="M260 -8Q145 -8 89 45T33 205Q33 364 107 447T322 531Q352 531 386 524T446 502T471 465Q471 455 459 436T433 401T409 385Q408 385 405 386T390 393Q379 399 362 406T317 414Q253 414 220 365T186 221Q186 165 208 137T279
109Q310 109 331 117T370 132Q376 134 380 136T388 138Q399 138 409 125T425 94T432 65Q432 43 410 29T358 7T300 -4T260 -8Z" />
<glyph unicode="d" horiz-adv-x="565" d="M198 -8Q159 -8 128 6T74 47T39 115T26 209Q26 305 55 377T137 490T258 531Q293 531 320 518T365 490L390 722Q393 754 453 754H481Q511 754 525 744T538 720L478 147Q476 126 483 118T507 109Q518 109 525 112T536 115Q544
115 544 103Q544 99 543 85T537 44Q532 16 504 4T449 -8Q403 -8 374 10T334 69Q313 35 278 14T198 -8ZM254 113Q271 113 285 121T311 142T333 172L355 390Q343 400 328 407T292 414Q265 414 244 402T207 364T184 303T176 218Q176 166 195 140T254 113Z" />
<glyph unicode="e" horiz-adv-x="539" d="M308 531Q369 531 407 516T466 478T494 431T502 386Q502 336 483 301T432 245T362 213T287 203Q240 203 209 207T148 216L183 266V225Q183 178 196 153T233 118T288 109Q328 109 361 120T416 142T443 153Q446 153 448
151T451 139Q451 121 449 98T443 62Q437 41 417 28T371 7T317 -4T269 -8Q208 -8 164 7T90 51T47 120T33 212Q33 328 71 398T171 499T308 531ZM298 414Q252 414 227 382T190 302H238Q266 302 286 306T321 316T343 331T354 349T358 367Q358 392 341 403T298 414Z"
/>
<glyph unicode="f" horiz-adv-x="325" d="M98 -2Q68 -2 55 7T41 29L80 406H60Q28 406 34 456L36 473Q42 523 72 523H93L100 598Q105 649 125 685T181 741T263 760Q287 760 309 757T345 743T359 714Q359 706 354 688T340 654T322 638Q316 638 310 640T289 643Q270
643 261 633T249 600L240 523H286Q317 523 311 473L309 456Q303 406 274 406H228L189 30Q186 -2 126 -2H98Z" />
<glyph unicode="g" horiz-adv-x="546" d="M223 -212Q172 -212 130 -203T63 -178T38 -141Q38 -90 44 -72T58 -54Q64 -54 81 -64T126 -84T193 -95Q251 -95 284 -62T323 33L333 130L349 98Q330 61 292 33T204 4Q165 4 134 17T80 57T45 123T32 213Q32 308 61 379T143
491T264 531Q306 531 337 513T384 479Q390 497 395 506T412 520T449 525H461Q491 525 505 519T519 500L478 93Q468 -8 438 -76T354 -178T223 -212ZM260 125Q276 125 290 133T316 154T338 183L351 300Q354 325 356 347T363 388Q350 399 334 406T298 414Q271 414
250 402T213 365T190 305T182 222Q182 190 190 169T216 136T260 125Z" />
<glyph unicode="h" horiz-adv-x="565" d="M442 -8Q384 -8 350 23T322 129L343 349Q346 381 333 395T290 409Q271 409 255 401T227 379T204 352L170 30Q167 -2 107 -2H79Q49 -2 35 7T22 29L95 722Q98 754 158 754H186Q216 754 230 745T243 723L216 463Q242 490
281 510T363 531Q430 531 465 498T493 384L471 147Q469 126 476 118T500 109Q511 109 518 112T529 115Q537 115 537 103Q537 99 536 85T530 44Q525 16 497 4T442 -8Z" />
<glyph unicode="i" horiz-adv-x="265" d="M150 -8Q92 -8 58 24T31 139L67 493Q70 525 130 525H158Q188 525 202 516T215 494L179 147Q177 126 184 118T208 109Q219 109 226 112T237 115Q245 115 245 103Q245 99 244 85T238 44Q233 16 205 4T150 -8ZM150 574Q111
574 95 582T79 606L87 684Q89 700 107 708T165 716Q203 716 220 708T235 684L227 606Q224 574 150 574Z" />
<glyph unicode="j" horiz-adv-x="276" d="M9 -212Q-6 -212 -24 -210T-55 -200T-69 -173Q-69 -126 -64 -108T-51 -90Q-47 -90 -39 -92T-16 -95Q3 -95 12 -85T24 -52L81 493Q84 525 144 525H172Q202 525 215 516T229 494L172 -50Q167 -101 147 -137T92 -192T9 -212ZM164
574Q125 574 109 582T93 606L101 684Q103 700 121 708T179 716Q217 716 234 708T249 684L241 606Q238 574 164 574Z" />
<glyph unicode="k" horiz-adv-x="521" d="M82 -2Q50 -2 38 6T25 30L98 722Q101 754 161 754H189Q221 754 233 746T246 722L204 326L208 325L348 506Q358 519 373 522T411 525H448Q503 525 503 511Q503 504 491 490L332 292L468 34Q473 24 473 16Q473 8 461 3T415
-2H373Q351 -2 336 2T315 17L200 247L196 246L173 30Q170 -2 110 -2H82Z" />
<glyph unicode="l" horiz-adv-x="297" d="M154 -8Q96 -8 62 24T35 139L96 725Q98 740 109 747T148 755H196Q223 755 233 748T243 728L183 147Q181 126 188 118T212 109Q223 109 230 112T241 115Q249 115 249 103Q249 99 248 85T242 44Q237 16 209 4T154 -8Z" />
<glyph unicode="m" horiz-adv-x="848" d="M732 -8Q674 -8 640 24T613 139L633 349Q636 381 623 395T580 409Q554 409 533 393T497 357T476 320L500 419L463 30Q460 -2 400 -2H372Q342 -2 328 8T315 31L347 349Q350 381 337 395T294 409Q275 409 259 401T231 379T208
351L176 30Q173 -2 113 -2H85Q55 -2 41 8T28 31Q32 71 37 117T47 212T56 303T63 379T66 428Q66 446 65 459T64 484Q64 495 79 503T121 515T180 520Q194 520 201 508T210 476T213 439Q213 425 212 414T210 397L193 424Q204 449 231 473T294 514T367 531Q419 531
450 512T493 454Q516 483 560 507T653 531Q720 531 755 498T783 384L761 147Q759 126 766 118T790 109Q801 109 808 112T819 115Q827 115 827 103Q827 99 826 85T820 44Q815 16 787 4T732 -8Z" />
<glyph unicode="n" horiz-adv-x="557" d="M444 -8Q386 -8 352 24T325 139L345 349Q348 381 335 395T292 409Q273 409 256 400T226 376T204 348L172 30Q169 -2 109 -2H81Q51 -2 37 7T24 29L58 362Q60 379 61 398T62 428Q62 446 61 459T60 484Q60 495 75 503T117
515T176 520Q196 520 202 496T209 443Q209 429 208 416T206 395L190 423Q200 447 226 472T290 514T365 531Q432 531 467 498T495 384L473 147Q471 126 478 118T502 109Q513 109 520 112T531 115Q539 115 539 103Q539 99 538 85T532 44Q527 16 499 4T444 -8Z" />
<glyph unicode="o" horiz-adv-x="569" d="M261 -8Q154 -8 97 51T39 216Q39 277 52 333T95 434T178 505T308 531Q415 531 472 472T530 306Q530 152 459 72T261 -8ZM273 109Q379 109 379 299Q379 354 358 384T296 414Q244 414 217 367T189 223Q189 169 211 139T273 109Z" />
<glyph unicode="p" horiz-adv-x="573" d="M68 -206Q38 -206 25 -197T11 -175L67 357Q69 379 70 397T71 428Q71 446 70 459T69 484Q69 495 84 503T126 515T185 520Q198 520 205 511T214 487T217 458Q217 445 216 431T212 404L198 423Q213 465 253 498T348 531Q388
531 420 517T476 476T512 408T525 314Q525 218 495 146T412 33T288 -8Q253 -8 226 5T181 32L159 -174Q156 -206 96 -206H68ZM254 109Q283 109 305 121T343 159T367 220T375 305Q375 340 366 363T338 398T292 410Q275 410 261 402T234 380T212 349L191 132Q203 122
219 116T254 109Z" />
<glyph unicode="q" horiz-adv-x="566" d="M362 -206Q332 -206 319 -197T305 -175L328 49Q306 24 276 8T208 -8Q168 -8 136 6T80 47T44 115T31 209Q31 305 61 377T144 490T268 531Q311 531 342 513T389 479Q395 497 400 506T417 520T454 525H466Q496 525 510 519T524
500L453 -174Q450 -206 390 -206H362ZM264 113Q280 113 294 121T319 141T341 169L355 300Q359 330 367 374T386 455L392 362Q384 372 372 384T342 405T302 414Q274 414 252 402T213 364T189 303T181 218Q181 184 190 161T218 125T264 113Z" />
<glyph unicode="r" horiz-adv-x="366" d="M84 -2Q54 -2 40 8T27 34L61 357Q64 387 65 408T66 442Q66 460 65 469T64 486Q66 505 91 512T173 520Q195 520 203 501T212 457Q231 484 258 507T328 531Q350 531 360 523T372 504T375 485Q375 469 368 447T352 409T335
392Q328 392 320 396T294 401Q271 401 248 388T207 350L175 32Q172 -2 112 -2H84Z" />
<glyph unicode="s" horiz-adv-x="413" d="M166 -8Q147 -8 122 -4T75 10T37 33T22 67Q22 109 29 126T44 143Q52 143 66 135T103 118T154 109Q187 109 203 118T220 149Q220 167 208 178T177 199T137 218Q104 234 83 253T52 298T42 354Q42 414 68 453T139 511T240
531Q261 531 286 528T334 519T371 500T386 470Q386 461 377 443T356 410T333 395Q323 395 306 405T251 415Q224 415 209 406T194 378Q194 359 205 348T236 328T276 311Q300 301 322 283T358 238T372 178Q372 117 346 76T273 13T166 -8Z" />
<glyph unicode="t" horiz-adv-x="342" d="M186 -8Q156 -8 131 0T88 26T62 73T58 145L85 406H62Q30 406 36 456L38 473Q44 523 74 523H99L118 614Q122 633 136 641T177 650H199Q229 650 242 640T253 611L245 523H291Q307 523 313 511T316 473L314 456Q308 406 279
406H233L206 147Q204 128 212 119T237 109Q253 109 261 112T273 115Q281 115 281 103Q281 99 280 85T274 44Q269 16 241 4T186 -8Z" />
<glyph unicode="u" horiz-adv-x="557" d="M160 -8Q93 -8 58 25T30 139L65 493Q68 525 128 525H156Q186 525 200 516T213 494L180 173Q177 142 190 128T233 114Q252 114 268 122T297 143T319 168L353 493Q356 525 416 525H444Q474 525 488 516T501 494L465 147Q463
126 470 118T494 109Q505 109 512 112T523 115Q531 115 531 103Q531 99 530 85T524 44Q519 16 491 4T436 -8Q378 -8 347 21T316 118L341 102Q328 77 301 52T237 9T160 -8Z" />
<glyph unicode="v" horiz-adv-x="485" d="M200 -2Q178 -2 164 3T146 22L35 495Q28 525 97 525H128Q148 525 164 521T182 504L213 358Q223 312 229 264T237 178H241Q252 219 266 267T300 362L360 504Q365 516 380 520T418 525H445Q462 525 482 522T502 502Q502
494 498 485L290 19Q285 7 270 3T232 -2H200Z" />
<glyph unicode="w" horiz-adv-x="747" d="M177 -2Q152 -2 139 3T123 21L46 495Q42 525 105 525H135Q160 525 173 520T188 502L215 325Q223 273 227 235T232 176H236Q242 204 253 241T279 322L342 502Q347 514 359 519T397 525H424Q445 525 461 520T478 500L502
325Q509 279 512 241T516 176H520Q528 211 539 248T564 322L629 495Q636 512 647 518T685 525H700Q729 525 740 519T752 501Q752 495 749 484L582 19Q578 9 562 4T525 -2H476Q452 -2 439 3T423 21L396 197Q391 232 388 266T386 320H382Q380 307 374 283T354 220L283
19Q279 9 264 4T226 -2H177Z" />
<glyph unicode="x" horiz-adv-x="485" d="M32 -2Q21 -2 7 -1T-17 4T-28 18Q-28 26 -16 41L159 265L40 481Q32 494 32 505Q32 519 52 522T96 525H128Q150 525 165 523T187 506L228 426Q239 405 243 393T249 373Q253 382 260 394T280 422L342 506Q352 520 367 522T405
525H434Q452 525 473 523T494 506Q494 497 482 482L313 266L437 42Q444 29 444 20Q444 4 426 1T381 -2H349Q327 -2 312 1T290 17L242 108Q232 126 229 137T223 158Q220 149 214 138T196 111L125 17Q115 4 100 1T62 -2H32Z" />
<glyph unicode="y" horiz-adv-x="481" d="M115 -206Q57 -206 57 -186Q57 -177 63 -167L173 61L177 -141L32 473Q31 481 29 488T27 499Q27 511 39 518T87 525H123Q143 525 158 521T177 504L216 319Q220 302 224 266T232 198H236Q246 230 257 266T276 319L355 504Q360
516 375 520T413 525H437Q468 525 481 520T495 504Q495 497 490 485L190 -185Q185 -197 170 -201T132 -206H115Z" />
<glyph unicode="z" horiz-adv-x="489" d="M37 0Q28 0 21 12T11 42T7 73Q7 88 15 97L272 406H84Q71 406 64 417T60 462V465Q63 497 72 510T96 523H443Q454 523 460 511T469 481T472 450Q472 435 464 426L207 117H414Q428 117 435 106T438 61L437 49Q433 20 424
10T402 0H37Z" />
<glyph unicode="{" horiz-adv-x="274" d="M145 -138Q119 -138 98 -125T66 -88T58 -29L77 172Q80 203 75 220T60 247T42 263Q32 271 24 279T16 303L18 330Q20 346 28 354T52 371Q79 385 92 409T111 484L129 652Q133 686 147 712T185 753T240 768H277Q297 768 302
759T306 728L305 714Q304 690 296 682T271 674H269Q256 674 250 666T242 638L225 468Q221 431 209 401T180 350T141 315Q159 305 171 287T190 244T193 185L175 -8Q173 -30 179 -37T194 -44H196Q213 -44 217 -52T220 -84L219 -98Q218 -119 210 -128T181 -138H145Z"
/>
<glyph unicode="|" horiz-adv-x="250" d="M186 768Q212 768 223 761T233 738L144 -108Q141 -138 91 -138H76Q50 -138 39 -131T29 -108L118 738Q121 768 171 768H186Z" />
<glyph unicode="}" horiz-adv-x="274" d="M2 -138Q-18 -138 -23 -129T-27 -98L-26 -84Q-24 -60 -17 -52T8 -44H10Q23 -44 29 -36T37 -8L54 162Q58 199 69 229T99 281T138 315Q121 326 108 343T89 386T86 445L104 638Q106 660 100 667T85 674H83Q67 674 63 682T59
714L60 728Q62 749 70 758T98 768H134Q161 768 181 755T213 718T221 659L202 458Q198 412 211 394T237 367Q248 360 256 352T263 327L261 300Q260 284 252 276T227 259Q200 246 187 221T168 146L150 -22Q147 -56 133 -82T95 -123T39 -138H2Z" />
<glyph unicode="~" horiz-adv-x="560" d="M96 208Q89 208 76 215T63 231Q63 236 64 242T67 250Q80 289 112 315T194 342Q222 342 256 332T323 311T382 300Q408 300 423 310T447 331T465 341Q473 341 486 333T500 316Q500 312 498 306T493 292Q478 258 451 233T377
208Q344 208 309 218T240 239T180 249Q155 249 139 239T114 219T96 208Z" />
<glyph unicode="&#xa0;" horiz-adv-x="240" />
<glyph unicode="&#xa1;" horiz-adv-x="294" d="M70 -179Q40 -179 25 -171T13 -147L107 269Q111 285 120 293T161 301H172Q204 301 213 294T220 269L176 -147Q173 -179 113 -179H70ZM158 369Q126 369 113 377T101 401L111 493Q114 525 174 525H206Q238 525 251
517T263 493L253 401Q250 369 190 369H158Z" />
<glyph unicode="&#xa2;" horiz-adv-x="470" d="M255 -81Q229 -81 232 -56L297 562Q300 587 326 587H331Q357 587 354 562L289 -56Q286 -81 260 -81H255ZM254 -8Q139 -8 83 45T27 205Q27 364 101 447T316 531Q346 531 380 524T440 502T465 465Q465 455 453 436T427
401T403 385Q402 385 399 386T384 393Q373 399 356 406T311 414Q247 414 214 365T180 221Q180 165 202 137T273 109Q304 109 325 117T364 132Q370 134 374 136T382 138Q393 138 403 125T419 94T426 65Q426 43 404 29T352 7T294 -4T254 -8Z" />
<glyph unicode="&#xa3;" horiz-adv-x="530" d="M68 0Q28 0 32 40L34 59Q35 71 47 81T76 103T106 132T122 175L137 311H97Q81 311 75 325T70 361L72 378Q74 399 81 413T106 428H149L158 512Q169 608 230 658T399 708Q411 708 430 708T468 703T501 691T514 667Q514
649 506 631T486 600T466 588Q462 588 444 592T393 596Q355 596 331 575T302 507L294 428H402Q416 428 422 414T426 378L424 361Q422 340 412 326T389 311H282L275 251Q272 220 264 195T242 150T210 117H443Q472 117 468 67L466 45Q464 19 456 10T431 0H68Z" />
<glyph unicode="&#xa4;" horiz-adv-x="550" d="M458 514Q471 514 481 502L508 472Q518 460 518 450Q518 436 503 422L471 393Q480 374 484 354T489 312Q489 278 479 247T451 188L473 164Q482 154 482 142Q482 127 468 114L435 84Q422 72 408 72Q402 72 396 75T385
84L364 107Q339 93 312 86T255 78Q227 78 201 85T153 105L130 84Q117 72 103 72Q97 72 91 75T80 84L53 114Q43 126 43 136Q43 151 58 164L82 186Q65 223 65 266Q65 301 75 334T106 395L82 422Q73 433 73 444Q73 459 87 472L120 502Q134 514 147 514Q154 514 159
511T170 502L196 474Q219 486 245 493T299 500Q327 500 352 493T399 473L431 502Q445 514 458 514ZM287 386Q258 386 234 372T194 333T179 278Q179 241 204 217T267 192Q296 192 320 206T359 246T374 300Q374 337 350 361T287 386Z" />
<glyph unicode="&#xa5;" horiz-adv-x="600" d="M96 331Q86 331 81 338T77 365L78 374Q80 392 87 399T105 406H283L314 386L349 406H535Q546 406 551 399T554 372L553 363Q551 345 545 338T526 331H96ZM79 194Q69 194 64 201T60 228L61 237Q63 255 70 262T88 269H518Q529
269 534 262T537 235L536 226Q534 208 528 201T509 194H79ZM255 -2Q223 -2 211 6T198 30L230 336L65 657Q59 669 59 678Q59 695 79 698T123 702H166Q188 702 203 698T224 683L324 469L469 683Q477 694 493 698T531 702H567Q579 702 593 701T617 696T628 682Q628
678 625 672T617 657L384 333L352 30Q349 -2 289 -2H255Z" />
<glyph unicode="&#xa6;" horiz-adv-x="250" d="M186 770Q214 770 223 762T233 738Q233 735 231 711T224 651T216 571T207 487T199 412Q196 380 145 380H130Q106 380 95 387T83 407Q83 409 85 433T92 495T100 576T109 662T118 738Q121 770 171 770H186ZM132 250Q159
250 168 242T178 218Q178 214 176 190T169 130T161 51T152 -33T144 -108Q141 -140 91 -140H76Q48 -140 39 -132T29 -108Q29 -105 31 -81T38 -20T46 59T55 143T63 218Q66 250 117 250H132Z" />
<glyph unicode="&#xa7;" horiz-adv-x="429" d="M178 -7Q147 -7 115 -1T60 17T37 48Q37 60 46 79T67 114T88 130Q96 130 116 120T172 109Q199 109 213 117T228 142Q228 157 217 166T187 183T147 199Q110 216 80 246T49 332Q49 366 62 400T99 459Q86 472 78 490T69
538Q69 588 94 626T164 686T271 708Q303 708 335 702T390 684T412 653Q412 642 403 622T383 587T361 571Q353 571 334 581T278 592Q250 592 236 584T221 559Q221 544 233 535T265 518T306 500Q329 490 350 474T386 432T400 369Q400 335 387 301T351 242Q364 229
372 210T380 162Q380 113 355 75T285 15T178 -7ZM254 292Q261 304 264 318T268 342Q268 361 258 373T232 393T195 409Q189 399 185 385T181 359Q181 331 202 317T254 292Z" />
<glyph unicode="&#xa8;" horiz-adv-x="306" d="M278 581Q245 581 232 589T219 613L226 677Q228 694 243 701T291 709Q325 709 338 702T350 677L343 613Q342 597 326 589T278 581ZM96 581Q63 581 50 589T37 613L44 677Q46 694 61 701T109 709Q142 709 156 702T168
677L161 613Q160 597 144 589T96 581Z" />
<glyph unicode="&#xa9;" horiz-adv-x="739" d="M368 708Q442 708 507 680T621 603T698 489T726 350Q726 276 698 211T621 97T507 20T368 -8Q294 -8 229 20T115 97T38 211T10 350Q10 424 38 489T115 603T229 680T368 708ZM383 552Q408 552 435 547T481 534T500
513Q500 505 494 493T480 470T464 460Q461 460 452 464T426 473T382 478Q333 478 309 447T285 353Q285 290 308 258T381 225Q408 225 426 230T456 242T472 248Q481 248 488 238T500 216T505 199Q505 182 483 172T432 157T381 152Q287 152 242 201T197 353Q197 552
383 552ZM368 644Q307 644 254 621T161 558T97 464T74 350Q74 289 97 236T160 143T254 79T368 56Q429 56 482 79T575 142T639 236T662 350Q662 411 639 464T576 557T482 621T368 644Z" />
<glyph unicode="&#xaa;" horiz-adv-x="319" d="M151 439Q124 439 104 451T72 488T60 547Q60 619 94 663T181 708Q204 708 222 699T247 682Q251 696 255 700T279 705H290Q320 705 319 690L301 517Q300 498 316 498Q321 498 325 499T330 501Q334 501 334 495Q334
493 334 486T331 465Q328 452 314 446T287 439Q265 439 250 449T230 483Q218 464 198 452T151 439ZM179 503Q194 503 205 511T226 530L233 595Q235 609 236 617T238 633Q233 639 222 642T198 646Q179 646 166 636T145 605T138 553Q138 528 148 516T179 503Z" />
<glyph unicode="&#xab;" horiz-adv-x="471" d="M171 46Q157 46 146 61L35 214Q28 222 25 235T22 257Q22 275 27 282T44 302L187 455Q201 469 216 469Q225 469 238 462T260 444T270 422Q270 412 258 398L134 258L229 118Q233 113 234 109T235 99Q235 89 225 77T199
55T171 46ZM370 46Q356 46 345 61L234 214Q222 231 222 247Q222 265 226 277T243 302L386 455Q400 469 415 469Q424 469 437 462T459 444T469 422Q469 412 457 398L333 258L428 118Q432 113 433 109T434 99Q434 89 424 77T398 55T370 46Z" />
<glyph unicode="&#xac;" horiz-adv-x="560" d="M442 72Q420 72 409 80T398 104L413 242H55Q41 242 36 253T33 288L35 309Q39 349 67 349H499Q539 349 535 309L513 104Q512 88 498 80T462 72H442Z" />
<glyph unicode="&#xad;" horiz-adv-x="320" d="M50 212Q36 212 31 223T28 258L30 279Q32 300 40 309T62 319H271Q285 319 290 309T293 277L291 256Q289 232 281 222T259 212H50Z" />
<glyph unicode="&#xae;" horiz-adv-x="739" d="M368 -8Q294 -8 229 20T115 97T38 211T10 350Q10 424 38 489T115 603T229 680T368 708Q442 708 507 680T621 603T698 489T726 350Q726 276 698 211T621 97T507 20T368 -8ZM368 56Q429 56 482 79T575 142T639 236T662
350Q662 411 639 464T576 557T482 621T368 644Q307 644 254 621T161 558T97 464T74 350Q74 289 97 236T160 143T254 79T368 56ZM275 156Q241 156 241 174V526Q241 548 263 548H372Q445 548 478 521T511 443Q511 411 493 388T445 354V350Q456 346 467 333T486 301L535
178Q537 174 537 172T538 167Q538 156 505 156H482Q454 156 449 168L405 277Q397 294 387 302T349 310H327V174Q327 156 293 156H275ZM327 384H380Q397 384 410 398T423 432Q423 452 411 463T376 475H327V384Z" />
<glyph unicode="&#xaf;" horiz-adv-x="305" d="M66 597Q34 597 40 637L42 652Q44 669 51 680T76 692H320Q352 692 346 652L344 637Q342 618 335 608T310 597H66Z" />
<glyph unicode="&#xb0;" horiz-adv-x="345" d="M213 708Q264 708 298 674T333 589Q333 550 315 517T263 463T186 443Q134 443 100 477T66 562Q66 599 84 632T135 686T213 708ZM207 646Q171 646 151 622T131 567Q131 541 148 523T192 505Q227 505 247 528T267 584Q267
610 250 628T207 646Z" />
<glyph unicode="&#xb1;" horiz-adv-x="560" d="M261 140Q233 140 223 147T214 172L229 312H72Q58 312 53 323T50 358L52 379Q54 400 62 409T84 419H240L256 573Q258 589 270 596T309 603H323Q351 603 361 596T370 571L354 419H510Q524 419 529 409T532 377L530
356Q528 332 520 322T498 312H343L328 170Q325 140 275 140H261ZM40 0Q26 0 21 11T18 46L20 67Q22 88 30 97T52 107H477Q491 107 496 97T499 65L497 44Q495 20 487 10T465 0H40Z" />
<glyph unicode="&#xb2;" horiz-adv-x="310" d="M48 350Q41 350 38 364T34 393Q34 402 36 406T43 416L204 591Q218 606 225 623T233 653Q233 674 219 684T183 695Q165 695 151 689T127 676T112 669Q99 669 91 682T83 707Q83 725 102 737T149 756T205 763Q262 763
291 736T321 664Q321 637 310 609T275 554L150 418H286Q294 418 298 412T301 389L300 379Q299 366 294 358T278 350H48Z" />
<glyph unicode="&#xb3;" horiz-adv-x="310" d="M156 343Q134 343 106 347T58 362T37 389Q37 395 42 406T56 427T71 436Q79 436 98 424T152 412Q181 412 199 429T218 477Q218 504 202 516T155 529H138Q121 529 124 558L125 569Q127 584 131 591T146 598H157Q176
598 191 604T214 623T223 654Q223 672 212 683T178 694Q144 694 131 685T109 676Q101 676 93 691T84 718Q84 734 101 744T144 759T199 764Q250 764 281 739T313 671Q313 638 296 612T248 574V572Q278 560 292 536T306 481Q306 420 264 382T156 343Z" />
<glyph unicode="&#xb4;" horiz-adv-x="191" d="M74 572Q51 572 43 575T34 585Q34 592 38 598T50 615L95 682Q104 695 111 702T134 714T186 718Q215 718 226 715T237 703Q237 693 228 681T204 655L151 602Q135 586 120 579T74 572Z" />
<glyph unicode="&#xb5;" horiz-adv-x="566" d="M74 -206Q44 -206 30 -196T17 -172L88 493Q91 525 151 525H179Q209 525 223 516T236 494L202 163Q200 140 213 127T256 114Q275 114 291 122T320 143T342 168L376 493Q379 525 439 525H467Q497 525 511 516T524 494L487
142Q487 131 490 124T500 113T517 109Q528 109 535 112T546 115Q554 115 554 104Q554 103 553 87T547 44Q543 16 514 4T459 -8Q411 -8 382 11T343 72Q318 44 285 23T208 2Q191 2 171 11T136 33L165 59Q171 1 172 -57T165 -174Q160 -206 102 -206H74Z" />
<glyph unicode="&#xb6;" horiz-adv-x="515" d="M217 -173Q206 -173 203 -167T201 -149L241 247Q159 258 110 315T61 457Q61 531 96 585T189 670T313 700H526Q538 700 541 696T544 680L542 658Q541 638 520 638H484L401 -151Q400 -160 395 -166T379 -173H357Q337
-173 340 -149L422 638H344L261 -151Q260 -160 255 -166T239 -173H217Z" />
<glyph unicode="&#xb7;" horiz-adv-x="267" d="M139 289Q112 289 93 308T73 353Q73 382 91 405T148 429Q176 429 195 410T214 363Q214 332 194 311T139 289Z" />
<glyph unicode="&#xb8;" horiz-adv-x="250" d="M80 -212Q53 -212 24 -207T-25 -191T-45 -166Q-45 -152 -36 -137T-17 -122Q-5 -122 24 -133T86 -144Q106 -144 115 -138T124 -121Q124 -108 114 -103T91 -94T68 -88T58 -78Q58 -74 63 -58T86 10H153L128 -57L107
-45Q153 -45 181 -62T210 -117Q210 -159 176 -185T80 -212Z" />
<glyph unicode="&#xb9;" horiz-adv-x="310" d="M172 349Q154 349 146 354T139 368L172 682L93 669Q83 668 80 680T77 705Q77 721 80 728T94 736L245 761Q252 763 259 758T265 744L225 368Q224 359 215 354T188 349H172Z" />
<glyph unicode="&#xba;" horiz-adv-x="337" d="M189 441Q79 441 79 558Q79 632 113 670T214 708Q323 708 323 588Q323 441 189 441ZM196 503Q246 503 246 583Q246 646 206 646Q156 646 156 566Q156 503 196 503Z" />
<glyph unicode="&#xbb;" horiz-adv-x="471" d="M299 469Q314 469 324 454L435 301Q442 293 445 280T448 258Q448 240 443 233T426 213L283 60Q269 46 254 46Q245 46 233 53T210 71T200 93Q200 103 212 117L336 257L241 397Q237 402 236 407T235 416Q235 426 245
438T271 460T299 469ZM100 469Q115 469 125 454L236 301Q248 285 248 268Q248 250 244 238T227 213L84 60Q70 46 55 46Q46 46 34 53T11 71T1 93Q1 103 13 117L137 257L42 397Q38 402 37 407T36 416Q36 426 46 438T72 460T100 469Z" />
<glyph unicode="&#xbc;" horiz-adv-x="750" d="M156 289Q138 289 130 294T123 308L156 622L77 609Q67 608 64 620T61 645Q61 661 64 668T78 676L229 701Q236 703 243 698T249 684L209 308Q208 299 199 294T172 289H156ZM595 -1Q561 -1 562 17L569 82H421Q411 82
406 100T401 129Q401 139 406 145L602 397Q608 405 617 406T638 408H654Q689 408 687 389L662 150H685Q693 150 697 144T700 121L699 111Q696 82 677 82H655L648 17Q647 -1 611 -1H595ZM484 150H577L586 234Q589 259 593 276T604 303L601 304L484 150ZM154 0Q124
0 124 10Q124 14 132 26L548 687Q556 700 584 700H591Q609 700 616 698T623 690Q623 684 613 669L202 17Q195 7 187 4T161 0H154Z" />
<glyph unicode="&#xbd;" horiz-adv-x="750" d="M156 289Q138 289 130 294T123 308L156 622L77 609Q67 608 64 620T61 645Q61 661 64 668T78 676L229 701Q236 703 243 698T249 684L209 308Q208 299 199 294T172 289H156ZM434 0Q427 0 424 14T420 43Q420 52 422
56T429 66L590 241Q604 256 611 273T619 303Q619 324 605 334T569 345Q551 345 537 339T513 326T498 319Q485 319 477 332T469 357Q469 375 488 387T535 406T591 413Q648 413 677 386T707 314Q707 287 696 259T661 204L536 68H672Q680 68 684 62T687 39L686 29Q685
16 680 8T664 0H434ZM138 0Q108 0 108 10Q108 14 116 26L532 687Q540 700 568 700H575Q593 700 600 698T607 690Q607 684 597 669L186 17Q179 7 171 4T145 0H138Z" />
<glyph unicode="&#xbe;" horiz-adv-x="750" d="M136 283Q114 283 86 287T38 302T17 329Q17 335 22 346T36 367T51 376Q59 376 78 364T132 352Q161 352 179 369T198 417Q198 444 182 456T135 469H118Q101 469 104 498L105 509Q107 524 111 531T126 538H137Q156
538 171 544T194 563T203 594Q203 612 192 623T158 634Q124 634 111 625T89 616Q81 616 73 631T64 658Q64 674 81 684T124 699T179 704Q230 704 261 679T293 611Q293 578 276 552T228 514V512Q258 500 272 476T286 421Q286 360 244 322T136 283ZM595 -1Q561 -1
562 17L569 82H421Q411 82 406 100T401 129Q401 139 406 145L602 397Q608 405 617 406T638 408H654Q689 408 687 389L662 150H685Q693 150 697 144T700 121L699 111Q696 82 677 82H655L648 17Q647 -1 611 -1H595ZM484 150H577L586 234Q589 259 593 276T604 303L601
304L484 150ZM173 0Q143 0 143 10Q143 14 151 26L567 687Q575 700 603 700H610Q628 700 635 698T642 690Q642 684 632 669L221 17Q214 7 206 4T180 0H173Z" />
<glyph unicode="&#xbf;" horiz-adv-x="425" d="M299 301Q327 301 336 295T345 272Q345 223 315 184T249 110Q215 79 189 52T162 -5Q162 -53 230 -53Q259 -53 282 -45T322 -30T345 -22Q359 -22 371 -37T392 -71T400 -102Q400 -124 381 -140T331 -166T266 -180T203
-185Q141 -185 96 -166T28 -112T4 -29Q4 22 23 58T70 121T129 171Q160 196 185 219T220 274Q227 290 239 295T276 301H299ZM328 525Q362 525 373 518T384 493L375 401Q372 369 311 369H279Q247 369 235 377T223 401L232 493Q235 525 296 525H328Z" />
<glyph unicode="&#xc0;" horiz-adv-x="613" d="M33 -2Q-25 -2 -25 18Q-25 26 -19 38L267 681Q272 693 288 697T326 702H378Q400 702 415 698T433 681L585 38Q586 36 587 30T588 21Q588 11 574 5T534 -2H490Q468 -2 454 2T436 19L407 141H176L121 19Q116 8 104
3T73 -2H33ZM232 273H377L342 451Q338 467 337 483T334 515H330Q326 499 321 483T308 451L232 273ZM411 749Q385 749 372 753T343 768L262 825Q248 835 242 842T236 856Q236 868 255 871T309 875Q344 875 361 869T392 845L440 785Q446 778 448 773T450 763Q450
756 441 753T411 749Z" />
<glyph unicode="&#xc1;" horiz-adv-x="613" d="M33 -2Q-25 -2 -25 18Q-25 26 -19 38L267 681Q272 693 288 697T326 702H378Q400 702 415 698T433 681L585 38Q586 36 587 30T588 21Q588 11 574 5T534 -2H490Q468 -2 454 2T436 19L407 141H176L121 19Q116 8 104
3T73 -2H33ZM232 273H377L342 451Q338 467 337 483T334 515H330Q326 499 321 483T308 451L232 273ZM298 749Q261 749 261 761Q261 766 265 772T276 785L337 845Q354 862 373 868T426 875Q461 875 478 872T495 858Q495 852 487 844T462 824L370 768Q353 758 339
754T298 749Z" />
<glyph unicode="&#xc2;" horiz-adv-x="613" d="M33 -2Q-25 -2 -25 18Q-25 26 -19 38L267 681Q272 693 288 697T326 702H378Q400 702 415 698T433 681L585 38Q586 36 587 30T588 21Q588 11 574 5T534 -2H490Q468 -2 454 2T436 19L407 141H176L121 19Q116 8 104
3T73 -2H33ZM232 273H377L342 451Q338 467 337 483T334 515H330Q326 499 321 483T308 451L232 273ZM241 734Q222 734 216 736T209 743Q209 748 216 756T233 774L296 837Q310 851 323 855T358 860H378Q401 860 413 855T437 836L485 774Q503 750 503 745Q503 740
496 737T470 734Q445 734 432 739T406 751L360 779L308 751Q294 744 281 739T241 734Z" />
<glyph unicode="&#xc3;" horiz-adv-x="613" d="M33 -2Q-25 -2 -25 18Q-25 26 -19 38L267 681Q272 693 288 697T326 702H378Q400 702 415 698T433 681L585 38Q586 36 587 30T588 21Q588 11 574 5T534 -2H490Q468 -2 454 2T436 19L407 141H176L121 19Q116 8 104
3T73 -2H33ZM232 273H377L342 451Q338 467 337 483T334 515H330Q326 499 321 483T308 451L232 273ZM427 751Q398 751 373 759T329 776T296 785Q275 785 263 777T243 761T225 752Q212 752 196 760T180 779Q180 786 181 790T184 799Q195 826 225 849T298 873Q329
873 352 865T396 848T434 839Q454 839 465 847T485 864T502 872Q508 872 518 868T537 858T546 844Q546 840 545 835T541 825Q529 798 498 775T427 751Z" />
<glyph unicode="&#xc4;" horiz-adv-x="613" d="M33 -2Q-25 -2 -25 18Q-25 26 -19 38L267 681Q272 693 288 697T326 702H378Q400 702 415 698T433 681L585 38Q586 36 587 30T588 21Q588 11 574 5T534 -2H490Q468 -2 454 2T436 19L407 141H176L121 19Q116 8 104
3T73 -2H33ZM232 273H377L342 451Q338 467 337 483T334 515H330Q326 499 321 483T308 451L232 273ZM449 746Q418 746 405 752T391 765T389 778L396 846Q397 851 400 858T417 872T464 878Q496 878 508 872T523 859T524 846L517 778Q517 774 514 766T496 752T449
746ZM264 746Q232 746 219 752T205 766T203 778L210 846Q211 851 214 858T231 872T278 878Q309 878 321 873T336 860T338 846L331 778Q331 774 328 767T311 753T264 746Z" />
<glyph unicode="&#xc5;" horiz-adv-x="613" d="M33 -2Q-25 -2 -25 18Q-25 26 -19 38L267 681Q272 693 288 697T326 702H378Q400 702 415 698T433 681L585 38Q586 36 587 30T588 21Q588 11 574 5T534 -2H490Q468 -2 454 2T436 19L407 141H176L121 19Q116 8 104
3T73 -2H33ZM232 273H377L342 451Q338 467 337 483T334 515H330Q326 499 321 483T308 451L232 273ZM355 718Q316 718 290 744T264 807Q264 853 295 885T372 917Q412 917 438 891T464 827Q464 783 433 751T355 718ZM360 779Q376 779 387 791T399 820Q399 835 390
844T367 854Q352 854 341 842T329 812Q329 798 338 789T360 779Z" />
<glyph unicode="&#xc6;" horiz-adv-x="915" d="M25 -2Q7 -2 -14 1T-35 20Q-35 27 -27 38L360 673Q377 700 406 700H865Q888 700 894 688T899 650L896 619Q894 593 884 581T851 569H540L552 424H809Q832 424 838 412T843 374L840 343Q838 317 828 305T795 293H565L579
131H806Q829 131 835 119T840 81L837 50Q835 24 825 12T792 0H467Q451 0 444 7T435 30L426 141H183L110 19Q103 9 92 4T62 -2H25ZM262 273H416L402 454L410 537H406L370 455L262 273Z" />
<glyph unicode="&#xc7;" horiz-adv-x="619" d="M336 -8Q187 -8 114 61T41 276Q41 487 137 597T417 708Q448 708 482 704T547 691T596 670Q607 663 612 656T618 640Q618 629 610 613T589 581T565 555T543 544Q537 544 522 552T477 568T400 576Q304 576 252 505T200
299Q200 212 237 168T350 123Q398 123 432 133T489 153T518 163Q534 163 545 146T562 109T568 78Q568 65 557 52T529 30Q506 18 472 10T402 -3T336 -8ZM302 -212Q275 -212 246 -207T197 -191T177 -166Q177 -152 186 -137T205 -122Q217 -122 246 -133T308 -144Q328
-144 337 -138T346 -121Q346 -108 336 -103T313 -94T290 -88T280 -78Q280 -74 285 -58T308 10H375L350 -57L329 -45Q375 -45 403 -62T432 -117Q432 -159 398 -185T302 -212Z" />
<glyph unicode="&#xc8;" horiz-adv-x="546" d="M76 0Q56 0 48 7T41 37L105 660Q109 700 149 700H514Q530 700 536 687T540 640L539 629Q536 595 526 582T500 569H251L235 424H458Q474 424 480 411T484 364L483 353Q480 319 470 306T444 293H222L204 131H456Q472
131 478 118T482 71L481 60Q478 26 468 13T442 0H76ZM386 749Q360 749 347 753T318 768L237 825Q223 835 217 842T211 856Q211 868 230 871T284 875Q319 875 336 869T367 845L415 785Q421 778 423 773T425 763Q425 756 416 753T386 749Z" />
<glyph unicode="&#xc9;" horiz-adv-x="546" d="M76 0Q56 0 48 7T41 37L105 660Q109 700 149 700H514Q530 700 536 687T540 640L539 629Q536 595 526 582T500 569H251L235 424H458Q474 424 480 411T484 364L483 353Q480 319 470 306T444 293H222L204 131H456Q472
131 478 118T482 71L481 60Q478 26 468 13T442 0H76ZM273 749Q236 749 236 761Q236 766 240 772T251 785L312 845Q329 862 348 868T401 875Q436 875 453 872T470 858Q470 852 462 844T437 824L345 768Q328 758 314 754T273 749Z" />
<glyph unicode="&#xca;" horiz-adv-x="546" d="M76 0Q56 0 48 7T41 37L105 660Q109 700 149 700H514Q530 700 536 687T540 640L539 629Q536 595 526 582T500 569H251L235 424H458Q474 424 480 411T484 364L483 353Q480 319 470 306T444 293H222L204 131H456Q472
131 478 118T482 71L481 60Q478 26 468 13T442 0H76ZM216 734Q197 734 191 736T184 743Q184 748 191 756T208 774L271 837Q285 851 298 855T333 860H353Q376 860 388 855T412 836L460 774Q478 750 478 745Q478 740 471 737T445 734Q420 734 407 739T381 751L335
779L283 751Q269 744 256 739T216 734Z" />
<glyph unicode="&#xcb;" horiz-adv-x="546" d="M76 0Q56 0 48 7T41 37L105 660Q109 700 149 700H514Q530 700 536 687T540 640L539 629Q536 595 526 582T500 569H251L235 424H458Q474 424 480 411T484 364L483 353Q480 319 470 306T444 293H222L204 131H456Q472
131 478 118T482 71L481 60Q478 26 468 13T442 0H76ZM424 746Q393 746 380 752T366 765T364 778L371 846Q372 851 375 858T392 872T439 878Q471 878 483 872T498 859T499 846L492 778Q492 774 489 766T471 752T424 746ZM239 746Q207 746 194 752T180 766T178 778L185
846Q186 851 189 858T206 872T253 878Q284 878 296 873T311 860T313 846L306 778Q306 774 303 767T286 753T239 746Z" />
<glyph unicode="&#xcc;" horiz-adv-x="283" d="M97 -2Q89 -2 75 -1T51 7T40 29L107 670Q110 702 170 702H205Q214 702 227 701T251 693T262 671L195 30Q192 -2 132 -2H97ZM250 749Q224 749 211 753T182 768L101 825Q87 835 81 842T75 856Q75 868 94 871T148 875Q183
875 200 869T231 845L279 785Q285 778 287 773T289 763Q289 756 280 753T250 749Z" />
<glyph unicode="&#xcd;" horiz-adv-x="283" d="M97 -2Q89 -2 75 -1T51 7T40 29L107 670Q110 702 170 702H205Q214 702 227 701T251 693T262 671L195 30Q192 -2 132 -2H97ZM137 749Q100 749 100 761Q100 766 104 772T115 785L176 845Q193 862 212 868T265 875Q300
875 317 872T334 858Q334 852 326 844T301 824L209 768Q192 758 178 754T137 749Z" />
<glyph unicode="&#xce;" horiz-adv-x="283" d="M97 -2Q89 -2 75 -1T51 7T40 29L107 670Q110 702 170 702H205Q214 702 227 701T251 693T262 671L195 30Q192 -2 132 -2H97ZM80 734Q61 734 55 736T48 743Q48 748 55 756T72 774L135 837Q149 851 162 855T197 860H217Q240
860 252 855T276 836L324 774Q342 750 342 745Q342 740 335 737T309 734Q284 734 271 739T245 751L199 779L147 751Q133 744 120 739T80 734Z" />
<glyph unicode="&#xcf;" horiz-adv-x="283" d="M97 -2Q89 -2 75 -1T51 7T40 29L107 670Q110 702 170 702H205Q214 702 227 701T251 693T262 671L195 30Q192 -2 132 -2H97ZM288 746Q257 746 244 752T230 765T228 778L235 846Q236 851 239 858T256 872T303 878Q335
878 347 872T362 859T363 846L356 778Q356 774 353 766T335 752T288 746ZM103 746Q71 746 58 752T44 766T42 778L49 846Q50 851 53 858T70 872T117 878Q148 878 160 873T175 860T177 846L170 778Q170 774 167 767T150 753T103 746Z" />
<glyph unicode="&#xd0;" horiz-adv-x="695" d="M47 290Q29 290 23 303T19 347L21 365Q24 395 32 408T59 421H346Q380 421 373 364L371 347Q367 317 359 304T334 290H47ZM91 0Q71 0 63 9T56 43L120 660Q124 700 164 700H388Q482 700 545 667T642 569T675 411Q675
312 650 235T577 106T464 27T315 0H91ZM219 131H328Q371 131 405 148T465 199T503 283T516 397Q516 453 501 491T454 549T375 569H266L219 131Z" />
<glyph unicode="&#xd1;" horiz-adv-x="719" d="M102 -2Q70 -2 58 6T45 30L112 670Q115 702 175 702H218Q240 702 256 697T282 675L473 323Q483 305 489 293T498 275T501 265L508 267Q507 287 508 315T513 378L544 670Q547 702 607 702H636Q668 702 680 694T693
670L626 30Q623 -2 563 -2H525Q503 -2 487 3T461 25L262 388Q249 414 244 424T236 441L229 438Q231 422 231 402T227 355L194 30Q191 -2 131 -2H102ZM471 751Q442 751 417 759T373 776T340 785Q319 785 307 777T287 761T269 752Q256 752 240 760T224 779Q224 786
225 790T228 799Q239 826 269 849T342 873Q373 873 396 865T440 848T478 839Q498 839 509 847T529 864T546 872Q552 872 562 868T581 858T590 844Q590 840 589 835T585 825Q573 798 542 775T471 751Z" />
<glyph unicode="&#xd2;" horiz-adv-x="731" d="M352 -8Q210 -8 131 71T51 311Q51 384 67 454T122 582T230 674T403 708Q492 708 558 673T662 564T699 378Q699 261 660 174T544 40T352 -8ZM361 123Q447 123 494 190T541 370Q541 475 501 525T389 576Q302 576 256
509T210 329Q210 222 250 173T361 123ZM471 749Q445 749 432 753T403 768L322 825Q308 835 302 842T296 856Q296 868 315 871T369 875Q404 875 421 869T452 845L500 785Q506 778 508 773T510 763Q510 756 501 753T471 749Z" />
<glyph unicode="&#xd3;" horiz-adv-x="731" d="M352 -8Q210 -8 131 71T51 311Q51 384 67 454T122 582T230 674T403 708Q492 708 558 673T662 564T699 378Q699 261 660 174T544 40T352 -8ZM361 123Q447 123 494 190T541 370Q541 475 501 525T389 576Q302 576 256
509T210 329Q210 222 250 173T361 123ZM358 749Q321 749 321 761Q321 766 325 772T336 785L397 845Q414 862 433 868T486 875Q521 875 538 872T555 858Q555 852 547 844T522 824L430 768Q413 758 399 754T358 749Z" />
<glyph unicode="&#xd4;" horiz-adv-x="731" d="M352 -8Q210 -8 131 71T51 311Q51 384 67 454T122 582T230 674T403 708Q492 708 558 673T662 564T699 378Q699 261 660 174T544 40T352 -8ZM361 123Q447 123 494 190T541 370Q541 475 501 525T389 576Q302 576 256
509T210 329Q210 222 250 173T361 123ZM301 734Q282 734 276 736T269 743Q269 748 276 756T293 774L356 837Q370 851 383 855T418 860H438Q461 860 473 855T497 836L545 774Q563 750 563 745Q563 740 556 737T530 734Q505 734 492 739T466 751L420 779L368 751Q354
744 341 739T301 734Z" />
<glyph unicode="&#xd5;" horiz-adv-x="731" d="M352 -8Q210 -8 131 71T51 311Q51 384 67 454T122 582T230 674T403 708Q492 708 558 673T662 564T699 378Q699 261 660 174T544 40T352 -8ZM361 123Q447 123 494 190T541 370Q541 475 501 525T389 576Q302 576 256
509T210 329Q210 222 250 173T361 123ZM487 751Q458 751 433 759T389 776T356 785Q335 785 323 777T303 761T285 752Q272 752 256 760T240 779Q240 786 241 790T244 799Q255 826 285 849T358 873Q389 873 412 865T456 848T494 839Q514 839 525 847T545 864T562
872Q568 872 578 868T597 858T606 844Q606 840 605 835T601 825Q589 798 558 775T487 751Z" />
<glyph unicode="&#xd6;" horiz-adv-x="731" d="M352 -8Q210 -8 131 71T51 311Q51 384 67 454T122 582T230 674T403 708Q492 708 558 673T662 564T699 378Q699 261 660 174T544 40T352 -8ZM361 123Q447 123 494 190T541 370Q541 475 501 525T389 576Q302 576 256
509T210 329Q210 222 250 173T361 123ZM509 746Q478 746 465 752T451 765T449 778L456 846Q457 851 460 858T477 872T524 878Q556 878 568 872T583 859T584 846L577 778Q577 774 574 766T556 752T509 746ZM324 746Q292 746 279 752T265 766T263 778L270 846Q271
851 274 858T291 872T338 878Q369 878 381 873T396 860T398 846L391 778Q391 774 388 767T371 753T324 746Z" />
<glyph unicode="&#xd7;" horiz-adv-x="560" d="M82 11Q72 11 58 23T34 50T23 75Q23 85 34 95L196 242L65 390Q58 397 58 405Q58 416 71 432T102 461T131 474Q141 474 148 465L279 318L443 465Q452 474 462 474Q472 474 485 463T510 436T521 410Q521 398 510 390L347
242L479 95Q486 86 486 79Q486 68 472 52T441 24T413 11Q402 11 396 20L264 167L101 20Q91 11 82 11Z" />
<glyph unicode="&#xd8;" horiz-adv-x="731" d="M67 -12Q61 -12 50 -4T29 15T19 34Q19 43 29 54L612 712Q624 724 634 724Q641 724 652 716T672 698T682 678Q682 669 672 658L89 0Q79 -12 67 -12ZM352 -8Q210 -8 131 71T51 311Q51 384 67 454T122 582T230 674T403
708Q492 708 558 673T662 564T699 378Q699 261 660 174T544 40T352 -8ZM361 123Q447 123 494 190T541 370Q541 475 501 525T389 576Q302 576 256 509T210 329Q210 222 250 173T361 123Z" />
<glyph unicode="&#xd9;" horiz-adv-x="712" d="M328 -8Q194 -8 124 51T64 221L109 670Q112 702 173 702H207Q239 702 252 694T263 670L219 239Q214 185 244 154T342 123Q410 123 448 153T492 244L536 670Q539 702 600 702H633Q665 702 678 694T689 670L644 234Q632
119 549 56T328 -8ZM466 749Q440 749 427 753T398 768L317 825Q303 835 297 842T291 856Q291 868 310 871T364 875Q399 875 416 869T447 845L495 785Q501 778 503 773T505 763Q505 756 496 753T466 749Z" />
<glyph unicode="&#xda;" horiz-adv-x="712" d="M328 -8Q194 -8 124 51T64 221L109 670Q112 702 173 702H207Q239 702 252 694T263 670L219 239Q214 185 244 154T342 123Q410 123 448 153T492 244L536 670Q539 702 600 702H633Q665 702 678 694T689 670L644 234Q632
119 549 56T328 -8ZM353 749Q316 749 316 761Q316 766 320 772T331 785L392 845Q409 862 428 868T481 875Q516 875 533 872T550 858Q550 852 542 844T517 824L425 768Q408 758 394 754T353 749Z" />
<glyph unicode="&#xdb;" horiz-adv-x="712" d="M328 -8Q194 -8 124 51T64 221L109 670Q112 702 173 702H207Q239 702 252 694T263 670L219 239Q214 185 244 154T342 123Q410 123 448 153T492 244L536 670Q539 702 600 702H633Q665 702 678 694T689 670L644 234Q632
119 549 56T328 -8ZM296 734Q277 734 271 736T264 743Q264 748 271 756T288 774L351 837Q365 851 378 855T413 860H433Q456 860 468 855T492 836L540 774Q558 750 558 745Q558 740 551 737T525 734Q500 734 487 739T461 751L415 779L363 751Q349 744 336 739T296
734Z" />
<glyph unicode="&#xdc;" horiz-adv-x="712" d="M328 -8Q194 -8 124 51T64 221L109 670Q112 702 173 702H207Q239 702 252 694T263 670L219 239Q214 185 244 154T342 123Q410 123 448 153T492 244L536 670Q539 702 600 702H633Q665 702 678 694T689 670L644 234Q632
119 549 56T328 -8ZM504 746Q473 746 460 752T446 765T444 778L451 846Q452 851 455 858T472 872T519 878Q551 878 563 872T578 859T579 846L572 778Q572 774 569 766T551 752T504 746ZM319 746Q287 746 274 752T260 766T258 778L265 846Q266 851 269 858T286 872T333
878Q364 878 376 873T391 860T393 846L386 778Q386 774 383 767T366 753T319 746Z" />
<glyph unicode="&#xdd;" horiz-adv-x="559" d="M235 -2Q203 -2 191 6T178 30L210 336L45 657Q39 669 39 678Q39 695 59 698T103 702H146Q168 702 183 698T204 683L304 469L449 683Q457 694 473 698T511 702H547Q559 702 573 701T597 696T608 682Q608 678 605 672T597
657L364 333L332 30Q329 -2 269 -2H235ZM273 749Q236 749 236 761Q236 766 240 772T251 785L312 845Q329 862 348 868T401 875Q436 875 453 872T470 858Q470 852 462 844T437 824L345 768Q328 758 314 754T273 749Z" />
<glyph unicode="&#xde;" horiz-adv-x="567" d="M91 -2Q59 -2 47 6T34 30L101 670Q103 684 115 693T164 702H198Q230 702 242 694T255 670L247 593H330Q442 593 504 543T567 394Q567 284 505 220T324 155H201L188 30Q187 14 172 6T125 -2H91ZM215 287H321Q363 287
385 313T408 381Q408 421 383 441T310 462H233L215 287Z" />
<glyph unicode="&#xdf;" horiz-adv-x="554" d="M80 -2Q48 -2 35 6T24 34L72 490Q79 557 113 605T203 681T324 708Q383 708 429 689T501 635T527 550Q527 513 514 481T477 425T418 387V383Q471 362 494 327T518 239Q518 172 487 118T398 32T261 0H238Q212 0 212
36L216 80Q220 97 228 107T250 117H265Q296 117 319 130T355 168T368 225Q368 263 345 286T273 311H270Q240 311 244 347L249 396Q251 412 260 420T282 428H284Q309 428 329 440T361 472T374 518Q374 533 368 548T348 573T309 583Q272 583 249 560T221 502L171
30Q168 -2 108 -2H80Z" />
<glyph unicode="&#xe0;" horiz-adv-x="545" d="M186 -9Q150 -9 120 5T69 46T36 114T24 208Q24 304 52 376T130 489T246 530Q289 530 320 511T367 477Q373 495 378 505T395 519T432 524H444Q474 524 488 517T501 494L466 147Q464 126 471 118T495 109Q506 109 513
112T524 115Q532 115 532 103Q532 99 531 85T525 44Q520 16 492 4T437 -8Q391 -8 362 10T322 68Q301 35 266 13T186 -9ZM242 112Q258 112 272 120T298 141T320 170L334 305Q337 336 339 353T346 386Q333 397 317 405T280 413Q247 413 223 391T187 325T174 217Q174
183 181 160T204 124T242 112ZM328 572Q305 572 288 579T257 602L226 641Q204 668 198 679T191 698Q191 709 202 713T246 718Q277 718 293 715T317 704T332 679L360 615Q365 605 367 599T370 587Q370 579 362 576T328 572Z" />
<glyph unicode="&#xe1;" horiz-adv-x="545" d="M186 -9Q150 -9 120 5T69 46T36 114T24 208Q24 304 52 376T130 489T246 530Q289 530 320 511T367 477Q373 495 378 505T395 519T432 524H444Q474 524 488 517T501 494L466 147Q464 126 471 118T495 109Q506 109 513
112T524 115Q532 115 532 103Q532 99 531 85T525 44Q520 16 492 4T437 -8Q391 -8 362 10T322 68Q301 35 266 13T186 -9ZM242 112Q258 112 272 120T298 141T320 170L334 305Q337 336 339 353T346 386Q333 397 317 405T280 413Q247 413 223 391T187 325T174 217Q174
183 181 160T204 124T242 112ZM264 572Q241 572 233 575T224 585Q224 592 228 598T240 615L285 682Q294 695 301 702T324 714T376 718Q405 718 416 715T427 703Q427 693 418 681T394 655L341 602Q325 586 310 579T264 572Z" />
<glyph unicode="&#xe2;" horiz-adv-x="545" d="M186 -9Q150 -9 120 5T69 46T36 114T24 208Q24 304 52 376T130 489T246 530Q289 530 320 511T367 477Q373 495 378 505T395 519T432 524H444Q474 524 488 517T501 494L466 147Q464 126 471 118T495 109Q506 109 513
112T524 115Q532 115 532 103Q532 99 531 85T525 44Q520 16 492 4T437 -8Q391 -8 362 10T322 68Q301 35 266 13T186 -9ZM242 112Q258 112 272 120T298 141T320 170L334 305Q337 336 339 353T346 386Q333 397 317 405T280 413Q247 413 223 391T187 325T174 217Q174
183 181 160T204 124T242 112ZM206 572Q186 572 178 575T169 586Q169 592 185 615L237 692Q245 705 258 711T306 718H334Q357 718 373 714T397 692L433 615Q438 605 440 599T443 588Q443 572 404 572Q376 572 364 579T343 597L311 636L271 597Q261 587 248 580T206
572Z" />
<glyph unicode="&#xe3;" horiz-adv-x="545" d="M186 -9Q150 -9 120 5T69 46T36 114T24 208Q24 304 52 376T130 489T246 530Q289 530 320 511T367 477Q373 495 378 505T395 519T432 524H444Q474 524 488 517T501 494L466 147Q464 126 471 118T495 109Q506 109 513
112T524 115Q532 115 532 103Q532 99 531 85T525 44Q520 16 492 4T437 -8Q391 -8 362 10T322 68Q301 35 266 13T186 -9ZM242 112Q258 112 272 120T298 141T320 170L334 305Q337 336 339 353T346 386Q333 397 317 405T280 413Q247 413 223 391T187 325T174 217Q174
183 181 160T204 124T242 112ZM176 585Q166 585 151 594T135 613Q135 616 136 622T141 635Q152 663 182 683T251 704Q275 704 297 698T339 685T377 678Q395 678 408 685T431 700T450 708Q460 708 475 697T491 674Q491 670 488 663T482 650Q472 631 443 609T372
586Q349 586 327 592T283 605T243 612Q225 612 213 606T193 592T176 585Z" />
<glyph unicode="&#xe4;" horiz-adv-x="545" d="M186 -9Q150 -9 120 5T69 46T36 114T24 208Q24 304 52 376T130 489T246 530Q289 530 320 511T367 477Q373 495 378 505T395 519T432 524H444Q474 524 488 517T501 494L466 147Q464 126 471 118T495 109Q506 109 513
112T524 115Q532 115 532 103Q532 99 531 85T525 44Q520 16 492 4T437 -8Q391 -8 362 10T322 68Q301 35 266 13T186 -9ZM242 112Q258 112 272 120T298 141T320 170L334 305Q337 336 339 353T346 386Q333 397 317 405T280 413Q247 413 223 391T187 325T174 217Q174
183 181 160T204 124T242 112ZM397 581Q364 581 351 589T338 613L345 677Q347 694 362 701T410 709Q444 709 457 702T469 677L462 613Q461 597 445 589T397 581ZM215 581Q182 581 169 589T156 613L163 677Q165 694 180 701T228 709Q261 709 275 702T287 677L280
613Q279 597 263 589T215 581Z" />
<glyph unicode="&#xe5;" horiz-adv-x="545" d="M186 -9Q150 -9 120 5T69 46T36 114T24 208Q24 304 52 376T130 489T246 530Q289 530 320 511T367 477Q373 495 378 505T395 519T432 524H444Q474 524 488 517T501 494L466 147Q464 126 471 118T495 109Q506 109 513
112T524 115Q532 115 532 103Q532 99 531 85T525 44Q520 16 492 4T437 -8Q391 -8 362 10T322 68Q301 35 266 13T186 -9ZM242 112Q258 112 272 120T298 141T320 170L334 305Q337 336 339 353T346 386Q333 397 317 405T280 413Q247 413 223 391T187 325T174 217Q174
183 181 160T204 124T242 112ZM305 541Q262 541 236 567T209 633Q209 662 224 686T264 725T320 740Q363 740 389 714T415 647Q415 619 400 595T360 556T305 541ZM308 605Q324 605 335 616T347 643Q347 657 338 665T315 674Q300 674 289 663T277 636Q277 623 286
614T308 605Z" />
<glyph unicode="&#xe6;" horiz-adv-x="819" d="M179 -8Q103 -8 64 27T25 122Q25 155 35 188T77 251T169 297T328 316Q337 358 352 389Q339 406 318 410T265 414Q235 414 207 406T159 390T133 382Q123 382 113 396T97 428T90 458Q90 476 118 492T192 520T288 531Q394
531 446 494Q478 514 515 522T593 531Q654 531 692 516T751 478T779 431T787 386Q787 336 768 301T717 245T647 213T572 203Q539 203 514 205T468 210Q466 171 480 149T519 118T573 109Q613 109 646 120T701 142T728 153Q731 153 733 152T736 139Q736 137 735 121T733
88T728 62Q722 41 702 28T656 7T602 -4T554 -8Q489 -8 443 9T368 58Q352 45 324 30T259 3T179 -8ZM220 109Q245 109 275 120T323 152Q320 172 319 188T318 224Q282 224 255 219T210 205T183 181T174 147Q174 131 186 120T220 109ZM475 302Q560 298 601 313T643
367Q643 392 626 403T583 414Q552 414 531 399T496 359T475 302Z" />
<glyph unicode="&#xe7;" horiz-adv-x="485" d="M260 -8Q145 -8 89 45T33 205Q33 364 107 447T322 531Q352 531 386 524T446 502T471 465Q471 455 459 436T433 401T409 385Q408 385 405 386T390 393Q379 399 362 406T317 414Q253 414 220 365T186 221Q186 165 208
137T279 109Q310 109 331 117T370 132Q376 134 380 136T388 138Q399 138 409 125T425 94T432 65Q432 43 410 29T358 7T300 -4T260 -8ZM197 -212Q170 -212 141 -207T92 -191T72 -166Q72 -152 81 -137T100 -122Q112 -122 141 -133T203 -144Q223 -144 232 -138T241
-121Q241 -108 231 -103T208 -94T185 -88T175 -78Q175 -74 180 -58T203 10H270L245 -57L224 -45Q270 -45 298 -62T327 -117Q327 -159 293 -185T197 -212Z" />
<glyph unicode="&#xe8;" horiz-adv-x="539" d="M308 531Q369 531 407 516T466 478T494 431T502 386Q502 336 483 301T432 245T362 213T287 203Q240 203 209 207T148 216L183 266V225Q183 178 196 153T233 118T288 109Q328 109 361 120T416 142T443 153Q446 153
448 151T451 139Q451 121 449 98T443 62Q437 41 417 28T371 7T317 -4T269 -8Q208 -8 164 7T90 51T47 120T33 212Q33 328 71 398T171 499T308 531ZM298 414Q252 414 227 382T190 302H238Q266 302 286 306T321 316T343 331T354 349T358 367Q358 392 341 403T298 414ZM332
572Q309 572 292 579T261 602L230 641Q208 668 202 679T195 698Q195 709 206 713T250 718Q281 718 297 715T321 704T336 679L364 615Q369 605 371 599T374 587Q374 579 366 576T332 572Z" />
<glyph unicode="&#xe9;" horiz-adv-x="539" d="M308 531Q369 531 407 516T466 478T494 431T502 386Q502 336 483 301T432 245T362 213T287 203Q240 203 209 207T148 216L183 266V225Q183 178 196 153T233 118T288 109Q328 109 361 120T416 142T443 153Q446 153
448 151T451 139Q451 121 449 98T443 62Q437 41 417 28T371 7T317 -4T269 -8Q208 -8 164 7T90 51T47 120T33 212Q33 328 71 398T171 499T308 531ZM298 414Q252 414 227 382T190 302H238Q266 302 286 306T321 316T343 331T354 349T358 367Q358 392 341 403T298 414ZM268
572Q245 572 237 575T228 585Q228 592 232 598T244 615L289 682Q298 695 305 702T328 714T380 718Q409 718 420 715T431 703Q431 693 422 681T398 655L345 602Q329 586 314 579T268 572Z" />
<glyph unicode="&#xea;" horiz-adv-x="539" d="M308 531Q369 531 407 516T466 478T494 431T502 386Q502 336 483 301T432 245T362 213T287 203Q240 203 209 207T148 216L183 266V225Q183 178 196 153T233 118T288 109Q328 109 361 120T416 142T443 153Q446 153
448 151T451 139Q451 121 449 98T443 62Q437 41 417 28T371 7T317 -4T269 -8Q208 -8 164 7T90 51T47 120T33 212Q33 328 71 398T171 499T308 531ZM298 414Q252 414 227 382T190 302H238Q266 302 286 306T321 316T343 331T354 349T358 367Q358 392 341 403T298 414ZM210
572Q190 572 182 575T173 586Q173 592 189 615L241 692Q249 705 262 711T310 718H338Q361 718 377 714T401 692L437 615Q442 605 444 599T447 588Q447 572 408 572Q380 572 368 579T347 597L315 636L275 597Q265 587 252 580T210 572Z" />
<glyph unicode="&#xeb;" horiz-adv-x="539" d="M308 531Q369 531 407 516T466 478T494 431T502 386Q502 336 483 301T432 245T362 213T287 203Q240 203 209 207T148 216L183 266V225Q183 178 196 153T233 118T288 109Q328 109 361 120T416 142T443 153Q446 153
448 151T451 139Q451 121 449 98T443 62Q437 41 417 28T371 7T317 -4T269 -8Q208 -8 164 7T90 51T47 120T33 212Q33 328 71 398T171 499T308 531ZM298 414Q252 414 227 382T190 302H238Q266 302 286 306T321 316T343 331T354 349T358 367Q358 392 341 403T298 414ZM401
581Q368 581 355 589T342 613L349 677Q351 694 366 701T414 709Q448 709 461 702T473 677L466 613Q465 597 449 589T401 581ZM219 581Q186 581 173 589T160 613L167 677Q169 694 184 701T232 709Q265 709 279 702T291 677L284 613Q283 597 267 589T219 581Z" />
<glyph unicode="&#xec;" horiz-adv-x="265" d="M150 -8Q92 -8 58 24T31 139L67 493Q70 525 130 525H158Q188 525 202 516T215 494L179 147Q177 126 184 118T208 109Q219 109 226 112T237 115Q245 115 245 103Q245 99 244 85T238 44Q233 16 205 4T150 -8ZM135 572Q112
572 95 579T64 602L33 641Q11 668 5 679T-2 698Q-2 709 9 713T53 718Q84 718 100 715T124 704T139 679L167 615Q172 605 174 599T177 587Q177 579 169 576T135 572Z" />
<glyph unicode="&#xed;" horiz-adv-x="265" d="M150 -8Q92 -8 58 24T31 139L67 493Q70 525 130 525H158Q188 525 202 516T215 494L179 147Q177 126 184 118T208 109Q219 109 226 112T237 115Q245 115 245 103Q245 99 244 85T238 44Q233 16 205 4T150 -8ZM114 572Q91
572 83 575T74 585Q74 592 78 598T90 615L135 682Q144 695 151 702T174 714T226 718Q255 718 266 715T277 703Q277 693 268 681T244 655L191 602Q175 586 160 579T114 572Z" />
<glyph unicode="&#xee;" horiz-adv-x="265" d="M150 -8Q92 -8 58 24T31 139L67 493Q70 525 130 525H158Q188 525 202 516T215 494L179 147Q177 126 184 118T208 109Q219 109 226 112T237 115Q245 115 245 103Q245 99 244 85T238 44Q233 16 205 4T150 -8ZM66 572Q46
572 38 575T29 586Q29 592 45 615L97 692Q105 705 118 711T166 718H194Q217 718 233 714T257 692L293 615Q298 605 300 599T303 588Q303 572 264 572Q236 572 224 579T203 597L171 636L131 597Q121 587 108 580T66 572Z" />
<glyph unicode="&#xef;" horiz-adv-x="265" d="M150 -8Q92 -8 58 24T31 139L67 493Q70 525 130 525H158Q188 525 202 516T215 494L179 147Q177 126 184 118T208 109Q219 109 226 112T237 115Q245 115 245 103Q245 99 244 85T238 44Q233 16 205 4T150 -8ZM275 581Q242
581 229 589T216 613L223 677Q225 694 240 701T288 709Q322 709 335 702T347 677L340 613Q339 597 323 589T275 581ZM93 581Q60 581 47 589T34 613L41 677Q43 694 58 701T106 709Q139 709 153 702T165 677L158 613Q157 597 141 589T93 581Z" />
<glyph unicode="&#xf0;" horiz-adv-x="569" d="M270 -8Q160 -8 100 53T40 236Q40 328 71 394T157 495T279 531Q316 531 346 520T395 473L380 477Q375 521 358 557T322 622T289 675Q282 687 282 695Q282 704 297 708Q309 711 332 713T367 715Q384 715 394 709T419
680Q477 595 504 499T531 307Q531 205 502 135T414 28T270 -8ZM279 109Q331 109 355 154T380 278Q380 345 361 379T298 414Q249 414 220 371T190 247Q190 174 214 142T279 109ZM277 581Q263 579 253 592T243 618Q243 631 251 634T266 639L501 670Q513 672 523 661T533
633Q533 619 525 616T511 612L277 581Z" />
<glyph unicode="&#xf1;" horiz-adv-x="557" d="M444 -8Q386 -8 352 24T325 139L345 349Q348 381 335 395T292 409Q273 409 256 400T226 376T204 348L172 30Q169 -2 109 -2H81Q51 -2 37 7T24 29L58 362Q60 379 61 398T62 428Q62 446 61 459T60 484Q60 495 75 503T117
515T176 520Q196 520 202 496T209 443Q209 429 208 416T206 395L190 423Q200 447 226 472T290 514T365 531Q432 531 467 498T495 384L473 147Q471 126 478 118T502 109Q513 109 520 112T531 115Q539 115 539 103Q539 99 538 85T532 44Q527 16 499 4T444 -8ZM170
585Q160 585 145 594T129 613Q129 616 130 622T135 635Q146 663 176 683T245 704Q269 704 291 698T333 685T371 678Q389 678 402 685T425 700T444 708Q454 708 469 697T485 674Q485 670 482 663T476 650Q466 631 437 609T366 586Q343 586 321 592T277 605T237 612Q219
612 207 606T187 592T170 585Z" />
<glyph unicode="&#xf2;" horiz-adv-x="569" d="M261 -8Q154 -8 97 51T39 216Q39 277 52 333T95 434T178 505T308 531Q415 531 472 472T530 306Q530 152 459 72T261 -8ZM273 109Q379 109 379 299Q379 354 358 384T296 414Q244 414 217 367T189 223Q189 169 211
139T273 109ZM322 572Q299 572 282 579T251 602L220 641Q198 668 192 679T185 698Q185 709 196 713T240 718Q271 718 287 715T311 704T326 679L354 615Q359 605 361 599T364 587Q364 579 356 576T322 572Z" />
<glyph unicode="&#xf3;" horiz-adv-x="569" d="M261 -8Q154 -8 97 51T39 216Q39 277 52 333T95 434T178 505T308 531Q415 531 472 472T530 306Q530 152 459 72T261 -8ZM273 109Q379 109 379 299Q379 354 358 384T296 414Q244 414 217 367T189 223Q189 169 211
139T273 109ZM258 572Q235 572 227 575T218 585Q218 592 222 598T234 615L279 682Q288 695 295 702T318 714T370 718Q399 718 410 715T421 703Q421 693 412 681T388 655L335 602Q319 586 304 579T258 572Z" />
<glyph unicode="&#xf4;" horiz-adv-x="569" d="M261 -8Q154 -8 97 51T39 216Q39 277 52 333T95 434T178 505T308 531Q415 531 472 472T530 306Q530 152 459 72T261 -8ZM273 109Q379 109 379 299Q379 354 358 384T296 414Q244 414 217 367T189 223Q189 169 211
139T273 109ZM200 572Q180 572 172 575T163 586Q163 592 179 615L231 692Q239 705 252 711T300 718H328Q351 718 367 714T391 692L427 615Q432 605 434 599T437 588Q437 572 398 572Q370 572 358 579T337 597L305 636L265 597Q255 587 242 580T200 572Z" />
<glyph unicode="&#xf5;" horiz-adv-x="569" d="M261 -8Q154 -8 97 51T39 216Q39 277 52 333T95 434T178 505T308 531Q415 531 472 472T530 306Q530 152 459 72T261 -8ZM273 109Q379 109 379 299Q379 354 358 384T296 414Q244 414 217 367T189 223Q189 169 211
139T273 109ZM170 585Q160 585 145 594T129 613Q129 616 130 622T135 635Q146 663 176 683T245 704Q269 704 291 698T333 685T371 678Q389 678 402 685T425 700T444 708Q454 708 469 697T485 674Q485 670 482 663T476 650Q466 631 437 609T366 586Q343 586 321
592T277 605T237 612Q219 612 207 606T187 592T170 585Z" />
<glyph unicode="&#xf6;" horiz-adv-x="569" d="M261 -8Q154 -8 97 51T39 216Q39 277 52 333T95 434T178 505T308 531Q415 531 472 472T530 306Q530 152 459 72T261 -8ZM273 109Q379 109 379 299Q379 354 358 384T296 414Q244 414 217 367T189 223Q189 169 211
139T273 109ZM391 581Q358 581 345 589T332 613L339 677Q341 694 356 701T404 709Q438 709 451 702T463 677L456 613Q455 597 439 589T391 581ZM209 581Q176 581 163 589T150 613L157 677Q159 694 174 701T222 709Q255 709 269 702T281 677L274 613Q273 597 257
589T209 581Z" />
<glyph unicode="&#xf7;" horiz-adv-x="560" d="M48 172Q34 172 29 183T26 218L28 239Q30 260 38 269T60 279H505Q519 279 524 269T527 237L525 216Q523 192 515 182T493 172H48ZM250 -2Q218 -2 206 6T193 30L200 101Q203 133 264 133H275Q307 133 319 125T331
101L324 30Q321 -2 261 -2H250ZM283 318Q249 318 238 326T227 350L234 421Q237 453 297 453H308Q340 453 352 445T365 421L358 350Q355 318 294 318H283Z" />
<glyph unicode="&#xf8;" horiz-adv-x="569" d="M71 -5Q63 -5 52 2T33 20T25 41Q25 51 35 61L463 525Q475 537 485 537Q493 537 504 529T524 511T532 491Q531 481 521 471L93 7Q82 -5 71 -5ZM261 -8Q154 -8 97 51T39 216Q39 277 52 333T95 434T178 505T308 531Q415
531 472 472T530 306Q530 152 459 72T261 -8ZM273 109Q379 109 379 299Q379 354 358 384T296 414Q244 414 217 367T189 223Q189 169 211 139T273 109Z" />
<glyph unicode="&#xf9;" horiz-adv-x="557" d="M160 -8Q93 -8 58 25T30 139L65 493Q68 525 128 525H156Q186 525 200 516T213 494L180 173Q177 142 190 128T233 114Q252 114 268 122T297 143T319 168L353 493Q356 525 416 525H444Q474 525 488 516T501 494L465
147Q463 126 470 118T494 109Q505 109 512 112T523 115Q531 115 531 103Q531 99 530 85T524 44Q519 16 491 4T436 -8Q378 -8 347 21T316 118L341 102Q328 77 301 52T237 9T160 -8ZM314 572Q291 572 274 579T243 602L212 641Q190 668 184 679T177 698Q177 709 188
713T232 718Q263 718 279 715T303 704T318 679L346 615Q351 605 353 599T356 587Q356 579 348 576T314 572Z" />
<glyph unicode="&#xfa;" horiz-adv-x="557" d="M160 -8Q93 -8 58 25T30 139L65 493Q68 525 128 525H156Q186 525 200 516T213 494L180 173Q177 142 190 128T233 114Q252 114 268 122T297 143T319 168L353 493Q356 525 416 525H444Q474 525 488 516T501 494L465
147Q463 126 470 118T494 109Q505 109 512 112T523 115Q531 115 531 103Q531 99 530 85T524 44Q519 16 491 4T436 -8Q378 -8 347 21T316 118L341 102Q328 77 301 52T237 9T160 -8ZM250 572Q227 572 219 575T210 585Q210 592 214 598T226 615L271 682Q280 695 287
702T310 714T362 718Q391 718 402 715T413 703Q413 693 404 681T380 655L327 602Q311 586 296 579T250 572Z" />
<glyph unicode="&#xfb;" horiz-adv-x="557" d="M160 -8Q93 -8 58 25T30 139L65 493Q68 525 128 525H156Q186 525 200 516T213 494L180 173Q177 142 190 128T233 114Q252 114 268 122T297 143T319 168L353 493Q356 525 416 525H444Q474 525 488 516T501 494L465
147Q463 126 470 118T494 109Q505 109 512 112T523 115Q531 115 531 103Q531 99 530 85T524 44Q519 16 491 4T436 -8Q378 -8 347 21T316 118L341 102Q328 77 301 52T237 9T160 -8ZM192 572Q172 572 164 575T155 586Q155 592 171 615L223 692Q231 705 244 711T292
718H320Q343 718 359 714T383 692L419 615Q424 605 426 599T429 588Q429 572 390 572Q362 572 350 579T329 597L297 636L257 597Q247 587 234 580T192 572Z" />
<glyph unicode="&#xfc;" horiz-adv-x="557" d="M160 -8Q93 -8 58 25T30 139L65 493Q68 525 128 525H156Q186 525 200 516T213 494L180 173Q177 142 190 128T233 114Q252 114 268 122T297 143T319 168L353 493Q356 525 416 525H444Q474 525 488 516T501 494L465
147Q463 126 470 118T494 109Q505 109 512 112T523 115Q531 115 531 103Q531 99 530 85T524 44Q519 16 491 4T436 -8Q378 -8 347 21T316 118L341 102Q328 77 301 52T237 9T160 -8ZM383 581Q350 581 337 589T324 613L331 677Q333 694 348 701T396 709Q430 709 443
702T455 677L448 613Q447 597 431 589T383 581ZM201 581Q168 581 155 589T142 613L149 677Q151 694 166 701T214 709Q247 709 261 702T273 677L266 613Q265 597 249 589T201 581Z" />
<glyph unicode="&#xfd;" horiz-adv-x="481" d="M115 -206Q57 -206 57 -186Q57 -177 63 -167L173 61L177 -141L32 473Q31 481 29 488T27 499Q27 511 39 518T87 525H123Q143 525 158 521T177 504L216 319Q220 302 224 266T232 198H236Q246 230 257 266T276 319L355
504Q360 516 375 520T413 525H437Q468 525 481 520T495 504Q495 497 490 485L190 -185Q185 -197 170 -201T132 -206H115ZM225 572Q202 572 194 575T185 585Q185 592 189 598T201 615L246 682Q255 695 262 702T285 714T337 718Q366 718 377 715T388 703Q388 693
379 681T355 655L302 602Q286 586 271 579T225 572Z" />
<glyph unicode="&#xfe;" horiz-adv-x="573" d="M96 -206Q66 -206 53 -197T39 -175L134 722Q137 754 197 754H225Q255 754 268 745T282 723L256 475Q278 500 308 515T376 531Q412 531 442 517T493 476T526 408T538 314Q538 218 510 146T432 33T316 -8Q281 -8 254
5T209 32L187 -174Q186 -190 170 -198T124 -206H96ZM282 109Q307 109 326 121T360 159T381 220T388 305Q388 340 381 363T358 398T320 410Q304 410 291 403T265 383T243 354L219 132Q231 122 247 116T282 109Z" />
<glyph unicode="&#xff;" horiz-adv-x="481" d="M115 -206Q57 -206 57 -186Q57 -177 63 -167L173 61L177 -141L32 473Q31 481 29 488T27 499Q27 511 39 518T87 525H123Q143 525 158 521T177 504L216 319Q220 302 224 266T232 198H236Q246 230 257 266T276 319L355
504Q360 516 375 520T413 525H437Q468 525 481 520T495 504Q495 497 490 485L190 -185Q185 -197 170 -201T132 -206H115ZM358 581Q325 581 312 589T299 613L306 677Q308 694 323 701T371 709Q405 709 418 702T430 677L423 613Q422 597 406 589T358 581ZM176 581Q143
581 130 589T117 613L124 677Q126 694 141 701T189 709Q222 709 236 702T248 677L241 613Q240 597 224 589T176 581Z" />
<glyph unicode="&#x2013;" horiz-adv-x="500" d="M60 212Q46 212 41 223T38 258L40 277Q42 298 50 308T72 319H442Q456 319 461 309T464 277L462 258Q460 234 452 223T430 212H60Z" />
<glyph unicode="&#x2014;" horiz-adv-x="1000" d="M70 212Q56 212 51 223T48 258L50 277Q52 298 60 308T82 319H932Q946 319 951 309T954 277L952 258Q950 234 942 223T920 212H70Z" />
<glyph unicode="&#x2018;" horiz-adv-x="212" d="M97 475Q67 475 54 486T41 515Q41 541 53 572T84 636T126 694T169 737T204 754Q217 754 231 750T246 734Q246 727 243 719T234 699Q222 674 205 633T180 519Q179 499 164 487T116 475H97Z" />
<glyph unicode="&#x2019;" horiz-adv-x="212" d="M81 475Q68 475 54 479T39 495Q39 504 44 515T56 540Q68 565 83 605T105 710Q107 730 122 742T169 754H188Q218 754 231 743T244 714Q244 689 232 657T201 593T159 535T116 492T81 475Z" />
<glyph unicode="&#x201a;" horiz-adv-x="198" d="M5 -171Q-8 -171 -22 -167T-37 -151Q-37 -142 -32 -131T-20 -106Q-8 -81 7 -41T29 64Q31 84 46 96T93 108H112Q142 108 155 97T168 68Q168 43 156 11T125 -53T83 -111T40 -154T5 -171Z" />
<glyph unicode="&#x201c;" horiz-adv-x="350" d="M260 475Q230 475 217 486T204 515Q204 541 216 572T247 636T289 694T332 737T367 754Q380 754 394 750T409 734Q409 727 406 719T397 699Q385 674 368 633T343 519Q342 499 327 487T279 475H260ZM83 475Q53 475
40 486T27 515Q27 541 39 572T70 636T112 694T155 737T190 754Q203 754 217 750T232 734Q232 727 229 719T220 699Q208 674 191 633T166 519Q165 499 150 487T102 475H83Z" />
<glyph unicode="&#x201d;" horiz-adv-x="350" d="M244 475Q231 475 217 479T202 495Q202 504 207 515T219 540Q231 565 246 605T268 710Q270 730 285 742T332 754H351Q381 754 394 743T407 714Q407 689 395 657T364 593T322 535T279 492T244 475ZM67 475Q54 475
40 479T25 495Q25 504 30 515T42 540Q54 565 69 605T91 710Q93 730 108 742T155 754H174Q204 754 217 743T230 714Q230 689 218 657T187 593T145 535T102 492T67 475Z" />
<glyph unicode="&#x201e;" horiz-adv-x="336" d="M173 -127Q160 -127 146 -123T131 -107Q131 -98 136 -87T148 -62Q160 -37 175 3T197 108Q199 128 214 140T261 152H280Q310 152 323 141T336 112Q336 87 324 55T293 -9T251 -67T208 -110T173 -127ZM-4 -127Q-17
-127 -31 -123T-46 -107Q-46 -98 -41 -87T-29 -62Q-17 -37 -2 3T20 108Q22 128 37 140T84 152H103Q133 152 146 141T159 112Q159 87 147 55T116 -9T74 -67T31 -110T-4 -127Z" />
<glyph unicode="&#x2022;" horiz-adv-x="336" d="M154 194Q102 194 68 228T34 313Q34 350 52 383T104 437T181 459Q232 459 266 425T301 340Q301 301 282 268T230 214T154 194Z" />
<glyph unicode="&#x2039;" horiz-adv-x="300" d="M174 46Q160 46 149 61L38 214Q32 222 28 232T23 252Q23 270 29 279T47 302L194 457Q202 465 209 468T223 471Q232 471 244 464T264 445T273 422Q273 416 270 410T261 398L137 258L232 112Q236 107 237 103T238
93Q238 83 228 72T202 54T174 46Z" />
<glyph unicode="&#x203a;" horiz-adv-x="300" d="M125 469Q140 469 150 454L261 301Q267 293 271 283T276 263Q276 245 270 236T252 213L105 58Q98 51 91 48T76 44Q67 44 56 51T35 70T26 93Q26 99 29 105T38 117L162 257L67 403Q63 408 62 413T61 422Q61 432 71
443T97 461T125 469Z" />
</font>
</defs>
</svg>
